<?xml version="1.0" standalone="no"?>
<!DOCTYPE svg PUBLIC "-//W3C//DTD SVG 1.1//EN" "http://www.w3.org/Graphics/SVG/1.1/DTD/svg11.dtd" >
<svg xmlns="http://www.w3.org/2000/svg" xmlns:xlink="http://www.w3.org/1999/xlink" version="1.1">
<metadata>
Created by FontForge 20170731 at Wed Feb 17 08:57:51 2021
 By Aleksey,,,
Copyright (c) 2012 by TypeTogether. All rights reserved.
</metadata>
<defs>
<font id="AbrilDisplay-Black" horiz-adv-x="1024" >
  <font-face 
    font-family="Abril Display BL"
    font-weight="900"
    font-stretch="normal"
    units-per-em="2048"
    panose-1="2 0 5 3 0 0 0 2 0 3"
    ascent="1536"
    descent="-512"
    x-height="975"
    cap-height="1434"
    bbox="-379 -764 4217 2173"
    underline-thickness="102"
    underline-position="-307"
    unicode-range="U+0020-FB06"
  />
<missing-glyph horiz-adv-x="409" 
 />
    <glyph glyph-name="ij" unicode="ij" horiz-adv-x="1269" 
d="M100 1284q0 91 53.5 148t172.5 57q104 0 161.5 -51.5t57.5 -149.5q0 -94 -54.5 -150.5t-168.5 -56.5q-65 0 -111 18.5t-69 50t-32.5 64t-9.5 70.5zM-8 975h551v-950h106v-25h-647v25h104v925h-114v25zM1184 975v-778q0 -351 -132.5 -530t-424.5 -179q-169 0 -254.5 67
t-85.5 166q0 93 56 143t144 50q84 0 127 -47.5t43 -120.5q0 -19 -12 -88h-92q-16 -30 -17.5 -61.5t19 -55.5t61.5 -24q68 0 100 73t32 267v1093h-105v25h541zM739 1284q0 91 53.5 148t172.5 57q104 0 161.5 -51.5t57.5 -149.5q0 -94 -54.5 -150.5t-168.5 -56.5
q-65 0 -111 18.5t-69 50t-32.5 64t-9.5 70.5z" />
    <glyph glyph-name="ff" unicode="ff" horiz-adv-x="1386" 
d="M1335 1556q-30 0 -51 -10.5t-34 -28.5t-19.5 -50t-9 -66.5t-2.5 -85.5v-340h274v-25h-274v-925h249v-25h-770v25h84v925h-233v-925h92v-25h-633v25h105v925h-111v25h111v8q0 272 135 412.5t393 142.5q180 0 277 -125q149 170 393 170q99 0 171 -22t108.5 -58t52.5 -73.5
t16 -77.5q0 -98 -51 -146.5t-133 -48.5q-89 0 -136 43.5t-47 114.5q0 37 19 96h84q18 34 19.5 66.5t-18.5 55.5t-61 23zM666 1511q-38 0 -61.5 -15t-35.5 -48t-16 -73.5t-4 -104.5v-295h233l31 158q-92 -7 -140 33t-48 112q0 38 16 88h84q15 31 16.5 63t-17 57t-58.5 25z
" />
    <glyph glyph-name="fi" unicode="fi" horiz-adv-x="1310" 
d="M754 1559q-118 0 -161.5 -67t-43.5 -224v-293h665v-950h105v-25h-627v25h90v925h-233v-925h90v-25h-639v25h113v925h-119v25h119v4q0 293 167.5 448.5t495.5 155.5q191 0 305.5 -74.5t114.5 -201.5q0 -99 -58.5 -149t-146.5 -50q-125 0 -175.5 81t-10.5 191l100 23
q13 45 6.5 75t-33 48t-57 25.5t-67.5 7.5z" />
    <glyph glyph-name="fl" unicode="fl" horiz-adv-x="1331" 
d="M666 1556q-38 0 -61.5 -15t-35.5 -48t-16 -73.5t-4 -104.5v-340h145v-25h-145v-925h90v-25h-631v25h105v925h-111v25h111v8q0 141 28.5 248.5t90 187.5t164.5 122t245 42q118 0 191.5 -47.5t107.5 -118.5l262 119h17v-1511h100v-25h-627v25h90v1022l39 135
q-94 -11 -145 31t-51 112q0 38 20 86h80q18 34 20 66.5t-18 55.5t-61 23z" />
    <glyph glyph-name="ffi" unicode="ffi" horiz-adv-x="1984" 
d="M1888 975v-950h107v-25h-627v25h84v925h-233v-925h90v-25h-619v25h92v925h-233v-925h92v-25h-633v25h105v925h-111v25h111v8q0 272 135 412.5t393 142.5q96 0 175 -40.5t124 -104.5q159 190 506 190q191 0 305.5 -74.5t114.5 -201.5q0 -99 -58.5 -149t-146.5 -50
q-125 0 -175.5 81t-10.5 191l100 23q12 45 6 75t-33 48t-57.5 25.5t-67.5 7.5q-117 0 -160.5 -67t-43.5 -224v-293h669zM666 1511q-38 0 -61.5 -15t-35.5 -48t-16 -73.5t-4 -104.5v-295h233l31 158q-92 -7 -140 33t-48 112q0 38 16 88h84q15 31 16.5 63t-17 57t-58.5 25z
" />
    <glyph glyph-name="ffl" unicode="ffl" horiz-adv-x="2000" 
d="M1335 1556q-30 0 -51 -10.5t-34 -28.5t-19.5 -50t-9 -66.5t-2.5 -85.5v-340h151v-25h-151v-925h92v-25h-613v25h84v925h-233v-925h92v-25h-633v25h105v925h-111v25h111v8q0 272 135 412.5t393 142.5q177 0 274 -125q119 170 396 170q118 0 191.5 -47.5t107.5 -118.5
l262 119h16v-1511h101v-25h-627v25h90v1022l39 135q-94 -11 -145.5 31t-51.5 112q0 35 21 86h80q18 34 19.5 66.5t-18.5 55.5t-61 23zM666 1511q-38 0 -61.5 -15t-35.5 -48t-16 -73.5t-4 -104.5v-295h233l31 158q-92 -7 -140 33t-48 112q0 38 16 88h84q15 31 16.5 63t-17 57
t-58.5 25z" />
    <glyph glyph-name="f_k" unicode="fk" horiz-adv-x="1966" 
d="M782 1047l39 135q-94 -11 -145 31t-51 112q0 38 20 86h80q18 34 20 66.5t-18 55.5t-61 23q-38 0 -61.5 -15t-35.5 -48t-16 -73.5t-4 -104.5v-340h145v-25h-145v-925h90v-25h-631v25h105v925h-111v25h111v8q0 141 28.5 248.5t90 187.5t164.5 122t245 42q118 0 191.5 -47.5
t107.5 -118.5l262 119h19v-999l24 10l496 403h-215v25h401v-25h-139l-219 -182l360 -743h66v-25h-617v25h88l-223 491l-22 -8v-483h86v-25h-629v25h104v1022z" />
    <glyph glyph-name="f_b" unicode="fb" horiz-adv-x="1867" 
d="M1219 827h2q66 168 254 168q171 0 266.5 -126.5t95.5 -383.5q0 -505 -407 -505q-98 0 -152.5 31.5t-79.5 92.5l-33 -104h-467v25h84v1022l39 135q-94 -11 -145 31t-51 112q0 38 20 86h80q18 34 20 66.5t-18 55.5t-61 23q-38 0 -61.5 -15t-35.5 -48t-16 -73.5t-4 -104.5
v-340h145v-25h-145v-925h90v-25h-631v25h105v925h-111v25h111v8q0 141 28.5 248.5t90 187.5t164.5 122t245 42q118 0 191.5 -47.5t107.5 -118.5l262 119h17v-709zM1327 907q-38 0 -72 -70t-34 -194v-416q0 -188 88 -188q53 0 64.5 58.5t10.5 233.5v79v188q0 209 -8 259
t-49 50z" />
    <glyph glyph-name="f_h" unicode="fh" horiz-adv-x="1908" 
d="M782 1047l39 135q-94 -11 -145 31t-51 112q0 38 20 86h80q18 34 20 66.5t-18 55.5t-61 23q-38 0 -61.5 -15t-35.5 -48t-16 -73.5t-4 -104.5v-340h145v-25h-145v-925h90v-25h-631v25h105v925h-111v25h111v8q0 141 28.5 248.5t90 187.5t164.5 122t245 42q118 0 191.5 -47.5
t107.5 -118.5l262 119h17v-733q30 89 95.5 140.5t190.5 51.5q310 0 310 -342v-628h106v-25h-594v25h49v772q0 48 -9 73t-36 25q-42 0 -76 -75t-34 -175v-620h55v-25h-578v25h84v1022z" />
    <glyph glyph-name="f_t" unicode="ft" horiz-adv-x="1460" 
d="M782 307v643h-233v-925h203v-25h-744v25h105v925h-111v25h111v37q0 165 55 293t165.5 203t262.5 75q146 0 217.5 -62t71.5 -141q0 -92 -51 -139t-132 -47q-73 0 -118.5 35.5t-50.5 88t24 114.5h80q18 32 21 59t-15 46t-59 19q-95 0 -150 -57t-55 -143q0 -65 41.5 -128
t128.5 -106v-147h233v166l437 102v-268h221v-25h-221v-714q0 -97 18 -139t68 -42q41 0 68.5 35.5t39.5 86.5t19 126l28 -2q-4 -57 -10.5 -94.5t-25 -84.5t-48.5 -75t-83.5 -47.5t-127.5 -19.5q-86 0 -150.5 14t-119.5 48.5t-84 101t-29 163.5z" />
    <glyph glyph-name="f_j" unicode="fj" horiz-adv-x="1302" 
d="M1219 975v-778q0 -351 -132.5 -530t-424.5 -179q-169 0 -254.5 67t-85.5 166q0 93 56 143t144 50q84 0 127 -47.5t43 -120.5q0 -19 -12 -88h-92q-16 -30 -17.5 -61.5t19 -55.5t61.5 -24q45 0 72 27.5t43 103.5t16 209v1093h-233v-925h90v-25h-639v25h113v925h-119v25h119
v4q0 293 167.5 448.5t495.5 155.5q191 0 305.5 -74.5t114.5 -201.5q0 -99 -58.5 -149t-146.5 -50q-125 0 -175.5 81t-10.5 191l100 23q13 45 6.5 75t-33 48t-57 25.5t-67.5 7.5q-118 0 -161.5 -67t-43.5 -224v-293h670z" />
    <glyph glyph-name="f_f_j" unicode="ffj" horiz-adv-x="1972" 
d="M1888 975v-778q0 -351 -132.5 -530t-424.5 -179q-169 0 -254.5 67t-85.5 166q0 93 56.5 143t144.5 50q84 0 127 -47.5t43 -120.5q0 -19 -12 -88h-93q-16 -30 -17.5 -62t19.5 -55.5t62 -23.5q45 0 72 27.5t43 103.5t16 209v1093h-233v-925h90v-25h-619v25h92v925h-233
v-925h92v-25h-633v25h105v925h-111v25h111v8q0 272 135 412.5t393 142.5q96 0 175 -40.5t124 -104.5q159 190 506 190q191 0 305.5 -74.5t114.5 -201.5q0 -99 -58.5 -149t-146.5 -50q-125 0 -175.5 81t-10.5 191l100 23q12 45 6 75t-33 48t-57.5 25.5t-67.5 7.5
q-117 0 -160.5 -67t-43.5 -224v-293h669zM666 1511q-38 0 -61.5 -15t-35.5 -48t-16 -73.5t-4 -104.5v-295h233l31 158q-92 -7 -140 33t-48 112q0 38 16 88h84q15 31 16.5 63t-17 57t-58.5 25z" />
    <glyph glyph-name="f_f_k" unicode="ffk" horiz-adv-x="2635" 
d="M1335 1556q-30 0 -51 -10.5t-34 -28.5t-19.5 -50t-9 -66.5t-2.5 -85.5v-340h151v-25h-151v-925h92v-25h-613v25h84v925h-233v-925h92v-25h-633v25h105v925h-111v25h111v8q0 272 135 412.5t393 142.5q177 0 274 -125q119 170 396 170q118 0 191.5 -47.5t107.5 -118.5
l262 119h16v-997l2 -2l25 10l495 403h-215v25h402v-25h-139l-220 -182l361 -743h65v-25h-616v25h88l-223 491l-23 -8v-483h86v-25h-628v25h104v1022l39 135q-94 -11 -145.5 31t-51.5 112q0 35 21 86h80q18 34 19.5 66.5t-18.5 55.5t-61 23zM666 1511q-38 0 -61.5 -15
t-35.5 -48t-16 -73.5t-4 -104.5v-295h233l31 158q-92 -7 -140 33t-48 112q0 38 16 88h84q15 31 16.5 63t-17 57t-58.5 25z" />
    <glyph glyph-name="f_f_b" unicode="ffb" horiz-adv-x="2537" 
d="M1335 1556q-30 0 -51 -10.5t-34 -28.5t-19.5 -50t-9 -66.5t-2.5 -85.5v-340h151v-25h-151v-925h92v-25h-613v25h84v925h-233v-925h92v-25h-633v25h105v925h-111v25h111v8q0 272 135 412.5t393 142.5q177 0 274 -125q119 170 396 170q118 0 191.5 -47.5t107.5 -118.5
l262 119h16v-709h2q66 168 254 168q171 0 267 -126.5t96 -383.5q0 -505 -408 -505q-98 0 -152 31.5t-79 92.5l-33 -104h-467v25h84v1022l39 135q-94 -11 -145.5 31t-51.5 112q0 35 21 86h80q18 34 19.5 66.5t-18.5 55.5t-61 23zM1997 907q-38 0 -72.5 -70.5t-34.5 -193.5
v-416q0 -188 88 -188q54 0 65.5 59.5t10.5 238.5v73v188q0 209 -8 259t-49 50zM666 1511q-38 0 -61.5 -15t-35.5 -48t-16 -73.5t-4 -104.5v-295h233l31 158q-92 -7 -140 33t-48 112q0 38 16 88h84q15 31 16.5 63t-17 57t-58.5 25z" />
    <glyph glyph-name="f_f_h" unicode="ffh" horiz-adv-x="2578" 
d="M1335 1556q-30 0 -51 -10.5t-34 -28.5t-19.5 -50t-9 -66.5t-2.5 -85.5v-340h151v-25h-151v-925h92v-25h-613v25h84v925h-233v-925h92v-25h-633v25h105v925h-111v25h111v8q0 272 135 412.5t393 142.5q177 0 274 -125q119 170 396 170q118 0 191.5 -47.5t107.5 -118.5
l262 119h16v-733q30 89 96 140.5t191 51.5q309 0 309 -342v-628h107v-25h-594v25h49v772q0 48 -9 73t-36 25q-42 0 -76.5 -75.5t-34.5 -174.5v-620h56v-25h-578v25h84v1022l39 135q-94 -11 -145.5 31t-51.5 112q0 35 21 86h80q18 34 19.5 66.5t-18.5 55.5t-61 23zM666 1511
q-38 0 -61.5 -15t-35.5 -48t-16 -73.5t-4 -104.5v-295h233l31 158q-92 -7 -140 33t-48 112q0 38 16 88h84q15 31 16.5 63t-17 57t-58.5 25z" />
    <glyph glyph-name="f_f_t" unicode="fft" horiz-adv-x="2129" 
d="M1452 307v643h-233v-925h208v-25h-729v25h84v925h-233v-925h92v-25h-633v25h105v925h-111v25h111v8q0 272 135 412.5t393 142.5q94 0 166 -36.5t117 -92.5q126 174 342 174q146 0 217 -62t71 -141q0 -92 -50.5 -139t-131.5 -47q-73 0 -118.5 35.5t-50.5 88t24 114.5h80
q17 32 20 59t-15 46t-59 19q-95 0 -149.5 -57t-54.5 -143q0 -65 41.5 -128t128.5 -106v-147h233v160l436 102v-262h221v-25h-221v-714q0 -97 18 -139t68 -42q41 0 68.5 35.5t39.5 86.5t19 126l29 -2q-4 -57 -10.5 -94.5t-25 -84.5t-48.5 -75t-83.5 -47.5t-127.5 -19.5
q-86 0 -150.5 14t-119.5 48.5t-84 101t-29 163.5zM666 1511q-38 0 -61.5 -15t-35.5 -48t-16 -73.5t-4 -104.5v-295h233l31 158q-92 -7 -140 33t-48 112q0 38 16 88h84q15 31 16.5 63t-17 57t-58.5 25z" />
    <glyph glyph-name="f_iacute" unicode="f&#xed;" horiz-adv-x="1310" 
d="M565 1561q-73 0 -129.5 -54.5t-56.5 -144.5q0 -158 170 -242v-145h665v-950h107v-25h-629v25h105v925h-248v-925h84v-25h-625v25h105v925h-111v25h111v8q0 278 126 439t359 161q79 0 138.5 -20t90.5 -53t45.5 -68t14.5 -72q0 -82 -50.5 -133t-129.5 -51q-47 0 -82 13.5
t-55 37.5t-29.5 55t-6.5 66t17 72h84q64 131 -70 131zM926 1104l121 401l96 17q81 18 121.5 -17.5t40.5 -87.5q0 -61 -64 -117l-301 -208z" />
    <glyph glyph-name="t_t" unicode="tt" horiz-adv-x="1456" 
d="M104 307v643h-104v25h104v264l437 102v-366h237v264l436 102v-366h222v-25h-222v-714q0 -97 18 -139t68 -42q41 0 68.5 35.5t39.5 86.5t19 126l29 -2q-4 -57 -10.5 -94.5t-25 -84.5t-48.5 -75t-83.5 -47.5t-127.5 -19.5q-73 0 -129 9.5t-107 32.5t-85 67t-49 108
q-26 -101 -96 -159t-208 -58q-86 0 -150.5 14t-119.5 48.5t-84 101t-29 163.5zM778 307v643h-237v-714q0 -97 18 -139t68 -42q62 0 101.5 70.5t49.5 177.5v4z" />
    <glyph glyph-name=".notdef" horiz-adv-x="409" 
 />
    <glyph glyph-name=".null" horiz-adv-x="0" 
 />
    <glyph glyph-name="nonmarkingreturn" horiz-adv-x="682" 
 />
    <glyph glyph-name="space" unicode=" " horiz-adv-x="327" 
 />
    <glyph glyph-name="exclam" unicode="!" horiz-adv-x="772" 
d="M373 365v172q0 103 -23.5 214.5t-51.5 191.5t-51.5 174.5t-23.5 166.5q0 50 15.5 85.5t42 53.5t55 25.5t61.5 7.5q164 0 164 -172q0 -77 -24.5 -172t-54.5 -173.5t-54.5 -189t-24.5 -214.5v-170h-30zM221 137q0 70 42.5 116t115.5 46q75 0 119.5 -38.5t44.5 -119.5
q0 -73 -41.5 -117t-116.5 -44q-85 0 -124.5 46t-39.5 111z" />
    <glyph glyph-name="quotedbl" unicode="&#x22;" horiz-adv-x="657" 
d="M166 965l-76 567q88 37 139 37q32 0 52 -20.5t20 -57.5q0 -49 -22 -143l-91 -383h-22zM469 965l-76 567q88 37 139 37q32 0 52 -20.5t20 -57.5q0 -49 -22 -143l-90 -383h-23z" />
    <glyph glyph-name="numbersign" unicode="#" horiz-adv-x="1251" 
d="M324 0h-27l63 395h-245l45 271h239l47 247h-245l41 273h239l47 303h29l-49 -303h377l47 303h26l-49 -303h269l-41 -273h-263l-43 -247h263l-39 -271h-260l-66 -395h-24l65 395h-381zM850 913h-377l-47 -247h381z" />
    <glyph glyph-name="dollar" unicode="$" horiz-adv-x="1157" 
d="M479 -145v129q-62 8 -150.5 27.5t-107.5 19.5q-23 0 -36 -14.5t-25 -45.5h-17l-18 480h22q65 -119 151.5 -226.5t180.5 -165.5v445q-81 28 -140.5 63t-109 89.5t-75 135.5t-25.5 187q0 158 92.5 279t257.5 151v168h53v-162q6 0 22 1t24 1q48 0 84 -8v168h53v-174
q38 -7 108 -26t97 -19q25 0 37 9.5t20 31.5h10l17 -410h-23q-48 78 -79.5 125.5t-84.5 111.5t-102 101v-414q63 -21 110.5 -42.5t99 -58.5t84.5 -83t54.5 -115.5t21.5 -154.5q0 -197 -100 -324.5t-270 -157.5v-122h-53v118q-12 -2 -35 -2q-51 0 -95 9v-125h-53zM651 2h11
v438q-38 16 -130 45v-452q57 -31 119 -31zM647 936l15 -4v428q-54 31 -115 31q-13 0 -15 -2v-420q89 -27 115 -33zM877 205q0 70 -40 121t-122 94v-412q69 15 115.5 64.5t46.5 132.5zM324 1184q0 -72 38.5 -116t116.5 -77v391q-69 -21 -112 -73.5t-43 -124.5z" />
    <glyph glyph-name="percent" unicode="%" horiz-adv-x="1576" 
d="M322 1227v-232q0 -110 16 -156t72 -46q24 0 40.5 11t26 28t14.5 48t6 59.5t1 74.5v213q0 52 -2.5 84t-11 61t-26.5 42t-46 13q-57 0 -73.5 -44.5t-16.5 -155.5zM49 1100q0 155 98.5 255.5t266.5 100.5q169 0 260.5 -88.5t91.5 -251.5q0 -159 -102 -255.5t-261 -96.5
q-168 0 -261 96t-93 240zM1090 442v-231q0 -56 2.5 -88.5t11.5 -61.5t27 -41t47 -12q24 0 40.5 11t26 28t14.5 48t6 59.5t1 74.5v213q0 52 -2.5 84t-11 61.5t-26.5 42.5t-46 13q-57 0 -73.5 -45t-16.5 -156zM817 315q0 155 98.5 256t266.5 101q169 0 260.5 -88.5
t91.5 -251.5q0 -159 -102 -255.5t-261 -96.5q-168 0 -261 95.5t-93 239.5zM317 0l863 1434h82l-861 -1434h-84z" />
    <glyph glyph-name="ampersand" unicode="&#x26;" horiz-adv-x="1708" 
d="M1065 -498q186 0 186 330q0 100 -30 173t-84 140q-36 -37 -67 -61.5t-80 -51t-116 -39.5t-151 -13q-604 0 -604 362q0 135 89.5 216t274.5 93q-128 99 -185.5 191t-57.5 202q0 84 28 153.5t76.5 117t115 79.5t142 47t158.5 15q220 0 329 -73t109 -193q0 -108 -76 -174
t-254 -125q338 -228 467 -342q23 106 23 289h-168v30h356v-30h-155q3 -200 -27 -314q114 -107 162.5 -196t48.5 -230q0 -122 -49 -239.5t-127 -202t-178.5 -136.5t-200.5 -52q-137 0 -214 55t-77 158q0 76 51 126t129 50q85 0 130.5 -41t45.5 -117q0 -31 -12 -74h-80
q-11 -33 -13 -60t19 -45t66 -18zM786 12q107 0 190.5 46.5t135.5 113.5q-72 75 -308 238.5t-300 220.5q-15 -59 -15 -213q0 -220 77.5 -313t219.5 -93zM592 1229q0 -71 30 -126.5t80.5 -97t143.5 -98.5q43 32 58.5 86.5t15.5 151.5v84q0 103 -37.5 154t-122.5 51
q-76 0 -122 -54.5t-46 -150.5z" />
    <glyph glyph-name="quotesingle" unicode="'" horiz-adv-x="366" 
d="M170 965l-76 567q88 37 139 37q32 0 52 -20.5t20 -57.5q0 -49 -22 -143l-90 -383h-23z" />
    <glyph glyph-name="parenleft" unicode="(" horiz-adv-x="724" 
d="M100 625q0 142 26.5 279t83 261.5t136 219.5t192.5 151.5t246 58.5v-24q-44 0 -79 -11t-59.5 -38.5t-42 -53t-28.5 -79t-17.5 -90t-9 -112t-3 -120t-0.5 -137.5v-23v-602v-47q0 -94 1 -142t7 -127t21 -121t40 -88t67.5 -65.5t100.5 -19.5l2 -19q-136 -4 -250.5 50
t-193.5 147t-134 217.5t-80.5 259.5t-25.5 275z" />
    <glyph glyph-name="parenright" unicode=")" horiz-adv-x="724" 
d="M627 633q0 -142 -26.5 -279t-83 -262t-136 -219.5t-192.5 -151.5t-246 -59v25q44 0 79 11t59.5 38.5t42 53t28.5 78.5t17.5 89.5t9 112t3 120t0.5 137.5v23v602v47q0 80 -0.5 121.5t-4.5 112t-12.5 108.5t-25.5 87.5t-42 74.5t-63.5 42.5t-88.5 17.5l-2 18
q136 4 250.5 -49.5t193.5 -147t134 -217.5t80.5 -259t25.5 -275z" />
    <glyph glyph-name="asterisk" unicode="*" horiz-adv-x="1099" 
d="M977 1233l-410 -59l301 -78q25 -6 39.5 -11t35 -16.5t30.5 -30t10 -43.5q0 -57 -42.5 -98t-106.5 -66l-275 324l103 -416q-71 -57 -144 -57q-46 0 -76 24t-30 64q0 47 20 104l98 285l-264 -328q-60 22 -104.5 64.5t-44.5 99.5q0 31 20 52.5t38.5 28.5t68.5 22q8 3 12 4
l256 72l-389 59q-8 36 -8 84q0 50 27 95.5t79 45.5q22 0 41 -9.5t31 -20.5t45 -44l194 -198l-100 383q71 55 143 55q48 0 80.5 -23t32.5 -63q0 -50 -35 -129l-98 -221l203 201q35 35 62.5 52t58.5 17q50 0 78 -41t28 -100q0 -48 -8 -84z" />
    <glyph glyph-name="plus" unicode="+" horiz-adv-x="1052" 
d="M991 621h-434v-433h-74v433h-422v61h422v403h74v-403h434v-61z" />
    <glyph glyph-name="comma" unicode="," horiz-adv-x="540" 
d="M174 -319l-18 24q73 58 120 106t67 84.5t26 60t6 50.5q0 49 -22.5 71.5t-51.5 26.5l-108 -96q-49 18 -88 61t-39 103q0 76 49.5 125t132.5 49q93 0 148 -65.5t55 -165.5q0 -124 -65 -226t-212 -208z" />
    <glyph glyph-name="hyphen" unicode="-" horiz-adv-x="743" 
d="M109 598v33h526v-33h-526z" />
    <glyph glyph-name="period" unicode="." horiz-adv-x="542" 
d="M86 162q0 81 48 133.5t134 52.5q88 0 138.5 -44.5t50.5 -135.5q0 -85 -48 -136.5t-135 -51.5q-97 0 -142.5 54.5t-45.5 127.5z" />
    <glyph glyph-name="slash" unicode="/" horiz-adv-x="718" 
d="M37 -199l604 1827h61l-602 -1827h-63z" />
    <glyph glyph-name="zero" unicode="0" horiz-adv-x="1380" 
d="M61 719q0 196 45 340t130.5 230t198 126.5t257.5 40.5q146 0 258.5 -40t196.5 -125.5t128 -229.5t44 -342t-45 -342.5t-129.5 -230t-196.5 -126t-256 -40.5q-131 0 -236.5 36t-178.5 100.5t-122 157.5t-71.5 203.5t-22.5 241.5zM520 999v-546q0 -96 1 -145t6 -110t16 -89
t30 -56t48 -37.5t71 -9.5q43 0 72.5 11t48.5 44t29.5 62t15 99t5.5 117.5t1 153.5v5.5v5.5v485q0 90 -2 147t-8 111.5t-17.5 85t-30.5 55t-47 33.5t-67 9q-31 0 -55 -5.5t-42 -20.5t-30.5 -31t-21 -47.5t-13 -59t-7 -76t-3 -87t-0.5 -104.5z" />
    <glyph glyph-name="one" unicode="1" horiz-adv-x="876" 
d="M248 1395l-221 -31v27l471 65h186v-1431h150v-25h-799v25h213v1370z" />
    <glyph glyph-name="two" unicode="2" horiz-adv-x="1150" 
d="M547 1456q512 0 512 -354q0 -64 -13.5 -114t-48.5 -97t-75.5 -84.5t-115 -89.5t-145.5 -97.5t-189 -123.5t-224 -154h520q76 0 129 18t86 54.5t51 81t31 108.5h25l-23 -604h-983v266l184 158q107 93 175.5 165t124.5 157t81 178t25 204q0 170 -35 236t-135 66
q-91 0 -137.5 -61.5t-16.5 -156.5h84q17 -46 17 -90q0 -74 -56 -123t-135 -49q-96 0 -145 57.5t-49 141.5q0 63 26.5 116.5t81.5 97t150.5 68.5t222.5 25z" />
    <glyph glyph-name="three" unicode="3" horiz-adv-x="1202" 
d="M571 1456q139 0 238 -22t155.5 -65t81.5 -98t25 -128q0 -286 -465 -350v-7q268 -14 402.5 -116.5t134.5 -263.5q0 -197 -160.5 -311.5t-452.5 -114.5q-81 0 -156 14t-147.5 46t-116.5 94.5t-44 148.5q0 95 52.5 155t151.5 60q82 0 132.5 -46t50.5 -122q0 -58 -19 -109
h-92q-42 -92 8.5 -155.5t159.5 -63.5q52 0 89 19t58 50t33 84.5t15.5 108t3.5 135.5q0 159 -38 241.5t-114 121.5q-88 -19 -174 -27l-4 25q64 6 106 16t73.5 29.5t49 43t27.5 66.5t13 89.5t3 121.5q0 74 -5.5 124.5t-19.5 95t-43 66.5t-73 22q-89 0 -130 -67.5t-5 -166.5h82
q16 -43 16 -92q0 -77 -52 -123.5t-136 -46.5q-99 0 -151 58.5t-52 142.5q0 63 29.5 119t87 101t153.5 71t219 26z" />
    <glyph glyph-name="four" unicode="4" horiz-adv-x="1253" 
d="M360 0v27h193v340h-551v24l573 1043h388v-1037h211v197h30v-379h-30v152h-211v-340h141v-27h-744zM47 397h506v914z" />
    <glyph glyph-name="five" unicode="5" horiz-adv-x="1116" 
d="M438 846q-130 0 -270 -86l-23 12v639l33 25q122 -18 390 -45t315 -27q34 0 52 19.5t30 66.5l22 -2q-15 -176 -35 -269t-46 -126t-68 -33q-16 0 -37 3.5t-37 7t-47.5 11t-48.5 11.5l-484 118l-8 -378q163 86 338 86q125 0 221.5 -24.5t157 -64.5t99.5 -96.5t54 -115.5
t15 -127q0 -220 -160.5 -345.5t-445.5 -125.5q-50 0 -102.5 7.5t-112.5 29.5t-106 54.5t-76.5 88.5t-30.5 127q0 92 51 151.5t149 59.5q85 0 136 -42.5t51 -125.5q0 -58 -21 -115h-92q-12 -34 -12 -72q0 -19 6 -40t21.5 -45.5t49.5 -40t83 -15.5q37 0 64 10t44.5 32t28 48
t16 69t7 82t1.5 99v174q0 55 -1 88t-4.5 72.5t-10.5 62t-19.5 46t-31 35t-44.5 19t-61 7.5z" />
    <glyph glyph-name="six" unicode="6" horiz-adv-x="1304" 
d="M66 631q0 395 183 610t503 215q226 0 343 -81t117 -222q0 -83 -53 -144t-149 -61q-80 0 -133.5 48t-53.5 122q0 52 19 101h88q15 40 16.5 76.5t-12 68t-50 50t-93.5 18.5q-148 0 -215 -163.5t-70 -543.5q40 86 122 136t206 50q190 0 308 -108.5t118 -310.5
q0 -236 -159.5 -374t-424.5 -138q-296 0 -453 159t-157 492zM524 668q-14 -66 -14 -207v-76q0 -61 1 -98t4 -82t9.5 -71.5t17.5 -54t27.5 -41.5t40 -23t54.5 -9q38 0 66 12t45 43.5t26.5 59.5t13.5 88t5 99t1 120v14v154q0 146 -20.5 200t-93.5 54q-70 0 -115.5 -50.5
t-67.5 -131.5z" />
    <glyph glyph-name="seven" unicode="7" horiz-adv-x="1064" 
d="M236 184q0 67 28.5 126.5t116 165.5t285.5 319l274 295h-553q-101 0 -149 -15t-73.5 -56.5t-43.5 -135.5h-21l25 551h911v-252l-157 -264q-152 -255 -215.5 -377t-81 -183.5t-17.5 -144.5q0 -106 64 -195l-6 -12q-66 -29 -138 -29q-100 0 -174.5 52.5t-74.5 154.5z" />
    <glyph glyph-name="eight" unicode="8" horiz-adv-x="1280" 
d="M537 754q-210 7 -331.5 96t-121.5 229q0 174 141.5 275.5t421.5 101.5q277 0 414 -93.5t137 -266.5q0 -144 -116.5 -236.5t-323.5 -105.5v-6q240 -18 357.5 -115.5t117.5 -259.5q0 -198 -140 -295.5t-446 -97.5q-309 0 -454.5 99t-145.5 292q0 167 124 265.5t366 111.5v6
zM647 737q-90 0 -125 -65t-35 -207v-170q0 -155 32.5 -222t127.5 -67q93 0 124.5 66t31.5 223v176q0 138 -34.5 202t-121.5 64zM524 1169v-163q0 -55 2 -87.5t9 -66t20.5 -50.5t37.5 -27.5t60 -10.5q31 0 52 9.5t33.5 25.5t19 45.5t8.5 59.5t2 77v172q0 53 -1 83t-4.5 67
t-11 56t-21 37.5t-34 26t-49.5 7.5q-33 0 -55.5 -12t-36 -31.5t-20.5 -54.5t-9 -71t-2 -92z" />
    <glyph glyph-name="nine" unicode="9" horiz-adv-x="1304" 
d="M1239 805q0 -395 -183 -610t-503 -215q-226 0 -343.5 81.5t-117.5 221.5q0 83 53.5 143.5t149.5 60.5q80 0 133 -48t53 -122q0 -53 -18 -100h-92q-15 -36 -15.5 -72.5t14.5 -68.5t55 -52t101 -20q139 0 204.5 164.5t68.5 542.5q-41 -87 -123 -137t-205 -50
q-191 0 -308.5 110.5t-117.5 321.5q0 240 158 370t426 130q301 0 455.5 -158t154.5 -493zM780 768q15 71 15 207v76q0 61 -1 98t-4 82t-9.5 71.5t-17.5 54t-27.5 41.5t-40 23t-54.5 9q-39 0 -66.5 -12t-44.5 -44.5t-27 -60.5t-14 -89t-5 -100t-1 -122v-9v-153q0 -59 2 -95.5
t8.5 -70t19 -51t33.5 -27.5t52 -10q70 0 115 50t67 132z" />
    <glyph glyph-name="colon" unicode=":" horiz-adv-x="542" 
d="M86 162q0 81 48 133.5t134 52.5q88 0 138.5 -44.5t50.5 -135.5q0 -85 -48 -136.5t-135 -51.5q-97 0 -142.5 54.5t-45.5 127.5zM86 840q0 81 48 133.5t134 52.5q88 0 138.5 -44.5t50.5 -135.5q0 -85 -48 -137t-135 -52q-50 0 -88 16.5t-59 44t-31 58t-10 64.5z" />
    <glyph glyph-name="semicolon" unicode=";" horiz-adv-x="540" 
d="M174 -319l-18 24q73 58 120 106t67 84.5t26 60t6 50.5q0 49 -22.5 71.5t-51.5 26.5l-108 -96q-49 18 -88 61t-39 103q0 76 49.5 125t132.5 49q93 0 148 -65.5t55 -165.5q0 -124 -65 -226t-212 -208zM63 840q0 81 48.5 133.5t134.5 52.5q87 0 137.5 -44t50.5 -136
q0 -86 -47.5 -137.5t-134.5 -51.5q-97 0 -143 55t-46 128z" />
    <glyph glyph-name="less" unicode="&#x3c;" horiz-adv-x="1052" 
d="M989 176l-926 399v50l926 393v-68l-819 -348l819 -354v-72z" />
    <glyph glyph-name="equal" unicode="=" horiz-adv-x="1052" 
d="M991 393h-930v64h930v-64zM61 776h930v-63h-930v63z" />
    <glyph glyph-name="greater" unicode="&#x3e;" horiz-adv-x="1052" 
d="M63 1018l926 -404v-51l-926 -387v64l820 352l-820 352v74z" />
    <glyph glyph-name="question" unicode="?" horiz-adv-x="1214" 
d="M602 1456q234 0 357.5 -85t123.5 -259q0 -63 -17.5 -120t-50.5 -105t-67 -84.5t-82 -77.5l-340 -293v-78h-26v447q0 35 22 57l121 121q63 63 84 109.5t21 134.5q0 102 -41 152t-132 50q-47 0 -82 -16t-53 -42.5t-26 -54t-8 -55.5q0 -30 14 -65h74q16 -43 16 -94
q0 -75 -55 -121.5t-138 -46.5q-98 0 -147 57.5t-49 142.5q0 66 28.5 123t85 103.5t151 73t216.5 26.5zM362 137q0 70 43 116t117 46t118 -38.5t44 -119.5q0 -73 -42 -117t-116 -44q-85 0 -124.5 46t-39.5 111z" />
    <glyph glyph-name="at" unicode="@" horiz-adv-x="1812" 
d="M885 809q62 0 99.5 -21t72.5 -59l39 66h243l-65 -373q-25 -154 -25 -217q0 -43 3.5 -68.5t15.5 -51t39.5 -37t72.5 -11.5q35 0 76.5 29t81 82t66 143.5t26.5 197.5q0 313 -171.5 482.5t-512.5 169.5q-147 0 -282.5 -53t-242 -151t-170 -250.5t-63.5 -336.5
q0 -150 44.5 -269.5t118.5 -197.5t175.5 -129.5t210 -73.5t228.5 -22q143 0 271 50t212 126l20 -27q-86 -81 -227 -131.5t-270 -50.5q-134 0 -254.5 26.5t-225.5 83.5t-181 140t-119.5 203t-43.5 266q0 238 103 426.5t289.5 294.5t423.5 106q208 0 365.5 -76t247 -226
t89.5 -357q0 -266 -106.5 -396t-305.5 -130q-128 0 -190 39.5t-94 107.5q-58 -143 -181 -143q-161 0 -238 93t-77 239q0 102 25 185.5t66 138.5t95.5 92.5t111 54t114.5 16.5zM979 262l70 451q-58 67 -111 67t-93 -46t-62 -124t-33.5 -153.5t-16.5 -161.5q0 -6 -1 -20
q-5 -34 -3 -78t7.5 -83.5t28.5 -66.5t62 -27q49 0 92 64.5t60 177.5z" />
    <glyph glyph-name="A" unicode="A" horiz-adv-x="1376" 
d="M819 25l-153 462h-377l-164 -462h147v-25h-270v25h84l508 1421h201l503 -1421h78v-25h-692v25h135zM485 1047l-188 -529h358z" />
    <glyph glyph-name="B" unicode="B" horiz-adv-x="1296" 
d="M6 1434h631q283 0 423 -76t140 -258q0 -144 -102 -229t-281 -107v-8q224 -12 337.5 -104t113.5 -253q0 -114 -45.5 -193.5t-133.5 -123.5t-199.5 -63t-262.5 -19h-621v27h121v1380h-121v27zM573 731v-704h78q38 0 65.5 16t43.5 41.5t25 67.5t11.5 83.5t2.5 100.5v131
q0 73 -6.5 116.5t-27 80t-62 52t-107.5 15.5h-23zM573 1407v-645h37q32 0 55.5 8.5t38 29t23 41t12.5 58t5 66.5t1 79v140q0 127 -24 175t-98 48h-50z" />
    <glyph glyph-name="C" unicode="C" horiz-adv-x="1333" 
d="M766 1436q-117 0 -179.5 -137.5t-62.5 -411.5v-355q0 -528 256 -528q62 0 130 46t129.5 122.5t109.5 150t90 152.5h16l-18 -473h-12q-25 41 -66 41q-27 0 -94 -18q-170 -45 -295 -45q-343 0 -528 179.5t-185 534.5q0 367 191.5 564.5t521.5 197.5q125 0 277 -45
q59 -18 92 -18q24 0 35.5 9t25.5 32h19l16 -449h-21q-102 196 -222.5 323.5t-225.5 127.5z" />
    <glyph glyph-name="D" unicode="D" horiz-adv-x="1480" 
d="M1417 741q0 -170 -39.5 -299t-109.5 -212t-174.5 -135t-224.5 -73.5t-271 -21.5h-594v27h123v1380h-123v27h645q191 0 330.5 -37t239.5 -118t149 -215t49 -323zM571 27h60q172 0 244.5 139.5t72.5 456.5v211q0 144 -11 241t-34 163.5t-65 102.5t-97 51t-137 15h-33v-1380
z" />
    <glyph glyph-name="E" unicode="E" horiz-adv-x="1222" 
d="M18 1434h1049l18 -410h-20q-98 192 -207 287.5t-266 95.5h-17v-662h25q112 0 186 79.5t103 199.5h16v-606h-16q-37 146 -114.5 220.5t-174.5 74.5h-25v-686h37q89 0 177.5 41.5t155.5 106t116.5 136.5t73.5 140h20l-16 -451h-1121v27h109v1380h-109v27z" />
    <glyph glyph-name="F" unicode="F" horiz-adv-x="1157" 
d="M18 1434h1063l21 -433h-19q-44 104 -85.5 173.5t-98 125t-130 81.5t-169.5 26h-25v-698h29q107 0 194 79.5t115 198.5h19v-606h-21q-35 150 -115.5 223.5t-189.5 73.5h-31v-651h242v-27h-799v27h109v1380h-109v27z" />
    <glyph glyph-name="G" unicode="G" horiz-adv-x="1411" 
d="M758 4q70 0 93 26t23 85q0 42 -2 67v447h-116v28h606v-28h-64v-627h-16q-24 29 -46.5 40t-61.5 11q-52 0 -154 -28q-171 -45 -275 -45q-331 0 -513.5 180.5t-182.5 535.5q0 365 188 562.5t508 197.5q137 0 302 -45q67 -18 92 -18q16 0 25.5 9t25.5 32h18l19 -449h-21
q-56 88 -91 140t-86 119.5t-89 103.5t-84 62t-88 26q-252 0 -252 -525v-383q0 -246 58.5 -385t183.5 -139z" />
    <glyph glyph-name="H" unicode="H" horiz-adv-x="1468" 
d="M18 1434h662v-27h-105v-653h318v653h-109v27h666v-27h-109v-1380h109v-27h-666v27h109v696h-318v-696h105v-27h-662v27h109v1380h-109v27z" />
    <glyph glyph-name="I" unicode="I" horiz-adv-x="702" 
d="M27 1434h649v-27h-101v-1380h101v-27h-649v27h100v1380h-100v27z" />
    <glyph glyph-name="J" unicode="J" horiz-adv-x="1054" 
d="M352 1434h686v-27h-100v-885q0 -289 -134 -414.5t-407 -125.5q-159 0 -262.5 64.5t-103.5 178.5q0 90 53 143.5t143 53.5q98 0 144.5 -46t46.5 -124q0 -38 -27 -113h-96q-14 -32 -14 -57q0 -35 25 -55.5t69 -20.5q32 0 51.5 9.5t33.5 30.5t20.5 67.5t9 107.5t2.5 164
v1022h-140v27z" />
    <glyph glyph-name="K" unicode="K" horiz-adv-x="1460" 
d="M27 1434h649v-27h-101v-668l580 668h-186v27h360v-27h-123l-307 -354l463 -1026h100v-27h-684v27h88l-276 678l-15 -21v-657h101v-27h-649v27h100v1380h-100v27z" />
    <glyph glyph-name="L" unicode="L" horiz-adv-x="1175" 
d="M18 1434h764v-27h-207v-1380h48q77 0 149.5 32.5t125 80.5t99.5 112.5t75.5 119.5t51.5 111h19l-41 -483h-1084v27h109v1380h-109v27z" />
    <glyph glyph-name="M" unicode="M" horiz-adv-x="1595" 
d="M1008 1434h561v-27h-101v-1380h101v-27h-649v27h100v1243h-4l-228 -1270h-317l-303 1235h-4v-1208h100v-27h-266v27h129v1380h-129v27h571l250 -1016h6z" />
    <glyph glyph-name="N" unicode="N" horiz-adv-x="1218" 
d="M1092 1407v-1407h-308l-620 1266v-1239h100v-27h-270v27h133v1380h-133v27h590l469 -969v942h-101v27h271v-27h-131z" />
    <glyph glyph-name="O" unicode="O" horiz-adv-x="1454" 
d="M934 473v514q0 85 -2.5 142t-10 112t-21 88t-36 59t-55 37t-76.5 11q-31 0 -57 -5t-46 -17.5t-35.5 -26t-27.5 -38t-20 -45.5t-13.5 -55.5t-8.5 -62t-4.5 -72t-2 -77.5t-0.5 -85v-489q0 -78 2.5 -133t10 -111t22 -92t37.5 -66t57.5 -43.5t81.5 -13.5t81 13t56.5 43t36 65
t20.5 94.5t9 114t2 139.5zM51 690q0 362 178 564t519 202q327 0 491 -190.5t164 -546.5q0 -350 -170.5 -544.5t-509.5 -194.5q-336 0 -504 184.5t-168 525.5z" />
    <glyph glyph-name="P" unicode="P" horiz-adv-x="1257" 
d="M8 1434h617q154 0 261 -19t187.5 -64.5t119 -126t38.5 -200.5q0 -101 -31 -177t-85 -124.5t-138 -79t-180.5 -42.5t-221.5 -13v-563h246v-25h-813v25h119v1382h-119v27zM575 1407v-793h25q43 0 72.5 16t46.5 41.5t26.5 72.5t12 94t2.5 120v125q0 74 -3 121t-11.5 89.5
t-25 65t-43 35.5t-65.5 13h-37z" />
    <glyph glyph-name="Q" unicode="Q" horiz-adv-x="1456" 
d="M51 690q0 362 178 564t519 202q325 0 490 -187.5t165 -529.5q0 -351 -160.5 -543t-478.5 -202v-12q85 -5 147.5 -27t96 -53t56.5 -67.5t35.5 -72t26 -64.5t35.5 -47t56 -18q87 0 102 170l31 -2q-4 -142 -91 -215t-225 -73q-287 0 -366 288q-23 81 -43.5 105t-49.5 24
q-62 0 -151 -77l-21 18q37 39 112.5 75.5t160.5 33.5v16q-315 10 -470 187.5t-155 506.5zM934 473v514q0 85 -2.5 142t-10 112t-21 88t-36 59t-55 37t-76.5 11q-31 0 -57 -5t-46 -17.5t-35.5 -26t-27.5 -38t-20 -45.5t-13.5 -55.5t-8.5 -62t-4.5 -72t-2 -77.5t-0.5 -85v-489
q0 -95 3.5 -157t16 -123t35 -95t61.5 -55t95 -21q47 0 81 12.5t56.5 41.5t36 63t20.5 92.5t9 112.5t2 139z" />
    <glyph glyph-name="R" unicode="R" horiz-adv-x="1386" 
d="M606 735h-31v-710h111v-25h-678v25h119v1382h-119v27h602q101 0 174.5 -3.5t142.5 -12.5t115 -25.5t85.5 -42.5t61.5 -63t34 -86t12 -114q0 -69 -21.5 -123.5t-56.5 -90t-86.5 -61.5t-104.5 -40t-118 -22v-5q192 -27 282.5 -105.5t90.5 -238.5v-112q0 -118 9.5 -154.5
t51.5 -36.5q19 0 31 9.5t27 51.5t26 120l29 -5q-11 -94 -35 -154t-63.5 -90t-82.5 -40t-108 -10q-88 0 -152 18t-111 60t-70 114t-23 176v172q0 115 -34 165t-110 50zM575 1407v-643h21q90 0 128 61.5t38 204.5v131q0 102 -18 156t-51.5 72t-96.5 18h-21z" />
    <glyph glyph-name="S" unicode="S" horiz-adv-x="1193" 
d="M657 4q91 0 152 53t61 160q0 62 -19.5 106t-66 78t-105.5 58.5t-155 52.5q-81 24 -140.5 49.5t-118.5 66t-96 91t-60 124t-23 165.5q0 87 33 167.5t93.5 143t154.5 100t208 37.5q119 0 269 -43q68 -20 104 -20q25 0 39 9.5t27 31.5h14l14 -414h-20q-32 47 -52.5 76.5
t-57.5 78.5t-66 80.5t-70 69t-78 59.5t-81.5 37t-88.5 15q-88 0 -142 -61.5t-54 -153.5q0 -45 15.5 -80t40 -59.5t69 -46.5t88 -36.5t110.5 -33.5q58 -17 96.5 -29.5t93 -35.5t91 -47t76.5 -61.5t63.5 -81t39 -104t15.5 -131.5q0 -224 -138.5 -359.5t-362.5 -135.5
q-131 0 -332 43q-81 18 -109 18q-26 0 -40 -14t-27 -47h-19l-20 491h20q34 -54 73 -108.5t98 -122t117.5 -117.5t130 -84.5t136.5 -34.5z" />
    <glyph glyph-name="T" unicode="T" horiz-adv-x="1366" 
d="M1282 1434l33 -535h-19q-75 197 -178.5 338t-210.5 170v-1380h164v-27h-774v27h162v1380q-109 -29 -212.5 -170t-178.5 -338h-17l31 535h1200z" />
    <glyph glyph-name="U" unicode="U" horiz-adv-x="1310" 
d="M840 35q150 0 230.5 107t80.5 331v934h-131v27h274v-27h-102v-920q0 -73 -5.5 -129t-19.5 -110.5t-37.5 -94t-61 -74t-89.5 -55.5t-122.5 -32.5t-160.5 -11.5q-104 0 -188 15.5t-158 53.5t-124 98t-78.5 154t-28.5 217v889h-101v27h674v-27h-125v-975q0 -94 11.5 -161.5
t40.5 -123.5t84 -84t137 -28z" />
    <glyph glyph-name="V" unicode="V" horiz-adv-x="1355" 
d="M891 403l334 1004h-154v27h285v-27h-88l-469 -1423h-215l-508 1423h-76v27h686v-27h-131l326 -1004h10z" />
    <glyph glyph-name="W" unicode="W" horiz-adv-x="1998" 
d="M883 444l114 506l-131 457h-106v27h651v-27h-102l290 -938l228 938h-203v27h375v-27h-133l-348 -1423h-226l-272 890l-201 -890h-233l-508 1423h-78v27h682v-27h-129z" />
    <glyph glyph-name="X" unicode="X" horiz-adv-x="1443" 
d="M1444 0h-723v27h121l-291 542l-334 -542h225v-27h-397v27h127l356 583l-430 797h-98v27h711v-27h-125l252 -477l319 477h-219v27h397v-27h-129l-346 -518l475 -862h109v-27z" />
    <glyph glyph-name="Y" unicode="Y" horiz-adv-x="1271" 
d="M829 739l279 668h-199v27h363v-27h-127l-287 -698v-682h111v-27h-670v27h111v655l-332 725h-78v27h674v-27h-123l268 -668h10z" />
    <glyph glyph-name="Z" unicode="Z" horiz-adv-x="1198" 
d="M1116 1434v-17l-559 -1388h35q108 0 215 66t187.5 175t119.5 238h25l-23 -508h-1038v18l565 1389h-18q-171 0 -294.5 -103.5t-232.5 -330.5h-20l31 461h1007z" />
    <glyph glyph-name="bracketleft" unicode="[" horiz-adv-x="686" 
d="M743 -301v-27h-630v1927h630v-26h-86q-75 0 -96.5 -18.5t-21.5 -88.5v-1659q0 -76 19 -92t97 -16h88z" />
    <glyph glyph-name="backslash" unicode="\" horiz-adv-x="718" 
d="M80 1628l604 -1827h-66l-602 1827h64z" />
    <glyph glyph-name="bracketright" unicode="]" horiz-adv-x="684" 
d="M-57 -328v27h88q78 0 97 16t19 92v1659q0 70 -21.5 88.5t-96.5 18.5h-86v26h630v-1927h-630z" />
    <glyph glyph-name="asciicircum" unicode="^" horiz-adv-x="1161" 
d="M1030 614l-76 -30l-389 688l-358 -690l-78 32l387 746h100z" />
    <glyph glyph-name="underscore" unicode="_" 
d="M1024 -217h-1024v76h1024v-76z" />
    <glyph glyph-name="grave" unicode="`" 
d="M379 1427l96 -16l121 -397l-16 -13l-277 228q-63 53 -63 106q0 45 30 75t109 17z" />
    <glyph glyph-name="a" unicode="a" horiz-adv-x="1134" 
d="M520 477h58v189q0 123 -10.5 190t-31.5 92t-59 25q-42 0 -63.5 -24.5t-20.5 -57.5t17 -66h55q16 -43 16 -96q0 -73 -54.5 -120.5t-137.5 -47.5q-97 0 -144 48t-47 132q0 126 117 190t328 64q254 0 353 -83t99 -304v-430q0 -58 13 -79t41 -21q69 0 84 223l26 -2
q-1 -96 -19 -159t-55.5 -98t-86.5 -48.5t-121 -13.5q-128 0 -195 39t-88 118q-20 -78 -78 -117.5t-168 -39.5q-46 0 -86.5 5.5t-84.5 22t-75 42.5t-51 72t-20 107q0 50 15 88.5t45.5 65.5t71.5 45.5t98 29t119 15t140 4.5zM504 59q27 0 50.5 48t23.5 139v207h-15
q-60 0 -84 -56t-24 -172q0 -102 9.5 -134t39.5 -32z" />
    <glyph glyph-name="b" unicode="b" horiz-adv-x="1198" 
d="M657 907q-38 0 -72 -70t-34 -194v-416q0 -188 88 -188q54 0 65.5 59.5t10.5 238.5v73v188q0 208 -8.5 258.5t-49.5 50.5zM553 1536v-709q66 168 252 168q171 0 266.5 -126.5t95.5 -383.5q0 -505 -407 -505q-98 0 -152.5 31.5t-79.5 92.5l-32 -104h-488v25h105v1486h-105
v25h545z" />
    <glyph glyph-name="c" unicode="c" horiz-adv-x="983" 
d="M600 975q-75 0 -102 -83.5t-27 -266.5v-238q0 -182 37.5 -262t148.5 -80q62 0 111.5 27t80.5 70.5t49 86.5t26 88l30 -4q-7 -35 -14 -59.5t-22 -61.5t-34 -63.5t-51.5 -56.5t-72.5 -48.5t-99 -31t-129 -12.5q-242 0 -371.5 128t-129.5 369q0 253 147 385.5t412 132.5
q185 0 278 -70.5t93 -189.5q0 -95 -52 -147.5t-135 -52.5q-89 0 -138.5 44.5t-49.5 133.5q0 37 10 73h76q12 36 16 68t-2 60t-27.5 44.5t-58.5 16.5z" />
    <glyph glyph-name="d" unicode="d" horiz-adv-x="1202" 
d="M551 74q98 0 98 184v485q0 86 -23.5 137.5t-64.5 51.5q-53 0 -66.5 -73t-13.5 -286v-196q0 -195 10.5 -249t59.5 -54zM690 0l-24 145q-30 -82 -91.5 -123.5t-177.5 -41.5q-172 0 -268 124.5t-96 370.5q0 263 104.5 391.5t294.5 128.5q89 0 136 -22.5t75 -69.5v608h-113
v25h555v-1511h89v-25h-484z" />
    <glyph glyph-name="e" unicode="e" horiz-adv-x="1054" 
d="M29 487q0 103 28.5 188.5t77.5 144t117 98.5t145 58.5t162 18.5q252 0 364 -117t103 -350h-557v-90q0 -77 4.5 -131.5t18 -108.5t38 -87t65.5 -53.5t99 -20.5q111 0 189.5 70t113.5 192l29 -8q-16 -57 -38 -101t-58.5 -85t-84.5 -67.5t-117 -42t-155 -15.5
q-272 0 -408 137t-136 370zM469 557h158v168q0 50 -1 80.5t-3.5 61.5t-7.5 48t-13.5 31t-20.5 19.5t-30 5.5q-53 0 -67.5 -55t-14.5 -207v-152z" />
    <glyph glyph-name="f" unicode="f" horiz-adv-x="716" 
d="M666 1556q-38 0 -61.5 -15t-35.5 -48t-16 -73.5t-4 -104.5v-340h233v-25h-233v-925h209v-25h-750v25h105v925h-111v25h111v8q0 141 28.5 248.5t90 187.5t164.5 122t245 42q99 0 171 -22t108.5 -58t52.5 -73.5t16 -77.5q0 -98 -51 -146.5t-133 -48.5q-89 0 -135.5 43.5
t-46.5 114.5q0 40 18 96h84q18 34 20 66.5t-18 55.5t-61 23z" />
    <glyph glyph-name="g" unicode="g" horiz-adv-x="1009" 
d="M950 662q0 -173 -120 -262t-320 -89q-79 0 -170 17q-51 -31 -66.5 -45t-15.5 -27q0 -10 10 -16t42.5 -9.5t90.5 -3.5h193q86 0 152.5 -8t129.5 -31t104.5 -60.5t66 -98.5t24.5 -144q0 -182 -142.5 -289.5t-439.5 -107.5q-269 0 -395.5 56.5t-126.5 158.5q0 68 39.5 101.5
t106.5 52.5l137 -58q-14 -43 -14 -88q0 -91 68 -141.5t198 -50.5q145 0 228 58t83 157q0 67 -42.5 93t-158.5 26h-229q-94 0 -162.5 19t-103.5 51t-50.5 66t-15.5 72q0 88 54.5 143.5t199.5 135.5q-133 33 -200.5 109.5t-67.5 205.5q0 154 119 247t354 93q189 0 313 -86
q45 16 79 51.5t34 75.5q0 59 -74 66l-51 -72q-39 8 -68.5 42t-29.5 79q0 62 41.5 101.5t109.5 39.5q70 0 112 -44t42 -115q0 -77 -49 -144.5t-121 -99.5q102 -86 102 -227zM426 739v-219q0 -104 16 -143t58 -39q38 0 52.5 36t14.5 146v215q0 101 -7.5 152t-21 66.5
t-40.5 15.5q-42 0 -57 -47t-15 -183z" />
    <glyph glyph-name="h" unicode="h" horiz-adv-x="1239" 
d="M8 1536h537v-745q30 94 96.5 149t194.5 55q309 0 309 -342v-628h106v-25h-594v25h50v772q0 48 -9 73t-36 25q-42 0 -76.5 -75.5t-34.5 -174.5v-620h55v-25h-598v25h105v1486h-105v25z" />
    <glyph glyph-name="i" unicode="i" horiz-adv-x="638" 
d="M100 1284q0 91 53.5 148t172.5 57q104 0 161.5 -51.5t57.5 -149.5q0 -94 -54.5 -150.5t-168.5 -56.5q-65 0 -111 18.5t-69 50t-32.5 64t-9.5 70.5zM-8 975h551v-950h106v-25h-647v25h104v925h-114v25z" />
    <glyph glyph-name="j" unicode="j" horiz-adv-x="628" 
d="M545 975v-778q0 -351 -132.5 -530t-424.5 -179q-169 0 -254.5 67t-85.5 166q0 93 56 143t144 50q84 0 127 -47.5t43 -120.5q0 -19 -12 -88h-92q-16 -30 -17.5 -61.5t19 -55.5t61.5 -24q68 0 100 73t32 267v1093h-105v25h541zM100 1284q0 91 53.5 148t172.5 57
q104 0 161.5 -51.5t57.5 -149.5q0 -94 -54.5 -150.5t-168.5 -56.5q-65 0 -111 18.5t-69 50t-32.5 64t-9.5 70.5z" />
    <glyph glyph-name="k" unicode="k" horiz-adv-x="1296" 
d="M709 0v25h88l-224 491l-22 -8v-483h86v-25h-629v25h105v1486h-115v25h553v-999l24 10l496 403h-215v25h401v-25h-139l-219 -182l361 -743h65v-25h-616z" />
    <glyph glyph-name="l" unicode="l" horiz-adv-x="661" 
d="M-2 1536h551v-1511h106v-25h-647v25h105v1486h-115v25z" />
    <glyph glyph-name="m" unicode="m" horiz-adv-x="1789" 
d="M8 975h533v-199q10 35 21.5 62.5t33 58.5t49 51t71 33.5t97.5 13.5q114 0 189.5 -55t99.5 -170q9 33 23.5 63t39 60t56 52t76.5 36t98 14q141 0 221 -82.5t80 -259.5v-628h106v-25h-590v25h45v690q0 114 -7 147t-29 33q-18 0 -42 -28.5t-44.5 -92t-20.5 -141.5v-608h49
v-25h-524v25h55v720q0 64 -5.5 99t-13.5 45t-22 10q-34 0 -68 -83t-34 -195v-596h37v-25h-580v25h105v925h-105v25z" />
    <glyph glyph-name="n" unicode="n" horiz-adv-x="1239" 
d="M8 975h533v-195q69 215 295 215q309 0 309 -342v-628h106v-25h-594v25h50v772q0 48 -9 73t-36 25q-42 0 -76.5 -75.5t-34.5 -174.5v-620h55v-25h-598v25h105v925h-105v25z" />
    <glyph glyph-name="o" unicode="o" horiz-adv-x="1101" 
d="M631 248v416v16q0 176 -11.5 233.5t-62.5 57.5q-59 0 -72.5 -65.5t-13.5 -233.5v-13v-411v-10v-50.5t1 -44t3 -41.5t5.5 -33.5t9 -29t13.5 -19.5t19 -14t25 -4q21 0 35.5 6.5t23.5 24t14.5 33t7.5 50.5t2.5 58.5t0.5 73.5zM31 483q0 247 145 379.5t387 132.5
q508 0 508 -491q0 -259 -127.5 -391.5t-394.5 -132.5q-259 0 -388.5 130t-129.5 373z" />
    <glyph glyph-name="p" unicode="p" horiz-adv-x="1198" 
d="M664 905q-42 0 -77.5 -73.5t-35.5 -198.5v-406q0 -188 90 -188q51 0 63 58t11 217v53v303q0 145 -9 190t-42 45zM545 975v-166q35 91 96.5 138.5t171.5 47.5q354 0 354 -514q0 -501 -395 -501q-173 0 -223 90v-533h205v-24h-742v24h101v1413h-97v25h529z" />
    <glyph glyph-name="q" unicode="q" horiz-adv-x="1196" 
d="M543 76q46 0 76 71t30 191v403q0 84 -24 136.5t-64 52.5q-53 0 -66.5 -64t-13.5 -245v-297q0 -105 6 -158t18.5 -71.5t37.5 -18.5zM649 -463v598q-18 -37 -34.5 -60.5t-44 -47.5t-69.5 -35.5t-100 -11.5q-175 0 -271.5 124.5t-96.5 374.5q0 516 418 516q156 0 211 -127
l18 107h514v-25h-109v-1413h95v-24h-738v24h207z" />
    <glyph glyph-name="r" unicode="r" horiz-adv-x="1058" 
d="M698 815h82q28 45 29.5 75.5t-13.5 42t-40 11.5q-59 0 -107 -56.5t-73 -140t-25 -172.5v-550h231v-25h-774v25h105v925h-105v25h539v-217q37 119 111 178t171 59q99 0 164.5 -52.5t65.5 -164.5q0 -90 -53 -145t-148 -55q-83 0 -129.5 41.5t-46.5 109.5q0 36 16 86z" />
    <glyph glyph-name="s" unicode="s" horiz-adv-x="874" 
d="M55 -20v370h23q62 -189 156 -266.5t217 -77.5q206 0 206 131q0 29 -14 50t-43 36t-64.5 26.5t-88.5 26.5q-31 8 -48 13q-58 17 -100 33.5t-91.5 45.5t-81 64t-52.5 89t-21 120q0 162 99 258t264 96q53 0 98.5 -10t70.5 -21.5t49.5 -21.5t41.5 -10q25 0 41.5 12.5
t50.5 54.5h12v-315h-18q-60 149 -141.5 216t-194.5 67q-100 0 -142 -35t-42 -82q0 -30 12 -50t54 -38.5t66 -26t103 -28.5q16 -5 25 -7q59 -16 99 -30t90 -42.5t80.5 -64.5t51.5 -94.5t21 -132.5q0 -177 -103.5 -266.5t-283.5 -89.5q-57 0 -108.5 11t-81.5 24.5t-57.5 24.5
t-41.5 11q-20 0 -41 -15.5t-53 -55.5h-19z" />
    <glyph glyph-name="t" unicode="t" horiz-adv-x="782" 
d="M104 307v643h-104v25h104v264l437 102v-366h221v-25h-221v-714q0 -97 18 -139t68 -42q41 0 68.5 35.5t39.5 86.5t19 126l28 -2q-4 -57 -10.5 -94.5t-25 -84.5t-48.5 -75t-83.5 -47.5t-127.5 -19.5q-86 0 -150.5 14t-119.5 48.5t-84 101t-29 163.5z" />
    <glyph glyph-name="u" unicode="u" horiz-adv-x="1234" 
d="M1227 0h-512l-21 131q-12 -29 -23 -48.5t-32.5 -40.5t-49 -33.5t-71.5 -20.5t-102 -8q-322 0 -322 342v628h-106v25h542v-715q0 -115 14 -152.5t50 -37.5q43 0 67.5 56t24.5 157v667h-82v25h518v-950h105v-25z" />
    <glyph glyph-name="v" unicode="v" horiz-adv-x="1021" 
d="M-41 950v25h659v-25h-126l235 -684l211 684h-145v25h270v-25h-90l-293 -950h-262l-381 950h-78z" />
    <glyph glyph-name="w" unicode="w" horiz-adv-x="1628" 
d="M711 950v25h565v-25h-76l160 -712l176 712h-141v25h254v-25h-78l-232 -950h-333l-154 621l-170 -621h-326l-288 950h-88v25h653v-25h-101l175 -717l127 453l-58 264h-65z" />
    <glyph glyph-name="x" unicode="x" horiz-adv-x="1200" 
d="M793 598l225 352h-152v25h297v-25h-108l-246 -385l324 -540h88v-25h-719v25h147l-225 387l-236 -387h131v-25h-311v25h144l256 424l-304 501h-124v25h741v-25h-135z" />
    <glyph glyph-name="y" unicode="y" horiz-adv-x="1040" 
d="M-20 950v25h638v-25h-102l205 -667l229 667h-135v25h277v-25h-105l-375 -1116q-42 -128 -104.5 -207t-130 -109t-150.5 -30q-121 0 -194.5 52t-73.5 153q0 77 53.5 126.5t137.5 49.5q161 0 161 -150q0 -29 -12 -73h-72q-25 -47 -8 -79t72 -32q177 0 293 338l43 127h-221
l-347 950h-79z" />
    <glyph glyph-name="z" unicode="z" horiz-adv-x="1058" 
d="M995 975v-27l-467 -919h41q153 0 248.5 97t155.5 310h24l-34 -436h-900v20l482 928h-19q-68 0 -116 -6.5t-88 -26t-67 -45t-52.5 -72.5t-44.5 -100t-43 -135h-23l29 412h874z" />
    <glyph glyph-name="braceleft" unicode="{" horiz-adv-x="792" 
d="M37 659q192 4 192 244q0 85 -29.5 227.5t-29.5 178.5q0 147 101 217.5t313 70.5q129 0 200 -26l-6 -23q-47 15 -80 15q-22 0 -40 -5t-36.5 -18.5t-29 -44t-10.5 -74.5q0 -61 28.5 -245t28.5 -254q0 -145 -83.5 -203t-291.5 -66v-6q100 -6 167 -22t115.5 -48t70.5 -84
t22 -128q0 -61 -28.5 -258t-28.5 -252q0 -85 34 -114.5t91 -29.5q41 0 90 17l4 -23q-80 -33 -185 -33q-231 0 -338.5 75.5t-107.5 229.5q0 28 29.5 180.5t29.5 235.5q0 69 -17 118t-46.5 73.5t-60.5 35t-68 11.5v28z" />
    <glyph glyph-name="bar" unicode="|" horiz-adv-x="641" 
d="M287 -260v1888h80v-1888h-80z" />
    <glyph glyph-name="braceright" unicode="}" horiz-adv-x="792" 
d="M756 659v-28q-37 -1 -68 -12t-61 -36t-47 -74t-17 -118q0 -83 30 -235t30 -179q0 -155 -108 -231t-339 -76q-104 0 -184 33l6 25q49 -17 90 -17q57 0 90 29.5t33 114.5q0 55 -28.5 251t-28.5 259q0 147 87 208.5t287 73.5v4q-208 9 -291 67t-83 202q0 70 28.5 255
t28.5 246q0 84 -33 113t-82 29q-33 0 -80 -15l-8 23q72 26 203 26q210 0 311 -70.5t101 -217.5q0 -36 -30 -179.5t-30 -228.5q0 -238 193 -242z" />
    <glyph glyph-name="asciitilde" unicode="~" horiz-adv-x="1112" 
d="M786 461q-90 0 -274 47q-144 37 -199 37q-114 0 -155 -86l-17 8q15 64 27.5 108t33.5 93t45 78.5t60 49t80 19.5q23 0 56.5 -5t58 -10.5t71.5 -16.5t66 -15q156 -35 238 -35q47 0 76 18t53 68l14 -2q-40 -156 -74 -232.5t-68.5 -100t-91.5 -23.5z" />
    <glyph glyph-name="uni00A0" unicode="&#xa0;" horiz-adv-x="409" 
 />
    <glyph glyph-name="exclamdown" unicode="&#xa1;" horiz-adv-x="772" 
d="M373 438v172h30v-170q0 -104 24.5 -214.5t54.5 -189t54.5 -173.5t24.5 -172q0 -172 -164 -172q-33 0 -61.5 7.5t-55 25.5t-42 53.5t-15.5 85.5q0 72 23.5 166.5t51.5 174.5t51.5 191.5t23.5 214.5zM221 838q0 65 39.5 111t124.5 46q75 0 116.5 -44t41.5 -117
q0 -81 -44.5 -119.5t-119.5 -38.5q-73 0 -115.5 46t-42.5 116z" />
    <glyph glyph-name="cent" unicode="&#xa2;" horiz-adv-x="1071" 
d="M668 1055q-79 0 -115.5 -89.5t-36.5 -277.5v-196q0 -150 41.5 -219.5t147.5 -69.5q65 0 117 25.5t84 67t50 83.5t25 84l25 -6q-5 -28 -12 -53t-21.5 -57.5t-34 -59t-52 -53.5t-73 -45.5t-98.5 -30t-127 -11.5q-66 0 -154 15l-43 -205l-53 8l47 211q-131 46 -198.5 155
t-67.5 273q0 233 138 355t386 122h21l49 219l51 -6l-45 -215q135 -13 206.5 -76.5t71.5 -158.5q0 -87 -48 -131.5t-128 -44.5q-71 0 -111 39.5t-40 103.5q0 39 14 80h66q12 30 12 65q0 43 -23.5 71t-70.5 28z" />
    <glyph glyph-name="sterling" unicode="&#xa3;" horiz-adv-x="1185" 
d="M74 631v37h147q-32 48 -51.5 81.5t-42.5 81.5t-34 98.5t-11 104.5q0 203 151 312.5t408 109.5q225 0 346 -90t121 -227q0 -83 -48.5 -141t-144.5 -58q-82 0 -136 47.5t-54 120.5q0 49 18 98h80q19 49 19 86q0 60 -46.5 97.5t-117.5 37.5q-27 0 -48.5 -4t-37.5 -10
t-28.5 -20.5t-21 -26t-13.5 -36.5t-8.5 -43t-4.5 -54t-1.5 -61t-0.5 -72v-432h348v-37h-348v-70q0 -57 -11 -100t-41 -85t-56 -69.5t-84 -81.5q-3 -3 -5 -4.5t-5 -4.5l-5 -5l8 -12q115 78 185.5 111.5t136.5 33.5q41 0 94.5 -21t96 -45.5t87.5 -45.5t72 -21q60 0 86.5 40
t32.5 148l33 -2q-10 -203 -91 -319.5t-192 -116.5q-57 0 -103 12.5t-108 42.5l-311 152q-9 -94 -60.5 -142.5t-130.5 -48.5q-59 0 -81.5 28.5t-22.5 66.5q0 67 63.5 110.5t163.5 42.5q43 82 43 176q0 51 -19 116t-46 114h-170z" />
    <glyph glyph-name="currency" unicode="&#xa4;" horiz-adv-x="1085" 
d="M203 696q0 108 59 197l-158 182l39 37l185 -145q92 63 213 63q124 0 200 -61l185 141l35 -33l-154 -174q57 -85 57 -201q0 -110 -61 -204l153 -201l-36 -35l-193 158q-75 -60 -192 -60q-123 0 -203 56l-182 -152l-37 37l147 182q-57 83 -57 213zM283 696
q0 -122 60.5 -197t193.5 -75q118 0 182.5 77.5t64.5 194.5q0 124 -63 199.5t-189 75.5q-123 0 -186 -78.5t-63 -196.5z" />
    <glyph glyph-name="yen" unicode="&#xa5;" horiz-adv-x="1247" 
d="M825 793l299 614h-223v27h402v-27h-129l-308 -639h228v-35h-228v-172h228v-33h-228v-501h115v-27h-666v27h115v501h-215v33h215v172h-215v35h188l-327 639h-82v27h674v-27h-129z" />
    <glyph glyph-name="brokenbar" unicode="&#xa6;" horiz-adv-x="641" 
d="M289 844v784h80v-784h-80zM289 -260v895h80v-895h-80z" />
    <glyph glyph-name="section" unicode="&#xa7;" horiz-adv-x="1456" 
d="M147 858q0 121 34 221t92 169t136.5 116.5t166 69.5t182.5 22q236 0 346 -83t110 -222q0 -86 -48 -143.5t-144 -57.5q-83 0 -139 49t-56 125q0 50 19 101l78 12q14 35 14 82q0 102 -150 102q-49 0 -86.5 -14.5t-62 -44.5t-41 -65.5t-25.5 -89.5t-12.5 -104t-5.5 -120
q144 -30 249.5 -64t202.5 -86t157.5 -119t96 -162.5t35.5 -217.5q0 -144 -51.5 -259.5t-139 -187t-199.5 -109.5t-238 -38q-219 0 -330 82.5t-111 218.5q0 86 51 143.5t148 57.5q81 0 134.5 -45.5t53.5 -120.5q0 -55 -16 -101l-80 -14q-28 -77 11.5 -129.5t134.5 -52.5
q64 0 108 31t67.5 91t33 133t8.5 171q-142 30 -247.5 64t-201.5 87t-155.5 120.5t-94.5 163.5t-35 218zM887 244q19 287 -62 452t-272 248q0 -105 7 -188.5t19 -146.5t35 -113t46.5 -85t62 -66.5t74.5 -52.5t90 -48z" />
    <glyph glyph-name="dieresis" unicode="&#xa8;" 
d="M590 1204q0 66 46.5 111t133.5 45t133.5 -39.5t46.5 -116.5q0 -72 -45.5 -116t-132.5 -44q-96 0 -139 46.5t-43 113.5zM139 1204q0 66 46.5 111t133.5 45t134 -39.5t47 -116.5q0 -72 -45.5 -116t-132.5 -44q-96 0 -139.5 46.5t-43.5 113.5z" />
    <glyph glyph-name="copyright" unicode="&#xa9;" horiz-adv-x="1599" 
d="M1477 655q0 -207 -86 -361.5t-239 -235.5t-353 -81q-165 0 -294.5 48.5t-212.5 135.5t-126 205t-43 261q0 155 53 283.5t145.5 214t216.5 132t265 46.5q312 0 493 -176t181 -472zM1444 643q0 203 -83 347.5t-226 215t-332 70.5q-139 0 -257 -43.5t-205 -124.5t-136 -204
t-49 -275q0 -293 170.5 -455t472.5 -162q298 0 471.5 167.5t173.5 463.5zM856 1034q-35 0 -55.5 -16t-33.5 -61.5t-17.5 -116t-4.5 -189.5q0 -222 21.5 -300.5t89.5 -78.5q50 0 98 39t79.5 89t53.5 106h15l-8 -244h-15q-2 3 -5.5 10.5t-5.5 10.5t-6.5 6.5t-10.5 3.5
q-1 0 -76 -21.5t-137 -21.5q-197 0 -306.5 98.5t-109.5 302.5q0 193 113 297.5t311 104.5q54 0 123 -20.5t73 -20.5q5 0 8.5 1.5t6.5 5.5t5 6.5t5 8.5l4 8h14l7 -243h-15q-34 92 -101 163.5t-120 71.5z" />
    <glyph glyph-name="ordfeminine" unicode="&#xaa;" horiz-adv-x="978" 
d="M459 1151h22v125q0 99 -7.5 149.5t-21 66t-40.5 15.5q-50 0 -70 -21.5t-14 -68.5h43q41 -66 7 -131t-116 -65q-151 0 -151 127q0 184 350 184q198 0 269 -58.5t71 -220.5v-290q0 -80 45 -80q18 0 28.5 7t21.5 42.5t15 103.5l17 -2q-3 -132 -48 -179.5t-155 -47.5
q-197 0 -236 113q-15 -55 -53.5 -84t-116.5 -29q-247 0 -247 178q0 52 26 86t80.5 51t119 23t161.5 6zM430 866q17 0 34 37t17 94v136h-12h10q-48 0 -65 -33.5t-17 -118.5q0 -69 7 -92t26 -23z" />
    <glyph glyph-name="guillemotleft" unicode="&#xab;" horiz-adv-x="1017" 
d="M133 543l371 274l10 -8l-166 -336l164 -360l-10 -9l-334 258q-34 30 -48 51.5t-14 49.5q0 37 27 80zM494 543l370 274l10 -8l-165 -336l163 -360l-10 -9l-334 258q-33 30 -47 51.5t-14 49.5q0 37 27 80z" />
    <glyph glyph-name="logicalnot" unicode="&#xac;" horiz-adv-x="1052" 
d="M924 346v275h-863v63h930v-338h-67z" />
    <glyph glyph-name="uni00AD" unicode="&#xad;" horiz-adv-x="700" 
d="M98 598v33h527v-33h-527z" />
    <glyph glyph-name="registered" unicode="&#xae;" horiz-adv-x="940" 
d="M858 983q0 -171 -108.5 -278t-280.5 -107q-186 0 -286.5 103t-100.5 268q0 175 111.5 281t277.5 106q178 0 282.5 -101.5t104.5 -271.5zM815 977q0 160 -97 253t-247 93q-153 0 -248.5 -95.5t-95.5 -256.5q0 -157 89.5 -246.5t252.5 -89.5q157 0 251.5 93t94.5 249z
M467 987h-4v-194h-199v12h45v369h-45v12h228q79 0 115 -18t36 -74q0 -78 -131 -93v-4q82 -7 110.5 -28.5t28.5 -69.5v-51q0 -33 17 -33q32 0 41 76l12 -2q-8 -56 -31.5 -79.5t-85.5 -23.5q-55 0 -79.5 18.5t-24.5 59.5v58q0 41 -6 53t-27 12zM463 1174v-166h6
q28 0 35.5 18.5t7.5 63.5q0 48 -6.5 66t-32.5 18h-10z" />
    <glyph glyph-name="macron" unicode="&#xaf;" 
d="M233 1075v193h558v-193h-558z" />
    <glyph glyph-name="degree" unicode="&#xb0;" horiz-adv-x="757" 
d="M197 1284q0 -85 47.5 -136.5t136.5 -51.5q82 0 131 52.5t49 135.5q0 87 -50 138t-136 51q-82 0 -130 -52.5t-48 -136.5zM123 1284q0 104 69 175t191 71q120 0 185 -66t65 -176q0 -109 -68 -180.5t-188 -71.5q-124 0 -189 68.5t-65 179.5z" />
    <glyph glyph-name="plusminus" unicode="&#xb1;" horiz-adv-x="1052" 
d="M991 621h-436v-392h-74v392h-420v61h420v362h74v-362h436v-61zM991 0h-930v63h930v-63z" />
    <glyph glyph-name="twosuperior" unicode="&#xb2;" horiz-adv-x="839" 
d="M389 1690q152 0 243 -58.5t91 -173.5q0 -53 -13.5 -91.5t-38 -69.5t-76.5 -63.5t-111 -63.5t-160 -80q-10 -5 -16 -7.5t-15 -7l-17 -8.5l-71 -35h342q91 0 133 39.5t57 116.5h19l-17 -381h-624v190l139 113q126 102 163.5 176.5t37.5 202.5q0 31 -0.5 48t-3 41.5t-8.5 38
t-16 27t-26.5 19.5t-38.5 6q-56 0 -84.5 -38t-1.5 -105h48q10 -38 10 -70q0 -47 -35 -75.5t-82 -28.5q-60 0 -89.5 36t-29.5 91q0 90 81.5 150.5t209.5 60.5z" />
    <glyph glyph-name="threesuperior" unicode="&#xb3;" horiz-adv-x="819" 
d="M395 1673q293 0 293 -186q0 -83 -74 -141t-211 -80l-2 -4q332 -28 332 -220q0 -119 -96 -187.5t-272 -68.5q-285 0 -285 175q0 59 36 97t97 38q72 0 98.5 -51t-0.5 -115h-53q-28 -56 -1 -88.5t87 -32.5q80 0 107.5 57t27.5 172q0 70 -9 111t-27.5 62t-53.5 36
q-20 -5 -110 -18l-3 22q98 7 129 51.5t31 172.5q0 102 -14.5 141t-63.5 39t-70.5 -36.5t-0.5 -78.5h43q14 -42 14 -63q0 -45 -34.5 -74t-86.5 -29q-58 0 -88.5 36t-30.5 85q0 80 79 129t212 49z" />
    <glyph glyph-name="acute" unicode="&#xb4;" 
d="M356 1014l121 397l96 16q35 9 60 5t40.5 -12.5t24.5 -25t12 -30.5t3 -29q0 -50 -64 -106l-278 -228z" />
    <glyph glyph-name="mu" unicode="&#xb5;" horiz-adv-x="1374" 
d="M549 1026v-723v-9q0 -43 0.5 -64t2.5 -54t7 -49.5t14 -34.5t23.5 -25.5t34.5 -7.5q61 0 110.5 80t49.5 211v658l362 18v-854q0 -50 14.5 -69t44.5 -19q21 0 35.5 13.5t27.5 63t19 136.5l29 -2q-7 -181 -67 -248t-203 -67q-109 0 -175.5 55.5t-86.5 146.5
q-32 -90 -100 -147.5t-156 -57.5q-27 0 -49 3t-48.5 13.5t-49 29t-47.5 51.5t-46 78l-8 -7l119 -290q7 -18 20.5 -50.5t19 -45.5t13.5 -35.5t11.5 -34.5t6 -27t2.5 -27q0 -45 -41.5 -74t-87.5 -18l-186 39v1426z" />
    <glyph glyph-name="paragraph" unicode="&#xb6;" horiz-adv-x="1286" 
d="M795 -168v526h-62q-281 0 -430 140t-149 395q0 118 39 216t113 171t190.5 113.5t263.5 40.5h465v-27h-154v-1434q0 -251 -118.5 -368t-362.5 -117q-83 0 -147 17.5t-101.5 44t-61 62.5t-32 68.5t-8.5 67.5q0 89 54 141t134 52q106 0 143 -67.5t2 -176.5h-59
q-44 -75 -20 -125.5t96 -50.5q205 0 205 311zM834 -190q0 -191 -82 -265q280 62 280 447v1415h-198v-1597z" />
    <glyph glyph-name="periodcentered" unicode="&#xb7;" horiz-adv-x="636" 
d="M133 659q0 80 48 133.5t134 53.5q87 0 138 -45t51 -135q0 -88 -47 -138.5t-133 -50.5q-51 0 -89.5 16t-60 43t-31.5 58t-10 65z" />
    <glyph glyph-name="cedilla" unicode="&#xb8;" 
d="M485 2h52l-68 -115q49 7 74 7q121 0 177 -48t56 -129q0 -41 -15 -78t-48 -71t-95.5 -54t-146.5 -20q-103 0 -161 35t-58 96q0 46 28 75.5t72 29.5q42 0 68 -26t29 -71l-56 -34q-6 -33 11.5 -57.5t50.5 -24.5q43 0 59 37t16 129v10q0 34 -0.5 50t-2 40t-5 34.5t-10 22.5
t-16.5 16.5t-25 4.5q-28 0 -61 -8l-7 16z" />
    <glyph glyph-name="onesuperior" unicode="&#xb9;" horiz-adv-x="798" 
d="M250 1632l-160 -16v29l291 36h178v-841h176v-33h-633v33h148v792z" />
    <glyph glyph-name="ordmasculine" unicode="&#xba;" horiz-adv-x="1060" 
d="M625 1053v213q0 58 -3 95.5t-11.5 72t-27 51t-46.5 16.5q-27 0 -46.5 -14t-30 -35t-16 -57t-7 -68t-1.5 -80v-188q0 -48 1.5 -79t7 -63t15.5 -49.5t28 -29t44 -11.5q57 0 75 53t18 173zM113 1163q0 180 108 273.5t320 93.5q407 0 407 -352q0 -185 -101 -279t-319 -94
q-415 0 -415 358z" />
    <glyph glyph-name="guillemotright" unicode="&#xbb;" horiz-adv-x="1017" 
d="M524 379l-368 -275l-9 9l162 336l-159 358l8 10l331 -258q35 -30 49.5 -51t14.5 -49q0 -34 -29 -80zM885 379l-369 -275l-8 9l162 336l-160 358l8 10l332 -258q35 -30 49 -51t14 -49q0 -35 -28 -80z" />
    <glyph glyph-name="onequarter" unicode="&#xbc;" horiz-adv-x="1656" 
d="M543 0l655 1434h57l-655 -1434h-57zM211 1386l-160 -16v29l291 37h178v-842h176v-33h-633v33h148v792zM1106 0v29h115v174h-344v33l370 624h262v-622h142v127h30v-263h-30v101h-142v-174h88v-29h-491zM918 238h303v505z" />
    <glyph glyph-name="onehalf" unicode="&#xbd;" horiz-adv-x="1656" 
d="M465 0l655 1434h58l-656 -1434h-57zM172 1386l-160 -16v29l291 37h178v-842h176v-33h-632v33h147v792zM1227 883q152 0 243 -58.5t91 -173.5q0 -53 -13.5 -91.5t-38 -69.5t-76.5 -63.5t-111 -63.5t-160 -80q-10 -5 -16 -7.5t-15 -7l-17 -8.5l-72 -35h342q91 0 133.5 39.5
t57.5 116.5h18l-16 -381h-625v190l140 113q126 102 163 176.5t37 202.5q0 39 -0.5 57.5t-5.5 47t-14 41.5t-27 23.5t-45 10.5q-56 0 -84.5 -38t-1.5 -105h47q10 -38 10 -70q0 -47 -34.5 -75.5t-81.5 -28.5q-60 0 -89.5 36t-29.5 91q0 90 81.5 150.5t209.5 60.5z" />
    <glyph glyph-name="threequarters" unicode="&#xbe;" horiz-adv-x="1656" 
d="M549 0l655 1434h58l-656 -1434h-57zM1096 0v29h114v174h-344v33l371 624h262v-622h141v127h31v-263h-31v101h-141v-174h88v-29h-491zM907 238h303v505zM397 1427q293 0 293 -186q0 -83 -74 -141t-210 -80l-3 -4q173 -15 252.5 -70t79.5 -149q0 -119 -96 -187.5
t-272 -68.5q-285 0 -285 174q0 59 36 97t97 38q72 0 98.5 -51t-0.5 -115h-53q-28 -56 -1 -88.5t87 -32.5q42 0 69.5 16t41.5 48.5t19 71t5 94.5q0 102 -19 143.5t-71 64.5q-20 -5 -110 -18l-2 23q98 7 128.5 51t30.5 172q0 102 -14.5 141t-63.5 39t-70.5 -36.5t-0.5 -78.5
h43q14 -42 14 -63q0 -45 -34.5 -74t-86.5 -29q-58 0 -88.5 36t-30.5 85q0 80 79 129t212 49z" />
    <glyph glyph-name="questiondown" unicode="&#xbf;" horiz-adv-x="1214" 
d="M623 -481q-234 0 -358 85t-124 259q0 63 17.5 120t50.5 105t67 84.5t82 77.5l340 293v78h27v-447q0 -34 -23 -57l-120 -121q-63 -63 -84 -109.5t-21 -134.5q0 -102 41 -152.5t131 -50.5q47 0 82 16.5t53 42.5t26.5 53.5t8.5 55.5q0 31 -14 66h-74q-16 43 -16 94
q0 75 54.5 121.5t137.5 46.5q98 0 147.5 -58t49.5 -143q0 -66 -28.5 -123t-85 -103t-151 -72.5t-216.5 -26.5zM862 838q0 -70 -43 -116t-117 -46t-117.5 38.5t-43.5 119.5q0 73 41.5 117t115.5 44q85 0 124.5 -46t39.5 -111z" />
    <glyph glyph-name="Agrave" unicode="&#xc0;" horiz-adv-x="1376" 
d="M819 25l-153 462h-377l-164 -462h147v-25h-270v25h84l508 1421h201l503 -1421h78v-25h-692v25h135zM485 1047l-188 -529h358zM479 1847l113 6l211 -340l-10 -12l-324 131q-96 39 -96 117q0 91 106 98z" />
    <glyph glyph-name="Aacute" unicode="&#xc1;" horiz-adv-x="1376" 
d="M819 25l-153 462h-377l-164 -462h147v-25h-270v25h84l508 1421h201l503 -1421h78v-25h-692v25h135zM485 1047l-188 -529h358zM612 1513l213 340l113 -6q32 -1 54 -11.5t31 -26t12 -26.5t3 -22q0 -91 -90 -129l-325 -131z" />
    <glyph glyph-name="Acircumflex" unicode="&#xc2;" horiz-adv-x="1376" 
d="M819 25l-153 462h-377l-164 -462h147v-25h-270v25h84l508 1421h201l503 -1421h78v-25h-692v25h135zM485 1047l-188 -529h358zM383 1518l215 323q60 33 113 33q55 0 87.5 -19.5t55.5 -62.5l150 -272l-11 -11l-297 131l-301 -135z" />
    <glyph glyph-name="Atilde" unicode="&#xc3;" horiz-adv-x="1376" 
d="M819 25l-153 462h-377l-164 -462h147v-25h-270v25h84l508 1421h201l503 -1421h78v-25h-692v25h135zM485 1047l-188 -529h358zM831 1534q-56 0 -168 41t-149 41q-79 0 -113 -82l-16 6q26 81 48 132t51 95t66 64t85 20q57 0 161.5 -41t137.5 -41q20 0 32.5 2t31.5 9
t33 25.5t24 47.5l18 -4q-46 -172 -103.5 -243.5t-138.5 -71.5z" />
    <glyph glyph-name="Adieresis" unicode="&#xc4;" horiz-adv-x="1376" 
d="M819 25l-153 462h-377l-164 -462h147v-25h-270v25h84l508 1421h201l503 -1421h78v-25h-692v25h135zM485 1047l-188 -529h358zM758 1690q0 66 46 110.5t134 44.5q87 0 133.5 -39t46.5 -116q0 -72 -45.5 -116t-132.5 -44q-96 0 -139 46.5t-43 113.5zM307 1690
q0 66 46 110.5t134 44.5q87 0 134 -39t47 -116q0 -72 -45.5 -116t-133.5 -44q-96 0 -139 46.5t-43 113.5z" />
    <glyph glyph-name="Aring" unicode="&#xc5;" horiz-adv-x="1376" 
d="M819 25l-153 462h-377l-164 -462h147v-25h-270v25h84l508 1421h201l503 -1421h78v-25h-692v25h135zM485 1047l-188 -529h358zM555 1688q0 -65 34 -107.5t113 -42.5q72 0 109 42.5t37 107.5q0 62 -37.5 103.5t-112.5 41.5q-74 0 -108.5 -41.5t-34.5 -103.5zM494 1688
q0 84 54.5 139t156.5 55q98 0 150 -52t52 -138q0 -91 -54.5 -147t-152.5 -56q-105 0 -155.5 53.5t-50.5 145.5z" />
    <glyph glyph-name="AE" unicode="&#xc6;" horiz-adv-x="2039" 
d="M762 1407v27h1120l21 -410h-15q-53 103 -97 168.5t-100.5 117t-124.5 74.5t-157 23h-16v-664h18q57 0 108.5 24.5t88 64.5t62 85t40.5 93h12v-607h-12q-85 304 -297 304h-20v-680h37q91 0 178 36t153.5 96t116.5 135.5t76 156.5h18l-16 -451h-1125v27h113v680h-416
l-415 -680h161v-27h-294v27h88l845 1380h-151zM549 743h395v646z" />
    <glyph glyph-name="Ccedilla" unicode="&#xc7;" horiz-adv-x="1333" 
d="M766 1436q-117 0 -179.5 -137.5t-62.5 -411.5v-355q0 -528 256 -528q62 0 130 46t129.5 122.5t109.5 150t90 152.5h16l-18 -473h-12q-25 41 -66 41q-27 0 -94 -18q-142 -40 -268 -45l-54 -93q49 7 74 7q121 0 177.5 -48t56.5 -129q0 -41 -15.5 -78.5t-48.5 -71
t-95.5 -53.5t-146.5 -20q-103 0 -161 35t-58 96q0 46 28.5 75.5t72.5 29.5q42 0 67.5 -26t28.5 -71l-55 -34q-6 -33 11 -57.5t50 -24.5q43 0 59.5 37.5t16.5 128.5v5q0 35 -0.5 51.5t-2 41t-5 35.5t-10 23.5t-17 17t-25.5 4.5q-28 0 -61 -8l-6 16l67 111
q-331 6 -509.5 185.5t-178.5 528.5q0 367 191.5 564.5t521.5 197.5q125 0 277 -45q59 -18 92 -18q24 0 35.5 9t25.5 32h19l16 -449h-21q-102 196 -222.5 323.5t-225.5 127.5z" />
    <glyph glyph-name="Egrave" unicode="&#xc8;" horiz-adv-x="1222" 
d="M18 1434h1049l18 -410h-20q-98 192 -207 287.5t-266 95.5h-17v-662h25q112 0 186 79.5t103 199.5h16v-606h-16q-37 146 -114.5 220.5t-174.5 74.5h-25v-686h37q89 0 177.5 41.5t155.5 106t116.5 136.5t73.5 140h20l-16 -451h-1121v27h109v1380h-109v27zM463 1847l112 6
l211 -340l-10 -12l-323 131q-97 40 -97 117q0 91 107 98z" />
    <glyph glyph-name="Eacute" unicode="&#xc9;" horiz-adv-x="1222" 
d="M18 1434h1049l18 -410h-20q-98 192 -207 287.5t-266 95.5h-17v-662h25q112 0 186 79.5t103 199.5h16v-606h-16q-37 146 -114.5 220.5t-174.5 74.5h-25v-686h37q89 0 177.5 41.5t155.5 106t116.5 136.5t73.5 140h20l-16 -451h-1121v27h109v1380h-109v27zM440 1513l213 340
l113 -6q32 -1 54 -11.5t31 -26t12 -26.5t3 -22q0 -91 -90 -129l-325 -131z" />
    <glyph glyph-name="Ecircumflex" unicode="&#xca;" horiz-adv-x="1222" 
d="M18 1434h1049l18 -410h-20q-98 192 -207 287.5t-266 95.5h-17v-662h25q112 0 186 79.5t103 199.5h16v-606h-16q-37 146 -114.5 220.5t-174.5 74.5h-25v-686h37q89 0 177.5 41.5t155.5 106t116.5 136.5t73.5 140h20l-16 -451h-1121v27h109v1380h-109v27zM283 1518l215 323
q60 33 112 33q55 0 88.5 -19.5t55.5 -62.5l149 -272l-10 -11l-297 131l-301 -135z" />
    <glyph glyph-name="Edieresis" unicode="&#xcb;" horiz-adv-x="1222" 
d="M18 1434h1049l18 -410h-20q-98 192 -207 287.5t-266 95.5h-17v-662h25q112 0 186 79.5t103 199.5h16v-606h-16q-37 146 -114.5 220.5t-174.5 74.5h-25v-686h37q89 0 177.5 41.5t155.5 106t116.5 136.5t73.5 140h20l-16 -451h-1121v27h109v1380h-109v27zM627 1690
q0 66 46 110.5t134 44.5q87 0 133.5 -39t46.5 -116q0 -72 -45.5 -116t-132.5 -44q-96 0 -139 46.5t-43 113.5zM176 1690q0 66 46 110.5t134 44.5q87 0 134 -39t47 -116q0 -72 -45.5 -116t-133.5 -44q-96 0 -139 46.5t-43 113.5z" />
    <glyph glyph-name="Igrave" unicode="&#xcc;" horiz-adv-x="702" 
d="M27 1434h649v-27h-101v-1380h101v-27h-649v27h100v1380h-100v27zM240 1847l112 6l211 -340l-10 -12l-324 131q-96 39 -96 117q0 91 107 98z" />
    <glyph glyph-name="Iacute" unicode="&#xcd;" horiz-adv-x="702" 
d="M27 1434h649v-27h-101v-1380h101v-27h-649v27h100v1380h-100v27zM182 1513l213 340l113 -6q32 -1 54 -11.5t31 -26t12 -26.5t3 -22q0 -91 -90 -129l-325 -131z" />
    <glyph glyph-name="Icircumflex" unicode="&#xce;" horiz-adv-x="702" 
d="M27 1434h649v-27h-101v-1380h101v-27h-649v27h100v1380h-100v27zM47 1518l215 323q60 33 113 33q55 0 87.5 -19.5t55.5 -62.5l150 -272l-11 -11l-297 131l-301 -135z" />
    <glyph glyph-name="Idieresis" unicode="&#xcf;" horiz-adv-x="702" 
d="M27 1434h649v-27h-101v-1380h101v-27h-649v27h100v1380h-100v27zM406 1690q0 66 46 110.5t134 44.5q87 0 133.5 -39t46.5 -116q0 -72 -45.5 -116t-132.5 -44q-96 0 -139 46.5t-43 113.5zM-45 1690q0 66 46 110.5t134 44.5q87 0 133.5 -39t46.5 -116q0 -72 -45.5 -116
t-132.5 -44q-96 0 -139 46.5t-43 113.5z" />
    <glyph glyph-name="Eth" unicode="&#xd0;" horiz-adv-x="1480" 
d="M12 741v31h115v635h-123v27h645q191 0 330.5 -37t239.5 -118t149 -215t49 -323q0 -170 -39.5 -299t-109.5 -212t-174.5 -135t-224.5 -73.5t-271 -21.5h-594v27h123v714h-115zM571 27h60q172 0 244.5 139.5t72.5 456.5v211q0 144 -11 241t-34 163.5t-65 102.5t-97 51
t-137 15h-33v-635h240v-31h-240v-714z" />
    <glyph glyph-name="Ntilde" unicode="&#xd1;" horiz-adv-x="1218" 
d="M1092 1407v-1407h-308l-620 1266v-1239h100v-27h-270v27h133v1380h-133v27h590l469 -969v942h-101v27h271v-27h-131zM772 1534q-56 0 -168 41t-149 41q-79 0 -113 -82l-16 6q53 164 105.5 237.5t143.5 73.5q57 0 161.5 -41t137.5 -41q20 0 32.5 2t31.5 9t33 25.5t24 47.5
l19 -4q-46 -172 -103.5 -243.5t-138.5 -71.5z" />
    <glyph glyph-name="Ograve" unicode="&#xd2;" horiz-adv-x="1454" 
d="M934 473v514q0 85 -2.5 142t-10 112t-21 88t-36 59t-55 37t-76.5 11q-31 0 -57 -5t-46 -17.5t-35.5 -26t-27.5 -38t-20 -45.5t-13.5 -55.5t-8.5 -62t-4.5 -72t-2 -77.5t-0.5 -85v-489q0 -78 2.5 -133t10 -111t22 -92t37.5 -66t57.5 -43.5t81.5 -13.5t81 13t56.5 43t36 65
t20.5 94.5t9 114t2 139.5zM51 690q0 362 178 564t519 202q327 0 491 -190.5t164 -546.5q0 -350 -170.5 -544.5t-509.5 -194.5q-336 0 -504 184.5t-168 525.5zM641 1847l113 6l211 -340l-11 -12l-323 131q-96 39 -96 117q0 91 106 98z" />
    <glyph glyph-name="Oacute" unicode="&#xd3;" horiz-adv-x="1454" 
d="M934 473v514q0 85 -2.5 142t-10 112t-21 88t-36 59t-55 37t-76.5 11q-31 0 -57 -5t-46 -17.5t-35.5 -26t-27.5 -38t-20 -45.5t-13.5 -55.5t-8.5 -62t-4.5 -72t-2 -77.5t-0.5 -85v-489q0 -78 2.5 -133t10 -111t22 -92t37.5 -66t57.5 -43.5t81.5 -13.5t81 13t56.5 43t36 65
t20.5 94.5t9 114t2 139.5zM51 690q0 362 178 564t519 202q327 0 491 -190.5t164 -546.5q0 -350 -170.5 -544.5t-509.5 -194.5q-336 0 -504 184.5t-168 525.5zM573 1513l213 340l113 -6q32 -1 54 -11.5t31 -26t12 -26.5t3 -22q0 -91 -90 -129l-325 -131z" />
    <glyph glyph-name="Ocircumflex" unicode="&#xd4;" horiz-adv-x="1454" 
d="M934 473v514q0 85 -2.5 142t-10 112t-21 88t-36 59t-55 37t-76.5 11q-31 0 -57 -5t-46 -17.5t-35.5 -26t-27.5 -38t-20 -45.5t-13.5 -55.5t-8.5 -62t-4.5 -72t-2 -77.5t-0.5 -85v-489q0 -78 2.5 -133t10 -111t22 -92t37.5 -66t57.5 -43.5t81.5 -13.5t81 13t56.5 43t36 65
t20.5 94.5t9 114t2 139.5zM51 690q0 362 178 564t519 202q327 0 491 -190.5t164 -546.5q0 -350 -170.5 -544.5t-509.5 -194.5q-336 0 -504 184.5t-168 525.5zM442 1518l215 323q60 33 113 33q55 0 87.5 -19.5t55.5 -62.5l150 -272l-10 -11l-297 131l-301 -135z" />
    <glyph glyph-name="Otilde" unicode="&#xd5;" horiz-adv-x="1454" 
d="M934 473v514q0 85 -2.5 142t-10 112t-21 88t-36 59t-55 37t-76.5 11q-31 0 -57 -5t-46 -17.5t-35.5 -26t-27.5 -38t-20 -45.5t-13.5 -55.5t-8.5 -62t-4.5 -72t-2 -77.5t-0.5 -85v-489q0 -78 2.5 -133t10 -111t22 -92t37.5 -66t57.5 -43.5t81.5 -13.5t81 13t56.5 43t36 65
t20.5 94.5t9 114t2 139.5zM51 690q0 362 178 564t519 202q327 0 491 -190.5t164 -546.5q0 -350 -170.5 -544.5t-509.5 -194.5q-336 0 -504 184.5t-168 525.5zM874 1534q-56 0 -168 41t-149 41q-79 0 -113 -82l-16 6q26 81 48 132t51 95t66 64t85 20q57 0 161.5 -41
t137.5 -41q20 0 32.5 2t31.5 9t33 25.5t24 47.5l18 -4q-46 -172 -103.5 -243.5t-138.5 -71.5z" />
    <glyph glyph-name="Odieresis" unicode="&#xd6;" horiz-adv-x="1454" 
d="M934 473v514q0 85 -2.5 142t-10 112t-21 88t-36 59t-55 37t-76.5 11q-31 0 -57 -5t-46 -17.5t-35.5 -26t-27.5 -38t-20 -45.5t-13.5 -55.5t-8.5 -62t-4.5 -72t-2 -77.5t-0.5 -85v-489q0 -78 2.5 -133t10 -111t22 -92t37.5 -66t57.5 -43.5t81.5 -13.5t81 13t56.5 43t36 65
t20.5 94.5t9 114t2 139.5zM51 690q0 362 178 564t519 202q327 0 491 -190.5t164 -546.5q0 -350 -170.5 -544.5t-509.5 -194.5q-336 0 -504 184.5t-168 525.5zM805 1690q0 66 46 110.5t134 44.5q87 0 133.5 -39t46.5 -116q0 -72 -45.5 -116t-132.5 -44q-96 0 -139 46.5
t-43 113.5zM354 1690q0 66 46.5 110.5t134.5 44.5q87 0 133.5 -39t46.5 -116q0 -72 -45.5 -116t-132.5 -44q-96 0 -139.5 46.5t-43.5 113.5z" />
    <glyph glyph-name="multiply" unicode="&#xd7;" horiz-adv-x="1052" 
d="M877 954l-310 -307l307 -305l-45 -45l-305 303l-305 -305l-47 47l307 305l-303 303l43 45l305 -303l307 307z" />
    <glyph glyph-name="Oslash" unicode="&#xd8;" horiz-adv-x="1484" 
d="M66 690q0 362 178 564t518 202q148 0 266 -41l57 139l33 -14l-57 -139q178 -74 267 -247.5t89 -434.5q0 -350 -170.5 -544.5t-509.5 -194.5q-125 0 -248 30l-55 -135l-33 12l56 133q-197 68 -294 238.5t-97 431.5zM532 463q0 -141 11 -232l397 971q-12 124 -55 179
t-137 55q-31 0 -57 -5t-46 -17.5t-36 -26.5t-27.5 -37.5t-20 -45t-14 -56t-8.5 -62.5t-4.5 -72t-2 -77t-0.5 -85v-489zM948 473v514q0 92 -2 133l-391 -952q20 -82 64 -123t124 -41q47 0 81 13t56.5 43t36 65t20.5 94.5t9 114t2 139.5z" />
    <glyph glyph-name="Ugrave" unicode="&#xd9;" horiz-adv-x="1310" 
d="M840 35q150 0 230.5 107t80.5 331v934h-131v27h274v-27h-102v-920q0 -73 -5.5 -129t-19.5 -110.5t-37.5 -94t-61 -74t-89.5 -55.5t-122.5 -32.5t-160.5 -11.5q-104 0 -188 15.5t-158 53.5t-124 98t-78.5 154t-28.5 217v889h-101v27h674v-27h-125v-975q0 -94 11.5 -161.5
t40.5 -123.5t84 -84t137 -28zM637 1847l113 6l211 -340l-11 -12l-323 131q-97 40 -97 117q0 91 107 98z" />
    <glyph glyph-name="Uacute" unicode="&#xda;" horiz-adv-x="1310" 
d="M840 35q-82 0 -137 28t-84 84t-40.5 123.5t-11.5 161.5v975h125v27h-674v-27h101v-889q0 -123 28.5 -217t78.5 -154t124 -98t158 -53.5t188 -15.5q90 0 160.5 11.5t122.5 32.5t89.5 55.5t61 74t37.5 94t19.5 110.5t5.5 129v920h102v27h-274v-27h131v-934
q0 -224 -80.5 -331t-230.5 -107zM553 1513l213 340l113 -6q32 -1 54 -11.5t31 -26t12 -26.5t3 -22q0 -91 -90 -129l-326 -131z" />
    <glyph glyph-name="Ucircumflex" unicode="&#xdb;" horiz-adv-x="1310" 
d="M840 35q-82 0 -137 28t-84 84t-40.5 123.5t-11.5 161.5v975h125v27h-674v-27h101v-889q0 -123 28.5 -217t78.5 -154t124 -98t158 -53.5t188 -15.5q90 0 160.5 11.5t122.5 32.5t89.5 55.5t61 74t37.5 94t19.5 110.5t5.5 129v920h102v27h-274v-27h131v-934
q0 -224 -80.5 -331t-230.5 -107zM440 1518l215 323q60 33 113 33q55 0 87.5 -19.5t55.5 -62.5l150 -272l-10 -11l-297 131l-301 -135z" />
    <glyph glyph-name="Udieresis" unicode="&#xdc;" horiz-adv-x="1310" 
d="M840 35q150 0 230.5 107t80.5 331v934h-131v27h274v-27h-102v-920q0 -73 -5.5 -129t-19.5 -110.5t-37.5 -94t-61 -74t-89.5 -55.5t-122.5 -32.5t-160.5 -11.5q-104 0 -188 15.5t-158 53.5t-124 98t-78.5 154t-28.5 217v889h-101v27h674v-27h-125v-975q0 -94 11.5 -161.5
t40.5 -123.5t84 -84t137 -28zM786 1690q0 66 46.5 110.5t134.5 44.5q87 0 133.5 -39t46.5 -116q0 -72 -45.5 -116t-132.5 -44q-96 0 -139.5 46.5t-43.5 113.5zM336 1690q0 66 46 110.5t134 44.5q87 0 133.5 -39t46.5 -116q0 -72 -45.5 -116t-132.5 -44q-96 0 -139 46.5
t-43 113.5z" />
    <glyph glyph-name="Yacute" unicode="&#xdd;" horiz-adv-x="1271" 
d="M829 739l279 668h-199v27h363v-27h-127l-287 -698v-682h111v-27h-670v27h111v655l-332 725h-78v27h674v-27h-123l268 -668h10zM547 1513l213 340l112 -6q32 -1 54 -11.5t31.5 -26t12.5 -27t3 -21.5q0 -91 -90 -129l-326 -131z" />
    <glyph glyph-name="Thorn" unicode="&#xde;" horiz-adv-x="1302" 
d="M575 1407v-248h58q123 0 214.5 -11.5t166.5 -39.5t121 -74.5t71 -117t25 -166.5q0 -127 -43.5 -213.5t-131.5 -135t-202 -68.5t-274 -20h-5v-286h256v-27h-817v27h113v1380h-113v27h817v-27h-256zM575 1133v-793h21q45 0 75.5 15.5t48 39.5t26.5 70t11.5 90.5t2.5 116.5
v164q0 69 -3 111t-12 82t-26.5 60t-47 32t-73.5 12h-23z" />
    <glyph glyph-name="germandbls" unicode="&#xdf;" horiz-adv-x="1411" 
d="M655 0v371h21q43 -158 138 -260.5t216 -102.5q166 0 166 142q0 21 -7 39t-14.5 31t-28 27.5t-31 22t-41.5 20.5t-42.5 17.5t-48.5 18.5q-39 15 -62 24t-59 27t-58 34.5t-48.5 42.5t-41 55t-24.5 68t-10 85q0 63 21.5 121t56 103t76.5 88t83.5 84t76 81.5t56 90
t21.5 101.5q0 107 -77.5 163t-205.5 56q-60 0 -102.5 -16t-67 -41t-38 -68t-17.5 -85t-4 -103v-1237h-539v25h103v905q0 151 33.5 266.5t89.5 187t138.5 116.5t170 62t193.5 17q360 0 360 -250q0 -58 -24.5 -112t-59.5 -94t-70 -77.5t-59.5 -78t-24.5 -80.5
q0 -29 12.5 -51.5t41.5 -41.5t53.5 -31t69.5 -30q133 -54 190 -94q151 -108 152 -305q0 -153 -102 -253.5t-230 -100.5q-70 0 -122 16t-112 55q-55 37 -86 37q-43 0 -63 -88h-19z" />
    <glyph glyph-name="agrave" unicode="&#xe0;" horiz-adv-x="1134" 
d="M520 477h58v189q0 123 -10.5 190t-31.5 92t-59 25q-42 0 -63.5 -24.5t-20.5 -57.5t17 -66h55q16 -43 16 -96q0 -73 -54.5 -120.5t-137.5 -47.5q-97 0 -144 48t-47 132q0 126 117 190t328 64q254 0 353 -83t99 -304v-430q0 -58 13 -79t41 -21q69 0 84 223l26 -2
q-1 -96 -19 -159t-55.5 -98t-86.5 -48.5t-121 -13.5q-128 0 -195 39t-88 118q-20 -78 -78 -117.5t-168 -39.5q-46 0 -86.5 5.5t-84.5 22t-75 42.5t-51 72t-20 107q0 50 15 88.5t45.5 65.5t71.5 45.5t98 29t119 15t140 4.5zM504 59q27 0 50.5 48t23.5 139v207h-15
q-60 0 -84 -56t-24 -172q0 -102 9.5 -134t39.5 -32zM469 1483l96 -17l121 -397l-16 -12l-277 227q-63 53 -63 107q0 45 30 75t109 17z" />
    <glyph glyph-name="aacute" unicode="&#xe1;" horiz-adv-x="1134" 
d="M520 477h58v189q0 123 -10.5 190t-31.5 92t-59 25q-42 0 -63.5 -24.5t-20.5 -57.5t17 -66h55q16 -43 16 -96q0 -73 -54.5 -120.5t-137.5 -47.5q-97 0 -144 48t-47 132q0 126 117 190t328 64q254 0 353 -83t99 -304v-430q0 -58 13 -79t41 -21q69 0 84 223l26 -2
q-1 -96 -19 -159t-55.5 -98t-86.5 -48.5t-121 -13.5q-128 0 -195 39t-88 118q-20 -78 -78 -117.5t-168 -39.5q-46 0 -86.5 5.5t-84.5 22t-75 42.5t-51 72t-20 107q0 50 15 88.5t45.5 65.5t71.5 45.5t98 29t119 15t140 4.5zM504 59q27 0 50.5 48t23.5 139v207h-15
q-60 0 -84 -56t-24 -172q0 -102 9.5 -134t39.5 -32zM424 1069l121 397l96 17q45 7 72 3.5t42 -22.5t20 -36t5 -37q0 -52 -63 -107l-279 -227z" />
    <glyph glyph-name="acircumflex" unicode="&#xe2;" horiz-adv-x="1134" 
d="M520 477h58v189q0 123 -10.5 190t-31.5 92t-59 25q-42 0 -63.5 -24.5t-20.5 -57.5t17 -66h55q16 -43 16 -96q0 -73 -54.5 -120.5t-137.5 -47.5q-97 0 -144 48t-47 132q0 126 117 190t328 64q254 0 353 -83t99 -304v-430q0 -58 13 -79t41 -21q69 0 84 223l26 -2
q-1 -96 -19 -159t-55.5 -98t-86.5 -48.5t-121 -13.5q-128 0 -195 39t-88 118q-20 -78 -78 -117.5t-168 -39.5q-46 0 -86.5 5.5t-84.5 22t-75 42.5t-51 72t-20 107q0 50 15 88.5t45.5 65.5t71.5 45.5t98 29t119 15t140 4.5zM504 59q27 0 50.5 48t23.5 139v207h-15
q-60 0 -84 -56t-24 -172q0 -102 9.5 -134t39.5 -32zM260 1067l203 410q62 32 121 32q91 0 131 -98l145 -346l-14 -10l-285 202l-282 -204z" />
    <glyph glyph-name="atilde" unicode="&#xe3;" horiz-adv-x="1134" 
d="M520 477h58v189q0 123 -10.5 190t-31.5 92t-59 25q-42 0 -63.5 -24.5t-20.5 -57.5t17 -66h55q16 -43 16 -96q0 -73 -54.5 -120.5t-137.5 -47.5q-97 0 -144 48t-47 132q0 126 117 190t328 64q254 0 353 -83t99 -304v-430q0 -58 13 -79t41 -21q69 0 84 223l26 -2
q-1 -96 -19 -159t-55.5 -98t-86.5 -48.5t-121 -13.5q-128 0 -195 39t-88 118q-20 -78 -78 -117.5t-168 -39.5q-46 0 -86.5 5.5t-84.5 22t-75 42.5t-51 72t-20 107q0 50 15 88.5t45.5 65.5t71.5 45.5t98 29t119 15t140 4.5zM504 59q27 0 50.5 48t23.5 139v207h-15
q-60 0 -84 -56t-24 -172q0 -102 9.5 -134t39.5 -32zM688 1108q-56 0 -168 41t-149 41q-79 0 -113 -82l-16 6q26 81 48 132t51 95t66 64t85 20q57 0 161.5 -41t137.5 -41q27 0 44 3t40.5 23t35.5 58l19 -4q-46 -172 -103.5 -243.5t-138.5 -71.5z" />
    <glyph glyph-name="adieresis" unicode="&#xe4;" horiz-adv-x="1134" 
d="M520 477h58v189q0 123 -10.5 190t-31.5 92t-59 25q-42 0 -63.5 -24.5t-20.5 -57.5t17 -66h55q16 -43 16 -96q0 -73 -54.5 -120.5t-137.5 -47.5q-97 0 -144 48t-47 132q0 126 117 190t328 64q254 0 353 -83t99 -304v-430q0 -58 13 -79t41 -21q69 0 84 223l26 -2
q-1 -96 -19 -159t-55.5 -98t-86.5 -48.5t-121 -13.5q-128 0 -195 39t-88 118q-20 -78 -78 -117.5t-168 -39.5q-46 0 -86.5 5.5t-84.5 22t-75 42.5t-51 72t-20 107q0 50 15 88.5t45.5 65.5t71.5 45.5t98 29t119 15t140 4.5zM504 59q27 0 50.5 48t23.5 139v207h-15
q-60 0 -84 -56t-24 -172q0 -102 9.5 -134t39.5 -32zM592 1260q0 66 46 110.5t134 44.5q87 0 133.5 -39t46.5 -116q0 -72 -45.5 -116t-132.5 -44q-96 0 -139 46.5t-43 113.5zM141 1260q0 66 46.5 110.5t134.5 44.5q87 0 133.5 -39t46.5 -116q0 -72 -45.5 -116t-132.5 -44
q-96 0 -139.5 46.5t-43.5 113.5z" />
    <glyph glyph-name="aring" unicode="&#xe5;" horiz-adv-x="1134" 
d="M520 477h58v189q0 123 -10.5 190t-31.5 92t-59 25q-42 0 -63.5 -24.5t-20.5 -57.5t17 -66h55q16 -43 16 -96q0 -73 -54.5 -120.5t-137.5 -47.5q-97 0 -144 48t-47 132q0 126 117 190t328 64q254 0 353 -83t99 -304v-430q0 -58 13 -79t41 -21q69 0 84 223l26 -2
q-1 -96 -19 -159t-55.5 -98t-86.5 -48.5t-121 -13.5q-128 0 -195 39t-88 118q-20 -78 -78 -117.5t-168 -39.5q-46 0 -86.5 5.5t-84.5 22t-75 42.5t-51 72t-20 107q0 50 15 88.5t45.5 65.5t71.5 45.5t98 29t119 15t140 4.5zM504 59q27 0 50.5 48t23.5 139v207h-15
q-60 0 -84 -56t-24 -172q0 -102 9.5 -134t39.5 -32zM399 1292q0 -65 34 -107t114 -42q72 0 108.5 42t36.5 107q0 62 -37 104t-112 42q-74 0 -109 -42t-35 -104zM338 1292q0 84 54.5 139.5t156.5 55.5q98 0 150.5 -52.5t52.5 -138.5q0 -91 -54.5 -146.5t-152.5 -55.5
q-105 0 -156 53t-51 145z" />
    <glyph glyph-name="ae" unicode="&#xe6;" horiz-adv-x="1572" 
d="M561 483v170q0 132 -12.5 204t-32.5 94t-55 22q-10 0 -21.5 -2.5t-27.5 -9.5t-26.5 -24t-10.5 -42q0 -32 14 -70h60q16 -43 16 -96q0 -73 -54.5 -120.5t-138.5 -47.5q-190 0 -190 178q0 86 55 145t143.5 85t202.5 26q125 0 203.5 -31t126.5 -108q41 70 124.5 104.5
t186.5 34.5q438 0 420 -467h-557v-90q0 -77 5 -133t20 -108.5t40 -85.5t66.5 -52.5t98.5 -19.5q112 0 188 69t111 191l28 -8q-21 -72 -50.5 -124.5t-80 -97t-129.5 -67t-186 -22.5q-295 0 -436 174q-8 -25 -18.5 -45.5t-34.5 -45.5t-56.5 -42t-87 -29t-123.5 -12
q-46 0 -85.5 5.5t-82.5 21.5t-73.5 42.5t-50 72.5t-19.5 107q0 73 32 123t95 76.5t141 37.5t186 11h76v6zM987 557h158v201q0 123 -14 168t-62 45q-55 0 -68.5 -67t-13.5 -271v-76zM526 53q17 0 35.5 7.5t42.5 36.5t37 77q-71 107 -80 283h-14q-52 0 -72 -51.5t-20 -180.5
q0 -103 16.5 -137.5t54.5 -34.5z" />
    <glyph glyph-name="ccedilla" unicode="&#xe7;" horiz-adv-x="983" 
d="M598 975q-75 0 -102 -83.5t-27 -266.5v-238q0 -182 37.5 -262t148.5 -80q62 0 111.5 27t80.5 70.5t49 86.5t26 88l30 -4q-7 -34 -13.5 -58t-21.5 -60t-32.5 -62t-48 -55.5t-68 -48.5t-92 -33t-119.5 -16l-53 -93q49 7 74 7q121 0 177 -48t56 -129q0 -41 -15 -78t-48 -71
t-95.5 -54t-146.5 -20q-103 0 -161 35t-58 96q0 46 28 75.5t72 29.5q42 0 67.5 -26t28.5 -71l-55 -34q-6 -33 11 -57.5t50 -24.5q43 0 59.5 37.5t16.5 128.5v10q0 34 -0.5 50t-2 40t-5 34.5t-10 22.5t-16.5 16.5t-25 4.5q-29 0 -62 -8l-6 16l68 111q-231 8 -354 135.5
t-123 361.5q0 253 147 385.5t412 132.5q185 0 277.5 -70.5t92.5 -189.5q0 -95 -52 -147.5t-134 -52.5q-89 0 -138.5 44.5t-49.5 133.5q0 37 10 73h76q12 36 16 68t-2 60t-27.5 44.5t-58.5 16.5z" />
    <glyph glyph-name="egrave" unicode="&#xe8;" horiz-adv-x="1054" 
d="M29 487q0 103 28.5 188.5t77.5 144t117 98.5t145 58.5t162 18.5q252 0 364 -117t103 -350h-557v-90q0 -77 4.5 -131.5t18 -108.5t38 -87t65.5 -53.5t99 -20.5q111 0 189.5 70t113.5 192l29 -8q-16 -57 -38 -101t-58.5 -85t-84.5 -67.5t-117 -42t-155 -15.5
q-272 0 -408 137t-136 370zM469 557h158v168q0 50 -1 80.5t-3.5 61.5t-7.5 48t-13.5 31t-20.5 19.5t-30 5.5q-53 0 -67.5 -55t-14.5 -207v-152zM471 1483l96 -17l121 -397l-16 -12l-277 227q-63 53 -63 107q0 45 30 75t109 17z" />
    <glyph glyph-name="eacute" unicode="&#xe9;" horiz-adv-x="1054" 
d="M29 487q0 -233 136 -370t408 -137q86 0 155 15.5t117 42t84.5 67.5t58.5 85t38 101l-29 8q-35 -122 -113.5 -192t-189.5 -70q-58 0 -99 20.5t-65.5 53.5t-38 87t-18 108.5t-4.5 131.5v90h557q9 233 -103 350t-364 117q-85 0 -162 -18.5t-145 -58.5t-117 -98.5t-77.5 -144
t-28.5 -188.5zM627 557h-158v152q0 78 2 120t10.5 78.5t25 50t44.5 13.5q18 0 30 -5.5t20.5 -19.5t13.5 -31t7.5 -48t3.5 -61.5t1 -80.5v-168zM428 1069l121 397l96 17q45 7 72 3.5t42 -22.5t20 -36t5 -37q0 -52 -63 -107l-279 -227z" />
    <glyph glyph-name="ecircumflex" unicode="&#xea;" horiz-adv-x="1054" 
d="M29 487q0 -233 136 -370t408 -137q86 0 155 15.5t117 42t84.5 67.5t58.5 85t38 101l-29 8q-35 -122 -113.5 -192t-189.5 -70q-58 0 -99 20.5t-65.5 53.5t-38 87t-18 108.5t-4.5 131.5v90h557q9 233 -103 350t-364 117q-85 0 -162 -18.5t-145 -58.5t-117 -98.5t-77.5 -144
t-28.5 -188.5zM627 557h-158v152q0 78 2 120t10.5 78.5t25 50t44.5 13.5q18 0 30 -5.5t20.5 -19.5t13.5 -31t7.5 -48t3.5 -61.5t1 -80.5v-168zM264 1067l203 410q62 32 121 32q91 0 131 -98l145 -346l-14 -10l-285 202l-282 -204z" />
    <glyph glyph-name="edieresis" unicode="&#xeb;" horiz-adv-x="1054" 
d="M29 487q0 103 28.5 188.5t77.5 144t117 98.5t145 58.5t162 18.5q252 0 364 -117t103 -350h-557v-90q0 -77 4.5 -131.5t18 -108.5t38 -87t65.5 -53.5t99 -20.5q111 0 189.5 70t113.5 192l29 -8q-16 -57 -38 -101t-58.5 -85t-84.5 -67.5t-117 -42t-155 -15.5
q-272 0 -408 137t-136 370zM469 557h158v168q0 50 -1 80.5t-3.5 61.5t-7.5 48t-13.5 31t-20.5 19.5t-30 5.5q-53 0 -67.5 -55t-14.5 -207v-152zM596 1260q0 66 46 110.5t134 44.5q87 0 133.5 -39t46.5 -116q0 -72 -45.5 -116t-132.5 -44q-96 0 -139 46.5t-43 113.5z
M145 1260q0 66 46.5 110.5t134.5 44.5q87 0 133.5 -39t46.5 -116q0 -72 -45.5 -116t-132.5 -44q-96 0 -139.5 46.5t-43.5 113.5z" />
    <glyph glyph-name="igrave" unicode="&#xec;" horiz-adv-x="638" 
d="M188 1483l97 -17l121 -397l-17 -12l-276 227q-64 54 -64 107q0 45 30 75t109 17zM-8 975h551v-950h106v-25h-647v25h104v925h-114v25z" />
    <glyph glyph-name="iacute" unicode="&#xed;" horiz-adv-x="638" 
d="M193 1069l120 397l97 17q45 7 72 3.5t42 -22.5t20 -36t5 -37q0 -51 -64 -107l-278 -227zM-8 975h551v-950h106v-25h-647v25h104v925h-114v25z" />
    <glyph glyph-name="icircumflex" unicode="&#xee;" horiz-adv-x="638" 
d="M-8 975h551v-950h106v-25h-647v25h104v925h-114v25zM4 1067l203 410q62 32 121 32q91 0 131 -98l145 -346l-14 -10l-285 202l-282 -204z" />
    <glyph glyph-name="idieresis" unicode="&#xef;" horiz-adv-x="638" 
d="M334 1260q0 66 46 110.5t134 44.5q87 0 133.5 -39t46.5 -116q0 -72 -45.5 -116t-132.5 -44q-96 0 -139 46.5t-43 113.5zM-117 1260q0 66 46 110.5t134 44.5q87 0 134 -39t47 -116q0 -72 -45.5 -116t-132.5 -44q-96 0 -139.5 46.5t-43.5 113.5zM-8 975h551v-950h106v-25
h-647v25h104v925h-114v25z" />
    <glyph glyph-name="eth" unicode="&#xf0;" horiz-adv-x="1114" 
d="M41 483q0 164 67 281.5t179.5 174t257.5 56.5q100 0 157 -63q-12 122 -47 235.5t-86 186.5l-274 -168l-8 49l256 156q-35 35 -61 55t-68.5 41.5t-101 31t-138.5 9.5q-49 0 -76 -2l2 30q117 13 197 13q229 0 401 -86l260 153l9 -45l-224 -135q169 -119 254.5 -320.5
t85.5 -527.5q0 -332 -126 -480t-398 -148q-259 0 -388.5 130t-129.5 373zM641 248v416q0 185 -11.5 246t-64.5 61q-31 0 -48.5 -16.5t-25 -62.5t-9 -84.5t-1.5 -124.5v-24v-411v-10v-50.5t1 -44t3 -41.5t5.5 -33.5t9 -29t13.5 -19.5t19 -14t25 -4q21 0 35.5 6.5t23.5 24
t14.5 33t7.5 50.5t2.5 58.5t0.5 73.5z" />
    <glyph glyph-name="ntilde" unicode="&#xf1;" horiz-adv-x="1239" 
d="M8 975h533v-195q69 215 295 215q309 0 309 -342v-628h106v-25h-594v25h50v772q0 48 -9 73t-36 25q-42 0 -76.5 -75.5t-34.5 -174.5v-620h55v-25h-598v25h105v925h-105v25zM743 1108q-56 0 -168 41t-149 41q-79 0 -113 -82l-16 6q26 81 48 132t51 95t66 64t85 20
q57 0 161.5 -41t137.5 -41q20 0 32.5 2t31.5 9t33 25.5t24 47.5l18 -4q-46 -172 -103.5 -243.5t-138.5 -71.5z" />
    <glyph glyph-name="ograve" unicode="&#xf2;" horiz-adv-x="1101" 
d="M631 248v416v16q0 176 -11.5 233.5t-62.5 57.5q-59 0 -72.5 -65.5t-13.5 -233.5v-13v-411v-10v-50.5t1 -44t3 -41.5t5.5 -33.5t9 -29t13.5 -19.5t19 -14t25 -4q21 0 35.5 6.5t23.5 24t14.5 33t7.5 50.5t2.5 58.5t0.5 73.5zM31 483q0 247 145 379.5t387 132.5
q508 0 508 -491q0 -259 -127.5 -391.5t-394.5 -132.5q-259 0 -388.5 130t-129.5 373zM473 1483l96 -17l121 -397l-16 -12l-277 227q-63 53 -63 107q0 45 30 75t109 17z" />
    <glyph glyph-name="oacute" unicode="&#xf3;" horiz-adv-x="1101" 
d="M631 248v416v16q0 176 -11.5 233.5t-62.5 57.5q-59 0 -72.5 -65.5t-13.5 -233.5v-13v-411v-10v-50.5t1 -44t3 -41.5t5.5 -33.5t9 -29t13.5 -19.5t19 -14t25 -4q21 0 35.5 6.5t23.5 24t14.5 33t7.5 50.5t2.5 58.5t0.5 73.5zM31 483q0 247 145 379.5t387 132.5
q508 0 508 -491q0 -259 -127.5 -391.5t-394.5 -132.5q-259 0 -388.5 130t-129.5 373zM430 1069l121 397l96 17q45 7 72 3.5t42 -22.5t20 -36t5 -37q0 -52 -63 -107l-279 -227z" />
    <glyph glyph-name="ocircumflex" unicode="&#xf4;" horiz-adv-x="1101" 
d="M631 248v416v16q0 176 -11.5 233.5t-62.5 57.5q-59 0 -72.5 -65.5t-13.5 -233.5v-13v-411v-10v-50.5t1 -44t3 -41.5t5.5 -33.5t9 -29t13.5 -19.5t19 -14t25 -4q21 0 35.5 6.5t23.5 24t14.5 33t7.5 50.5t2.5 58.5t0.5 73.5zM31 483q0 247 145 379.5t387 132.5
q508 0 508 -491q0 -259 -127.5 -391.5t-394.5 -132.5q-259 0 -388.5 130t-129.5 373zM262 1067l203 410q62 32 121 32q91 0 131 -98l145 -346l-14 -10l-285 202l-282 -204z" />
    <glyph glyph-name="otilde" unicode="&#xf5;" horiz-adv-x="1101" 
d="M631 248v416v16q0 176 -11.5 233.5t-62.5 57.5q-59 0 -72.5 -65.5t-13.5 -233.5v-13v-411v-10v-50.5t1 -44t3 -41.5t5.5 -33.5t9 -29t13.5 -19.5t19 -14t25 -4q21 0 35.5 6.5t23.5 24t14.5 33t7.5 50.5t2.5 58.5t0.5 73.5zM31 483q0 247 145 379.5t387 132.5
q508 0 508 -491q0 -259 -127.5 -391.5t-394.5 -132.5q-259 0 -388.5 130t-129.5 373zM694 1108q-56 0 -168 41t-149 41q-79 0 -113 -82l-16 6q26 81 48 132t51 95t66 64t85 20q57 0 161.5 -41t137.5 -41q20 0 32.5 2t31.5 9t33 25.5t24 47.5l18 -4q-46 -172 -103.5 -243.5
t-138.5 -71.5z" />
    <glyph glyph-name="odieresis" unicode="&#xf6;" horiz-adv-x="1101" 
d="M631 248v416v16q0 176 -11.5 233.5t-62.5 57.5q-59 0 -72.5 -65.5t-13.5 -233.5v-13v-411v-10v-50.5t1 -44t3 -41.5t5.5 -33.5t9 -29t13.5 -19.5t19 -14t25 -4q21 0 35.5 6.5t23.5 24t14.5 33t7.5 50.5t2.5 58.5t0.5 73.5zM31 483q0 247 145 379.5t387 132.5
q508 0 508 -491q0 -259 -127.5 -391.5t-394.5 -132.5q-259 0 -388.5 130t-129.5 373zM598 1260q0 66 46 110.5t134 44.5q87 0 133.5 -39t46.5 -116q0 -72 -45.5 -116t-132.5 -44q-96 0 -139 46.5t-43 113.5zM147 1260q0 66 46.5 110.5t134.5 44.5q87 0 133.5 -39t46.5 -116
q0 -72 -45.5 -116t-132.5 -44q-96 0 -139.5 46.5t-43.5 113.5z" />
    <glyph glyph-name="divide" unicode="&#xf7;" horiz-adv-x="1052" 
d="M420 918q0 49 29 80.5t83 31.5q53 0 85 -27.5t32 -82.5q0 -54 -29 -85.5t-83 -31.5q-61 0 -89 33t-28 82zM420 387q0 49 29.5 81t82.5 32t85 -28t32 -83q0 -54 -29 -85.5t-83 -31.5q-61 0 -89 33t-28 82zM991 621h-930v63h930v-63z" />
    <glyph glyph-name="oslash" unicode="&#xf8;" horiz-adv-x="1095" 
d="M29 483q0 247 145 379.5t387 132.5q77 0 144 -12l49 135l24 -12l-47 -129q338 -74 338 -473q0 -259 -127.5 -391.5t-394.5 -132.5q-95 0 -172 18l-51 -141l-25 10l49 137q-319 88 -319 479zM629 248v416v30l-160 -438v-8v-10v-50.5t1 -44t3 -41.5t5.5 -33.5t9 -29
t13.5 -19.5t19 -14t25 -4q21 0 35.5 6.5t23.5 24t14.5 33t7.5 50.5t2.5 58.5t0.5 73.5zM469 659v-325l160 440q-2 110 -16 153.5t-58 43.5q-59 0 -72.5 -65.5t-13.5 -233.5v-13z" />
    <glyph glyph-name="ugrave" unicode="&#xf9;" horiz-adv-x="1234" 
d="M1227 0h-512l-21 131q-12 -29 -23 -48.5t-32.5 -40.5t-49 -33.5t-71.5 -20.5t-102 -8q-322 0 -322 342v628h-106v25h542v-715q0 -115 14 -152.5t50 -37.5q43 0 67.5 56t24.5 157v667h-82v25h518v-950h105v-25zM530 1483l97 -17l121 -397l-17 -12l-276 227q-64 54 -64 107
q0 45 30 75t109 17z" />
    <glyph glyph-name="uacute" unicode="&#xfa;" horiz-adv-x="1234" 
d="M1227 0h-512l-21 131q-12 -29 -23 -48.5t-32.5 -40.5t-49 -33.5t-71.5 -20.5t-102 -8q-322 0 -322 342v628h-106v25h542v-715q0 -115 14 -152.5t50 -37.5q43 0 67.5 56t24.5 157v667h-82v25h518v-950h105v-25zM471 1069l121 397l96 17q45 7 72 3.5t42 -22.5t20 -36t5 -37
q0 -52 -63 -107l-279 -227z" />
    <glyph glyph-name="ucircumflex" unicode="&#xfb;" horiz-adv-x="1234" 
d="M1227 0h-512l-21 131q-12 -29 -23 -48.5t-32.5 -40.5t-49 -33.5t-71.5 -20.5t-102 -8q-322 0 -322 342v628h-106v25h542v-715q0 -115 14 -152.5t50 -37.5q43 0 67.5 56t24.5 157v667h-82v25h518v-950h105v-25zM313 1067l203 410q62 32 121 32q91 0 131 -98l145 -346
l-14 -10l-285 202l-282 -204z" />
    <glyph glyph-name="udieresis" unicode="&#xfc;" horiz-adv-x="1234" 
d="M1227 0h-512l-21 131q-12 -29 -23 -48.5t-32.5 -40.5t-49 -33.5t-71.5 -20.5t-102 -8q-322 0 -322 342v628h-106v25h542v-715q0 -115 14 -152.5t50 -37.5q43 0 67.5 56t24.5 157v667h-82v25h518v-950h105v-25zM639 1260q0 66 46 110.5t134 44.5q87 0 133.5 -39t46.5 -116
q0 -72 -45.5 -116t-132.5 -44q-96 0 -139 46.5t-43 113.5zM188 1260q0 66 46.5 110.5t134.5 44.5q87 0 133.5 -39t46.5 -116q0 -72 -45.5 -116t-132.5 -44q-96 0 -139.5 46.5t-43.5 113.5z" />
    <glyph glyph-name="yacute" unicode="&#xfd;" horiz-adv-x="1040" 
d="M-20 975v-25h79l347 -950h221l-43 -127q-116 -338 -293 -338q-55 0 -72 32t8 79h72q12 44 12 73q0 150 -161 150q-84 0 -137.5 -49.5t-53.5 -126.5q0 -101 73.5 -153t194.5 -52q83 0 150.5 30t130 109t104.5 207l375 1116h105v25h-277v-25h135l-229 -667l-205 667h102v25
h-638zM506 1069l121 397l96 17q45 7 72 3.5t42 -22.5t20 -36t5 -37q0 -52 -63 -107l-279 -227z" />
    <glyph glyph-name="thorn" unicode="&#xfe;" horiz-adv-x="1214" 
d="M674 905q-42 0 -77.5 -73.5t-35.5 -198.5v-406q0 -188 90 -188q51 0 63 58t11 217v53v303q0 145 -9 190t-42 45zM555 1534v-725q35 91 96.5 138.5t171.5 47.5q355 0 355 -514q0 -501 -396 -501q-173 0 -223 90v-533h205v-24h-741v24h100v1972h-96v25h528z" />
    <glyph glyph-name="ydieresis" unicode="&#xff;" horiz-adv-x="1040" 
d="M-20 950v25h638v-25h-102l205 -667l229 667h-135v25h277v-25h-105l-375 -1116q-42 -128 -104.5 -207t-130 -109t-150.5 -30q-121 0 -194.5 52t-73.5 153q0 77 53.5 126.5t137.5 49.5q161 0 161 -150q0 -29 -12 -73h-72q-25 -47 -8 -79t72 -32q177 0 293 338l43 127h-221
l-347 950h-79zM621 1260q0 66 46 110.5t134 44.5q87 0 133.5 -39t46.5 -116q0 -72 -45.5 -116t-132.5 -44q-96 0 -139 46.5t-43 113.5zM170 1260q0 66 46 110.5t134 44.5q87 0 133.5 -39t46.5 -116q0 -72 -45.5 -116t-132.5 -44q-96 0 -139 46.5t-43 113.5z" />
    <glyph glyph-name="Amacron" unicode="&#x100;" horiz-adv-x="1376" 
d="M819 25l-153 462h-377l-164 -462h147v-25h-270v25h84l508 1421h201l503 -1421h78v-25h-692v25h135zM485 1047l-188 -529h358zM426 1563v192h557v-192h-557z" />
    <glyph glyph-name="amacron" unicode="&#x101;" horiz-adv-x="1134" 
d="M520 477h58v189q0 123 -10.5 190t-31.5 92t-59 25q-42 0 -63.5 -24.5t-20.5 -57.5t17 -66h55q16 -43 16 -96q0 -73 -54.5 -120.5t-137.5 -47.5q-97 0 -144 48t-47 132q0 126 117 190t328 64q254 0 353 -83t99 -304v-430q0 -58 13 -79t41 -21q69 0 84 223l26 -2
q-1 -96 -19 -159t-55.5 -98t-86.5 -48.5t-121 -13.5q-128 0 -195 39t-88 118q-20 -78 -78 -117.5t-168 -39.5q-46 0 -86.5 5.5t-84.5 22t-75 42.5t-51 72t-20 107q0 50 15 88.5t45.5 65.5t71.5 45.5t98 29t119 15t140 4.5zM504 59q27 0 50.5 48t23.5 139v207h-15
q-60 0 -84 -56t-24 -172q0 -102 9.5 -134t39.5 -32zM276 1130v193h558v-193h-558z" />
    <glyph glyph-name="Abreve" unicode="&#x102;" horiz-adv-x="1376" 
d="M819 25l-153 462h-377l-164 -462h147v-25h-270v25h84l508 1421h201l503 -1421h78v-25h-692v25h135zM485 1047l-188 -529h358zM414 1860l22 4q28 -82 91 -110t182 -28q61 0 98 4t73 17.5t58 41.5t35 73l22 -2q-8 -79 -26.5 -140t-51 -110.5t-86.5 -76t-126 -26.5
q-62 0 -109.5 18.5t-77.5 48t-51.5 77t-32.5 95.5t-20 114z" />
    <glyph glyph-name="abreve" unicode="&#x103;" horiz-adv-x="1134" 
d="M520 477h58v189q0 123 -10.5 190t-31.5 92t-59 25q-42 0 -63.5 -24.5t-20.5 -57.5t17 -66h55q16 -43 16 -96q0 -73 -54.5 -120.5t-137.5 -47.5q-97 0 -144 48t-47 132q0 126 117 190t328 64q254 0 353 -83t99 -304v-430q0 -58 13 -79t41 -21q69 0 84 223l26 -2
q-1 -96 -19 -159t-55.5 -98t-86.5 -48.5t-121 -13.5q-128 0 -195 39t-88 118q-20 -78 -78 -117.5t-168 -39.5q-46 0 -86.5 5.5t-84.5 22t-75 42.5t-51 72t-20 107q0 50 15 88.5t45.5 65.5t71.5 45.5t98 29t119 15t140 4.5zM504 59q27 0 50.5 48t23.5 139v207h-15
q-60 0 -84 -56t-24 -172q0 -102 9.5 -134t39.5 -32zM258 1462l21 4q14 -43 38 -71t61.5 -41.5t76 -18t96.5 -4.5q47 0 76.5 2t64 9t56 21.5t40.5 40t29 62.5l19 -4q-45 -397 -287 -397q-61 0 -108 21.5t-75.5 54t-50.5 88.5t-33.5 106.5t-23.5 126.5z" />
    <glyph glyph-name="Aogonek" unicode="&#x104;" horiz-adv-x="1376" 
d="M819 25l-153 462h-377l-164 -462h147v-25h-270v25h84l508 1421h201l503 -1421h78v-25h-231q-61 -52 -86 -118.5t-25 -162.5q0 -64 6.5 -96t18.5 -41.5t35 -9.5q26 0 50.5 19.5t59.5 70.5l23 -12q-26 -42 -44 -65.5t-48 -49t-70.5 -36.5t-95.5 -11q-87 0 -140 43.5
t-53 128.5q0 51 12 90.5t44 83t96.5 85t161.5 81.5h-406v25h135zM485 1047l-188 -529h358z" />
    <glyph glyph-name="aogonek" unicode="&#x105;" horiz-adv-x="1134" 
d="M520 477h58v189q0 123 -10.5 190t-31.5 92t-59 25q-42 0 -63.5 -24.5t-20.5 -57.5t17 -66h55q16 -43 16 -96q0 -73 -54.5 -120.5t-137.5 -47.5q-97 0 -144 48t-47 132q0 126 117 190t328 64q254 0 353 -83t99 -304v-430q0 -58 13 -79t41 -21q69 0 84 223l26 -2
q-3 -124 -30.5 -190.5t-86.5 -102.5q-70 -43 -98.5 -114t-28.5 -173q0 -64 6.5 -96t18.5 -41.5t35 -9.5q26 0 50.5 19.5t59.5 70.5l23 -12q-26 -42 -44 -65.5t-48 -49t-70.5 -36.5t-95.5 -11q-87 0 -140 43.5t-53 128.5q0 97 62.5 174.5t230.5 151.5q-38 -6 -73 -6
q-128 0 -195 39t-88 118q-20 -78 -78 -117.5t-168 -39.5q-46 0 -86.5 5.5t-84.5 22t-75 42.5t-51 72t-20 107q0 50 15 88.5t45.5 65.5t71.5 45.5t98 29t119 15t140 4.5zM504 59q27 0 50.5 48t23.5 139v207h-15q-60 0 -84 -56t-24 -172q0 -102 9.5 -134t39.5 -32z" />
    <glyph glyph-name="Cacute" unicode="&#x106;" horiz-adv-x="1333" 
d="M766 1436q-117 0 -179.5 -137.5t-62.5 -411.5v-355q0 -528 256 -528q62 0 130 46t129.5 122.5t109.5 150t90 152.5h16l-18 -473h-12q-25 41 -66 41q-27 0 -94 -18q-170 -45 -295 -45q-343 0 -528 179.5t-185 534.5q0 367 191.5 564.5t521.5 197.5q125 0 277 -45
q59 -18 92 -18q24 0 35.5 9t25.5 32h19l16 -449h-21q-102 196 -222.5 323.5t-225.5 127.5zM578 1513l213 340l112 -6q32 -1 54 -11.5t31.5 -26t12.5 -27t3 -21.5q0 -90 -91 -129l-325 -131z" />
    <glyph glyph-name="cacute" unicode="&#x107;" horiz-adv-x="983" 
d="M598 975q-75 0 -102 -83.5t-27 -266.5v-238q0 -182 37.5 -262t148.5 -80q62 0 111.5 27t80.5 70.5t49 86.5t26 88l30 -4q-7 -35 -14 -59.5t-22 -61.5t-34 -63.5t-51.5 -56.5t-72.5 -48.5t-99 -31t-129 -12.5q-242 0 -371.5 128t-129.5 369q0 253 147 385.5t412 132.5
q185 0 277.5 -70.5t92.5 -189.5q0 -95 -52 -147.5t-134 -52.5q-89 0 -138.5 44.5t-49.5 133.5q0 37 10 73h76q12 36 16 68t-2 60t-27.5 44.5t-58.5 16.5zM424 1069l121 397l96 17q45 7 72 3.5t42 -22.5t20 -36t5 -37q0 -52 -63 -107l-279 -227z" />
    <glyph glyph-name="Ccircumflex" unicode="&#x108;" horiz-adv-x="1333" 
d="M766 1436q-117 0 -179.5 -137.5t-62.5 -411.5v-355q0 -528 256 -528q62 0 130 46t129.5 122.5t109.5 150t90 152.5h16l-18 -473h-12q-25 41 -66 41q-27 0 -94 -18q-170 -45 -295 -45q-343 0 -528 179.5t-185 534.5q0 367 191.5 564.5t521.5 197.5q125 0 277 -45
q59 -18 92 -18q24 0 35.5 9t25.5 32h19l16 -449h-21q-102 196 -222.5 323.5t-225.5 127.5zM465 1518l215 323q60 33 113 33q55 0 87.5 -19.5t55.5 -62.5l149 -272l-10 -11l-297 131l-301 -135z" />
    <glyph glyph-name="ccircumflex" unicode="&#x109;" horiz-adv-x="983" 
d="M598 975q-75 0 -102 -83.5t-27 -266.5v-238q0 -182 37.5 -262t148.5 -80q62 0 111.5 27t80.5 70.5t49 86.5t26 88l30 -4q-7 -35 -14 -59.5t-22 -61.5t-34 -63.5t-51.5 -56.5t-72.5 -48.5t-99 -31t-129 -12.5q-242 0 -371.5 128t-129.5 369q0 253 147 385.5t412 132.5
q185 0 277.5 -70.5t92.5 -189.5q0 -95 -52 -147.5t-134 -52.5q-89 0 -138.5 44.5t-49.5 133.5q0 37 10 73h76q12 36 16 68t-2 60t-27.5 44.5t-58.5 16.5zM252 1067l203 410q62 32 120 32q92 0 132 -98l145 -346l-14 -10l-285 202l-283 -204z" />
    <glyph glyph-name="Cdotaccent" unicode="&#x10a;" horiz-adv-x="1333" 
d="M766 1436q-117 0 -179.5 -137.5t-62.5 -411.5v-355q0 -528 256 -528q62 0 130 46t129.5 122.5t109.5 150t90 152.5h16l-18 -473h-12q-25 41 -66 41q-27 0 -94 -18q-170 -45 -295 -45q-343 0 -528 179.5t-185 534.5q0 367 191.5 564.5t521.5 197.5q125 0 277 -45
q59 -18 92 -18q24 0 35.5 9t25.5 32h19l16 -449h-21q-102 196 -222.5 323.5t-225.5 127.5zM571 1694q0 78 52.5 129t164.5 51q100 0 154.5 -46t54.5 -134q0 -79 -53 -128.5t-162 -49.5q-61 0 -104.5 16.5t-65.5 44t-31.5 56.5t-9.5 61z" />
    <glyph glyph-name="cdotaccent" unicode="&#x10b;" horiz-adv-x="983" 
d="M598 975q-75 0 -102 -83.5t-27 -266.5v-238q0 -182 37.5 -262t148.5 -80q62 0 111.5 27t80.5 70.5t49 86.5t26 88l30 -4q-7 -35 -14 -59.5t-22 -61.5t-34 -63.5t-51.5 -56.5t-72.5 -48.5t-99 -31t-129 -12.5q-242 0 -371.5 128t-129.5 369q0 253 147 385.5t412 132.5
q185 0 277.5 -70.5t92.5 -189.5q0 -95 -52 -147.5t-134 -52.5q-89 0 -138.5 44.5t-49.5 133.5q0 37 10 73h76q12 36 16 68t-2 60t-27.5 44.5t-58.5 16.5zM346 1284q0 91 53 148t172 57q104 0 162 -51.5t58 -149.5q0 -94 -55 -150.5t-169 -56.5q-65 0 -111 18.5t-68.5 50
t-32 64t-9.5 70.5z" />
    <glyph glyph-name="Ccaron" unicode="&#x10c;" horiz-adv-x="1333" 
d="M766 1436q-117 0 -179.5 -137.5t-62.5 -411.5v-355q0 -528 256 -528q62 0 130 46t129.5 122.5t109.5 150t90 152.5h16l-18 -473h-12q-25 41 -66 41q-27 0 -94 -18q-170 -45 -295 -45q-343 0 -528 179.5t-185 534.5q0 367 191.5 564.5t521.5 197.5q125 0 277 -45
q59 -18 92 -18q24 0 35.5 9t25.5 32h19l16 -449h-21q-102 196 -222.5 323.5t-225.5 127.5zM1083 1874l-215 -322q-58 -32 -112 -32q-55 0 -88.5 19.5t-55.5 62.5l-149 270l12 14l295 -133l303 133z" />
    <glyph glyph-name="ccaron" unicode="&#x10d;" horiz-adv-x="983" 
d="M598 975q-75 0 -102 -83.5t-27 -266.5v-238q0 -182 37.5 -262t148.5 -80q62 0 111.5 27t80.5 70.5t49 86.5t26 88l30 -4q-7 -35 -14 -59.5t-22 -61.5t-34 -63.5t-51.5 -56.5t-72.5 -48.5t-99 -31t-129 -12.5q-242 0 -371.5 128t-129.5 369q0 253 147 385.5t412 132.5
q185 0 277.5 -70.5t92.5 -189.5q0 -95 -52 -147.5t-134 -52.5q-89 0 -138.5 44.5t-49.5 133.5q0 37 10 73h76q12 36 16 68t-2 60t-27.5 44.5t-58.5 16.5zM868 1501l-196 -409q-57 -33 -111 -33q-99 0 -141 98l-152 346l17 13l284 -216l283 216z" />
    <glyph glyph-name="Dcaron" unicode="&#x10e;" horiz-adv-x="1480" 
d="M1417 741q0 -170 -39.5 -299t-109.5 -212t-174.5 -135t-224.5 -73.5t-271 -21.5h-594v27h123v1380h-123v27h645q191 0 330.5 -37t239.5 -118t149 -215t49 -323zM571 27h60q172 0 244.5 139.5t72.5 456.5v211q0 144 -11 241t-34 163.5t-65 102.5t-97 51t-137 15h-33v-1380
zM975 1874l-215 -322q-58 -32 -113 -32t-87.5 19.5t-55.5 62.5l-150 270l13 14l295 -133l303 133z" />
    <glyph glyph-name="dcaron" unicode="&#x10f;" horiz-adv-x="1249" 
d="M551 74q-49 0 -59.5 54t-10.5 249v196q0 213 13.5 286t66.5 73q41 0 64.5 -51.5t23.5 -137.5v-485q0 -184 -98 -184zM666 145l24 -145h484v25h-89v1511h-555v-25h113v-608q-28 47 -75 69.5t-136 22.5q-190 0 -294.5 -128.5t-104.5 -391.5q0 -246 96 -370.5t268 -124.5
q116 0 177.5 41.5t91.5 123.5zM1163 1073l-14 19q84 87 84 184q0 92 -98 180l36 35q41 38 74.5 55t71.5 17q56 0 89.5 -43t33.5 -101q0 -162 -277 -346z" />
    <glyph glyph-name="Dcroat" unicode="&#x110;" horiz-adv-x="1480" 
d="M12 741v31h115v635h-123v27h645q191 0 330.5 -37t239.5 -118t149 -215t49 -323q0 -170 -39.5 -299t-109.5 -212t-174.5 -135t-224.5 -73.5t-271 -21.5h-594v27h123v714h-115zM571 27h60q172 0 244.5 139.5t72.5 456.5v211q0 144 -11 241t-34 163.5t-65 102.5t-97 51
t-137 15h-33v-635h240v-31h-240v-714z" />
    <glyph glyph-name="dcroat" unicode="&#x111;" horiz-adv-x="1202" 
d="M690 0l-24 145q-30 -82 -91.5 -123.5t-177.5 -41.5q-172 0 -268 124.5t-96 370.5q0 263 104.5 391.5t294.5 128.5q89 0 136 -22.5t75 -69.5v299h-332v35h332v274h-113v25h555v-299h105v-35h-105v-1177h89v-25h-484zM551 74q98 0 98 184v485q0 86 -23.5 137.5t-64.5 51.5
q-53 0 -66.5 -73t-13.5 -286v-196q0 -195 10.5 -249t59.5 -54z" />
    <glyph glyph-name="Emacron" unicode="&#x112;" horiz-adv-x="1222" 
d="M18 1434h1049l18 -410h-20q-98 192 -207 287.5t-266 95.5h-17v-662h25q112 0 186 79.5t103 199.5h16v-606h-16q-37 146 -114.5 220.5t-174.5 74.5h-25v-686h37q89 0 177.5 41.5t155.5 106t116.5 136.5t73.5 140h20l-16 -451h-1121v27h109v1380h-109v27zM311 1563v192h557
v-192h-557z" />
    <glyph glyph-name="emacron" unicode="&#x113;" horiz-adv-x="1054" 
d="M29 487q0 -233 136 -370t408 -137q86 0 155 15.5t117 42t84.5 67.5t58.5 85t38 101l-29 8q-35 -122 -113.5 -192t-189.5 -70q-58 0 -99 20.5t-65.5 53.5t-38 87t-18 108.5t-4.5 131.5v90h557q9 233 -103 350t-364 117q-85 0 -162 -18.5t-145 -58.5t-117 -98.5t-77.5 -144
t-28.5 -188.5zM627 557h-158v152q0 78 2 120t10.5 78.5t25 50t44.5 13.5q18 0 30 -5.5t20.5 -19.5t13.5 -31t7.5 -48t3.5 -61.5t1 -80.5v-168zM287 1130v193h557v-193h-557z" />
    <glyph glyph-name="Ebreve" unicode="&#x114;" horiz-adv-x="1222" 
d="M18 1434h1049l18 -410h-20q-98 192 -207 287.5t-266 95.5h-17v-662h25q112 0 186 79.5t103 199.5h16v-606h-16q-37 146 -114.5 220.5t-174.5 74.5h-25v-686h37q89 0 177.5 41.5t155.5 106t116.5 136.5t73.5 140h20l-16 -451h-1121v27h109v1380h-109v27zM309 1860l23 4
q28 -82 90.5 -110t181.5 -28q61 0 98 4t73 17.5t58 41.5t35 73l23 -2q-8 -79 -26.5 -140t-51.5 -110.5t-87 -76t-126 -26.5q-62 0 -109.5 18.5t-77.5 48t-51.5 77t-32.5 95.5t-20 114z" />
    <glyph glyph-name="ebreve" unicode="&#x115;" horiz-adv-x="1054" 
d="M29 487q0 103 28.5 188.5t77.5 144t117 98.5t145 58.5t162 18.5q252 0 364 -117t103 -350h-557v-90q0 -77 4.5 -131.5t18 -108.5t38 -87t65.5 -53.5t99 -20.5q111 0 189.5 70t113.5 192l29 -8q-16 -57 -38 -101t-58.5 -85t-84.5 -67.5t-117 -42t-155 -15.5
q-272 0 -408 137t-136 370zM469 557h158v168q0 50 -1 80.5t-3.5 61.5t-7.5 48t-13.5 31t-20.5 19.5t-30 5.5q-53 0 -67.5 -55t-14.5 -207v-152zM276 1462l21 4q14 -43 38 -71t61.5 -41.5t76 -18t96.5 -4.5q59 0 94.5 3.5t74 16t62 41t36.5 74.5l18 -4q-45 -397 -287 -397
q-61 0 -108 21.5t-75.5 54t-50.5 88.5t-33.5 106.5t-23.5 126.5z" />
    <glyph glyph-name="Edotaccent" unicode="&#x116;" horiz-adv-x="1222" 
d="M18 1434h1049l18 -410h-20q-98 192 -207 287.5t-266 95.5h-17v-662h25q112 0 186 79.5t103 199.5h16v-606h-16q-37 146 -114.5 220.5t-174.5 74.5h-25v-686h37q89 0 177.5 41.5t155.5 106t116.5 136.5t73.5 140h20l-16 -451h-1121v27h109v1380h-109v27zM373 1694
q0 78 52.5 129t164.5 51q100 0 154.5 -46t54.5 -134q0 -79 -53 -128.5t-162 -49.5q-61 0 -104.5 16.5t-65.5 44t-31.5 56.5t-9.5 61z" />
    <glyph glyph-name="edotaccent" unicode="&#x117;" horiz-adv-x="1054" 
d="M29 487q0 103 28.5 188.5t77.5 144t117 98.5t145 58.5t162 18.5q252 0 364 -117t103 -350h-557v-90q0 -77 4.5 -131.5t18 -108.5t38 -87t65.5 -53.5t99 -20.5q111 0 189.5 70t113.5 192l29 -8q-16 -57 -38 -101t-58.5 -85t-84.5 -67.5t-117 -42t-155 -15.5
q-272 0 -408 137t-136 370zM469 557h158v168q0 50 -1 80.5t-3.5 61.5t-7.5 48t-13.5 31t-20.5 19.5t-30 5.5q-53 0 -67.5 -55t-14.5 -207v-152zM350 1284q0 91 53 148t172 57q104 0 162 -51.5t58 -149.5q0 -94 -55 -150.5t-169 -56.5q-65 0 -111 18.5t-68.5 50t-32 64
t-9.5 70.5z" />
    <glyph glyph-name="Eogonek" unicode="&#x118;" horiz-adv-x="1222" 
d="M18 1434h1049l18 -410h-20q-98 192 -207 287.5t-266 95.5h-17v-662h25q112 0 186 79.5t103 199.5h16v-606h-16q-37 146 -114.5 220.5t-174.5 74.5h-25v-686h37q89 0 177.5 41.5t155.5 106t116.5 136.5t73.5 140h20l-16 -451h-119q-61 -52 -86 -118.5t-25 -162.5
q0 -64 6.5 -96t18.5 -41.5t35 -9.5q26 0 50.5 19.5t59.5 70.5l23 -12q-26 -42 -44 -65.5t-48 -49t-70.5 -36.5t-95.5 -11q-87 0 -140 43.5t-53 128.5q0 51 12 90.5t44 83t96.5 85t161.5 81.5h-947v27h109v1380h-109v27z" />
    <glyph glyph-name="eogonek" unicode="&#x119;" horiz-adv-x="1054" 
d="M29 487q0 103 28.5 188.5t77.5 144t117 98.5t145 58.5t162 18.5q252 0 364 -117t103 -350h-557v-90q0 -77 4.5 -131.5t18 -108.5t38 -87t65.5 -53.5t99 -20.5q111 0 189.5 70t113.5 192l29 -8q-48 -162 -156 -240q-68 -49 -104.5 -140.5t-36.5 -191.5q0 -64 6 -96
t18 -41.5t35 -9.5q27 0 51.5 20t59.5 70l23 -12q-26 -42 -44 -65.5t-48 -49t-70.5 -36.5t-95.5 -11q-87 0 -140 43.5t-53 128.5q0 90 64 168t223 176q-82 -24 -185 -24q-272 0 -408 137t-136 370zM469 557h158v168q0 50 -1 80.5t-3.5 61.5t-7.5 48t-13.5 31t-20.5 19.5
t-30 5.5q-53 0 -67.5 -55t-14.5 -207v-152z" />
    <glyph glyph-name="Ecaron" unicode="&#x11a;" horiz-adv-x="1222" 
d="M18 1434h1049l18 -410h-20q-98 192 -207 287.5t-266 95.5h-17v-662h25q112 0 186 79.5t103 199.5h16v-606h-16q-37 146 -114.5 220.5t-174.5 74.5h-25v-686h37q89 0 177.5 41.5t155.5 106t116.5 136.5t73.5 140h20l-16 -451h-1121v27h109v1380h-109v27zM899 1874
l-215 -322q-58 -32 -113 -32t-87.5 19.5t-55.5 62.5l-149 270l12 14l295 -133l303 133z" />
    <glyph glyph-name="ecaron" unicode="&#x11b;" horiz-adv-x="1054" 
d="M29 487q0 -233 136 -370t408 -137q86 0 155 15.5t117 42t84.5 67.5t58.5 85t38 101l-29 8q-35 -122 -113.5 -192t-189.5 -70q-58 0 -99 20.5t-65.5 53.5t-38 87t-18 108.5t-4.5 131.5v90h557q9 233 -103 350t-364 117q-85 0 -162 -18.5t-145 -58.5t-117 -98.5t-77.5 -144
t-28.5 -188.5zM627 557h-158v152q0 78 2 120t10.5 78.5t25 50t44.5 13.5q18 0 30 -5.5t20.5 -19.5t13.5 -31t7.5 -48t3.5 -61.5t1 -80.5v-168zM860 1501l-196 -409q-57 -33 -111 -33q-99 0 -141 98l-152 346l16 13l285 -216l283 216z" />
    <glyph glyph-name="Gcircumflex" unicode="&#x11c;" horiz-adv-x="1411" 
d="M758 4q70 0 93 26t23 85q0 42 -2 67v447h-116v28h606v-28h-64v-627h-16q-24 29 -46.5 40t-61.5 11q-52 0 -154 -28q-171 -45 -275 -45q-331 0 -513.5 180.5t-182.5 535.5q0 365 188 562.5t508 197.5q137 0 302 -45q67 -18 92 -18q16 0 25.5 9t25.5 32h18l19 -449h-21
q-56 88 -91 140t-86 119.5t-89 103.5t-84 62t-88 26q-252 0 -252 -525v-383q0 -246 58.5 -385t183.5 -139zM455 1518l215 323q60 33 112 33q55 0 88.5 -19.5t55.5 -62.5l149 -272l-10 -11l-297 131l-301 -135z" />
    <glyph glyph-name="gcircumflex" unicode="&#x11d;" horiz-adv-x="1054" 
d="M948 662q0 36 -8.5 72.5t-27.5 75.5t-56.5 75t-89.5 61q13 90 41.5 154.5t73.5 64.5q51 0 61 -69l-70 -49q7 -38 45 -68.5t93 -30.5q57 0 95 39.5t38 99.5q0 71 -50 115.5t-122 44.5q-95 0 -156.5 -77.5t-79.5 -211.5q-95 37 -227 37q-235 0 -354 -93t-119 -247
q0 -129 67.5 -205.5t200.5 -109.5q-145 -80 -199.5 -135.5t-54.5 -143.5q0 -38 15.5 -72t50.5 -66t103.5 -51t162.5 -19h229q116 0 158.5 -26t42.5 -93q0 -99 -83 -157t-228 -58q-130 0 -198.5 50.5t-68.5 141.5q0 41 15 88l-137 58q-67 -19 -106.5 -52.5t-39.5 -101.5
q0 -102 126.5 -158.5t395.5 -56.5q297 0 439.5 107.5t142.5 289.5q0 83 -24.5 144t-66 98.5t-104.5 60.5t-129.5 31t-152.5 8h-193q-58 0 -90.5 3.5t-42.5 9.5t-10 16q0 13 15.5 27t66.5 45q91 -17 170 -17q200 0 320 89t120 262zM233 1049l203 409q64 33 121 33
q92 0 129 -98l76 -203l-14 -10l-195 75l-301 -221zM424 520v219q0 136 15 183t57 47q27 0 40.5 -15.5t21 -66.5t7.5 -152v-215q0 -110 -14.5 -146t-52.5 -36q-42 0 -58 39t-16 143z" />
    <glyph glyph-name="Gbreve" unicode="&#x11e;" horiz-adv-x="1411" 
d="M758 4q70 0 93 26t23 85q0 42 -2 67v447h-116v28h606v-28h-64v-627h-16q-24 29 -46.5 40t-61.5 11q-52 0 -154 -28q-171 -45 -275 -45q-331 0 -513.5 180.5t-182.5 535.5q0 365 188 562.5t508 197.5q137 0 302 -45q67 -18 92 -18q16 0 25.5 9t25.5 32h18l19 -449h-21
q-56 88 -91 140t-86 119.5t-89 103.5t-84 62t-88 26q-252 0 -252 -525v-383q0 -246 58.5 -385t183.5 -139zM467 1860l22 4q28 -82 91 -110t182 -28q61 0 98 4t73 17.5t58 41.5t35 73l23 -2q-8 -79 -26.5 -140t-51.5 -110.5t-87 -76t-126 -26.5q-62 0 -109.5 18.5t-77.5 48
t-51.5 77t-32.5 95.5t-20 114z" />
    <glyph glyph-name="gbreve" unicode="&#x11f;" horiz-adv-x="1054" 
d="M948 662q0 -173 -120 -262t-320 -89q-79 0 -170 17q-51 -31 -66.5 -45t-15.5 -27q0 -10 10 -16t42.5 -9.5t90.5 -3.5h193q86 0 152.5 -8t129.5 -31t104.5 -60.5t66 -98.5t24.5 -144q0 -182 -142.5 -289.5t-439.5 -107.5q-269 0 -395.5 56.5t-126.5 158.5q0 68 39.5 101.5
t106.5 52.5l137 -58q-15 -47 -15 -88q0 -91 68.5 -141.5t198.5 -50.5q145 0 228 58t83 157q0 67 -42.5 93t-158.5 26h-229q-94 0 -162.5 19t-103.5 51t-50.5 66t-15.5 72q0 88 54.5 143.5t199.5 135.5q-133 33 -200.5 109.5t-67.5 205.5q0 154 119 247t354 93q132 0 227 -37
q18 134 79.5 211.5t156.5 77.5q72 0 122 -44.5t50 -115.5q0 -60 -38 -99.5t-95 -39.5q-55 0 -93 30.5t-45 68.5l70 49q-10 69 -61 69q-45 0 -73.5 -64.5t-41.5 -154.5q52 -25 89.5 -61t56.5 -75t27.5 -75.5t8.5 -72.5zM424 739v-219q0 -104 16 -143t58 -39q38 0 52.5 36
t14.5 146v215q0 101 -7.5 152t-21 66.5t-40.5 15.5q-42 0 -57 -47t-15 -183zM215 1462l21 4q14 -43 38 -71t61.5 -41.5t76 -18t96.5 -4.5q47 0 76.5 2t64 9t56 21.5t40.5 40t29 62.5l19 -4q-45 -397 -287 -397q-61 0 -108 21.5t-75.5 54t-50.5 88.5t-33.5 106.5t-23.5 126.5
z" />
    <glyph glyph-name="Gdotaccent" unicode="&#x120;" horiz-adv-x="1411" 
d="M758 4q70 0 93 26t23 85q0 42 -2 67v447h-116v28h606v-28h-64v-627h-16q-24 29 -46.5 40t-61.5 11q-52 0 -154 -28q-171 -45 -275 -45q-331 0 -513.5 180.5t-182.5 535.5q0 365 188 562.5t508 197.5q137 0 302 -45q67 -18 92 -18q16 0 25.5 9t25.5 32h18l19 -449h-21
q-56 88 -91 140t-86 119.5t-89 103.5t-84 62t-88 26q-252 0 -252 -525v-383q0 -246 58.5 -385t183.5 -139zM565 1694q0 78 52.5 129t164.5 51q100 0 154.5 -46t54.5 -134q0 -79 -53 -128.5t-162 -49.5q-61 0 -104.5 16.5t-65.5 44t-31.5 56.5t-9.5 61z" />
    <glyph glyph-name="gdotaccent" unicode="&#x121;" horiz-adv-x="1075" 
d="M948 662q0 -173 -120 -262t-320 -89q-79 0 -170 17q-51 -31 -66.5 -45t-15.5 -27q0 -10 10 -16t42.5 -9.5t90.5 -3.5h193q86 0 152.5 -8t129.5 -31t104.5 -60.5t66 -98.5t24.5 -144q0 -182 -142.5 -289.5t-439.5 -107.5q-269 0 -395.5 56.5t-126.5 158.5q0 68 39.5 101.5
t106.5 52.5l137 -58q-15 -47 -15 -88q0 -91 68.5 -141.5t198.5 -50.5q145 0 228 58t83 157q0 67 -42.5 93t-158.5 26h-229q-94 0 -162.5 19t-103.5 51t-50.5 66t-15.5 72q0 88 54.5 143.5t199.5 135.5q-133 33 -200.5 109.5t-67.5 205.5q0 154 119 247t354 93q132 0 227 -37
q18 134 79.5 211.5t156.5 77.5q72 0 122 -44.5t50 -115.5q0 -60 -38 -99.5t-95 -39.5q-55 0 -93 30.5t-45 68.5l70 49q-10 69 -61 69q-45 0 -73.5 -64.5t-41.5 -154.5q52 -25 89.5 -61t56.5 -75t27.5 -75.5t8.5 -72.5zM424 739v-219q0 -104 16 -143t58 -39q38 0 52.5 36
t14.5 146v215q0 101 -7.5 152t-21 66.5t-40.5 15.5q-42 0 -57 -47t-15 -183zM276 1284q0 91 53.5 148t172.5 57q104 0 161.5 -51.5t57.5 -149.5q0 -94 -54.5 -150.5t-168.5 -56.5q-65 0 -111 18.5t-69 50t-32.5 64t-9.5 70.5z" />
    <glyph glyph-name="Gcommaaccent" unicode="&#x122;" horiz-adv-x="1411" 
d="M758 4q70 0 93 26t23 85q0 42 -2 67v447h-116v28h606v-28h-64v-627h-16q-24 29 -46.5 40t-61.5 11q-52 0 -154 -28q-171 -45 -275 -45q-331 0 -513.5 180.5t-182.5 535.5q0 365 188 562.5t508 197.5q137 0 302 -45q67 -18 92 -18q16 0 25.5 9t25.5 32h18l19 -449h-21
q-56 88 -91 140t-86 119.5t-89 103.5t-84 62t-88 26q-252 0 -252 -525v-383q0 -246 58.5 -385t183.5 -139zM713 -596l-17 23q88 59 117 96.5t29 89.5q0 36 -17.5 54t-40.5 20l-86 -90q-106 32 -106 141q0 68 47 112t115 44q85 0 134.5 -50t49.5 -141q0 -52 -17 -96.5
t-52 -81t-69.5 -63t-86.5 -58.5z" />
    <glyph glyph-name="gcommaaccent" unicode="&#x123;" horiz-adv-x="1075" 
d="M948 662q0 36 -8.5 72.5t-27.5 75.5t-56.5 75t-89.5 61q13 90 41.5 154.5t73.5 64.5q51 0 61 -69l-70 -49q7 -38 45 -68.5t93 -30.5q57 0 95 39.5t38 99.5q0 71 -50 115.5t-122 44.5q-95 0 -156.5 -77.5t-79.5 -211.5q-95 37 -227 37q-235 0 -354 -93t-119 -247
q0 -129 67.5 -205.5t200.5 -109.5q-145 -80 -199.5 -135.5t-54.5 -143.5q0 -38 15.5 -72t50.5 -66t103.5 -51t162.5 -19h229q116 0 158.5 -26t42.5 -93q0 -99 -83 -157t-228 -58q-130 0 -198.5 50.5t-68.5 141.5q0 41 15 88l-137 58q-67 -19 -106.5 -52.5t-39.5 -101.5
q0 -102 126.5 -158.5t395.5 -56.5q297 0 439.5 107.5t142.5 289.5q0 83 -24.5 144t-66 98.5t-104.5 60.5t-129.5 31t-152.5 8h-193q-58 0 -90.5 3.5t-42.5 9.5t-10 16q0 13 15.5 27t66.5 45q91 -17 170 -17q200 0 320 89t120 262zM424 520v219q0 136 15 183t57 47
q27 0 40.5 -15.5t21 -66.5t7.5 -152v-215q0 -110 -14.5 -146t-52.5 -36q-42 0 -58 39t-16 143zM557 1571l16 -23q-88 -59 -116.5 -96.5t-28.5 -89.5q0 -36 17.5 -54t39.5 -20l86 90q107 -32 107 -141q0 -68 -47 -112t-115 -44q-85 0 -134.5 50t-49.5 141q0 52 17 96.5t52 81
t69.5 63t86.5 58.5z" />
    <glyph glyph-name="Hcircumflex" unicode="&#x124;" horiz-adv-x="1468" 
d="M18 1434h662v-27h-105v-653h318v653h-109v27h666v-27h-109v-1380h109v-27h-666v27h109v696h-318v-696h105v-27h-662v27h109v1380h-109v27zM428 1518l215 323q60 33 113 33q55 0 87.5 -19.5t55.5 -62.5l150 -272l-11 -11l-297 131l-301 -135z" />
    <glyph glyph-name="hcircumflex" unicode="&#x125;" horiz-adv-x="1239" 
d="M8 1536h537v-745q30 94 96.5 149t194.5 55q309 0 309 -342v-628h106v-25h-594v25h50v772q0 48 -9 73t-36 25q-42 0 -76.5 -75.5t-34.5 -174.5v-620h55v-25h-598v25h105v1486h-105v25zM-4 1597l215 324q60 33 113 33q55 0 87.5 -19.5t55.5 -62.5l149 -273l-10 -10
l-297 131l-301 -135z" />
    <glyph glyph-name="Hbar" unicode="&#x126;" horiz-adv-x="1521" 
d="M45 1434h662v-27h-105v-320h318v320h-109v27h666v-27h-109v-320h115v-30h-115v-1030h109v-27h-666v27h109v696h-318v-696h105v-27h-662v27h109v1030h-111v30h111v320h-109v27zM602 754h318v303h-318v-303z" />
    <glyph glyph-name="hbar" unicode="&#x127;" horiz-adv-x="1239" 
d="M8 1536h537v-299h346v-31h-346v-415q30 94 96.5 149t194.5 55q309 0 309 -342v-628h106v-25h-594v25h50v772q0 48 -9 73t-36 25q-42 0 -76.5 -75.5t-34.5 -174.5v-620h55v-25h-598v25h105v1181h-119v31h119v274h-105v25z" />
    <glyph glyph-name="Itilde" unicode="&#x128;" horiz-adv-x="702" 
d="M27 1434h649v-27h-101v-1380h101v-27h-649v27h100v1380h-100v27zM467 1534q-56 0 -168 41t-149 41q-79 0 -113 -82l-17 6q26 81 48 132t51 95t66 64t85 20q57 0 161.5 -41t137.5 -41q20 0 32.5 2t31.5 9t33 25.5t24 47.5l19 -4q-46 -172 -103.5 -243.5t-138.5 -71.5z" />
    <glyph glyph-name="itilde" unicode="&#x129;" horiz-adv-x="638" 
d="M444 1108q-56 0 -168 41t-149 41q-79 0 -113 -82l-16 6q26 81 48 132t51 95t66 64t85 20q57 0 161.5 -41t137.5 -41q20 0 32.5 2t31.5 9t33 25.5t24 47.5l18 -4q-46 -172 -103.5 -243.5t-138.5 -71.5zM-8 975h551v-950h106v-25h-647v25h104v925h-114v25z" />
    <glyph glyph-name="Imacron" unicode="&#x12a;" horiz-adv-x="702" 
d="M27 1434h649v-27h-101v-1380h101v-27h-649v27h100v1380h-100v27zM72 1563v192h557v-192h-557z" />
    <glyph glyph-name="imacron" unicode="&#x12b;" horiz-adv-x="638" 
d="M27 1075v193h557v-193h-557zM-8 975h551v-950h106v-25h-647v25h104v925h-114v25z" />
    <glyph glyph-name="Ibreve" unicode="&#x12c;" horiz-adv-x="702" 
d="M27 1434h649v-27h-101v-1380h101v-27h-649v27h100v1380h-100v27zM74 1860l22 4q28 -82 91 -110t182 -28q61 0 98 4t73 17.5t58 41.5t35 73l22 -2q-8 -79 -26.5 -140t-51 -110.5t-86.5 -76t-126 -26.5q-62 0 -109.5 18.5t-77.5 48t-51.5 77t-32.5 95.5t-20 114z" />
    <glyph glyph-name="ibreve" unicode="&#x12d;" horiz-adv-x="638" 
d="M31 1462l20 4q14 -43 38.5 -71t61.5 -41.5t76 -18t97 -4.5q47 0 76.5 2t64 9t56 21.5t40.5 40t29 62.5l18 -4q-10 -87 -29 -155t-51.5 -124.5t-84.5 -87t-121 -30.5q-61 0 -108 21.5t-75.5 54t-50.5 88.5t-33.5 106.5t-23.5 126.5zM-8 975h551v-950h106v-25h-647v25h104
v925h-114v25z" />
    <glyph glyph-name="Iogonek" unicode="&#x12e;" horiz-adv-x="702" 
d="M27 1434h649v-27h-101v-1380h101v-27h-209q-61 -52 -86 -118.5t-25 -162.5q0 -64 6.5 -96t18.5 -41.5t35 -9.5q26 0 50.5 19.5t59.5 70.5l23 -12q-26 -42 -44 -65.5t-48 -49t-70.5 -36.5t-95.5 -11q-87 0 -140 43.5t-53 128.5q0 51 12 90.5t44 83t96.5 85t161.5 81.5
h-385v27h100v1380h-100v27z" />
    <glyph glyph-name="iogonek" unicode="&#x12f;" horiz-adv-x="638" 
d="M-8 975h551v-950h106v-25h-213q-61 -52 -85.5 -118.5t-24.5 -162.5q0 -64 6 -96t18 -41.5t35 -9.5q27 0 51.5 20t59.5 70l22 -12q-26 -42 -44 -65.5t-48 -49t-70.5 -36.5t-95.5 -11q-87 0 -139.5 43.5t-52.5 128.5q0 51 11.5 90.5t44 83t96.5 85t161 81.5h-379v25h104
v925h-114v25zM100 1284q0 91 53.5 148t172.5 57q104 0 161.5 -51.5t57.5 -149.5q0 -94 -54.5 -150.5t-168.5 -56.5q-65 0 -111 18.5t-69 50t-32.5 64t-9.5 70.5z" />
    <glyph glyph-name="Idotaccent" unicode="&#x130;" horiz-adv-x="702" 
d="M27 1434h649v-27h-101v-1380h101v-27h-649v27h100v1380h-100v27zM147 1694q0 78 53 129t165 51q99 0 153.5 -46t54.5 -134q0 -79 -53 -128.5t-162 -49.5q-61 0 -104.5 16.5t-65.5 44t-31.5 56.5t-9.5 61z" />
    <glyph glyph-name="dotlessi" unicode="&#x131;" horiz-adv-x="638" 
d="M-8 975h551v-950h106v-25h-647v25h104v925h-114v25z" />
    <glyph glyph-name="IJ" unicode="&#x132;" horiz-adv-x="1794" 
d="M27 1434h649v-27h-101v-1380h101v-27h-649v27h100v1380h-100v27zM1047 1434h686v-27h-101v-885q0 -289 -133.5 -414.5t-406.5 -125.5q-159 0 -263 65t-104 178q0 90 53.5 143.5t143.5 53.5q98 0 144 -46t46 -124q0 -38 -27 -113h-96q-14 -31 -14 -57q0 -35 25 -55.5
t69 -20.5q32 0 51.5 9.5t33.5 30.5t20.5 67.5t9 107.5t2.5 164v1022h-139v27z" />
    <glyph glyph-name="Jcircumflex" unicode="&#x134;" horiz-adv-x="1054" 
d="M352 1434h686v-27h-100v-885q0 -289 -134 -414.5t-407 -125.5q-159 0 -262.5 64.5t-103.5 178.5q0 90 53 143.5t143 53.5q98 0 144.5 -46t46.5 -124q0 -38 -27 -113h-96q-14 -32 -14 -57q0 -35 25 -55.5t69 -20.5q32 0 51.5 9.5t33.5 30.5t20.5 67.5t9 107.5t2.5 164
v1022h-140v27zM387 1518l215 323q60 33 113 33q55 0 87.5 -19.5t55.5 -62.5l150 -272l-11 -11l-297 131l-301 -135z" />
    <glyph glyph-name="jcircumflex" unicode="&#x135;" horiz-adv-x="630" 
d="M545 975v-778q0 -351 -132.5 -530t-424.5 -179q-169 0 -254.5 67t-85.5 166q0 93 56 143t144 50q84 0 127 -47.5t43 -120.5q0 -19 -12 -88h-92q-16 -30 -17.5 -61.5t19 -55.5t61.5 -24q68 0 100 73t32 267v1093h-105v25h541zM4 1067l203 410q62 32 121 32q91 0 131 -98
l145 -346l-14 -10l-285 202l-282 -204z" />
    <glyph glyph-name="Kcommaaccent" unicode="&#x136;" horiz-adv-x="1460" 
d="M27 1434h649v-27h-101v-668l580 668h-186v27h360v-27h-123l-307 -354l463 -1026h100v-27h-684v27h88l-276 678l-15 -21v-657h101v-27h-649v27h100v1380h-100v27zM643 -596l-16 23q88 59 116.5 96.5t28.5 89.5q0 36 -17.5 54t-39.5 20l-86 -90q-107 32 -107 141
q0 68 47 112t115 44q85 0 134.5 -50t49.5 -141q0 -52 -17 -96.5t-52 -81t-69.5 -63t-86.5 -58.5z" />
    <glyph glyph-name="kcommaaccent" unicode="&#x137;" horiz-adv-x="1296" 
d="M709 0v25h88l-224 491l-22 -8v-483h86v-25h-629v25h105v1486h-115v25h553v-999l24 10l496 403h-215v25h401v-25h-139l-219 -182l361 -743h65v-25h-616zM600 -596l-16 23q88 59 116.5 96.5t28.5 89.5q0 36 -17.5 54t-39.5 20l-86 -90q-107 32 -107 141q0 68 47 112t115 44
q85 0 134.5 -50t49.5 -141q0 -52 -17 -96.5t-52 -81t-69.5 -63t-86.5 -58.5z" />
    <glyph glyph-name="kgreenlandic" unicode="&#x138;" horiz-adv-x="1296" 
d="M709 0v25h88l-224 491l-22 -8v-483h86v-25h-629v25h105v925h-115v25h553v-438l24 10l496 403h-215v25h401v-25h-139l-219 -182l361 -743h65v-25h-616z" />
    <glyph glyph-name="Lacute" unicode="&#x139;" horiz-adv-x="1175" 
d="M18 1434h764v-27h-207v-1380h48q77 0 149.5 32.5t125 80.5t99.5 112.5t75.5 119.5t51.5 111h19l-41 -483h-1084v27h109v1380h-109v27zM195 1513l213 340l112 -6q32 -1 54 -11.5t31.5 -26t12.5 -27t3 -21.5q0 -90 -91 -129l-325 -131z" />
    <glyph glyph-name="lacute" unicode="&#x13a;" horiz-adv-x="661" 
d="M-2 1536h551v-1511h106v-25h-647v25h105v1486h-115v25zM141 1585l213 340l113 -6q32 -1 54 -11.5t31 -26t12 -26.5t3 -22q0 -91 -90 -129l-325 -131z" />
    <glyph glyph-name="Lcommaaccent" unicode="&#x13b;" horiz-adv-x="1175" 
d="M18 1434h764v-27h-207v-1380h48q77 0 149.5 32.5t125 80.5t99.5 112.5t75.5 119.5t51.5 111h19l-41 -483h-1084v27h109v1380h-109v27zM565 -596l-16 23q88 59 116.5 96.5t28.5 89.5q0 36 -17.5 54t-39.5 20l-86 -90q-107 32 -107 141q0 68 47 112t115 44q85 0 135 -50
t50 -141q0 -52 -17.5 -96.5t-52.5 -81t-69.5 -62.5t-86.5 -59z" />
    <glyph glyph-name="lcommaaccent" unicode="&#x13c;" horiz-adv-x="661" 
d="M-2 1536h551v-1511h106v-25h-647v25h105v1486h-115v25zM258 -600l-16 22q87 59 116 97t29 90q0 36 -17.5 54t-39.5 20l-86 -91q-51 15 -79 51.5t-28 90.5q0 68 46.5 111.5t115.5 43.5q85 0 134.5 -49.5t49.5 -140.5q0 -52 -17 -96.5t-52 -81t-69.5 -63t-86.5 -58.5z" />
    <glyph glyph-name="Lcaron" unicode="&#x13d;" horiz-adv-x="1175" 
d="M18 1434h764v-27h-207v-1380h48q77 0 149.5 32.5t125 80.5t99.5 112.5t75.5 119.5t51.5 111h19l-41 -483h-1084v27h109v1380h-109v27zM854 983l-14 18q84 87 84 185q0 92 -99 180l37 35q41 38 74.5 55t71.5 17q56 0 89 -43t33 -101q0 -163 -276 -346z" />
    <glyph glyph-name="lcaron" unicode="&#x13e;" horiz-adv-x="661" 
d="M-2 1536h551v-1511h106v-25h-647v25h105v1486h-115v25zM618 1071l-14 19q84 87 84 184q0 92 -98 180l37 35q42 38 74.5 55t70.5 17q56 0 89.5 -43t33.5 -101q0 -162 -277 -346z" />
    <glyph glyph-name="Ldot" unicode="&#x13f;" horiz-adv-x="1175" 
d="M18 1434h764v-27h-207v-1380h48q77 0 149.5 32.5t125 80.5t99.5 112.5t75.5 119.5t51.5 111h19l-41 -483h-1084v27h109v1380h-109v27zM733 831q0 -35 8.5 -65.5t29.5 -59.5t63.5 -46t103.5 -17q107 0 158 52.5t51 140.5q0 91 -54 138.5t-151 47.5q-110 0 -159.5 -53.5
t-49.5 -137.5z" />
    <glyph glyph-name="ldot" unicode="&#x140;" horiz-adv-x="950" 
d="M-6 1536h551v-1511h106v-25h-647v25h105v1486h-115v25zM594 831q0 -35 8.5 -65.5t29.5 -59.5t63.5 -46t103.5 -17q107 0 158 52.5t51 140.5q0 91 -54 138.5t-151 47.5q-110 0 -159.5 -53.5t-49.5 -137.5z" />
    <glyph glyph-name="Lslash" unicode="&#x141;" horiz-adv-x="1175" 
d="M18 1434h764v-27h-207v-594l308 172l12 -33l-320 -180v-745h48q77 0 149.5 32.5t125 80.5t99.5 112.5t75.5 119.5t51.5 111h19l-41 -483h-1084v27h109v565l-109 -60l-14 31l123 70v774h-109v27z" />
    <glyph glyph-name="lslash" unicode="&#x142;" horiz-adv-x="743" 
d="M39 1536h551v-631l125 58l10 -25l-135 -64v-849h106v-25h-647v25h105v702l-138 -57l-8 26l146 64v751h-115v25z" />
    <glyph glyph-name="Nacute" unicode="&#x143;" horiz-adv-x="1218" 
d="M1092 1407v-1407h-308l-620 1266v-1239h100v-27h-270v27h133v1380h-133v27h590l469 -969v942h-101v27h271v-27h-131zM512 1513l213 340l113 -6q32 -1 54 -11.5t31 -26t12 -26.5t3 -22q0 -91 -90 -129l-326 -131z" />
    <glyph glyph-name="nacute" unicode="&#x144;" horiz-adv-x="1239" 
d="M8 975h533v-195q69 215 295 215q309 0 309 -342v-628h106v-25h-594v25h50v772q0 48 -9 73t-36 25q-42 0 -76.5 -75.5t-34.5 -174.5v-620h55v-25h-598v25h105v925h-105v25zM559 1069l121 397l96 17q45 7 72 3.5t42 -22.5t20 -36t5 -37q0 -52 -63 -107l-279 -227z" />
    <glyph glyph-name="Ncommaaccent" unicode="&#x145;" horiz-adv-x="1218" 
d="M1092 1407v-1407h-308l-620 1266v-1239h100v-27h-270v27h133v1380h-133v27h590l469 -969v942h-101v27h271v-27h-131zM559 -596l-16 23q88 59 116.5 96.5t28.5 89.5q0 36 -17.5 54t-39.5 20l-86 -90q-107 32 -107 141q0 68 47 112t115 44q85 0 134.5 -50t49.5 -141
q0 -52 -17 -96.5t-52 -81t-69.5 -63t-86.5 -58.5z" />
    <glyph glyph-name="ncommaaccent" unicode="&#x146;" horiz-adv-x="1239" 
d="M8 975h533v-195q69 215 295 215q309 0 309 -342v-628h106v-25h-594v25h50v772q0 48 -9 73t-36 25q-42 0 -76.5 -75.5t-34.5 -174.5v-620h55v-25h-598v25h105v925h-105v25zM584 -596l-17 23q88 59 117 96.5t29 89.5q0 36 -17.5 54t-40.5 20l-86 -90q-106 32 -106 141
q0 68 47 112t115 44q85 0 134.5 -50t49.5 -141q0 -52 -17 -96.5t-52 -81t-69.5 -63t-86.5 -58.5z" />
    <glyph glyph-name="Ncaron" unicode="&#x147;" horiz-adv-x="1218" 
d="M1092 1407v-1407h-308l-620 1266v-1239h100v-27h-270v27h133v1380h-133v27h590l469 -969v942h-101v27h271v-27h-131zM989 1874l-215 -322q-58 -32 -112 -32q-55 0 -88.5 19.5t-55.5 62.5l-149 270l12 14l295 -133l303 133z" />
    <glyph glyph-name="ncaron" unicode="&#x148;" horiz-adv-x="1239" 
d="M8 975h533v-195q69 215 295 215q309 0 309 -342v-628h106v-25h-594v25h50v772q0 48 -9 73t-36 25q-42 0 -76.5 -75.5t-34.5 -174.5v-620h55v-25h-598v25h105v925h-105v25zM950 1501l-196 -409q-57 -33 -111 -33q-99 0 -141 98l-152 346l17 13l284 -216l283 216z" />
    <glyph glyph-name="napostrophe" unicode="&#x149;" horiz-adv-x="1419" 
d="M188 975h533v-195q69 215 295 215q309 0 309 -342v-628h107v-25h-594v25h49v772q0 48 -9 73t-36 25q-42 0 -76.5 -75.5t-34.5 -174.5v-620h55v-25h-598v25h105v925h-105v25zM0 903l-16 23q88 59 116.5 96.5t28.5 89.5q0 36 -17.5 54t-39.5 20l-86 -90q-107 32 -107 141
q0 68 47 112t115 44q85 0 134.5 -50t49.5 -141q0 -52 -17 -96.5t-52 -81t-69.5 -63t-86.5 -58.5z" />
    <glyph glyph-name="Eng" unicode="&#x14a;" horiz-adv-x="1282" 
d="M1124 1407v-1339q0 -580 -495 -580q-169 0 -254.5 67t-85.5 166q0 93 56 143t144 50q84 0 127 -47.5t43 -120.5q0 -19 -12 -88h-92q-16 -30 -17.5 -61.5t19 -55.5t61.5 -24q68 0 100 73t32 267v280l-553 1129v-1239h100v-27h-270v27h133v1380h-133v27h589l469 -969v942
h-100v27h270v-27h-131z" />
    <glyph glyph-name="eng" unicode="&#x14b;" horiz-adv-x="1226" 
d="M8 975h533v-195q69 215 295 215q309 0 309 -342v-456q0 -351 -133 -530t-426 -179q-169 0 -254.5 67t-85.5 166q0 93 56 143t144 50q84 0 127 -47.5t43 -120.5q0 -19 -12 -88h-92q-16 -30 -17.5 -61.5t19 -55.5t61.5 -24q45 0 72.5 27.5t43.5 104t16 208.5v940
q0 48 -9 73t-36 25q-42 0 -76.5 -75.5t-34.5 -174.5v-620h55v-25h-598v25h105v925h-105v25z" />
    <glyph glyph-name="Omacron" unicode="&#x14c;" horiz-adv-x="1454" 
d="M934 473v514q0 85 -2.5 142t-10 112t-21 88t-36 59t-55 37t-76.5 11q-31 0 -57 -5t-46 -17.5t-35.5 -26t-27.5 -38t-20 -45.5t-13.5 -55.5t-8.5 -62t-4.5 -72t-2 -77.5t-0.5 -85v-489q0 -78 2.5 -133t10 -111t22 -92t37.5 -66t57.5 -43.5t81.5 -13.5t81 13t56.5 43t36 65
t20.5 94.5t9 114t2 139.5zM51 690q0 362 178 564t519 202q327 0 491 -190.5t164 -546.5q0 -350 -170.5 -544.5t-509.5 -194.5q-336 0 -504 184.5t-168 525.5zM467 1563v192h557v-192h-557z" />
    <glyph glyph-name="omacron" unicode="&#x14d;" horiz-adv-x="1101" 
d="M631 248v416v16q0 176 -11.5 233.5t-62.5 57.5q-59 0 -72.5 -65.5t-13.5 -233.5v-13v-411v-10v-50.5t1 -44t3 -41.5t5.5 -33.5t9 -29t13.5 -19.5t19 -14t25 -4q21 0 35.5 6.5t23.5 24t14.5 33t7.5 50.5t2.5 58.5t0.5 73.5zM31 483q0 247 145 379.5t387 132.5
q508 0 508 -491q0 -259 -127.5 -391.5t-394.5 -132.5q-259 0 -388.5 130t-129.5 373zM289 1130v193h557v-193h-557z" />
    <glyph glyph-name="Obreve" unicode="&#x14e;" horiz-adv-x="1454" 
d="M934 473v514q0 85 -2.5 142t-10 112t-21 88t-36 59t-55 37t-76.5 11q-31 0 -57 -5t-46 -17.5t-35.5 -26t-27.5 -38t-20 -45.5t-13.5 -55.5t-8.5 -62t-4.5 -72t-2 -77.5t-0.5 -85v-489q0 -78 2.5 -133t10 -111t22 -92t37.5 -66t57.5 -43.5t81.5 -13.5t81 13t56.5 43t36 65
t20.5 94.5t9 114t2 139.5zM51 690q0 362 178 564t519 202q327 0 491 -190.5t164 -546.5q0 -350 -170.5 -544.5t-509.5 -194.5q-336 0 -504 184.5t-168 525.5zM455 1860l22 4q28 -82 91 -110t182 -28q61 0 98 4t73 17.5t58 41.5t35 73l22 -2q-8 -79 -26.5 -140t-51.5 -110.5
t-87 -76t-126 -26.5q-62 0 -109 18.5t-77 48t-51.5 77t-32.5 95.5t-20 114z" />
    <glyph glyph-name="obreve" unicode="&#x14f;" horiz-adv-x="1101" 
d="M631 248v416v16q0 176 -11.5 233.5t-62.5 57.5q-59 0 -72.5 -65.5t-13.5 -233.5v-13v-411v-10v-50.5t1 -44t3 -41.5t5.5 -33.5t9 -29t13.5 -19.5t19 -14t25 -4q21 0 35.5 6.5t23.5 24t14.5 33t7.5 50.5t2.5 58.5t0.5 73.5zM31 483q0 247 145 379.5t387 132.5
q508 0 508 -491q0 -259 -127.5 -391.5t-394.5 -132.5q-259 0 -388.5 130t-129.5 373zM270 1462l21 4q14 -43 38 -71t61.5 -41.5t76 -18t96.5 -4.5q47 0 76.5 2t64 9t56 21.5t40.5 40t29 62.5l19 -4q-45 -397 -287 -397q-61 0 -108 21.5t-75.5 54t-50.5 88.5t-33.5 106.5
t-23.5 126.5z" />
    <glyph glyph-name="Ohungarumlaut" unicode="&#x150;" horiz-adv-x="1454" 
d="M934 473v514q0 85 -2.5 142t-10 112t-21 88t-36 59t-55 37t-76.5 11q-31 0 -57 -5t-46 -17.5t-35.5 -26t-27.5 -38t-20 -45.5t-13.5 -55.5t-8.5 -62t-4.5 -72t-2 -77.5t-0.5 -85v-489q0 -78 2.5 -133t10 -111t22 -92t37.5 -66t57.5 -43.5t81.5 -13.5t81 13t56.5 43t36 65
t20.5 94.5t9 114t2 139.5zM51 690q0 362 178 564t519 202q327 0 491 -190.5t164 -546.5q0 -350 -170.5 -544.5t-509.5 -194.5q-336 0 -504 184.5t-168 525.5zM811 1516l174 348l100 10q35 4 58.5 -3.5t34 -23t14.5 -29.5t4 -30q0 -38 -23.5 -69t-54.5 -46l-295 -170z
M530 1516l127 380l97 21q60 13 92.5 -10t32.5 -66q0 -67 -64 -119l-268 -219z" />
    <glyph glyph-name="ohungarumlaut" unicode="&#x151;" horiz-adv-x="1101" 
d="M631 248v416v16q0 176 -11.5 233.5t-62.5 57.5q-59 0 -72.5 -65.5t-13.5 -233.5v-13v-411v-10v-50.5t1 -44t3 -41.5t5.5 -33.5t9 -29t13.5 -19.5t19 -14t25 -4q21 0 35.5 6.5t23.5 24t14.5 33t7.5 50.5t2.5 58.5t0.5 73.5zM31 483q0 247 145 379.5t387 132.5
q508 0 508 -491q0 -259 -127.5 -391.5t-394.5 -132.5q-259 0 -388.5 130t-129.5 373zM645 1069l121 397l102 21q64 13 101 -12.5t37 -71.5q0 -65 -62 -115l-285 -231zM344 1065l84 408l98 32q65 21 106.5 -6.5t41.5 -79.5q0 -58 -51 -106l-263 -256z" />
    <glyph glyph-name="OE" unicode="&#x152;" horiz-adv-x="2029" 
d="M1090 1434h782l20 -410h-14q-43 83 -77 137.5t-77 105t-88.5 79t-105 45t-133.5 16.5h-15v-659h25q111 0 186 78.5t105 197.5h16v-606h-16q-39 149 -115.5 222t-183.5 73h-17v-686h39q91 0 177.5 36t152.5 96.5t115.5 135.5t75.5 156h20l-16 -451h-861v162
q-142 -182 -421 -182q-297 0 -455 186.5t-158 523.5q0 363 169.5 564.5t496.5 201.5q121 0 212 -41.5t161 -134.5v154zM934 489v490q0 79 -2.5 135t-10 112t-22 92t-36.5 65t-55.5 42t-78.5 13q-33 0 -60.5 -8.5t-48 -22t-36.5 -38t-26.5 -48.5t-18 -62t-12 -69.5t-6.5 -80
t-2.5 -85t-0.5 -92.5v-463q0 -76 2.5 -130t9 -111t20 -94.5t34 -68.5t52.5 -46t75 -15q57 0 98 23.5t65 62.5t37.5 103.5t18 132t4.5 163.5z" />
    <glyph glyph-name="oe" unicode="&#x153;" horiz-adv-x="1640" 
d="M29 483q0 247 145 379.5t387 132.5q191 0 311 -104q125 104 302 104q456 0 438 -467h-557v-90q0 -76 4.5 -130.5t18 -108t38 -86t65.5 -52.5t99 -20q111 0 187.5 68.5t111.5 189.5l33 -8q-20 -71 -51 -124.5t-81 -97t-127 -66.5t-179 -23q-192 0 -312 100
q-144 -100 -327 -100q-250 0 -378 130.5t-128 372.5zM629 248v416v16q0 176 -11.5 233.5t-62.5 57.5q-59 0 -72.5 -65.5t-13.5 -233.5v-13v-411v-10v-50.5t1 -44t3 -41.5t5.5 -33.5t9 -29t13.5 -19.5t19 -14t25 -4q21 0 35.5 6.5t23.5 24t14.5 33t7.5 50.5t2.5 58.5
t0.5 73.5zM1055 557h157v168q0 146 -13.5 196t-65.5 50q-51 0 -64.5 -58t-13.5 -225v-131z" />
    <glyph glyph-name="Racute" unicode="&#x154;" horiz-adv-x="1386" 
d="M606 735h-31v-710h111v-25h-678v25h119v1382h-119v27h602q101 0 174.5 -3.5t142.5 -12.5t115 -25.5t85.5 -42.5t61.5 -63t34 -86t12 -114q0 -69 -21.5 -123.5t-56.5 -90t-86.5 -61.5t-104.5 -40t-118 -22v-5q192 -27 282.5 -105.5t90.5 -238.5v-112q0 -118 9.5 -154.5
t51.5 -36.5q19 0 31 9.5t27 51.5t26 120l29 -5q-11 -94 -35 -154t-63.5 -90t-82.5 -40t-108 -10q-88 0 -152 18t-111 60t-70 114t-23 176v172q0 115 -34 165t-110 50zM575 1407v-643h21q90 0 128 61.5t38 204.5v131q0 102 -18 156t-51.5 72t-96.5 18h-21zM481 1513l213 340
l113 -6q32 -1 54 -11.5t31 -26t12 -26.5t3 -22q0 -91 -90 -129l-325 -131z" />
    <glyph glyph-name="racute" unicode="&#x155;" horiz-adv-x="1058" 
d="M698 815h82q28 45 29.5 75.5t-13.5 42t-40 11.5q-59 0 -107 -56.5t-73 -140t-25 -172.5v-550h231v-25h-774v25h105v925h-105v25h539v-217q37 119 111 178t171 59q99 0 164.5 -52.5t65.5 -164.5q0 -90 -53 -145t-148 -55q-83 0 -129.5 41.5t-46.5 109.5q0 36 16 86z
M469 1069l121 397l96 17q45 7 72 3.5t42 -22.5t20 -36t5 -37q0 -52 -63 -107l-279 -227z" />
    <glyph glyph-name="Rcommaaccent" unicode="&#x156;" horiz-adv-x="1386" 
d="M606 735h-31v-710h111v-25h-678v25h119v1382h-119v27h602q101 0 174.5 -3.5t142.5 -12.5t115 -25.5t85.5 -42.5t61.5 -63t34 -86t12 -114q0 -69 -21.5 -123.5t-56.5 -90t-86.5 -61.5t-104.5 -40t-118 -22v-5q192 -27 282.5 -105.5t90.5 -238.5v-112q0 -118 9.5 -154.5
t51.5 -36.5q19 0 31 9.5t27 51.5t26 120l29 -5q-11 -94 -35 -154t-63.5 -90t-82.5 -40t-108 -10q-88 0 -152 18t-111 60t-70 114t-23 176v172q0 115 -34 165t-110 50zM575 1407v-643h21q90 0 128 61.5t38 204.5v131q0 102 -18 156t-51.5 72t-96.5 18h-21zM672 -596l-17 23
q88 59 117 96.5t29 89.5q0 36 -17.5 54t-40.5 20l-86 -90q-106 32 -106 141q0 68 47 112t115 44q85 0 134.5 -50t49.5 -141q0 -52 -17 -96.5t-52 -81t-69.5 -63t-86.5 -58.5z" />
    <glyph glyph-name="rcommaaccent" unicode="&#x157;" horiz-adv-x="1058" 
d="M698 815h82q28 45 29.5 75.5t-13.5 42t-40 11.5q-59 0 -107 -56.5t-73 -140t-25 -172.5v-550h231v-25h-774v25h105v925h-105v25h539v-217q37 119 111 178t171 59q99 0 164.5 -52.5t65.5 -164.5q0 -90 -53 -145t-148 -55q-83 0 -129.5 41.5t-46.5 109.5q0 36 16 86z
M274 -596l-16 23q88 59 116.5 96.5t28.5 89.5q0 36 -17.5 54t-39.5 20l-86 -90q-106 32 -106 141q0 68 46.5 112t114.5 44q85 0 135 -50t50 -141q0 -52 -17.5 -96.5t-52.5 -81t-69.5 -62.5t-86.5 -59z" />
    <glyph glyph-name="Rcaron" unicode="&#x158;" horiz-adv-x="1386" 
d="M606 735h-31v-710h111v-25h-678v25h119v1382h-119v27h602q101 0 174.5 -3.5t142.5 -12.5t115 -25.5t85.5 -42.5t61.5 -63t34 -86t12 -114q0 -69 -21.5 -123.5t-56.5 -90t-86.5 -61.5t-104.5 -40t-118 -22v-5q192 -27 282.5 -105.5t90.5 -238.5v-112q0 -118 9.5 -154.5
t51.5 -36.5q19 0 31 9.5t27 51.5t26 120l29 -5q-11 -94 -35 -154t-63.5 -90t-82.5 -40t-108 -10q-88 0 -152 18t-111 60t-70 114t-23 176v172q0 115 -34 165t-110 50zM575 1407v-643h21q90 0 128 61.5t38 204.5v131q0 102 -18 156t-51.5 72t-96.5 18h-21zM987 1874
l-215 -322q-58 -32 -113 -32t-87.5 19.5t-55.5 62.5l-149 270l12 14l295 -133l303 133z" />
    <glyph glyph-name="rcaron" unicode="&#x159;" horiz-adv-x="1058" 
d="M698 815h82q28 45 29.5 75.5t-13.5 42t-40 11.5q-59 0 -107 -56.5t-73 -140t-25 -172.5v-550h231v-25h-774v25h105v925h-105v25h539v-217q37 119 111 178t171 59q99 0 164.5 -52.5t65.5 -164.5q0 -90 -53 -145t-148 -55q-83 0 -129.5 41.5t-46.5 109.5q0 36 16 86z
M848 1501l-197 -409q-57 -33 -110 -33q-100 0 -142 98l-151 346l16 13l285 -216l282 216z" />
    <glyph glyph-name="Sacute" unicode="&#x15a;" horiz-adv-x="1193" 
d="M657 4q91 0 152 53t61 160q0 62 -19.5 106t-66 78t-105.5 58.5t-155 52.5q-81 24 -140.5 49.5t-118.5 66t-96 91t-60 124t-23 165.5q0 87 33 167.5t93.5 143t154.5 100t208 37.5q119 0 269 -43q68 -20 104 -20q25 0 39 9.5t27 31.5h14l14 -414h-20q-32 47 -52.5 76.5
t-57.5 78.5t-66 80.5t-70 69t-78 59.5t-81.5 37t-88.5 15q-88 0 -142 -61.5t-54 -153.5q0 -45 15.5 -80t40 -59.5t69 -46.5t88 -36.5t110.5 -33.5q58 -17 96.5 -29.5t93 -35.5t91 -47t76.5 -61.5t63.5 -81t39 -104t15.5 -131.5q0 -224 -138.5 -359.5t-362.5 -135.5
q-131 0 -332 43q-81 18 -109 18q-26 0 -40 -14t-27 -47h-19l-20 491h20q34 -54 73 -108.5t98 -122t117.5 -117.5t130 -84.5t136.5 -34.5zM457 1513l213 340l112 -6q32 -1 54 -11.5t31.5 -26t12.5 -27t3 -21.5q0 -91 -90 -129l-326 -131z" />
    <glyph glyph-name="sacute" unicode="&#x15b;" horiz-adv-x="874" 
d="M55 -20v370h23q62 -189 156 -266.5t217 -77.5q206 0 206 131q0 29 -14 50t-43 36t-64.5 26.5t-88.5 26.5q-31 8 -48 13q-58 17 -100 33.5t-91.5 45.5t-81 64t-52.5 89t-21 120q0 162 99 258t264 96q53 0 98.5 -10t70.5 -21.5t49.5 -21.5t41.5 -10q25 0 41.5 12.5
t50.5 54.5h12v-315h-18q-60 149 -141.5 216t-194.5 67q-100 0 -142 -35t-42 -82q0 -30 12 -50t54 -38.5t66 -26t103 -28.5q16 -5 25 -7q59 -16 99 -30t90 -42.5t80.5 -64.5t51.5 -94.5t21 -132.5q0 -177 -103.5 -266.5t-283.5 -89.5q-57 0 -108.5 11t-81.5 24.5t-57.5 24.5
t-41.5 11q-20 0 -41 -15.5t-53 -55.5h-19zM367 1069l120 397l97 17q45 7 72 3.5t42 -22.5t20 -36t5 -37q0 -51 -64 -107l-278 -227z" />
    <glyph glyph-name="Scircumflex" unicode="&#x15c;" horiz-adv-x="1193" 
d="M657 4q91 0 152 53t61 160q0 62 -19.5 106t-66 78t-105.5 58.5t-155 52.5q-81 24 -140.5 49.5t-118.5 66t-96 91t-60 124t-23 165.5q0 87 33 167.5t93.5 143t154.5 100t208 37.5q119 0 269 -43q68 -20 104 -20q25 0 39 9.5t27 31.5h14l14 -414h-20q-32 47 -52.5 76.5
t-57.5 78.5t-66 80.5t-70 69t-78 59.5t-81.5 37t-88.5 15q-88 0 -142 -61.5t-54 -153.5q0 -45 15.5 -80t40 -59.5t69 -46.5t88 -36.5t110.5 -33.5q58 -17 96.5 -29.5t93 -35.5t91 -47t76.5 -61.5t63.5 -81t39 -104t15.5 -131.5q0 -224 -138.5 -359.5t-362.5 -135.5
q-131 0 -332 43q-81 18 -109 18q-26 0 -40 -14t-27 -47h-19l-20 491h20q34 -54 73 -108.5t98 -122t117.5 -117.5t130 -84.5t136.5 -34.5zM283 1518l215 323q60 33 112 33q55 0 88.5 -19.5t55.5 -62.5l149 -272l-10 -11l-297 131l-301 -135z" />
    <glyph glyph-name="scircumflex" unicode="&#x15d;" horiz-adv-x="874" 
d="M55 -20v370h23q62 -189 156 -266.5t217 -77.5q206 0 206 131q0 29 -14 50t-43 36t-64.5 26.5t-88.5 26.5q-31 8 -48 13q-58 17 -100 33.5t-91.5 45.5t-81 64t-52.5 89t-21 120q0 162 99 258t264 96q53 0 98.5 -10t70.5 -21.5t49.5 -21.5t41.5 -10q25 0 41.5 12.5
t50.5 54.5h12v-315h-18q-60 149 -141.5 216t-194.5 67q-100 0 -142 -35t-42 -82q0 -30 12 -50t54 -38.5t66 -26t103 -28.5q16 -5 25 -7q59 -16 99 -30t90 -42.5t80.5 -64.5t51.5 -94.5t21 -132.5q0 -177 -103.5 -266.5t-283.5 -89.5q-57 0 -108.5 11t-81.5 24.5t-57.5 24.5
t-41.5 11q-20 0 -41 -15.5t-53 -55.5h-19zM141 1067l203 410q62 32 121 32q91 0 131 -98l145 -346l-14 -10l-285 202l-282 -204z" />
    <glyph glyph-name="Scedilla" unicode="&#x15e;" horiz-adv-x="1193" 
d="M657 4q91 0 152 53t61 160q0 62 -19.5 106t-66 78t-105.5 58.5t-155 52.5q-81 24 -140.5 49.5t-118.5 66t-96 91t-60 124t-23 165.5q0 87 33 167.5t93.5 143t154.5 100t208 37.5q119 0 269 -43q68 -20 104 -20q25 0 39 9.5t27 31.5h14l14 -414h-20q-32 47 -52.5 76.5
t-57.5 78.5t-66 80.5t-70 69t-78 59.5t-81.5 37t-88.5 15q-88 0 -142 -61.5t-54 -153.5q0 -45 15.5 -80t40 -59.5t69 -46.5t88 -36.5t110.5 -33.5q58 -17 96.5 -29.5t93 -35.5t91 -47t76.5 -61.5t63.5 -81t39 -104t15.5 -131.5q0 -224 -138.5 -359.5t-362.5 -135.5h-17
l-53 -93q49 7 74 7q121 0 177 -48t56 -129q0 -41 -15 -78t-48 -71t-95.5 -54t-146.5 -20q-103 0 -161 35t-58 96q0 46 28 75.5t72 29.5q42 0 68 -26t29 -71l-56 -34q-6 -33 11.5 -57.5t50.5 -24.5q43 0 59.5 37.5t16.5 128.5v5q0 35 -0.5 51.5t-2 41t-5 35.5t-10 23.5
t-17 17t-25.5 4.5q-28 0 -61 -8l-6 16l69 113q-116 7 -266 41q-81 18 -109 18q-26 0 -40 -14t-27 -47h-19l-20 491h20q34 -54 73 -108.5t98 -122t117.5 -117.5t130 -84.5t136.5 -34.5z" />
    <glyph glyph-name="scedilla" unicode="&#x15f;" horiz-adv-x="874" 
d="M55 -20v370h23q62 -189 156 -266.5t217 -77.5q206 0 206 131q0 29 -14 50t-43 36t-64.5 26.5t-88.5 26.5q-31 8 -48 13q-58 17 -100 33.5t-91.5 45.5t-81 64t-52.5 89t-21 120q0 162 99 258t264 96q53 0 98.5 -10t70.5 -21.5t49.5 -21.5t41.5 -10q25 0 41.5 12.5
t50.5 54.5h12v-315h-18q-60 149 -141.5 216t-194.5 67q-100 0 -142 -35t-42 -82q0 -30 12 -50t54 -38.5t66 -26t103 -28.5q16 -5 25 -7q59 -16 99 -30t90 -42.5t80.5 -64.5t51.5 -94.5t21 -132.5q0 -177 -103.5 -266.5t-283.5 -89.5h-8l-54 -93q49 7 74 7q121 0 177 -48
t56 -129q0 -41 -15 -78t-48 -71t-95.5 -54t-146.5 -20q-103 0 -161 35t-58 96q0 46 28.5 75.5t72.5 29.5q42 0 67.5 -26t28.5 -71l-56 -34q-6 -33 11.5 -57.5t50.5 -24.5q43 0 59.5 37.5t16.5 128.5v5q0 35 -0.5 51.5t-2 41t-5 35.5t-10 23.5t-17 17t-25.5 4.5q-28 0 -61 -8
l-6 16l69 115q-55 5 -104.5 22t-80.5 31t-46 14q-20 0 -41 -15.5t-53 -55.5h-19z" />
    <glyph glyph-name="Scaron" unicode="&#x160;" horiz-adv-x="1193" 
d="M657 4q91 0 152 53t61 160q0 62 -19.5 106t-66 78t-105.5 58.5t-155 52.5q-81 24 -140.5 49.5t-118.5 66t-96 91t-60 124t-23 165.5q0 87 33 167.5t93.5 143t154.5 100t208 37.5q119 0 269 -43q68 -20 104 -20q25 0 39 9.5t27 31.5h14l14 -414h-20q-32 47 -52.5 76.5
t-57.5 78.5t-66 80.5t-70 69t-78 59.5t-81.5 37t-88.5 15q-88 0 -142 -61.5t-54 -153.5q0 -45 15.5 -80t40 -59.5t69 -46.5t88 -36.5t110.5 -33.5q58 -17 96.5 -29.5t93 -35.5t91 -47t76.5 -61.5t63.5 -81t39 -104t15.5 -131.5q0 -224 -138.5 -359.5t-362.5 -135.5
q-131 0 -332 43q-81 18 -109 18q-26 0 -40 -14t-27 -47h-19l-20 491h20q34 -54 73 -108.5t98 -122t117.5 -117.5t130 -84.5t136.5 -34.5zM954 1874l-215 -322q-58 -32 -112 -32q-55 0 -88.5 19.5t-55.5 62.5l-149 270l12 14l295 -133l303 133z" />
    <glyph glyph-name="scaron" unicode="&#x161;" horiz-adv-x="874" 
d="M55 -20v370h23q62 -189 156 -266.5t217 -77.5q206 0 206 131q0 29 -14 50t-43 36t-64.5 26.5t-88.5 26.5q-31 8 -48 13q-58 17 -100 33.5t-91.5 45.5t-81 64t-52.5 89t-21 120q0 162 99 258t264 96q53 0 98.5 -10t70.5 -21.5t49.5 -21.5t41.5 -10q25 0 41.5 12.5
t50.5 54.5h12v-315h-18q-60 149 -141.5 216t-194.5 67q-100 0 -142 -35t-42 -82q0 -30 12 -50t54 -38.5t66 -26t103 -28.5q16 -5 25 -7q59 -16 99 -30t90 -42.5t80.5 -64.5t51.5 -94.5t21 -132.5q0 -177 -103.5 -266.5t-283.5 -89.5q-57 0 -108.5 11t-81.5 24.5t-57.5 24.5
t-41.5 11q-20 0 -41 -15.5t-53 -55.5h-19zM758 1501l-197 -409q-57 -33 -110 -33q-100 0 -142 98l-151 346l16 13l285 -216l282 216z" />
    <glyph glyph-name="uni0162" unicode="&#x162;" horiz-adv-x="1366" 
d="M1282 1434l33 -535h-19q-75 197 -178.5 338t-210.5 170v-1380h164v-27h-375l-65 -113q49 7 74 7q121 0 177 -48t56 -129q0 -41 -15 -78t-48 -71t-95.5 -54t-146.5 -20q-103 0 -161 35t-58 96q0 46 28 75.5t72 29.5q42 0 67.5 -26t28.5 -71l-55 -34q-6 -33 11 -57.5
t50 -24.5q43 0 59.5 37.5t16.5 128.5v10q0 34 -0.5 50t-2 40t-5 34.5t-10 22.5t-16.5 16.5t-25 4.5q-29 0 -62 -8l-6 16l80 131h-348v27h162v1380q-109 -29 -212.5 -170t-178.5 -338h-17l31 535h1200z" />
    <glyph glyph-name="uni0163" unicode="&#x163;" horiz-adv-x="782" 
d="M104 307v643h-104v25h104v264l437 102v-366h221v-25h-221v-714q0 -97 18 -139t68 -42q41 0 68.5 35.5t39.5 86.5t19 126l28 -2q-4 -57 -10.5 -94.5t-25 -84.5t-48.5 -75t-83.5 -47.5t-127.5 -19.5q-25 0 -71 4l-56 -97q49 7 74 7q121 0 177.5 -48t56.5 -129
q0 -41 -15.5 -78.5t-48.5 -71t-95.5 -53.5t-146.5 -20q-103 0 -161 35t-58 96q0 46 28.5 75.5t72.5 29.5q42 0 67.5 -26t28.5 -71l-55 -34q-6 -33 11 -57.5t50 -24.5q43 0 59.5 37.5t16.5 128.5v5q0 35 -0.5 51.5t-2 41t-5 35.5t-10 23.5t-17 17t-25.5 4.5q-28 0 -61 -8
l-6 16l72 119q-126 19 -194.5 92.5t-68.5 226.5z" />
    <glyph glyph-name="Tcaron" unicode="&#x164;" horiz-adv-x="1366" 
d="M1282 1434l33 -535h-19q-75 197 -178.5 338t-210.5 170v-1380h164v-27h-774v27h162v1380q-109 -29 -212.5 -170t-178.5 -338h-17l31 535h1200zM1026 1874l-215 -322q-58 -32 -113 -32t-87.5 19.5t-55.5 62.5l-149 270l12 14l295 -133l303 133z" />
    <glyph glyph-name="tcaron" unicode="&#x165;" horiz-adv-x="782" 
d="M104 307v643h-104v25h104v264l437 102v-366h221v-25h-221v-714q0 -97 18 -139t68 -42q41 0 68.5 35.5t39.5 86.5t19 126l28 -2q-4 -57 -10.5 -94.5t-25 -84.5t-48.5 -75t-83.5 -47.5t-127.5 -19.5q-86 0 -150.5 14t-119.5 48.5t-84 101t-29 163.5zM623 1051l-15 18
q84 87 84 184q0 93 -98 181l37 34q42 38 74.5 55t70.5 17q56 0 89.5 -43t33.5 -100q0 -163 -276 -346z" />
    <glyph glyph-name="Tbar" unicode="&#x166;" horiz-adv-x="1366" 
d="M1282 1434l33 -535h-19q-75 197 -178.5 338t-210.5 170v-682h262v-31h-262v-667h164v-27h-774v27h162v667h-266v31h266v682q-109 -29 -212.5 -170t-178.5 -338h-17l31 535h1200z" />
    <glyph glyph-name="tbar" unicode="&#x167;" horiz-adv-x="782" 
d="M104 307v297h-124v25h124v321h-104v25h104v264l437 102v-366h221v-25h-221v-321h223v-25h-223v-368q0 -97 18 -139t68 -42q41 0 68.5 35.5t39.5 86.5t19 126l28 -2q-4 -57 -10.5 -94.5t-25 -84.5t-48.5 -75t-83.5 -47.5t-127.5 -19.5q-86 0 -150.5 14t-119.5 48.5
t-84 101t-29 163.5z" />
    <glyph glyph-name="Utilde" unicode="&#x168;" horiz-adv-x="1310" 
d="M840 35q-82 0 -137 28t-84 84t-40.5 123.5t-11.5 161.5v975h125v27h-674v-27h101v-889q0 -123 28.5 -217t78.5 -154t124 -98t158 -53.5t188 -15.5q90 0 160.5 11.5t122.5 32.5t89.5 55.5t61 74t37.5 94t19.5 110.5t5.5 129v920h102v27h-274v-27h131v-934
q0 -224 -80.5 -331t-230.5 -107zM879 1534q-56 0 -168.5 41t-149.5 41q-78 0 -112 -82l-17 6q26 81 48 132t51 95t66 64t85 20q57 0 161.5 -41t137.5 -41q20 0 32.5 2t31.5 9t33 25.5t24 47.5l18 -4q-46 -172 -103 -243.5t-138 -71.5z" />
    <glyph glyph-name="utilde" unicode="&#x169;" horiz-adv-x="1234" 
d="M1227 0h-512l-21 131q-12 -29 -23 -48.5t-32.5 -40.5t-49 -33.5t-71.5 -20.5t-102 -8q-322 0 -322 342v628h-106v25h542v-715q0 -115 14 -152.5t50 -37.5q43 0 67.5 56t24.5 157v667h-82v25h518v-950h105v-25zM741 1108q-56 0 -168 41t-149 41q-79 0 -113 -82l-16 6
q26 81 48 132t51 95t66 64t85 20q57 0 161.5 -41t137.5 -41q20 0 32.5 2t31.5 9t33 25.5t24 47.5l18 -4q-46 -172 -103.5 -243.5t-138.5 -71.5z" />
    <glyph glyph-name="Umacron" unicode="&#x16a;" horiz-adv-x="1310" 
d="M840 35q-82 0 -137 28t-84 84t-40.5 123.5t-11.5 161.5v975h125v27h-674v-27h101v-889q0 -123 28.5 -217t78.5 -154t124 -98t158 -53.5t188 -15.5q90 0 160.5 11.5t122.5 32.5t89.5 55.5t61 74t37.5 94t19.5 110.5t5.5 129v920h102v27h-274v-27h131v-934
q0 -224 -80.5 -331t-230.5 -107zM457 1563v192h557v-192h-557z" />
    <glyph glyph-name="umacron" unicode="&#x16b;" horiz-adv-x="1234" 
d="M1227 0h-512l-21 131q-12 -29 -23 -48.5t-32.5 -40.5t-49 -33.5t-71.5 -20.5t-102 -8q-322 0 -322 342v628h-106v25h542v-715q0 -115 14 -152.5t50 -37.5q43 0 67.5 56t24.5 157v667h-82v25h518v-950h105v-25zM330 1130v193h557v-193h-557z" />
    <glyph glyph-name="Ubreve" unicode="&#x16c;" horiz-adv-x="1310" 
d="M840 35q150 0 230.5 107t80.5 331v934h-131v27h274v-27h-102v-920q0 -73 -5.5 -129t-19.5 -110.5t-37.5 -94t-61 -74t-89.5 -55.5t-122.5 -32.5t-160.5 -11.5q-104 0 -188 15.5t-158 53.5t-124 98t-78.5 154t-28.5 217v889h-101v27h674v-27h-125v-975q0 -94 11.5 -161.5
t40.5 -123.5t84 -84t137 -28zM467 1860l22 4q28 -82 91 -110t182 -28q61 0 98 4t73 17.5t58 41.5t35 73l23 -2q-8 -79 -26.5 -140t-51.5 -110.5t-87 -76t-126 -26.5q-62 0 -109.5 18.5t-77.5 48t-51.5 77t-32.5 95.5t-20 114z" />
    <glyph glyph-name="ubreve" unicode="&#x16d;" horiz-adv-x="1234" 
d="M1227 0h-512l-21 131q-12 -29 -23 -48.5t-32.5 -40.5t-49 -33.5t-71.5 -20.5t-102 -8q-322 0 -322 342v628h-106v25h542v-715q0 -115 14 -152.5t50 -37.5q43 0 67.5 56t24.5 157v667h-82v25h518v-950h105v-25zM311 1462l21 4q14 -43 38 -71t61.5 -41.5t76 -18t96.5 -4.5
q47 0 76.5 2t64 9t56 21.5t40.5 40t29 62.5l19 -4q-45 -397 -287 -397q-61 0 -108 21.5t-75.5 54t-50.5 88.5t-33.5 106.5t-23.5 126.5z" />
    <glyph glyph-name="Uring" unicode="&#x16e;" horiz-adv-x="1310" 
d="M840 35q-82 0 -137 28t-84 84t-40.5 123.5t-11.5 161.5v975h125v27h-674v-27h101v-889q0 -123 28.5 -217t78.5 -154t124 -98t158 -53.5t188 -15.5q90 0 160.5 11.5t122.5 32.5t89.5 55.5t61 74t37.5 94t19.5 110.5t5.5 129v920h102v27h-274v-27h131v-934
q0 -224 -80.5 -331t-230.5 -107zM664 1708q0 -65 33.5 -107t113.5 -42q72 0 108.5 42t36.5 107q0 62 -37 103.5t-112 41.5q-74 0 -108.5 -41.5t-34.5 -103.5zM602 1708q0 84 54.5 139.5t156.5 55.5q98 0 150.5 -52.5t52.5 -138.5q0 -91 -54.5 -147t-152.5 -56
q-105 0 -156 53.5t-51 145.5z" />
    <glyph glyph-name="uring" unicode="&#x16f;" horiz-adv-x="1234" 
d="M1227 0h-512l-21 131q-12 -29 -23 -48.5t-32.5 -40.5t-49 -33.5t-71.5 -20.5t-102 -8q-322 0 -322 342v628h-106v25h542v-715q0 -115 14 -152.5t50 -37.5q43 0 67.5 56t24.5 157v667h-82v25h518v-950h105v-25zM463 1294q0 -65 33.5 -107t113.5 -42q72 0 109 42t37 107
q0 62 -37.5 104t-112.5 42q-74 0 -108.5 -42t-34.5 -104zM401 1294q0 84 54.5 139.5t156.5 55.5q98 0 150.5 -52.5t52.5 -138.5q0 -91 -54.5 -146.5t-152.5 -55.5q-105 0 -156 53t-51 145z" />
    <glyph glyph-name="Uhungarumlaut" unicode="&#x170;" horiz-adv-x="1310" 
d="M840 35q-82 0 -137 28t-84 84t-40.5 123.5t-11.5 161.5v975h125v27h-674v-27h101v-889q0 -123 28.5 -217t78.5 -154t124 -98t158 -53.5t188 -15.5q90 0 160.5 11.5t122.5 32.5t89.5 55.5t61 74t37.5 94t19.5 110.5t5.5 129v920h102v27h-274v-27h131v-934
q0 -224 -80.5 -331t-230.5 -107zM791 1516l174 348l100 10q35 4 58.5 -3.5t34 -23t14.5 -29.5t4 -30q0 -38 -23.5 -69t-54.5 -46l-295 -170zM510 1516l127 380l96 21q60 13 92.5 -10t32.5 -66q0 -68 -63 -119l-269 -219z" />
    <glyph glyph-name="uhungarumlaut" unicode="&#x171;" horiz-adv-x="1234" 
d="M1227 0h-512l-21 131q-12 -29 -23 -48.5t-32.5 -40.5t-49 -33.5t-71.5 -20.5t-102 -8q-322 0 -322 342v628h-106v25h542v-715q0 -115 14 -152.5t50 -37.5q43 0 67.5 56t24.5 157v667h-82v25h518v-950h105v-25zM686 1069l121 397l102 21q64 13 101 -12.5t37 -71.5
q0 -65 -62 -115l-285 -231zM385 1065l84 408l98 32q65 21 106.5 -6.5t41.5 -79.5q0 -58 -51 -106l-263 -256z" />
    <glyph glyph-name="Uogonek" unicode="&#x172;" horiz-adv-x="1310" 
d="M840 35q150 0 230.5 107t80.5 331v934h-131v27h274v-27h-102v-920q0 -184 -40.5 -284.5t-160.5 -179.5q-135 -91 -135 -304q0 -64 6 -96t18 -41.5t35 -9.5q27 0 51.5 20t59.5 70l23 -12q-26 -42 -44 -65.5t-48 -49t-70.5 -36.5t-95.5 -11q-87 0 -140 43.5t-53 128.5
q0 50 12.5 90t45 83.5t98 85.5t164.5 83l8 4q-99 -26 -230 -26q-104 0 -188 15.5t-158 53.5t-124 98t-78.5 154t-28.5 217v889h-101v27h674v-27h-125v-975q0 -94 11.5 -161.5t40.5 -123.5t84 -84t137 -28z" />
    <glyph glyph-name="uogonek" unicode="&#x173;" horiz-adv-x="1234" 
d="M1227 0h-187q-61 -52 -85.5 -118.5t-24.5 -162.5q0 -64 6 -96t18 -41.5t35 -9.5q27 0 51.5 20t59.5 70l22 -12q-26 -42 -44 -65.5t-48 -49t-70.5 -36.5t-95.5 -11q-87 0 -139.5 43.5t-52.5 128.5q0 51 11.5 90.5t44 83t96.5 85t161 81.5h-270l-21 131q-12 -29 -23 -48.5
t-32.5 -40.5t-49 -33.5t-71.5 -20.5t-102 -8q-322 0 -322 342v628h-106v25h542v-715q0 -115 14 -152.5t50 -37.5q43 0 67.5 56t24.5 157v667h-82v25h518v-950h105v-25z" />
    <glyph glyph-name="Wcircumflex" unicode="&#x174;" horiz-adv-x="1998" 
d="M883 444l114 506l-131 457h-106v27h651v-27h-102l290 -938l228 938h-203v27h375v-27h-133l-348 -1423h-226l-272 890l-201 -890h-233l-508 1423h-78v27h682v-27h-129zM764 1518l215 323q60 33 113 33q55 0 87.5 -19.5t55.5 -62.5l149 -272l-10 -11l-297 131l-301 -135z
" />
    <glyph glyph-name="wcircumflex" unicode="&#x175;" horiz-adv-x="1628" 
d="M711 975v-25h65l58 -264l-127 -453l-175 717h101v25h-653v-25h88l288 -950h326l170 621l154 -621h333l232 950h78v25h-254v-25h141l-176 -712l-160 712h76v25h-565zM580 1067l202 410q62 32 121 32q91 0 131 -98l146 -346l-15 -10l-284 202l-283 -204z" />
    <glyph glyph-name="Ycircumflex" unicode="&#x176;" horiz-adv-x="1271" 
d="M829 739l279 668h-199v27h363v-27h-127l-287 -698v-682h111v-27h-670v27h111v655l-332 725h-78v27h674v-27h-123l268 -668h10zM381 1518l215 323q60 33 113 33q55 0 87.5 -19.5t55.5 -62.5l149 -272l-10 -11l-297 131l-301 -135z" />
    <glyph glyph-name="ycircumflex" unicode="&#x177;" horiz-adv-x="1040" 
d="M-20 975v-25h79l347 -950h221l-43 -127q-116 -338 -293 -338q-55 0 -72 32t8 79h72q12 44 12 73q0 150 -161 150q-84 0 -137.5 -49.5t-53.5 -126.5q0 -101 73.5 -153t194.5 -52q83 0 150.5 30t130 109t104.5 207l375 1116h105v25h-277v-25h135l-229 -667l-205 667h102v25
h-638zM283 1067l202 410q62 32 121 32q91 0 131 -98l146 -346l-15 -10l-284 202l-283 -204z" />
    <glyph glyph-name="Ydieresis" unicode="&#x178;" horiz-adv-x="1271" 
d="M829 739l279 668h-199v27h363v-27h-127l-287 -698v-682h111v-27h-670v27h111v655l-332 725h-78v27h674v-27h-123l268 -668h10zM739 1690q0 66 46.5 110.5t134.5 44.5q87 0 133.5 -39t46.5 -116q0 -72 -45.5 -116t-132.5 -44q-96 0 -139.5 46.5t-43.5 113.5zM289 1690
q0 66 46 110.5t134 44.5q87 0 133.5 -39t46.5 -116q0 -72 -45.5 -116t-132.5 -44q-96 0 -139 46.5t-43 113.5z" />
    <glyph glyph-name="Zacute" unicode="&#x179;" horiz-adv-x="1198" 
d="M1116 1434v-17l-559 -1388h35q108 0 215 66t187.5 175t119.5 238h25l-23 -508h-1038v18l565 1389h-18q-171 0 -294.5 -103.5t-232.5 -330.5h-20l31 461h1007zM496 1513l213 340l112 -6q32 -1 54 -11.5t31.5 -26t12.5 -27t3 -21.5q0 -90 -91 -129l-325 -131z" />
    <glyph glyph-name="zacute" unicode="&#x17a;" horiz-adv-x="1058" 
d="M995 975v-27l-467 -919h41q153 0 248.5 97t155.5 310h24l-34 -436h-900v20l482 928h-19q-68 0 -116 -6.5t-88 -26t-67 -45t-52.5 -72.5t-44.5 -100t-43 -135h-23l29 412h874zM471 1069l121 397l96 17q45 7 72 3.5t42 -22.5t20 -36t5 -37q0 -52 -63 -107l-279 -227z" />
    <glyph glyph-name="Zdotaccent" unicode="&#x17b;" horiz-adv-x="1198" 
d="M1116 1434v-17l-559 -1388h35q108 0 215 66t187.5 175t119.5 238h25l-23 -508h-1038v18l565 1389h-18q-171 0 -294.5 -103.5t-232.5 -330.5h-20l31 461h1007zM430 1694q0 78 52.5 129t164.5 51q100 0 154.5 -46t54.5 -134q0 -79 -53 -128.5t-162 -49.5q-61 0 -104.5 16.5
t-65.5 44t-31.5 56.5t-9.5 61z" />
    <glyph glyph-name="zdotaccent" unicode="&#x17c;" horiz-adv-x="1058" 
d="M995 975v-27l-467 -919h41q153 0 248.5 97t155.5 310h24l-34 -436h-900v20l482 928h-19q-68 0 -116 -6.5t-88 -26t-67 -45t-52.5 -72.5t-44.5 -100t-43 -135h-23l29 412h874zM356 1284q0 91 53.5 148t172.5 57q104 0 161.5 -51.5t57.5 -149.5q0 -94 -54.5 -150.5
t-168.5 -56.5q-65 0 -111 18.5t-69 50t-32.5 64t-9.5 70.5z" />
    <glyph glyph-name="Zcaron" unicode="&#x17d;" horiz-adv-x="1198" 
d="M1116 1434v-17l-559 -1388h35q108 0 215 66t187.5 175t119.5 238h25l-23 -508h-1038v18l565 1389h-18q-171 0 -294.5 -103.5t-232.5 -330.5h-20l31 461h1007zM948 1874l-215 -322q-58 -32 -112 -32q-55 0 -88.5 19.5t-55.5 62.5l-149 270l12 14l295 -133l303 133z" />
    <glyph glyph-name="zcaron" unicode="&#x17e;" horiz-adv-x="1058" 
d="M995 975v-27l-467 -919h41q153 0 248.5 97t155.5 310h24l-34 -436h-900v20l482 928h-19q-68 0 -116 -6.5t-88 -26t-67 -45t-52.5 -72.5t-44.5 -100t-43 -135h-23l29 412h874zM874 1501l-196 -409q-57 -33 -111 -33q-99 0 -141 98l-152 346l17 13l284 -216l283 216z" />
    <glyph glyph-name="longs" unicode="&#x17f;" horiz-adv-x="716" 
d="M666 1556q-38 0 -61.5 -15t-35.5 -48t-16 -73.5t-4 -104.5v-1290h209v-25h-750v25h105v925h-111v25h111v8q0 141 28.5 248.5t90 187.5t164.5 122t245 42q99 0 171 -22t108.5 -58t52.5 -73.5t16 -77.5q0 -98 -51 -146.5t-133 -48.5q-89 0 -135.5 43.5t-46.5 114.5
q0 40 18 96h84q18 34 20 66.5t-18 55.5t-61 23z" />
    <glyph glyph-name="florin" unicode="&#x192;" horiz-adv-x="1144" 
d="M860 1427q-64 0 -96.5 -56t-54.5 -179l-64 -356h293l-4 -35h-295l-104 -604q-51 -294 -205 -461.5t-400 -167.5q-84 0 -147 18.5t-96.5 50t-49.5 66.5t-16 74q0 92 51.5 149.5t145.5 57.5q80 0 119.5 -38.5t39.5 -97.5q0 -51 -32 -110h-76q-31 -42 -31 -78
q0 -35 27.5 -50.5t58.5 -15.5q62 0 97.5 58.5t56.5 181.5l168 967h-111l6 35h111q59 295 209 457.5t391 162.5q85 0 148.5 -19.5t98 -52t50.5 -67.5t16 -72q0 -90 -53.5 -148.5t-146.5 -58.5q-79 0 -119.5 38.5t-40.5 99.5q0 44 33 108h82q30 34 30 76q0 38 -28 52.5
t-62 14.5z" />
    <glyph glyph-name="Aringacute" unicode="&#x1fa;" horiz-adv-x="1376" 
d="M492 1612q0 84 54 139t156 55q98 0 150.5 -52t52.5 -138q0 -64 -27 -111.5t-79 -70.5l499 -1409h78v-25h-692v25h135l-153 462h-377l-164 -462h147v-25h-270v25h84l504 1409q-98 45 -98 178zM485 1047l-188 -529h358zM555 1833l213 340l113 -6q32 -1 54 -11.5t31 -26
t12 -26.5t3 -22q0 -91 -90 -129l-326 -131zM553 1612q0 -65 34 -107.5t113 -42.5q72 0 109 42.5t37 107.5q0 62 -37.5 103.5t-112.5 41.5q-74 0 -108.5 -41.5t-34.5 -103.5z" />
    <glyph glyph-name="aringacute" unicode="&#x1fb;" horiz-adv-x="1134" 
d="M520 477h58v189q0 123 -10.5 190t-31.5 92t-59 25q-42 0 -63.5 -24.5t-20.5 -57.5t17 -66h55q16 -43 16 -96q0 -73 -54.5 -120.5t-137.5 -47.5q-97 0 -144 48t-47 132q0 126 117 190t328 64q254 0 353 -83t99 -304v-430q0 -58 13 -79t41 -21q69 0 84 223l26 -2
q-1 -96 -19 -159t-55.5 -98t-86.5 -48.5t-121 -13.5q-128 0 -195 39t-88 118q-20 -78 -78 -117.5t-168 -39.5q-46 0 -86.5 5.5t-84.5 22t-75 42.5t-51 72t-20 107q0 50 15 88.5t45.5 65.5t71.5 45.5t98 29t119 15t140 4.5zM504 59q27 0 50.5 48t23.5 139v207h-15
q-60 0 -84 -56t-24 -172q0 -102 9.5 -134t39.5 -32zM416 1221q0 -65 34 -107.5t113 -42.5q72 0 109 42.5t37 107.5q0 62 -37.5 103.5t-112.5 41.5q-74 0 -108.5 -41.5t-34.5 -103.5zM354 1221q0 84 54.5 139t156.5 55q98 0 150.5 -52t52.5 -138q0 -91 -54.5 -147t-152.5 -56
q-105 0 -156 53.5t-51 145.5zM391 1434l213 340l113 -7q32 -1 54 -11.5t31 -26t12 -26.5t3 -22q0 -91 -90 -129l-326 -131z" />
    <glyph glyph-name="AEacute" unicode="&#x1fc;" horiz-adv-x="2039" 
d="M762 1407v27h1120l21 -410h-15q-53 103 -97 168.5t-100.5 117t-124.5 74.5t-157 23h-16v-664h18q57 0 108.5 24.5t88 64.5t62 85t40.5 93h12v-607h-12q-85 304 -297 304h-20v-680h37q91 0 178 36t153.5 96t116.5 135.5t76 156.5h18l-16 -451h-1125v27h113v680h-416
l-415 -680h161v-27h-294v27h88l845 1380h-151zM549 743h395v646zM1237 1513l213 340l113 -6q32 -1 54 -11.5t31 -26t12 -26.5t3 -22q0 -91 -90 -129l-326 -131z" />
    <glyph glyph-name="aeacute" unicode="&#x1fd;" horiz-adv-x="1572" 
d="M561 483v170q0 132 -12.5 204t-32.5 94t-55 22q-10 0 -21.5 -2.5t-27.5 -9.5t-26.5 -24t-10.5 -42q0 -32 14 -70h60q16 -43 16 -96q0 -73 -54.5 -120.5t-138.5 -47.5q-190 0 -190 178q0 86 55 145t143.5 85t202.5 26q125 0 203.5 -31t126.5 -108q41 70 124.5 104.5
t186.5 34.5q438 0 420 -467h-557v-90q0 -77 5 -133t20 -108.5t40 -85.5t66.5 -52.5t98.5 -19.5q112 0 188 69t111 191l28 -8q-21 -72 -50.5 -124.5t-80 -97t-129.5 -67t-186 -22.5q-295 0 -436 174q-8 -25 -18.5 -45.5t-34.5 -45.5t-56.5 -42t-87 -29t-123.5 -12
q-46 0 -85.5 5.5t-82.5 21.5t-73.5 42.5t-50 72.5t-19.5 107q0 73 32 123t95 76.5t141 37.5t186 11h76v6zM987 557h158v201q0 123 -14 168t-62 45q-55 0 -68.5 -67t-13.5 -271v-76zM526 53q17 0 35.5 7.5t42.5 36.5t37 77q-71 107 -80 283h-14q-52 0 -72 -51.5t-20 -180.5
q0 -103 16.5 -137.5t54.5 -34.5zM786 1069l121 397l97 17q45 7 72 3.5t42 -22.5t20 -36t5 -37q0 -51 -64 -107l-278 -227z" />
    <glyph glyph-name="Oslashacute" unicode="&#x1fe;" horiz-adv-x="1484" 
d="M66 690q0 362 178 564t518 202q148 0 266 -41l57 139l33 -14l-57 -139q178 -74 267 -247.5t89 -434.5q0 -350 -170.5 -544.5t-509.5 -194.5q-125 0 -248 30l-55 -135l-33 12l56 133q-197 68 -294 238.5t-97 431.5zM532 463q0 -141 11 -232l397 971q-12 124 -55 179
t-137 55q-31 0 -57 -5t-46 -17.5t-36 -26.5t-27.5 -37.5t-20 -45t-14 -56t-8.5 -62.5t-4.5 -72t-2 -77t-0.5 -85v-489zM948 473v514q0 92 -2 133l-391 -952q20 -82 64 -123t124 -41q47 0 81 13t56.5 43t36 65t20.5 94.5t9 114t2 139.5zM621 1513l213 340l112 -6
q32 -1 54 -11.5t31.5 -26t12.5 -27t3 -21.5q0 -90 -91 -129l-325 -131z" />
    <glyph glyph-name="oslashacute" unicode="&#x1ff;" horiz-adv-x="1095" 
d="M29 483q0 247 145 379.5t387 132.5q77 0 144 -12l49 135l24 -12l-47 -129q338 -74 338 -473q0 -259 -127.5 -391.5t-394.5 -132.5q-95 0 -172 18l-51 -141l-25 10l49 137q-319 88 -319 479zM629 248v416v30l-160 -438v-8v-10v-50.5t1 -44t3 -41.5t5.5 -33.5t9 -29
t13.5 -19.5t19 -14t25 -4q21 0 35.5 6.5t23.5 24t14.5 33t7.5 50.5t2.5 58.5t0.5 73.5zM469 659v-325l160 440q-2 110 -16 153.5t-58 43.5q-59 0 -72.5 -65.5t-13.5 -233.5v-13zM438 1069l121 397l96 17q35 9 60 5t40.5 -12.5t24.5 -25t12 -30.5t3 -29q0 -51 -64 -107
l-278 -227z" />
    <glyph glyph-name="Scommaaccent" unicode="&#x218;" horiz-adv-x="1193" 
d="M657 4q91 0 152 53t61 160q0 62 -19.5 106t-66 78t-105.5 58.5t-155 52.5q-81 24 -140.5 49.5t-118.5 66t-96 91t-60 124t-23 165.5q0 87 33 167.5t93.5 143t154.5 100t208 37.5q119 0 269 -43q68 -20 104 -20q25 0 39 9.5t27 31.5h14l14 -414h-20q-32 47 -52.5 76.5
t-57.5 78.5t-66 80.5t-70 69t-78 59.5t-81.5 37t-88.5 15q-88 0 -142 -61.5t-54 -153.5q0 -45 15.5 -80t40 -59.5t69 -46.5t88 -36.5t110.5 -33.5q58 -17 96.5 -29.5t93 -35.5t91 -47t76.5 -61.5t63.5 -81t39 -104t15.5 -131.5q0 -224 -138.5 -359.5t-362.5 -135.5
q-131 0 -332 43q-81 18 -109 18q-26 0 -40 -14t-27 -47h-19l-20 491h20q34 -54 73 -108.5t98 -122t117.5 -117.5t130 -84.5t136.5 -34.5zM569 -596l-16 23q88 59 116.5 96.5t28.5 89.5q0 36 -17.5 54t-39.5 20l-86 -90q-106 32 -106 141q0 68 46.5 112t114.5 44
q85 0 135 -50t50 -141q0 -52 -17.5 -96.5t-52.5 -81t-69.5 -62.5t-86.5 -59z" />
    <glyph glyph-name="scommaaccent" unicode="&#x219;" horiz-adv-x="874" 
d="M55 -20v370h23q62 -189 156 -266.5t217 -77.5q206 0 206 131q0 29 -14 50t-43 36t-64.5 26.5t-88.5 26.5q-31 8 -48 13q-58 17 -100 33.5t-91.5 45.5t-81 64t-52.5 89t-21 120q0 162 99 258t264 96q53 0 98.5 -10t70.5 -21.5t49.5 -21.5t41.5 -10q25 0 41.5 12.5
t50.5 54.5h12v-315h-18q-60 149 -141.5 216t-194.5 67q-100 0 -142 -35t-42 -82q0 -30 12 -50t54 -38.5t66 -26t103 -28.5q16 -5 25 -7q59 -16 99 -30t90 -42.5t80.5 -64.5t51.5 -94.5t21 -132.5q0 -177 -103.5 -266.5t-283.5 -89.5q-57 0 -108.5 11t-81.5 24.5t-57.5 24.5
t-41.5 11q-20 0 -41 -15.5t-53 -55.5h-19zM381 -596l-16 23q88 59 116.5 96.5t28.5 89.5q0 36 -17.5 54t-39.5 20l-86 -90q-107 32 -107 141q0 68 47 112t115 44q85 0 134.5 -50t49.5 -141q0 -52 -17 -96.5t-52 -81t-69.5 -63t-86.5 -58.5z" />
    <glyph glyph-name="uni021A" unicode="&#x21a;" horiz-adv-x="1366" 
d="M1282 1434l33 -535h-19q-75 197 -178.5 338t-210.5 170v-1380h164v-27h-774v27h162v1380q-109 -29 -212.5 -170t-178.5 -338h-17l31 535h1200zM643 -596l-16 23q88 59 116.5 96.5t28.5 89.5q0 36 -17.5 54t-39.5 20l-86 -90q-107 32 -107 141q0 68 47 112t115 44
q85 0 134.5 -50t49.5 -141q0 -52 -17 -96.5t-52 -81t-69.5 -63t-86.5 -58.5z" />
    <glyph glyph-name="uni021B" unicode="&#x21b;" horiz-adv-x="782" 
d="M104 307v643h-104v25h104v264l437 102v-366h221v-25h-221v-714q0 -97 18 -139t68 -42q41 0 68.5 35.5t39.5 86.5t19 126l28 -2q-4 -57 -10.5 -94.5t-25 -84.5t-48.5 -75t-83.5 -47.5t-127.5 -19.5q-86 0 -150.5 14t-119.5 48.5t-84 101t-29 163.5zM389 -596l-16 23
q88 59 116.5 96.5t28.5 89.5q0 36 -17.5 54t-39.5 20l-86 -90q-107 32 -107 141q0 68 47 112t115 44q85 0 134.5 -50t49.5 -141q0 -52 -17 -96.5t-52 -81t-69.5 -63t-86.5 -58.5z" />
    <glyph glyph-name="dotlessj" unicode="&#x237;" horiz-adv-x="628" 
d="M545 975v-778q0 -351 -132.5 -530t-424.5 -179q-169 0 -254.5 67t-85.5 166q0 93 56 143t144 50q84 0 127 -47.5t43 -120.5q0 -19 -12 -88h-92q-16 -30 -17.5 -61.5t19 -55.5t61.5 -24q68 0 100 73t32 267v1093h-105v25h541z" />
    <glyph glyph-name="apostrophe" unicode="&#x2bc;" horiz-adv-x="432" 
d="M186 991l-16 23q88 59 116.5 96.5t28.5 89.5q0 36 -17.5 54t-39.5 20l-86 -90q-106 32 -106 141q0 68 46.5 112t114.5 44q85 0 135 -50t50 -141q0 -52 -17.5 -96.5t-52.5 -81t-69.5 -62.5t-86.5 -59z" />
    <glyph glyph-name="circumflex" unicode="&#x2c6;" 
d="M221 1012l203 409q64 33 121 33q91 0 131 -98l145 -346l-14 -11l-285 203l-282 -205z" />
    <glyph glyph-name="caron" unicode="&#x2c7;" 
d="M819 1446l-196 -410q-55 -32 -111 -32q-99 0 -141 98l-152 346l17 12l284 -215l283 215z" />
    <glyph glyph-name="uni02C9" unicode="&#x2c9;" 
d="M233 1075v193h558v-193h-558z" />
    <glyph glyph-name="breve" unicode="&#x2d8;" 
d="M215 1407l21 4q14 -43 38 -71t61.5 -41.5t76 -18t96.5 -4.5q47 0 76.5 2t64 9t56 21.5t40.5 40t29 62.5l19 -4q-45 -397 -287 -397q-61 0 -108 21.5t-75.5 54t-50.5 88.5t-33.5 106.5t-23.5 126.5z" />
    <glyph glyph-name="dotaccent" unicode="&#x2d9;" 
d="M193 1284q0 91 53 148t172 57q104 0 161.5 -51.5t57.5 -149.5q0 -94 -54.5 -150.5t-168.5 -56.5q-65 0 -111 18.5t-68.5 50t-32 64t-9.5 70.5z" />
    <glyph glyph-name="ring" unicode="&#x2da;" 
d="M367 1264q0 -65 34 -107.5t113 -42.5q72 0 108.5 42.5t36.5 107.5q0 62 -37 103.5t-112 41.5q-74 0 -108.5 -41.5t-34.5 -103.5zM305 1264q0 84 54.5 139t156.5 55q98 0 150.5 -52t52.5 -138q0 -91 -54.5 -147t-152.5 -56q-105 0 -156 53.5t-51 145.5z" />
    <glyph glyph-name="ogonek" unicode="&#x2db;" 
d="M563 2l49 21l15 -13q-69 -54 -97 -122.5t-28 -168.5q0 -64 6 -96t18 -41.5t35 -9.5q27 0 51.5 20t59.5 70l22 -12q-26 -42 -44 -65.5t-48 -49t-70.5 -36.5t-95.5 -11q-87 0 -139.5 43.5t-52.5 128.5q0 51 12 90.5t45 83t98 85.5t164 83z" />
    <glyph glyph-name="tilde" unicode="&#x2dc;" 
d="M635 1053q-56 0 -168.5 41t-149.5 41q-78 0 -112 -82l-17 6q26 81 48 132t51 95t66 64t85 20q57 0 161.5 -41t137.5 -41q20 0 32.5 2t31.5 9t33 25.5t24 47.5l19 -4q-46 -172 -103.5 -243.5t-138.5 -71.5z" />
    <glyph glyph-name="hungarumlaut" unicode="&#x2dd;" 
d="M510 1014l121 397l102 21q64 13 100.5 -12.5t36.5 -71.5q0 -65 -61 -115l-285 -232zM209 1010l84 407l98 33q65 21 106.5 -6.5t41.5 -79.5q0 -58 -52 -107l-262 -256z" />
    <glyph glyph-name="uni0394" unicode="&#x394;" horiz-adv-x="1280" 
d="M1280 0h-1280l580 1466h168zM489 1083l-393 -991h719z" />
    <glyph glyph-name="uni03A9" unicode="&#x3a9;" horiz-adv-x="1728" 
d="M969 0v215q100 84 124.5 154t24.5 249v404q0 60 -3 106t-11 95.5t-24 84.5t-40.5 64t-62 43.5t-86.5 14.5q-63 0 -109 -23t-71.5 -58.5t-40.5 -92t-19 -108t-4 -122.5v-414q0 -154 17 -247.5t71 -147.5v-217h-626l-25 541h25q35 -179 119 -239t286 -60h148
q-117 53 -199.5 107t-146.5 123.5t-95 158t-31 198.5q0 286 184.5 456.5t512.5 170.5q326 0 501 -160t175 -448q0 -69 -19 -133t-44 -112t-74.5 -98t-83 -79.5t-98.5 -70t-93.5 -56.5t-93.5 -50q-9 -5 -13 -7h175q103 0 168.5 12.5t114 46.5t75.5 91t45 149h23l-25 -541
h-651z" />
    <glyph glyph-name="uni03BC" unicode="&#x3bc;" horiz-adv-x="1540" 
d="M549 1026v-723v-9q0 -43 0.5 -64t2.5 -54t7 -49.5t14 -34.5t23.5 -25.5t34.5 -7.5q61 0 110.5 80t49.5 211v658l362 18v-854q0 -50 14.5 -69t44.5 -19q21 0 35.5 13.5t27.5 63t19 136.5l29 -2q-7 -181 -67 -248t-203 -67q-109 0 -175.5 55.5t-86.5 146.5
q-32 -90 -100 -147.5t-156 -57.5q-27 0 -49 3t-48.5 13.5t-49 29t-47.5 51.5t-46 78l-8 -7l119 -290q7 -18 20.5 -50.5t19 -45.5t13.5 -35.5t11.5 -34.5t6 -27t2.5 -27q0 -45 -41.5 -74t-87.5 -18l-186 39v1426z" />
    <glyph glyph-name="pi" unicode="&#x3c0;" horiz-adv-x="1300" 
d="M944 743h-90q-20 -166 -20 -290q0 -29 4.5 -60.5t17 -68t31 -64.5t50 -46.5t71.5 -18.5q60 0 97.5 32.5t57.5 104.5l21 -6q-10 -65 -29 -123t-48.5 -110.5t-74 -84t-98.5 -31.5q-74 0 -121 32.5t-65.5 83t-18.5 120.5q0 73 37.5 230.5t56.5 301.5l-383 27q1 -84 3 -204
t2.5 -177.5t-2.5 -123.5t-11 -111q-34 -179 -156 -179q-61 0 -96 37t-35 88q0 41 16.5 73.5t69.5 100.5q80 104 104 148q64 115 79 316l2 34q-17 0 -72 3t-59 3q-49 0 -78 -16t-55 -68l-21 9q32 177 81.5 269.5t133.5 92.5q52 0 348.5 -17.5t349.5 -17.5q39 0 65 17.5
t46 66.5l19 -8q-15 -77 -29 -129.5t-33 -100.5t-41.5 -75.5t-54 -43.5t-72.5 -16z" />
    <glyph glyph-name="Wgrave" unicode="&#x1e80;" horiz-adv-x="1998" 
d="M883 444l114 506l-131 457h-106v27h651v-27h-102l290 -938l228 938h-203v27h375v-27h-133l-348 -1423h-226l-272 890l-201 -890h-233l-508 1423h-78v27h682v-27h-129zM934 1847l113 6l210 -340l-10 -12l-323 131q-97 40 -97 117q0 91 107 98z" />
    <glyph glyph-name="wgrave" unicode="&#x1e81;" horiz-adv-x="1628" 
d="M711 950v25h565v-25h-76l160 -712l176 712h-141v25h254v-25h-78l-232 -950h-333l-154 621l-170 -621h-326l-288 950h-88v25h653v-25h-101l175 -717l127 453l-58 264h-65zM754 1483l96 -17l121 -397l-17 -12l-276 227q-64 54 -64 107q0 45 30.5 75t109.5 17z" />
    <glyph glyph-name="Wacute" unicode="&#x1e82;" horiz-adv-x="1998" 
d="M883 444l114 506l-131 457h-106v27h651v-27h-102l290 -938l228 938h-203v27h375v-27h-133l-348 -1423h-226l-272 890l-201 -890h-233l-508 1423h-78v27h682v-27h-129zM936 1513l213 340l113 -6q32 -1 54 -11.5t31 -26t12 -26.5t3 -22q0 -91 -90 -129l-326 -131z" />
    <glyph glyph-name="wacute" unicode="&#x1e83;" horiz-adv-x="1628" 
d="M711 975v-25h65l58 -264l-127 -453l-175 717h101v25h-653v-25h88l288 -950h326l170 621l154 -621h333l232 950h78v25h-254v-25h141l-176 -712l-160 712h76v25h-565zM825 1069l121 397l96 17q35 9 60 5t40.5 -12.5t24.5 -25t12 -30.5t3 -29q0 -51 -64 -107l-278 -227z" />
    <glyph glyph-name="Wdieresis" unicode="&#x1e84;" horiz-adv-x="1998" 
d="M883 444l114 506l-131 457h-106v27h651v-27h-102l290 -938l228 938h-203v27h375v-27h-133l-348 -1423h-226l-272 890l-201 -890h-233l-508 1423h-78v27h682v-27h-129zM1092 1690q0 66 46 110.5t134 44.5q87 0 133.5 -39t46.5 -116q0 -72 -45.5 -116t-132.5 -44
q-96 0 -139 46.5t-43 113.5zM641 1690q0 66 46 110.5t134 44.5q87 0 133.5 -39t46.5 -116q0 -72 -45.5 -116t-132.5 -44q-96 0 -139 46.5t-43 113.5z" />
    <glyph glyph-name="wdieresis" unicode="&#x1e85;" horiz-adv-x="1628" 
d="M711 950v25h565v-25h-76l160 -712l176 712h-141v25h254v-25h-78l-232 -950h-333l-154 621l-170 -621h-326l-288 950h-88v25h653v-25h-101l175 -717l127 453l-58 264h-65zM913 1260q0 66 46.5 110.5t134.5 44.5q87 0 133.5 -39t46.5 -116q0 -72 -45.5 -116t-132.5 -44
q-96 0 -139.5 46.5t-43.5 113.5zM463 1260q0 66 46 110.5t134 44.5q87 0 133.5 -39t46.5 -116q0 -72 -45.5 -116t-132.5 -44q-96 0 -139 46.5t-43 113.5z" />
    <glyph glyph-name="Ygrave" unicode="&#x1ef2;" horiz-adv-x="1271" 
d="M829 739l279 668h-199v27h363v-27h-127l-287 -698v-682h111v-27h-670v27h111v655l-332 725h-78v27h674v-27h-123l268 -668h10zM510 1847l113 6l211 -340l-11 -12l-323 131q-97 40 -97 117q0 91 107 98z" />
    <glyph glyph-name="ygrave" unicode="&#x1ef3;" horiz-adv-x="1040" 
d="M-20 950v25h638v-25h-102l205 -667l229 667h-135v25h277v-25h-105l-375 -1116q-42 -128 -104.5 -207t-130 -109t-150.5 -30q-121 0 -194.5 52t-73.5 153q0 77 53.5 126.5t137.5 49.5q161 0 161 -150q0 -29 -12 -73h-72q-25 -47 -8 -79t72 -32q177 0 293 338l43 127h-221
l-347 950h-79zM506 1483l96 -17l121 -397l-16 -12l-277 227q-63 53 -63 107q0 45 30 75t109 17z" />
    <glyph glyph-name="endash" unicode="&#x2013;" 
d="M74 573v39h876v-39h-876z" />
    <glyph glyph-name="emdash" unicode="&#x2014;" horiz-adv-x="2048" 
d="M74 573v39h1900v-39h-1900z" />
    <glyph glyph-name="quoteleft" unicode="&#x2018;" horiz-adv-x="542" 
d="M371 1548l14 -20q-192 -129 -192 -258q0 -37 18 -56.5t41 -21.5l92 86q43 -14 79 -54.5t36 -95.5q0 -70 -50.5 -112.5t-123.5 -42.5q-88 0 -140.5 53.5t-52.5 149.5q0 194 279 372z" />
    <glyph glyph-name="quoteright" unicode="&#x2019;" horiz-adv-x="542" 
d="M180 924l-14 20q192 129 192 258q0 37 -18 56.5t-41 21.5l-92 -86q-43 14 -79 54t-36 95q0 70 50.5 113t123.5 43q88 0 140.5 -53.5t52.5 -149.5q0 -194 -279 -372z" />
    <glyph glyph-name="quotesinglbase" unicode="&#x201a;" horiz-adv-x="542" 
d="M172 -303l-14 20q192 129 192 258q0 37 -18 56.5t-41 21.5l-92 -86q-43 14 -79 54.5t-36 95.5q0 70 50.5 112.5t123.5 42.5q88 0 140.5 -53t52.5 -149q0 -195 -279 -373z" />
    <glyph glyph-name="quotedblleft" unicode="&#x201c;" horiz-adv-x="958" 
d="M371 1548l14 -20q-192 -129 -192 -258q0 -37 18 -56.5t41 -21.5l92 86q43 -14 79 -54.5t36 -95.5q0 -70 -50.5 -112.5t-123.5 -42.5q-88 0 -140.5 53.5t-52.5 149.5q0 194 279 372zM786 1548l15 -20q-193 -130 -193 -258q0 -37 18.5 -56.5t41.5 -21.5l92 86
q43 -14 78.5 -54.5t35.5 -95.5q0 -70 -50.5 -112.5t-123.5 -42.5q-88 0 -140 53t-52 150q0 195 278 372z" />
    <glyph glyph-name="quotedblright" unicode="&#x201d;" horiz-adv-x="950" 
d="M180 924l-14 20q192 129 192 258q0 37 -18 56.5t-41 21.5l-92 -86q-43 14 -79 54t-36 95q0 70 50.5 113t123.5 43q88 0 140.5 -53.5t52.5 -149.5q0 -194 -279 -372zM588 924l-15 20q193 130 193 258q0 37 -18 56.5t-41 21.5l-93 -86q-43 14 -78.5 54t-35.5 95
q0 70 50.5 113t123.5 43q88 0 140 -53t52 -150q0 -195 -278 -372z" />
    <glyph glyph-name="quotedblbase" unicode="&#x201e;" horiz-adv-x="950" 
d="M172 -303l-14 20q192 129 192 258q0 37 -18 56.5t-41 21.5l-92 -86q-43 14 -79 54.5t-36 95.5q0 70 50.5 112.5t123.5 42.5q88 0 140.5 -53t52.5 -149q0 -195 -279 -373zM580 -303l-15 20q193 130 193 258q0 37 -18.5 56.5t-41.5 21.5l-92 -86q-43 14 -78.5 54.5
t-35.5 95.5q0 70 50.5 112.5t123.5 42.5q88 0 140 -53t52 -149q0 -196 -278 -373z" />
    <glyph glyph-name="dagger" unicode="&#x2020;" horiz-adv-x="1099" 
d="M735 727v-12q-2 -3 -26.5 -49t-34 -65.5t-31 -71t-31.5 -91t-19.5 -98t-10.5 -117.5l-11 -469h-41l-8 467q0 61 -9.5 119t-20.5 98.5t-32 88.5t-33 71t-36 64t-29 51v12q6 7 34.5 41.5t46 57t41 55.5t37.5 62t18 52q-43 -2 -105 -32t-125.5 -58.5t-113.5 -28.5
q-57 0 -87 44t-30 100q0 53 31.5 95t89.5 42q49 0 110.5 -31.5t122.5 -63.5t109 -34q-2 35 -17.5 68t-36 59t-41.5 52t-35 57t-14 63q0 56 42 93.5t124 37.5q73 0 112.5 -37.5t39.5 -93.5q0 -36 -22.5 -74t-49.5 -66.5t-50.5 -71.5t-25.5 -87q46 3 107 35.5t122 63t111 30.5
q45 0 80 -33.5t35 -103.5q0 -67 -35.5 -105.5t-81.5 -38.5q-52 0 -169 58t-169 61q10 -76 168 -266z" />
    <glyph glyph-name="daggerdbl" unicode="&#x2021;" horiz-adv-x="1198" 
d="M784 791v-13q-70 -64 -145 -178q55 -89 145 -176v-12q-152 -141 -168 -205q43 2 103.5 32t122.5 58.5t112 28.5q57 0 87 -44t30 -100q0 -54 -30.5 -95.5t-90.5 -41.5q-48 0 -108 31.5t-120 63.5t-108 34q2 -42 24 -83.5t47 -69.5t46 -67.5t21 -78.5q0 -56 -42 -93.5
t-124 -37.5q-73 0 -112.5 37.5t-39.5 93.5q0 30 14 59.5t35 55t41.5 52.5t36 61t17.5 71q-46 -3 -106 -35.5t-120 -63t-110 -30.5q-45 0 -80 33.5t-35 103.5q0 68 35 106t82 38q53 0 167.5 -58t166.5 -61q-16 43 -64.5 104.5t-99.5 98.5v12q86 86 143 176q-65 109 -143 178
v12q152 140 168 205q-43 -2 -103.5 -32t-122.5 -58.5t-112 -28.5q-57 0 -87 44t-30 100q0 53 31.5 95t89.5 42q49 0 109 -31.5t119.5 -63.5t107.5 -34q-2 42 -24 83.5t-47 69.5t-46 67.5t-21 78.5q0 56 42 93.5t124 37.5q73 0 112.5 -37.5t39.5 -93.5q0 -36 -21.5 -74
t-47.5 -66.5t-49 -71.5t-25 -87q46 3 105.5 35.5t119.5 63t110 30.5q45 0 80 -33.5t35 -103.5q0 -67 -35.5 -105.5t-81.5 -38.5q-52 0 -166.5 58t-166.5 61q16 -41 65 -103t98 -99z" />
    <glyph glyph-name="bullet" unicode="&#x2022;" horiz-adv-x="876" 
d="M164 549q0 119 71.5 196.5t200.5 77.5q126 0 201.5 -69t75.5 -203q0 -124 -72 -199.5t-203 -75.5q-74 0 -129.5 23.5t-86 63.5t-44.5 86.5t-14 99.5z" />
    <glyph glyph-name="ellipsis" unicode="&#x2026;" horiz-adv-x="1622" 
d="M86 162q0 81 48 133.5t134 52.5q88 0 138.5 -44.5t50.5 -135.5q0 -85 -48 -136.5t-135 -51.5q-97 0 -142.5 54.5t-45.5 127.5zM614 162q0 81 48.5 133.5t134.5 52.5q87 0 137.5 -44t50.5 -136q0 -85 -47.5 -136.5t-134.5 -51.5q-97 0 -143 54.5t-46 127.5zM1157 162
q0 81 48 133.5t134 52.5q88 0 138.5 -44.5t50.5 -135.5q0 -85 -47.5 -136.5t-134.5 -51.5q-97 0 -143 54.5t-46 127.5z" />
    <glyph glyph-name="perthousand" unicode="&#x2030;" horiz-adv-x="2230" 
d="M1458 291q0 151 101.5 239t265.5 88q162 0 258 -76.5t96 -234.5q0 -105 -52.5 -181t-133 -111t-176.5 -35q-168 0 -263.5 85t-95.5 226zM1731 403v-215q0 -99 16.5 -140.5t73.5 -41.5q30 0 48 13.5t26.5 45t11 65.5t2.5 93v178q0 108 -15 148.5t-71 40.5
q-59 0 -75.5 -41.5t-16.5 -145.5zM680 291q0 151 101.5 239t265.5 88q162 0 258 -76.5t96 -234.5q0 -79 -30.5 -143t-81.5 -103t-115.5 -60t-135.5 -21q-168 0 -263 84.5t-95 226.5zM952 403v-215q0 -99 16.5 -140.5t73.5 -41.5q30 0 48 13.5t26.5 45t11 65.5t2.5 93v178
q0 108 -15 148.5t-71 40.5q-59 0 -75.5 -41.5t-16.5 -145.5zM217 0l924 1434h82l-922 -1434h-84zM39 1128q0 151 101.5 239.5t265.5 88.5q162 0 258 -76.5t96 -234.5q0 -105 -53 -181.5t-133.5 -111.5t-176.5 -35q-168 0 -263 84.5t-95 226.5zM311 1241v-215
q0 -99 16.5 -140.5t73.5 -41.5q30 0 48 13.5t26.5 45t11 65.5t2.5 93v178q0 107 -15 147.5t-71 40.5q-59 0 -75.5 -41t-16.5 -145z" />
    <glyph glyph-name="guilsinglleft" unicode="&#x2039;" horiz-adv-x="657" 
d="M133 543l371 274l10 -8l-166 -336l164 -360l-10 -9l-334 258q-34 30 -48 51.5t-14 49.5q0 37 27 80z" />
    <glyph glyph-name="guilsinglright" unicode="&#x203a;" horiz-adv-x="657" 
d="M524 379l-368 -275l-9 9l162 336l-159 358l8 10l331 -258q35 -30 49.5 -51t14.5 -49q0 -34 -29 -80z" />
    <glyph glyph-name="fraction" unicode="&#x2044;" horiz-adv-x="409" 
d="M-160 0l656 1434h57l-655 -1434h-58z" />
    <glyph glyph-name="foursuperior" unicode="&#x2074;" horiz-adv-x="980" 
d="M313 807v29h115v174h-344v32l371 625h262v-623h141v127h31v-262h-31v101h-141v-174h88v-29h-492zM125 1044h303v506z" />
    <glyph glyph-name="Euro" unicode="&#x20ac;" horiz-adv-x="1245" 
d="M801 1430q-27 0 -49 -4t-39.5 -14.5t-31 -22.5t-24 -36t-17.5 -45t-12 -60t-7.5 -71.5t-4 -87.5t-2 -100.5t-0.5 -118.5h412l-12 -49h-400v-170h369l-12 -49h-357q1 -126 2.5 -191.5t8 -147t19 -119.5t35 -76t57 -51t83.5 -13q65 0 114.5 34.5t49.5 90.5q0 26 -10 49h-82
q-23 54 -23 94q0 67 43.5 109.5t122.5 42.5t121.5 -48.5t42.5 -119.5q0 -117 -111.5 -196.5t-295.5 -79.5q-276 0 -441 155.5t-188 466.5h-137l10 49h123v45q0 47 4 125h-115l12 49h109q39 287 201 436.5t415 149.5q185 0 294.5 -79t109.5 -197q0 -71 -42.5 -119.5
t-121.5 -48.5q-75 0 -116.5 38.5t-41.5 102.5q0 35 15 82h71q27 83 -19 139t-132 56z" />
    <glyph glyph-name="afii61352" unicode="&#x2116;" horiz-adv-x="2156" 
d="M1239 1190v-1204h-319l-549 1202v-926q0 -64 -8.5 -112.5t-24.5 -78t-34 -49t-43.5 -28t-45 -11.5t-45.5 -3q-96 0 -147.5 54.5t-51.5 121.5q0 66 39.5 110.5t110.5 44.5q57 0 87 -29.5t30 -72.5q0 -42 -29 -94h-66q-14 -21 -14 -49q0 -56 59 -56q148 0 148 236v1016
l-74 145h-129v27h623l446 -1002v752q0 72 14.5 124t35 80t51 44t54.5 20t54 4q90 0 137 -54.5t47 -115.5q0 -68 -34 -113t-101 -45q-57 0 -90 34t-33 83q0 40 23 76h67q19 27 19 55q0 45 -49 45q-158 0 -158 -231zM1386 655q0 168 101.5 266.5t251.5 98.5q67 0 126 -20.5
t107 -61t76.5 -109t28.5 -157.5t-30 -160t-80.5 -114.5t-111.5 -66t-126 -22.5q-153 0 -248 97t-95 249zM1663 784v-262q0 -54 2 -84.5t9 -56t22 -35.5t39 -10q53 0 67.5 51.5t14.5 185.5v191q0 128 -13.5 177.5t-58.5 49.5q-53 0 -67.5 -44.5t-14.5 -162.5zM1434 180v43
h602v-43h-602z" />
    <glyph glyph-name="trademark" unicode="&#x2122;" horiz-adv-x="1912" 
d="M776 1327l12 -258h-16q-32 131 -73.5 181t-100.5 50v-702h104v-29h-495v29h106v702q-55 -2 -98 -56t-82 -175h-12l14 258h641zM1487 1327h379v-31h-82v-702h82v-25h-436v25h79v706l-198 -731h-144l-206 709v-684h94v-25h-203v25h74v702h-74v31h391l123 -448z" />
    <glyph glyph-name="Omega" unicode="&#x2126;" horiz-adv-x="1728" 
d="M969 0v215q100 84 124.5 154t24.5 249v404q0 60 -3 106t-11 95.5t-24 84.5t-40.5 64t-62 43.5t-86.5 14.5q-63 0 -109 -23t-71.5 -58.5t-40.5 -92t-19 -108t-4 -122.5v-414q0 -154 17 -247.5t71 -147.5v-217h-626l-25 541h25q35 -179 119 -239t286 -60h148
q-117 53 -199.5 107t-146.5 123.5t-95 158t-31 198.5q0 286 184.5 456.5t512.5 170.5q326 0 501 -160t175 -448q0 -69 -19 -133t-44 -112t-74.5 -98t-83 -79.5t-98.5 -70t-93.5 -56.5t-93.5 -50q-9 -5 -13 -7h175q103 0 168.5 12.5t114 46.5t75.5 91t45 149h23l-25 -541
h-651z" />
    <glyph glyph-name="partialdiff" unicode="&#x2202;" horiz-adv-x="1247" 
d="M621 1374q84 0 160.5 -21.5t143 -67.5t115.5 -112t77 -161t28 -209q0 -122 -24.5 -238.5t-77 -223.5t-128 -187.5t-185.5 -128.5t-241 -48q-211 0 -321.5 104t-110.5 298q0 91 26.5 171.5t80 147.5t144 106.5t208.5 39.5q108 0 176.5 -42t91.5 -145q2 9 11 47t11.5 49.5
t9 43t8.5 50t4.5 45.5t2.5 52q0 200 -64 302t-179 102q-68 0 -99.5 -35t-31.5 -82q0 -39 10 -62h61q15 -47 15 -79q0 -60 -42 -97t-110 -37q-73 0 -115.5 47.5t-42.5 112.5q0 115 99 186.5t289 71.5zM621 799q-55 0 -97 -43.5t-65 -106t-37.5 -144t-18.5 -144t-4 -119.5
q0 -119 26 -178.5t91 -59.5t117 89.5t79 227t27 289.5q0 189 -118 189z" />
    <glyph glyph-name="Delta" unicode="&#x2206;" horiz-adv-x="1280" 
d="M1280 0h-1280l580 1466h168zM489 1083l-393 -991h719z" />
    <glyph glyph-name="product" unicode="&#x220f;" horiz-adv-x="1576" 
d="M25 1434h1527v-19h-161v-1698h161v-26h-682v26h121v1694h-407v-1694h121v-26h-680v26h161v1696h-161v21z" />
    <glyph glyph-name="summation" unicode="&#x2211;" horiz-adv-x="1429" 
d="M1233 -309h-1227l-20 37l645 714l-649 963l20 29h1176l16 -385h-27q-40 186 -145.5 269t-298.5 83h-289l492 -721l-652 -705h435q241 0 360.5 80.5t153.5 284.5h26z" />
    <glyph glyph-name="minus" unicode="&#x2212;" horiz-adv-x="1052" 
d="M991 621h-930v63h930v-63z" />
    <glyph glyph-name="uni2215" unicode="&#x2215;" horiz-adv-x="409" 
d="M-160 0l656 1434h57l-655 -1434h-58z" />
    <glyph glyph-name="uni2219" unicode="&#x2219;" horiz-adv-x="614" 
d="M147 659q0 80 48.5 133.5t134.5 53.5q87 0 137.5 -45t50.5 -135q0 -88 -47 -138.5t-133 -50.5q-51 0 -89.5 16t-60 43t-31.5 58t-10 65z" />
    <glyph glyph-name="radical" unicode="&#x221a;" horiz-adv-x="1120" 
d="M1092 1524l-344 -1524h-218l-368 793l-146 -68l-20 41l610 258l201 -481l227 991z" />
    <glyph glyph-name="infinity" unicode="&#x221e;" horiz-adv-x="1470" 
d="M1331 514q0 -127 -81.5 -227.5t-213.5 -100.5q-194 0 -389 207q-39 -49 -65.5 -77.5t-61.5 -56t-73.5 -39t-86.5 -11.5q-77 0 -128.5 39.5t-72 96t-20.5 124.5q0 145 88.5 238.5t202.5 93.5q82 0 156 -36.5t176 -131.5q80 85 154.5 124.5t164.5 39.5q109 0 179.5 -73.5
t70.5 -209.5zM1268 559q0 33 -10 64t-32 60t-62.5 47t-94.5 18q-72 0 -132.5 -36.5t-137.5 -109.5q9 -9 42 -39.5t48.5 -44t46.5 -40t52.5 -40t49.5 -29.5t53.5 -23t49.5 -7q54 0 90.5 49t36.5 131zM360 254q74 0 133 44t117 124q-11 10 -56 54.5t-73 68.5t-74 47.5
t-88 23.5q-49 0 -86.5 -40.5t-37.5 -106.5q0 -30 5.5 -60.5t21 -68.5t51.5 -62t87 -24z" />
    <glyph glyph-name="integral" unicode="&#x222b;" 
d="M530 1223q0 -84 12 -175t35.5 -217.5t32.5 -183.5q5 -30 27 -157.5t33.5 -221.5t11.5 -174q0 -83 -17 -159t-53.5 -143.5t-90 -117t-132 -78t-174.5 -28.5q-76 0 -140.5 20.5t-108.5 69t-44 117.5q0 81 48 131.5t132 50.5q83 0 121 -57.5t8 -139.5l-81 -8
q-33 -51 -12.5 -97t83.5 -46q56 0 88.5 22t51 85.5t18.5 177.5q0 80 -13 181t-37.5 243t-33.5 208q-4 26 -23 133t-31 198.5t-12 158.5q0 102 30.5 190t88 155t149.5 105.5t208 38.5q76 0 142 -21t111.5 -70t45.5 -118q0 -80 -44 -128t-122 -48q-82 0 -124 56t-20 139l82 6
q17 42 17 76q0 76 -109 76q-73 0 -113.5 -64t-40.5 -186z" />
    <glyph glyph-name="approxequal" unicode="&#x2248;" horiz-adv-x="1052" 
d="M778 244q-78 0 -257.5 54t-246.5 54q-54 0 -90.5 -26t-74.5 -86l-50 24q43 73 91 108.5t122 35.5q76 0 254.5 -53.5t247.5 -53.5q54 0 95 25.5t75 87.5l47 -25q-37 -72 -87.5 -108.5t-125.5 -36.5zM778 588q-78 0 -257.5 54t-246.5 54q-54 0 -90.5 -26t-74.5 -86l-50 24
q43 73 91 108.5t122 35.5q76 0 254.5 -53.5t247.5 -53.5q107 0 170 115l47 -27q-37 -72 -87.5 -108.5t-125.5 -36.5z" />
    <glyph glyph-name="notequal" unicode="&#x2260;" horiz-adv-x="1052" 
d="M991 393h-590l-227 -268l-37 33l197 235h-273v64h326l217 256h-543v63h596l172 203l43 -33l-143 -170h262v-63h-315l-219 -256h534v-64z" />
    <glyph glyph-name="lessequal" unicode="&#x2264;" horiz-adv-x="1052" 
d="M991 0h-930v63h930v-63zM989 176l-926 399v50l926 393v-68l-817 -348l817 -354v-72z" />
    <glyph glyph-name="greaterequal" unicode="&#x2265;" horiz-adv-x="1052" 
d="M63 1018l926 -404v-51l-926 -387v64l818 352l-818 352v74zM991 0h-930v63h930v-63z" />
    <glyph glyph-name="lozenge" unicode="&#x25ca;" horiz-adv-x="931" 
d="M881 635l-414 -660l-416 660l416 659zM803 633l-338 547l-338 -541l348 -553z" />
    <glyph glyph-name="zero.alt" unicode="&#xf800;" horiz-adv-x="1339" 
d="M494 1188q0 73 41.5 124.5t101.5 73t131 21.5q73 0 146.5 -28.5t140.5 -87t119 -139t83 -193t31 -240.5q0 -157 -33 -283t-90 -210.5t-137.5 -140.5t-171 -80.5t-194.5 -24.5q-303 0 -457 189t-154 550q0 293 142.5 491.5t410.5 268.5l4 -17q-134 -37 -187.5 -108.5
t-53.5 -175.5q0 -57 23.5 -107.5t50.5 -78.5t69 -62v-406q0 -321 24 -419.5t128 -98.5q38 0 65 11.5t46.5 41t31 69t18 106.5t9 141.5t2.5 185.5v535q0 71 -3 115.5t-13.5 88t-33 64t-57.5 20.5q-25 0 -43.5 -15.5t-25 -50t17.5 -89.5l82 -6q6 -35 6 -60q0 -63 -37 -93
t-90 -30q-58 0 -100.5 40t-42.5 108z" />
    <glyph glyph-name="one.alt" unicode="&#xf801;" horiz-adv-x="1009" 
d="M391 25v1101q-41 -83 -133 -166t-182 -124l-13 30q269 130 469 590h295v-1431h172v-25h-827v25h219z" />
    <glyph glyph-name="two.alt" unicode="&#xf802;" horiz-adv-x="1130" 
d="M487 1430q-49 0 -81 -22.5t-43.5 -56.5t-9.5 -71t16 -68h69q40 -99 -9.5 -180.5t-166.5 -81.5q-88 0 -140 54t-52 137q0 86 39.5 149t110.5 98t157 51.5t192 16.5q243 0 369.5 -98t126.5 -256q0 -157 -109.5 -279.5t-343.5 -216.5q-64 -26 -99.5 -41t-88 -38.5t-82.5 -41
t-68.5 -42.5t-61.5 -49t-46.5 -54t-38 -64.5t-23.5 -74.5q18 15 53 44t49.5 40.5t43 34.5t41.5 32t36.5 25.5t36.5 23l33 16.5t34.5 13.5t32 6.5t34.5 3q54 0 110 -24t95 -52.5t89 -52.5t93 -24q59 0 108.5 44t53.5 124h22q0 -250 -72.5 -372t-199.5 -122q-64 0 -124.5 30
t-107 73.5t-90 86.5t-89 73t-87.5 30q-38 0 -74 -15.5t-86 -48.5q50 4 86.5 -6.5t53.5 -29.5t24.5 -37t7.5 -35q0 -41 -30.5 -71.5t-83.5 -30.5q-64 0 -102 39.5t-38 123.5q0 70 24.5 131.5t75.5 118t109 102.5t146 105q154 103 209 211.5t55 261.5q0 188 -45 272.5
t-144 84.5z" />
    <glyph glyph-name="three.alt" unicode="&#xf803;" horiz-adv-x="1181" 
d="M1022 1434v-250l-567 -414q98 39 215 39q223 0 340.5 -104.5t117.5 -280.5q0 -198 -174.5 -321t-464.5 -123q-63 0 -121.5 9.5t-116 32.5t-100 57t-68.5 87.5t-26 120.5q0 97 51.5 155t149.5 58q82 0 132 -42.5t50 -115.5q0 -56 -18 -106h-86q-14 -38 -15.5 -77t11.5 -75
t52 -59t99 -23q53 0 89.5 18t56.5 44.5t31 74.5t13.5 91.5t2.5 111.5v150q0 145 -44.5 198t-144.5 53q-49 0 -90 -12l-10 25l457 334h-410q-77 0 -120 -6.5t-76.5 -30t-49.5 -62t-30 -108.5h-19l21 551h862z" />
    <glyph glyph-name="four.alt" unicode="&#xf804;" horiz-adv-x="1202" 
d="M84 379h469v346l412 74v-420h180v-31h-182v-321h98v-27h-662v27h154v321h-516v31q135 145 237 284t155.5 239t86.5 191.5t42 143t9 92.5q0 73 -28 125l12 31q97 23 167 18t114 -32.5t65 -63t21 -74.5q0 -102 -80 -211t-279 -297z" />
    <glyph glyph-name="five.alt" unicode="&#xf805;" horiz-adv-x="1114" 
d="M467 817q-88 0 -240 -74q-19 -108 -86 -108q-45 0 -45 45q0 28 28.5 53.5t63.5 30.5l29 557q-47 59 -47 100q0 30 19.5 46t48.5 16q43 0 57 -53.5t-21 -114.5q58 -75 181 -126.5t219 -51.5q42 0 64 21t21 50t-20 56h-71q-55 106 -12 182t161 76q81 0 138 -55.5t57 -145.5
q0 -77 -41 -133.5t-105 -83.5t-141 -27q-123 0 -267.5 72t-203.5 141l-31 -518q161 84 338 84q121 0 219 -32.5t160.5 -89t95.5 -131t33 -159.5q0 -214 -169 -339t-441 -125q-184 0 -305 87.5t-121 223.5q0 92 56.5 149.5t150.5 57.5q78 0 125 -39t53 -102t-21 -142h-92
q-32 -79 8 -144t138 -65q38 0 65.5 9t45.5 30t29 45t16.5 64.5t7 77t1.5 92.5v258q0 45 -2.5 75.5t-11 63.5t-24 52t-43.5 31.5t-68 12.5z" />
    <glyph glyph-name="six.alt" unicode="&#xf806;" horiz-adv-x="1304" 
d="M526 659q0 102 75 154.5t198 52.5q68 0 130.5 -12t122.5 -41.5t104 -73.5t70.5 -113.5t26.5 -156.5q0 -228 -160 -358.5t-417 -130.5q-134 0 -243 37.5t-191.5 114.5t-128 203.5t-45.5 295.5q0 200 55 358t154.5 259.5t235 154.5t298.5 53q57 0 110 -8t107 -29t93 -53.5
t64 -86t25 -122.5q0 -97 -57 -152t-141 -55q-117 0 -166 77t-10 192h92q33 103 2 158t-117 55q-321 0 -321 -592v-518q0 -163 41.5 -238.5t134.5 -75.5q32 0 56.5 9t40.5 21.5t27.5 36.5t17.5 44t9 54t3.5 56.5t0.5 61.5v342q0 99 -20.5 152t-73.5 53q-31 0 -47 -23.5
t-12.5 -54.5t22.5 -53l72 -5q13 -32 15 -64.5t-8.5 -60t-38.5 -44.5t-70 -17q-58 0 -97 37.5t-39 105.5z" />
    <glyph glyph-name="seven.alt" unicode="&#xf807;" horiz-adv-x="991" 
d="M219 1524l41 -6q-16 -96 -67 -199l6 -4q55 64 121 96.5t122 32.5q52 0 108.5 -24t96.5 -53t87.5 -53t84.5 -24q56 0 105.5 34.5t83.5 105.5l18 -7q1 -57 -3.5 -106.5t-9 -85t-20 -76t-23.5 -62t-34.5 -60.5t-37.5 -55t-47.5 -63t-51.5 -67q-116 -153 -175 -284.5
t-59 -276.5q0 -149 74 -252l-14 -37q-103 -21 -178 -10t-124.5 47.5t-73.5 85t-24 102.5q0 44 7 79t32.5 79.5t58 84t100.5 106.5t141 133.5t198 177.5q117 103 161.5 181.5t55.5 156.5l-8 2q-94 -124 -168.5 -166.5t-175.5 -42.5q-81 0 -223 48t-195 48q-50 0 -83 -29
t-79 -106l-33 20q60 98 116 243.5t89 285.5z" />
    <glyph glyph-name="eight.alt" unicode="&#xf808;" horiz-adv-x="1189" 
d="M590 8q116 0 181 82.5t65 192.5q0 29 -3.5 53t-13.5 45.5t-19 37t-29.5 32.5t-35 28t-45 27t-49 25.5t-59 29t-64.5 31.5l-94 47q-45 -32 -57.5 -84t-12.5 -197q0 -182 60 -266t176 -84zM662 1425q-116 0 -177 -59t-61 -149q0 -53 25 -96.5t67 -75.5t96 -60.5t114 -55.5
t120.5 -57t114.5 -69t96 -86t67 -114t25 -148q0 -137 -74 -246t-200.5 -169t-280.5 -60q-283 0 -428.5 92.5t-145.5 273.5q0 141 97 215t272 101q-68 34 -115.5 66t-91.5 78t-66 108.5t-22 140.5q0 176 153 288.5t382 112.5q86 0 161.5 -17t137 -50.5t97.5 -90.5t36 -131
q0 -98 -56 -150t-135 -52q-86 0 -134 44.5t-48 108.5q0 62 37 123l113 -20q43 90 -5.5 147t-170.5 57z" />
    <glyph glyph-name="nine.alt" unicode="&#xf809;" horiz-adv-x="1306" 
d="M778 776q0 -102 -74.5 -154.5t-197.5 -52.5q-86 0 -163.5 23t-144.5 69.5t-107 129t-40 190.5q0 150 74.5 259t201 162.5t289.5 53.5q139 0 250.5 -37.5t195.5 -114.5t129.5 -203.5t45.5 -295.5q0 -200 -55 -358t-154.5 -259.5t-235 -154.5t-298.5 -53q-57 0 -110.5 8
t-108 29t-94.5 53.5t-65.5 86t-25.5 122.5q0 97 59 151.5t144 54.5q117 0 164 -76t8 -192h-98q-33 -100 2.5 -156.5t122.5 -56.5q85 0 149 47.5t100.5 132t54 187.5t17.5 225v496q0 169 -47 254.5t-137 85.5q-24 0 -43.5 -6t-34 -14t-25.5 -24.5t-18.5 -29.5t-12 -37.5
t-7 -40t-4 -46t-1.5 -45.5v-48v-338q0 -100 19.5 -152.5t72.5 -52.5q31 0 47 22.5t12.5 52.5t-22.5 52h-71q-16 26 -18 59.5t9.5 63.5t41 51t71.5 21q59 0 96 -37t37 -107z" />
    <glyph glyph-name="s_t" unicode="&#xfb06;" horiz-adv-x="1636" 
d="M958 307v643h-104v25h104v295q-32 12 -68 41t-68 60t-67.5 61t-80 49.5t-92.5 19.5q-97 0 -147 -64t-50 -155q0 -86 61.5 -177.5t126.5 -129.5q30 -18 41 -23.5t29 -12.5t33 -7q25 0 41.5 12.5t50.5 54.5h12v-315h-18q-60 149 -141.5 216t-194.5 67q-100 0 -142 -35
t-42 -82q0 -30 12 -50t54 -38.5t66 -26t103 -28.5q16 -5 25 -7q59 -16 99 -30t90 -42.5t80.5 -64.5t51.5 -94.5t21 -132.5q0 -177 -103.5 -266.5t-283.5 -89.5q-57 0 -108.5 11t-81.5 24.5t-57.5 24.5t-41.5 11q-20 0 -41 -15.5t-53 -55.5h-19v370h23q62 -189 156 -266.5
t217 -77.5q206 0 206 131q0 29 -14 50t-43 36t-64.5 26.5t-88.5 26.5q-31 8 -48 13q-58 17 -100 33.5t-91.5 45.5t-81 64t-52.5 89t-21 120q0 162 99 258t264 96q42 0 80 -6q-154 150 -154 287q0 111 64.5 183.5t175.5 72.5q53 0 101.5 -19.5t86.5 -49.5t70.5 -60.5
t65.5 -59.5t59 -40q17 56 52 101t78 73.5t96 47.5t104.5 26.5t105.5 7.5q215 0 215 -152q0 -83 -62.5 -130.5t-158.5 -49.5v-252h221v-25h-221v-714q0 -97 18 -139t68 -42q41 0 68.5 35.5t39.5 86.5t19 126l28 -2q-4 -57 -10.5 -94.5t-25 -84.5t-48.5 -75t-83.5 -47.5
t-127.5 -19.5q-86 0 -150.5 14t-119.5 48.5t-84 101t-29 163.5zM1395 1405v-148q71 2 125.5 41t54.5 109q0 54 -28.5 84.5t-65.5 30.5q-86 0 -86 -117z" />
    <glyph glyph-name="at.case" horiz-adv-x="1812" 
d="M885 1079q62 0 99.5 -21t72.5 -59l39 66h243l-65 -373q-25 -154 -25 -217q0 -43 3.5 -68.5t15.5 -51t39.5 -37t72.5 -11.5q35 0 76.5 29t81 82.5t66 144t26.5 197.5q0 313 -171.5 482t-512.5 169q-147 0 -282.5 -53t-242 -150.5t-170 -250t-63.5 -336.5q0 -150 44.5 -270
t118.5 -197.5t175.5 -129.5t210 -74t228.5 -22q143 0 271 50t212 126l20 -26q-86 -81 -227 -131.5t-270 -50.5q-134 0 -254.5 26.5t-225.5 83.5t-181 140t-119.5 202.5t-43.5 265.5q0 178 60.5 332t167 263t258.5 171t330 62q208 0 365.5 -76t247 -226.5t89.5 -357.5
q0 -266 -106.5 -396t-305.5 -130q-128 0 -190 39.5t-94 107.5q-58 -143 -181 -143q-161 0 -238 93t-77 239q0 102 25 185.5t66 138.5t95.5 92.5t111 54t114.5 16.5zM979 532l70 451q-59 68 -111 68q-53 0 -93 -46t-62 -124.5t-33.5 -154t-16.5 -161.5q0 -6 -1 -20
q-5 -34 -3 -78t7.5 -83t28.5 -66t62 -27q50 0 92.5 64t59.5 177z" />
    <glyph glyph-name="j.calt" horiz-adv-x="628" 
d="M545 975v-887q0 -91 -11 -166t-36.5 -147.5t-71.5 -125.5t-111.5 -92.5t-161 -57t-216.5 -11.5v25q62 6 97.5 36.5t55 107t19.5 210.5v1083h-105v25h541zM100 1284q0 91 53.5 148t172.5 57q104 0 161.5 -51.5t57.5 -149.5q0 -94 -54.5 -150.5t-168.5 -56.5
q-65 0 -111 18.5t-69 50t-32.5 64t-9.5 70.5z" />
    <glyph glyph-name="y.calt" horiz-adv-x="1011" 
d="M-39 950v25h639v-25h-102l204 -667l230 667h-135v25h276v-25h-104l-387 -1153q-58 -176 -116 -242.5t-161 -66.5q-112 0 -183 51t-71 139q0 87 53 141t138 54q100 0 141 -67t8 -160h-82q-25 -47 -16 -79t55 -32q24 0 44 9t39 31.5t33.5 47t33 68.5t32 81.5t35.5 100.5
l43 127h-221l-346 950h-80z" />
    <glyph glyph-name="hyphen.case" horiz-adv-x="743" 
d="M109 674v33h526v-33h-526z" />
    <glyph glyph-name="idotaccent" horiz-adv-x="638" 
d="M100 1284q0 91 53.5 148t172.5 57q104 0 161.5 -51.5t57.5 -149.5q0 -94 -54.5 -150.5t-168.5 -56.5q-65 0 -111 18.5t-69 50t-32.5 64t-9.5 70.5zM-8 975h551v-950h106v-25h-647v25h104v925h-114v25z" />
    <glyph glyph-name="s_p" horiz-adv-x="2033" 
d="M55 -20v370h23q62 -189 156 -266.5t217 -77.5q206 0 206 131q0 29 -14 50t-43 36t-64.5 26.5t-88.5 26.5q-31 8 -48 13q-58 17 -100 33.5t-91.5 45.5t-81 64t-52.5 89t-21 120q0 162 99 258t264 96q42 0 80 -6q-150 138 -150 287q0 110 66.5 183t177.5 73
q54 0 101.5 -19.5t82 -49.5t63.5 -60.5t60 -59.5t57 -40q21 70 68.5 122t109.5 80t126.5 41t132.5 13q215 0 215 -152q0 -83 -63 -130.5t-159 -49.5v-408q35 85 96.5 130.5t168.5 45.5q354 0 354 -514q0 -501 -395 -501q-174 0 -224 90v-533h205v-24h-741v24h100v1733
q-32 12 -65.5 41t-62.5 60t-61.5 61t-76 49.5t-92.5 19.5q-98 0 -151.5 -64.5t-53.5 -158.5q0 -93 58.5 -180.5t125.5 -126.5t107 -39q25 0 41.5 12.5t50.5 54.5h12v-315h-18q-60 149 -141.5 216t-194.5 67q-100 0 -142 -35t-42 -82q0 -30 12 -50t54 -38.5t66 -26t103 -28.5
q16 -5 25 -7q59 -16 99 -30t90 -42.5t80.5 -64.5t51.5 -94.5t21 -132.5q0 -177 -103.5 -266.5t-283.5 -89.5q-57 0 -108.5 11t-81.5 24.5t-57.5 24.5t-41.5 11q-20 0 -41 -15.5t-53 -55.5h-19zM1499 905q-42 0 -77.5 -73.5t-35.5 -198.5v-406q0 -188 91 -188q51 0 62.5 56.5
t10.5 213.5v19v18.5v20.5v303q0 145 -9 190t-42 45zM1384 1405v-148q75 2 128 40.5t53 109.5q0 54 -29.5 84.5t-69.5 30.5q-82 0 -82 -117z" />
    <glyph glyph-name="c_t" horiz-adv-x="1751" 
d="M1073 307v643h-104v25h104v295q-32 12 -67.5 41t-66.5 60t-65.5 61t-77.5 49.5t-89 19.5q-97 0 -152 -64.5t-55 -154.5q0 -75 44 -153t103 -136q155 -12 233 -81t78 -177q0 -95 -52 -147.5t-134 -52.5q-89 0 -138.5 44.5t-49.5 133.5q0 37 10 73h76q12 36 16 67.5
t-2 58.5t-27.5 43t-58.5 16q-76 0 -102.5 -86t-26.5 -289v-209q0 -182 37.5 -262t148.5 -80q62 0 111.5 27t80.5 70.5t49 86.5t26 88l32 -4q-7 -34 -14 -59t-22.5 -62t-34.5 -64t-52 -56.5t-73 -48t-99 -31t-129 -12.5q-242 0 -371.5 128t-129.5 369q0 253 147 385.5
t412 132.5h6q-137 148 -137 281q0 110 69 183t181 73q54 0 102.5 -19.5t84 -49.5t66 -60.5t62 -59.5t57.5 -40q21 70 68.5 122t109.5 80t126.5 41t132.5 13q215 0 215 -152q0 -83 -63 -130.5t-159 -49.5v-252h222v-25h-222v-714q0 -97 18 -139t68 -42q41 0 68.5 35.5
t39.5 86.5t19 126l29 -2q-4 -57 -10.5 -94.5t-25 -84.5t-48.5 -75t-83.5 -47.5t-127.5 -19.5q-86 0 -150.5 14t-119.5 48.5t-84 101t-29 163.5zM1509 1405v-148q71 2 126 41t55 109q0 53 -29 84t-66 31q-86 0 -86 -117z" />
    <glyph glyph-name="c_h" horiz-adv-x="2193" 
d="M598 971q-76 0 -102.5 -86t-26.5 -289v-209q0 -182 37.5 -262t148.5 -80q62 0 111.5 27t80.5 70.5t49 86.5t26 88l32 -4q-7 -34 -14 -59t-22.5 -62t-34.5 -64t-52 -56.5t-73 -48t-99 -31t-129 -12.5q-242 0 -371.5 128t-129.5 369q0 253 147 385.5t412 132.5
q143 0 235 -47q-22 49 -76 147t-65 119q-119 -28 -197 -28q-97 0 -160 45t-63 135q0 75 47.5 119.5t116.5 44.5q49 0 91.5 -22.5t79 -67.5t60 -84t54.5 -99q164 41 341.5 127.5t243.5 151.5h203v-745q30 94 96.5 149t194.5 55q309 0 309 -342v-628h107v-25h-594v25h49v772
q0 48 -9 73t-36 25q-42 0 -76.5 -75.5t-34.5 -174.5v-620h56v-25h-598v25h104v1323q-188 -82 -342 -121q84 -168 182 -336q51 -89 51 -156q0 -95 -52 -147.5t-134 -52.5q-89 0 -138.5 44.5t-49.5 133.5q0 37 10 73h76q12 36 16 67.5t-2 58.5t-27.5 43t-58.5 16zM668 1247
q-116 248 -242 248q-57 0 -89 -36.5t-32 -84.5q0 -69 45.5 -109t138.5 -40q78 0 179 22z" />
    <glyph glyph-name="c_k" horiz-adv-x="2246" 
d="M1659 0v25h88l-223 491l-23 -8v-483h86v-25h-629v25h105v1321q-194 -82 -336 -119q67 -134 180 -336q51 -88 51 -156q0 -95 -52 -147.5t-134 -52.5q-89 0 -138.5 44.5t-49.5 133.5q0 37 10 73h76q12 36 16 67.5t-2 58.5t-27.5 43t-58.5 16q-76 0 -102.5 -86t-26.5 -289
v-209q0 -182 37.5 -262t148.5 -80q62 0 111.5 27t80.5 70.5t49 86.5t26 88l32 -4q-7 -34 -14 -59t-22.5 -62t-34.5 -64t-52 -56.5t-73 -48t-99 -31t-129 -12.5q-242 0 -371.5 128t-129.5 369q0 253 147 385.5t412 132.5q143 0 235 -45q-22 46 -73 140t-66 124
q-119 -28 -197 -28q-97 0 -160 45t-63 135q0 75 47.5 119.5t116.5 44.5q49 0 91.5 -22.5t79 -67.5t60 -84t54.5 -99q164 41 341.5 127.5t243.5 151.5h203v-999l25 10l495 403h-215v25h402v-25h-140l-219 -182l361 -743h65v-25h-616zM670 1247q-116 248 -242 248
q-57 0 -89 -36.5t-32 -84.5q0 -69 46 -109t139 -40q77 0 178 22z" />
    <glyph glyph-name="T_h" horiz-adv-x="2381" 
d="M59 899l21 535h1202q21 69 57.5 123t79 87.5t92.5 55.5t94.5 30.5t88.5 8.5q215 0 215 -152q0 -83 -62.5 -130.5t-158.5 -49.5v-616q30 95 96 149.5t194 54.5q310 0 310 -342v-628h106v-25h-594v25h49v772q0 48 -9 73t-36 25q-42 0 -76 -75t-34 -175v-620h55v-25h-598v25
h104v1210q0 91 19 172h-369v-1380h164v-27h-774v27h162v1380h-37q-109 0 -192 -148q-49 -88 -131 -324q-2 -4 -5 -14q-5 -14 -8 -22h-25zM1688 1585v-147q74 0 127 39t53 110q0 57 -28 86t-66 29q-86 0 -86 -117z" />
    <glyph glyph-name="g_i" horiz-adv-x="1665" 
d="M958 662q0 -173 -120 -262t-320 -89q-79 0 -170 17q-51 -31 -66.5 -45t-15.5 -27q0 -10 10.5 -16t43 -9.5t90.5 -3.5h192q86 0 152.5 -8t129.5 -31t104.5 -60.5t66 -98.5t24.5 -144q0 -182 -142 -289.5t-439 -107.5q-182 0 -300.5 27.5t-170.5 74.5t-52 113
q0 68 39.5 101.5t106.5 52.5l137 -58q-14 -43 -14 -88q0 -90 67.5 -139t198.5 -49q146 0 228.5 56.5t82.5 154.5q0 67 -42.5 93t-157.5 26h-230q-94 0 -162.5 19t-103.5 51t-50.5 66t-15.5 72q0 88 54.5 143.5t199.5 135.5q-133 33 -200.5 109.5t-67.5 205.5q0 154 119 247
t354 93q167 0 283 -65q52 293 197.5 448.5t328.5 155.5q108 0 177 -65t69 -177q0 -108 -71.5 -169.5t-168.5 -61.5q-91 0 -150.5 48t-62.5 138l105 49q9 52 -9.5 77.5t-68.5 25.5q-20 0 -46.5 -10t-65 -42.5t-74 -83t-71.5 -142.5t-59 -210q127 -89 127 -249zM1008 975h551
v-950h106v-25h-543v950h-114v25zM434 739v-219q0 -104 16 -143t58 -39q38 0 52.5 36t14.5 146v215q0 101 -7.5 152t-21 66.5t-40.5 15.5q-42 0 -57 -47t-15 -183z" />
    <glyph glyph-name="v_i" horiz-adv-x="1736" 
d="M0 950v25h657v-25h-127l254 -710q78 334 215 796q78 272 173.5 386t246.5 114q101 0 168.5 -62.5t67.5 -156.5q0 -117 -63.5 -186.5t-174.5 -69.5q-76 0 -139.5 47.5t-77.5 132.5l113 66q5 43 -15.5 64.5t-48.5 21.5q-17 0 -32 -6.5t-37 -31t-44.5 -67.5t-52.5 -121.5
t-63 -187.5q-124 -416 -252 -979h-309l-381 950h-78zM1079 975h551v-950h107v-25h-647v25h104v925h-115v25z" />
    <glyph glyph-name="w_i" horiz-adv-x="2347" 
d="M1690 975h551v-950h106v-25h-647v25h104v925h-114v25zM750 950v25h555v-25h-76l168 -727q70 305 192 756q45 167 95.5 279.5t108 172t115 83.5t128.5 24q104 0 169.5 -63t65.5 -158q0 -116 -63 -185t-172 -69q-80 0 -142.5 44.5t-72.5 131.5l102 59q9 54 -11.5 76.5
t-47.5 22.5q-49 0 -109.5 -99t-124.5 -319q-109 -381 -241 -979h-345l-157 641l-166 -641h-326l-289 950h-88v25h674v-25h-141l186 -737l127 498l-49 239h-65z" />
    <glyph glyph-name="y_i" horiz-adv-x="1650" 
d="M8 950v25h639v-25h-102l182 -594q64 266 186 680q79 272 175 386t253 114q96 0 162 -63t66 -156q0 -114 -65.5 -185t-166.5 -71q-86 0 -146 47.5t-75 134.5l107 68q6 46 -11 68t-45 22q-107 0 -233 -422q-107 -354 -182 -692q-72 -327 -111 -453q-106 -346 -385 -346
q-121 0 -194.5 52t-73.5 153q0 77 53 126.5t137 49.5q162 0 162 -150q0 -29 -12 -73h-72q-25 -47 -8.5 -79t71.5 -32q93 0 169.5 87.5t123.5 250.5l37 127h-215l-346 950h-80zM993 975h551v-950h107v-25h-647v25h104v925h-115v25z" />
    <glyph glyph-name="t_t.alt" horiz-adv-x="1470" 
d="M104 307v643h-104v25h104v282q-206 16 -206 158q0 76 52 114t148 38q371 0 439 -248q26 7 60.5 35t72 62.5t82 68.5t105 57t126.5 23q114 0 180 -69.5t66 -213.5v-307h221v-25h-221v-714q0 -100 17.5 -140.5t72.5 -40.5q98 0 123 248l28 -2q-4 -42 -7.5 -69t-12.5 -64
t-21 -61t-34 -50.5t-51 -41.5t-72 -25t-96 -10q-81 0 -140 11t-109 37.5t-81 76t-43 122.5q-12 -32 -19 -49.5t-22.5 -47.5t-31 -47.5t-41.5 -39.5t-56 -34t-72.5 -20.5t-93.5 -8.5q-86 0 -147.5 14t-112.5 48.5t-77 100.5t-26 164zM793 303v647h-252v-714q0 -100 14 -140.5
t61 -40.5q55 0 97.5 64.5t79.5 183.5zM793 975v297v13q0 44 -0.5 62.5t-4.5 39.5t-12.5 27.5t-23.5 6.5q-21 0 -47 -22.5t-69 -58.5t-95 -58v-307h252zM106 1292v94q0 72 -15 106t-62 34q-35 0 -61.5 -29.5t-26.5 -81.5q0 -61 47 -91t118 -32z" />
    <glyph glyph-name="s_h" horiz-adv-x="2080" 
d="M954 1270q-32 12 -66.5 41t-65.5 60t-66 61t-79 49.5t-93 19.5q-97 0 -152 -64.5t-55 -154.5q0 -85 60 -175.5t126 -127.5q79 -47 113 -47q25 0 41.5 12.5t50.5 54.5h12v-315h-18q-60 149 -141.5 216t-194.5 67q-100 0 -142 -35t-42 -82q0 -30 12 -50t54 -38.5t66 -26
t103 -28.5q16 -5 25 -7q59 -16 99 -30t90 -42.5t80.5 -64.5t51.5 -94.5t21 -132.5q0 -177 -103.5 -266.5t-283.5 -89.5q-57 0 -108.5 11t-81.5 24.5t-57.5 24.5t-41.5 11q-20 0 -41 -15.5t-53 -55.5h-19v370h23q62 -189 156 -266.5t217 -77.5q206 0 206 131q0 29 -14 50
t-43 36t-64.5 26.5t-88.5 26.5q-31 8 -48 13q-58 17 -100 33.5t-91.5 45.5t-81 64t-52.5 89t-21 120q0 162 99 258t264 96q41 0 71 -6q-30 33 -50.5 58t-47.5 64.5t-41 81.5t-14 83q0 110 69 183t181 73q54 0 103 -19.5t85.5 -49.5t67.5 -60.5t63 -59.5t58 -40q17 56 52 101
t78 73.5t96 47.5t104.5 26.5t105.5 7.5q215 0 215 -152q0 -83 -62.5 -130.5t-158.5 -49.5v-424q30 89 95.5 140.5t190.5 51.5q310 0 310 -342v-628h106v-25h-594v25h49v772q0 48 -9 73t-36 25q-42 0 -76 -75t-34 -175v-620h55v-25h-598v25h104v1245zM1391 1405v-148
q71 2 125.5 41t54.5 109q0 54 -28.5 84.5t-65.5 30.5q-86 0 -86 -117z" />
    <glyph glyph-name="r_y" horiz-adv-x="1705" 
d="M1231 739l133 -456l229 667h-135v25h277v-25h-105l-375 -1116q-42 -128 -104.5 -207t-130 -109t-150.5 -30q-121 0 -194.5 52t-73.5 153q0 77 53.5 126.5t137.5 49.5q161 0 161 -150q0 -29 -12 -73h-72q-25 -47 -8 -79t72 -32q177 0 293 338l43 127h-221l-191 594
q-58 23 -78 85t8 122l80 14q35 127 -49 127q-63 0 -129.5 -55t-110.5 -141.5t-44 -170.5v-550h129v-25h-672v25h104v925h-104v25h538v-238q61 133 159.5 195.5t213.5 62.5q253 0 328 -256z" />
    <glyph glyph-name="i_t" horiz-adv-x="1439" 
d="M762 307v643h-105v25h105v170q87 6 151 28.5t97.5 56.5t49 70t15.5 76q0 96 -90 150.5t-270 54.5q-288 0 -277 -184l117 -27q10 -41 10 -92q0 -99 -54 -158t-159 -59q-54 0 -96 15t-66 37.5t-39.5 51.5t-20.5 53.5t-5 47.5q0 76 40 137t102 98t143 61.5t156 34t147 9.5
q117 0 205 -24.5t140.5 -64.5t84.5 -99.5t43.5 -120t11.5 -136.5v-186h221v-25h-221v-714q0 -97 18 -139t68 -42q41 0 68.5 35.5t39.5 86.5t19 126l29 -2q-4 -57 -10.5 -94.5t-25 -84.5t-48.5 -75t-83.5 -47.5t-127.5 -19.5q-86 0 -150.5 14t-119.5 48.5t-84 101t-29 163.5z
M2 975h551v-950h106v-25h-647v25h105v925h-115v25z" />
    <glyph glyph-name="Q_u" horiz-adv-x="2715" 
d="M66 690q0 362 178 564t518 202q327 0 491 -190.5t164 -546.5q0 -339 -157 -524t-482 -197v-16q156 20 293 20q135 0 247.5 -20.5t189 -53t140.5 -71.5t114 -78.5t96.5 -72t101 -53t115.5 -20.5q60 0 102.5 39.5t48.5 114.5l31 -2q-4 -54 -28 -106t-70 -100.5t-127 -78.5
t-185 -30q-129 0 -242 26t-195 67t-155 91t-137 100.5t-125.5 91.5t-135 67t-152.5 26q-56 0 -110 -15t-85 -30.5t-72 -40.5l-20 22q40 33 113.5 64t158.5 41v16q-315 10 -469.5 187.5t-154.5 506.5zM2707 0h-512l-20 131q-15 -37 -31 -60t-46 -46t-80 -34t-122 -11
q-321 0 -321 342v628h-107v25h543v-715q0 -115 14 -152.5t50 -37.5q43 0 67.5 56t24.5 157v667h-82v25h518v-950h104v-25zM948 473v514q0 85 -2.5 142t-10 112t-21 88t-35.5 59t-54.5 37t-76.5 11q-31 0 -57 -5t-46 -17.5t-36 -26.5t-27.5 -37.5t-20 -45t-14 -56t-8.5 -62.5
t-4.5 -72t-2 -77t-0.5 -85v-489q0 -95 3.5 -157t16 -123t35 -95t61.5 -55t95 -21q47 0 81 12.5t56.5 41.5t36 63t20.5 92.5t9 112.5t2 139z" />
    <glyph glyph-name="bigquote_L" horiz-adv-x="2277" 
d="M1087 1483l15 -41q-70 -28 -126 -53t-125 -62.5t-121.5 -75.5t-105 -89.5t-87 -107t-55.5 -126t-21 -148.5q0 -71 26 -146.5t70 -111.5l270 185q31 -21 60.5 -50.5t61.5 -72t51.5 -99.5t19.5 -118q0 -105 -47 -192t-144.5 -142.5t-228.5 -55.5q-135 0 -237 66
t-153.5 172.5t-51.5 235.5q0 147 48.5 282.5t132.5 245.5t202.5 206.5t254 169t291.5 128.5zM2105 1483l15 -41q-70 -28 -126 -53t-125 -62.5t-121.5 -75.5t-105 -89.5t-87 -107t-55.5 -126t-21 -148.5q0 -71 26 -146.5t70 -111.5l270 185q31 -21 60.5 -50.5t61.5 -72
t51.5 -99.5t19.5 -118q0 -105 -47 -192t-144.5 -142.5t-228.5 -55.5q-135 0 -237 66t-153.5 172.5t-51.5 235.5q0 147 48.5 282.5t132.5 245.5t202.5 206.5t254 169t291.5 128.5z" />
    <glyph glyph-name="bigquote_R" horiz-adv-x="2277" 
d="M1225 -23l-15 41q70 28 126 53t125 62.5t121.5 75.5t105 89.5t87 107t55.5 126t21 148.5q0 71 -26 146.5t-70 111.5l-270 -184q-31 21 -60.5 50.5t-61.5 72t-51.5 99.5t-19.5 118q0 162 112.5 275.5t307.5 113.5q135 0 237 -65.5t153.5 -172t51.5 -235.5
q0 -147 -48.5 -282.5t-132.5 -246t-202.5 -206.5t-254 -169t-291.5 -129zM207 -23l-14 41q70 28 126 53t125 62.5t121.5 75.5t105 89.5t87 107t55.5 126t21 148.5q0 70 -26 146t-71 112l-270 -184q-31 21 -60.5 50.5t-61.5 72t-51.5 99.5t-19.5 118q0 162 112.5 275.5
t307.5 113.5q102 0 186.5 -38t140 -103t86 -150.5t30.5 -181.5q0 -147 -48.5 -282.5t-133 -246t-203 -206.5t-254 -169t-291.5 -129z" />
    <glyph glyph-name="ornm1" horiz-adv-x="2267" 
d="M963 -387l-33 -14q-44 128 -120.5 207.5t-162.5 97.5q-79 -123 -166 -123q-43 0 -68.5 22t-25.5 56q0 46 36.5 75t90.5 31.5t115 -18.5q104 153 104 317q0 226 -186 406q-87 -76 -170 -76q-61 0 -96 31.5t-35 72.5q0 105 129 105q86 0 174 -84q85 90 131.5 197t46.5 219
q0 155 -98 292q-61 -21 -115 -18.5t-90.5 31.5t-36.5 76q0 34 25 55.5t69 21.5q87 0 166 -123q86 18 162.5 98t120.5 208l33 -15q-53 -138 -125 -211.5t-172 -107.5q98 -157 98 -318q0 -224 -189 -432q193 -196 193 -432q0 -166 -102 -328q100 -34 172 -107.5t125 -211.5z
M1337 -401l-32 14q53 138 125 211.5t172 107.5q-103 163 -103 328q0 236 193 432q-189 208 -189 432q0 159 99 318q-100 34 -172 107.5t-125 211.5l32 15q44 -128 120.5 -208t162.5 -98q79 123 166 123q44 0 69 -21.5t25 -55.5q0 -47 -36.5 -76t-90.5 -31.5t-115 18.5
q-98 -137 -98 -292q0 -112 46.5 -219t131.5 -197q88 84 174 84q129 0 129 -105q0 -41 -35 -72.5t-96 -31.5q-83 0 -170 76q-186 -180 -186 -406q0 -164 104 -317q61 21 115 18.5t90.5 -31.5t36.5 -75q0 -34 -25.5 -56t-68.5 -22q-87 0 -166 123q-86 -18 -162.5 -97.5
t-120.5 -207.5z" />
    <glyph glyph-name="ornm2" horiz-adv-x="4409" 
d="M3865 -764l-355 205h-2523l-350 -205l-356 205v4l356 258l-354 240v6l354 258l-354 239v5l354 258l-354 243v6l354 256l-354 246v6l354 205l350 -205h2523l355 205l350 -205v-6l-350 -246l350 -256v-6l-350 -243l350 -258v-5l-350 -239l350 -258v-6l-350 -240l352 -258
v-4zM3799 1468q0 -23 17 -40t42 -17q24 0 42 17t18 40q0 26 -18 44t-42 18q-25 0 -42 -18t-17 -44zM700 -545q0 26 -17 44t-42 18q-24 0 -42.5 -18t-18.5 -44q0 -24 18.5 -41.5t42.5 -17.5q25 0 42 17t17 42zM700 1468q0 26 -17 44t-42 18q-24 0 -42.5 -18t-18.5 -44
q0 -23 18.5 -40t42.5 -17q25 0 42 17t17 40zM3799 -545q0 -25 17 -42t42 -17q24 0 42 17.5t18 41.5q0 26 -18 44t-42 18q-25 0 -42 -18t-17 -44z" />
    <glyph glyph-name="ornm3" horiz-adv-x="3489" 
d="M2740 209l406 266v4l-391 285l387 266v8l-394 283l332 225h-2683l326 -225l-387 -283v-8l391 -266l-385 -285v-4l389 -266l-403 -283v-4v1657h2810v-2214h-2810v557l385 -268l-348 -254h2727l-352 254l393 268v4z" />
    <glyph glyph-name="ornm4" horiz-adv-x="4157" 
d="M3367 -297h-2484v1915h2484v-1915zM4010 -600h-1079l458 278v1633h619v-6l-315 -488l315 -229v-4l-315 -215l315 -230v-4l-315 -217l317 -514v-4zM1319 -600h-1079v4l317 514l-315 217v4l315 230l-315 215v4l315 229l-315 488v6h618v-1633zM3338 -322l-407 -245v245h407z
M1319 -567l-408 245h408v-245z" />
    <glyph glyph-name="ornm5" horiz-adv-x="3817" 
d="M2685 -475h-1552q-226 0 -419 76.5t-329.5 214t-213.5 335.5t-77 433q0 222 77.5 423.5t210.5 348.5t322 234t402 87h1608q142 0 275.5 -39.5t244 -110t202.5 -170t155.5 -218t98.5 -256t35 -281.5q0 -223 -77.5 -421.5t-213 -343t-330.5 -228.5t-419 -84zM186 590
q0 -222 73 -408.5t200.5 -314.5t304.5 -199t381 -71h1530q163 0 311 49t265 140t203 214t132.5 277.5t46.5 324.5q0 210 -76 397t-205 319.5t-305.5 210t-371.5 77.5h-1530q-196 0 -372.5 -77.5t-305.5 -211t-205 -323t-76 -404.5zM2587 -319h-1352q-198 0 -371 66
t-298.5 184t-198 291.5t-72.5 379.5q0 199 68.5 368.5t191 290.5t299.5 189t387 68h1337q210 0 387 -68t299.5 -189t190.5 -290.5t68 -368.5q0 -206 -72 -379.5t-197 -291.5t-297 -184t-370 -66zM334 602q0 -257 112.5 -458.5t321 -315t479.5 -113.5h1323q204 0 375 66
t289 183t184 281t66 357q0 191 -66.5 354.5t-184 279.5t-287 181.5t-368.5 65.5h-1337q-199 0 -368.5 -65.5t-287.5 -181.5t-184.5 -279.5t-66.5 -354.5z" />
    <glyph glyph-name="ornm6" horiz-adv-x="2256" 
d="M383 1004q36 4 68 4q-95 -121 -97 -316h19q3 105 25 177.5t75 140.5q10 0 31.5 1t30.5 1q-97 -124 -99 -320h19q3 104 25.5 179t76.5 143h51q49 0 67.5 -19.5t24.5 -72.5l684 94l336 -33l260 -31q9 -2 37.5 -13t40.5 -13q56 -8 119 -15q4 -20 4 -32q0 -53 -43 -81
t-106 -30q-78 -4 -134 27q-57 -26 -102 -21q-27 0 -110 27q-67 -34 -136 -39q12 -16 36.5 -46.5t32.5 -41.5t20 -30t16 -31.5t4 -26.5q-2 -29 -27 -54l-63 -61l88 -49q47 -26 47 -45v-2q-12 -56 -57 -86q-23 -14 -70 -10q-53 5 -95.5 26t-58.5 37q-30 20 -53 20
q-31 -22 -75 -37.5t-76 -15.5q-47 0 -56 49q-4 -2 -21.5 -9t-27.5 -10.5t-27.5 -7t-33.5 -3.5q-20 3 -34 16.5t-13 34.5v24h-37q-25 3 -69 6t-58 5q-13 2 -34 12t-37.5 19.5t-35.5 21t-20 12.5h-49q-7 -30 -13.5 -45.5t-24 -30.5t-46.5 -22q-18 -4 -42 -6.5t-55 -3t-53 -1
t-60 0t-53 0.5q-85 0 -116 14q-30 13 -53 98t-21 166q3 109 33.5 194t87.5 128q21 19 115 30q-91 -116 -93 -309h19q3 103 23.5 175.5t68.5 136.5zM1391 545l30 -10q69 -20 123 -56l66 66q24 24 24 45q0 16 -14.5 42t-30 45t-40.5 48.5t-31 36.5l-48 2q-10 -51 -55 -88
q23 -30 61.5 -45.5t77.5 -5.5l-4 -31q-17 -2 -26.5 -1.5t-29.5 3.5t-28 4q-29 -9 -75 -55zM643 993q-49 0 -84 -136t-33 -253q3 -194 66 -194q35 0 51 69l-82 -6q-26 84 -12 219t51 219l80 7q-4 75 -37 75zM1681 377q1 1 -9.5 8.5t-33 21.5t-55.5 33q-21 -8 -29 -12
q-20 -12 -20 -33q0 -32 28 -48.5t60 -18.5q22 -2 40.5 13t18.5 36zM1432 616q-32 21 -46 39q-14 -11 -53 -16q-8 -44 -33 -66l58 -20q45 49 74 63zM2159 899l-117 16q-10 -33 -10 -41q-2 -15 13 -28t48 -17q41 0 53 9q2 3 5 8.5t7 21.5t1 31zM1108 432l-72 -29v-18
q-1 -16 9.5 -23.5t23.5 -7.5q25 0 59 17t54 37zM1339 381q-19 0 -40 3t-52.5 9t-42.5 8q-10 -17 -6.5 -41t27.5 -24t56 12.5t58 32.5z" />
    <glyph glyph-name="ornm7" horiz-adv-x="2256" 
d="M1925 1004q48 -64 68.5 -136.5t23.5 -175.5h19q-2 194 -92 309q93 -11 114 -30q57 -43 87.5 -128t33.5 -194q2 -81 -21 -166t-53 -98q-31 -14 -116 -14q-15 0 -53 -0.5t-60 0t-53 1t-55 3t-42 6.5q-42 10 -57.5 32t-26.5 66h-49q-1 -1 -20 -12.5t-35.5 -21t-37.5 -19.5
t-34 -12q-14 -2 -58 -5t-69 -6h-36v-24q1 -20 -13 -34t-35 -17q-16 0 -33.5 3.5t-27.5 7t-27.5 10.5t-21.5 9q-9 -49 -55 -49q-32 0 -76.5 15.5t-75.5 37.5q-23 0 -53 -20q-16 -16 -58.5 -37t-95.5 -26q-46 -4 -69 10q-46 31 -58 86v2q0 19 47 45l88 49l-63 61
q-25 25 -27 54q0 14 4 26.5t16 31.5t20 30t32.5 41.5t36.5 46.5q-68 5 -135 39q-83 -27 -111 -27q-45 -5 -102 21q-56 -31 -134 -27q-63 2 -106 30t-43 81q0 12 4 32q63 7 119 15q12 2 40.5 13t37.5 13l260 31l336 33l684 -94q6 53 24.5 72.5t67.5 19.5h51q54 -68 76.5 -143
t25.5 -179h19q-2 198 -98 320q9 0 30 -1t31 -1q53 -68 75 -140.5t25 -177.5h19q-2 196 -96 316q31 0 67 -4zM887 535l31 10q-45 45 -76 55q-8 -1 -28 -4t-29.5 -3.5t-26.5 1.5l-4 31q39 -10 77.5 5.5t61.5 45.5q-20 16 -33.5 38t-17.5 36l-4 14l-47 -2q-6 -8 -31 -36.5
t-41 -48t-30.5 -45.5t-14.5 -42q0 -21 24 -45l66 -66q54 36 123 56zM1665 993q-33 0 -37 -75l80 -7q37 -84 51 -219t-12 -219l-82 6q16 -69 51 -69q63 0 66 194q2 117 -33 253t-84 136zM627 377q0 -21 18.5 -36t40.5 -13q32 2 60 18.5t28 48.5q0 21 -20 33l-29 12
q-33 -19 -55.5 -33t-33 -21.5t-9.5 -8.5zM877 616q27 -13 73 -63l58 20q-25 22 -33 66q-39 5 -53 16q-15 -20 -45 -39zM266 915l-116 -16q-3 -15 0 -30t8 -23l4 -8q12 -9 53 -9q33 4 48 17t13 28zM1272 403l-72 29l-74 -24q20 -20 54 -37t59 -17q13 0 23.5 7.5t9.5 23.5v18z
M969 381q26 -20 58 -32.5t56 -12.5t27.5 24t-6.5 41q-11 -2 -42.5 -8t-52.5 -9t-40 -3z" />
    </font>
</defs>
</svg>
