<?xml version="1.0" standalone="no"?>
<!DOCTYPE svg PUBLIC "-//W3C//DTD SVG 1.1//EN" "http://www.w3.org/Graphics/SVG/1.1/DTD/svg11.dtd" >
<svg xmlns="http://www.w3.org/2000/svg" xmlns:xlink="http://www.w3.org/1999/xlink" version="1.1">
<metadata>
Created by FontForge 20170731 at Wed Feb 17 08:57:50 2021
 By Aleksey,,,
Copyright (c) 2012 by TypeTogether. All rights reserved.
</metadata>
<defs>
<font id="AbrilDisplay-BlackItalic" horiz-adv-x="1024" >
  <font-face 
    font-family="Abril Display BL"
    font-weight="900"
    font-style="italic"
    font-stretch="normal"
    units-per-em="2048"
    panose-1="2 0 5 4 7 0 0 9 0 3"
    ascent="1536"
    descent="-512"
    x-height="979"
    cap-height="1434"
    bbox="-489 -764 4217 2171"
    underline-thickness="102"
    underline-position="-307"
    slope="-10"
    unicode-range="U+0020-FB06"
  />
<missing-glyph horiz-adv-x="409" 
 />
    <glyph glyph-name="ij" unicode="ij" horiz-adv-x="1368" 
d="M428 1081q-58 0 -100 15t-64 39.5t-31.5 51t-9.5 56.5q0 108 84.5 172t204.5 64q94 0 147.5 -43t53.5 -121q0 -108 -84 -171t-201 -63zM641 190l23 -14q-44 -69 -79 -107t-92 -62.5t-135 -24.5q-130 0 -209 59t-79 186q0 67 26 195l103 528h-162l2 25h592
q-120 -584 -144 -711q-20 -110 -20 -155q0 -23 12 -34.5t29 -11.5q53 0 133 127zM547 -334l-98 -14q-19 -23 -22.5 -54.5t19 -57t70.5 -25.5q85 0 123 86.5t80 343.5l160 1005h-158l8 25h592l-164 -979q-84 -508 -610 -508q-91 0 -166 23t-126.5 78.5t-51.5 136.5
q0 87 59 141.5t148 54.5q104 0 145.5 -75t-8.5 -181zM1112 1092q-110 0 -157.5 48t-47.5 113q0 108 84.5 172t204.5 64q94 0 147.5 -43t53.5 -121q0 -107 -84 -170t-201 -63z" />
    <glyph glyph-name="ff" unicode="ff" horiz-adv-x="1411" 
d="M29 -20l166 970h-148l2 25h148l12 67q44 243 211.5 380t449.5 137q72 0 154 -24t139 -67q152 115 367 115q67 0 127.5 -14.5t112 -43.5t82 -80t30.5 -116q0 -100 -62 -161.5t-151 -61.5q-113 0 -161 71t-11 189l125 14q34 95 17.5 138t-68.5 43q-28 0 -48.5 -8t-39 -31
t-32 -55t-28 -88t-27 -121t-28.5 -164l-20 -119h235l-6 -25h-234l-161 -878q-48 -258 -230.5 -401.5t-472.5 -143.5q-59 0 -124.5 19t-116.5 55q-147 -113 -383 -113q-61 0 -119.5 14t-108.5 41t-81 73t-31 105q0 86 56 145.5t150 59.5q73 0 117.5 -38t48.5 -95t-22 -123
l-101 -14q-38 -52 -17.5 -95.5t79.5 -43.5q81 0 117 89t86 374zM737 25l160 925h-256l-172 -923l-16 -74q43 -32 51.5 -90t-19.5 -127l-90 -12q-25 -38 -30.5 -75t17 -64t73.5 -27q101 0 166 108t116 359zM899 975q12 73 45 170q-88 54 -53 207l110 12q17 48 16 80.5t-19 53
t-40.5 29.5t-48.5 9q-59 0 -99 -32t-77 -131t-67 -279l-21 -119h254z" />
    <glyph glyph-name="fi" unicode="fi" horiz-adv-x="1351" 
d="M1313 190l22 -14q-33 -51 -59 -83t-61.5 -59.5t-80.5 -39.5t-104 -12q-130 0 -209.5 59t-79.5 186q0 62 27 195l102 528h-233l-168 -930q-97 -532 -614 -532q-61 0 -119.5 14t-108.5 41t-81 73t-31 105q0 86 56 145.5t150 59.5q73 0 117.5 -38t48.5 -95t-22 -123
l-101 -14q-38 -52 -17.5 -95.5t79.5 -43.5q29 0 50 8.5t39.5 32.5t31.5 54t27 86.5t25.5 116.5t27.5 156l166 979h-152l6 27h150l8 47q22 129 69 226.5t109.5 160t148 101.5t177.5 55t204 16q57 0 115 -7.5t119 -27.5t107.5 -50t76 -78t29.5 -109q0 -112 -65 -172t-158 -60
q-97 0 -147 47t-50 123q0 61 29 113l110 10q28 80 -9 133.5t-124 53.5q-71 0 -116 -26t-82.5 -104t-63.5 -221l-43 -233h662q-120 -584 -144 -711q-20 -110 -20 -155q0 -23 12 -34.5t29 -11.5q53 0 133 127z" />
    <glyph glyph-name="fl" unicode="fl" horiz-adv-x="1386" 
d="M25 -20l170 970h-148l2 25h148l12 67q48 258 206.5 399.5t411.5 141.5q126 0 223.5 -56.5t116.5 -160.5l240 170h20l-237 -1264q-2 -11 -8.5 -39t-10.5 -53.5t-4 -48.5q0 -70 45 -70q55 0 140 127l22 -16q-64 -97 -130.5 -143.5t-166.5 -46.5q-149 0 -224 68.5t-75 199.5
q0 56 12 129t58 303l90 453q-72 18 -100.5 78.5t-1.5 154.5l112 14q25 67 14.5 106.5t-35 56t-59.5 16.5q-34 0 -57.5 -14t-43 -42.5t-36 -87t-31 -131.5t-34.5 -192l-21 -119h180l-6 -25h-178l-172 -923q-49 -263 -198.5 -401t-415.5 -138q-61 0 -119.5 14t-108.5 41
t-81 73t-31 105q0 86 56 145.5t150 59.5q73 0 117.5 -38t48.5 -95t-22 -123l-101 -14q-38 -52 -17.5 -95.5t79.5 -43.5q22 0 38.5 4.5t31.5 18.5t26 28.5t22.5 46.5t19.5 60.5t19 82t19.5 99t22.5 123.5z" />
    <glyph glyph-name="ffi" unicode="ffi" horiz-adv-x="2050" 
d="M2011 190l23 -14q-33 -51 -59 -83t-61.5 -59.5t-80.5 -39.5t-104 -12q-130 0 -209.5 59t-79.5 186q0 67 26 195l103 528h-226l-161 -878q-48 -258 -230.5 -401.5t-472.5 -143.5q-58 0 -123.5 19t-115.5 55q-147 -113 -385 -113q-56 0 -112 11.5t-109.5 36.5t-87 72.5
t-33.5 110.5q0 93 57.5 150t148.5 57q75 0 119.5 -35.5t49 -93t-22.5 -129.5l-101 -12q-38 -58 -17.5 -98.5t83.5 -40.5q21 0 37.5 5.5t31 20.5t25.5 31.5t22.5 49t19.5 61.5t19 81.5t19 96.5t21 117l170 970h-148l2 25h148l12 67q46 250 221.5 383.5t437.5 133.5
q78 0 157.5 -26t129.5 -69q170 119 465 119q57 0 115 -7.5t118.5 -27.5t107 -50t76 -78t29.5 -109q0 -112 -65 -172t-158 -60q-97 0 -146.5 47t-49.5 123q0 63 28 113l111 10q28 80 -9 133.5t-124 53.5q-71 0 -116 -26t-82.5 -104t-63.5 -221l-43 -233h655
q-89 -420 -145 -711q-21 -116 -21 -155q0 -23 12 -34.5t29 -11.5q53 0 133 127zM737 25l160 925h-256l-188 -997q43 -32 51.5 -90t-19.5 -127l-90 -12q-25 -38 -30.5 -75t17 -64t73.5 -27q101 0 166 108t116 359zM666 1094l-21 -119h254q23 119 39 172q-39 28 -50.5 81
t7.5 124l106 12q29 86 3 129t-95 43q-59 0 -99 -32t-77 -131t-67 -279z" />
    <glyph glyph-name="ffl" unicode="ffl" horiz-adv-x="2088" 
d="M1571 1561q-78 0 -117 -96.5t-86 -370.5l-20 -119h194l-6 -25h-193l-161 -878q-48 -258 -230.5 -401.5t-472.5 -143.5q-58 0 -123.5 19t-115.5 55q-147 -113 -385 -113q-56 0 -111.5 12t-109 37.5t-86.5 74.5t-33 114q0 91 59 145.5t147 54.5q106 0 147 -73.5t-3 -182.5
l-103 -12q-38 -58 -16.5 -99.5t84.5 -41.5q21 0 37.5 5.5t31 20.5t25.5 31.5t22.5 49t19.5 61.5t19 81.5t19 96.5t21 117l170 970h-148l2 25h148l12 67q46 250 221.5 383.5t437.5 133.5q76 0 153.5 -24.5t127.5 -66.5q151 115 381 115q126 0 223.5 -56.5t116.5 -160.5
l239 170h21l-238 -1264q-2 -11 -8 -39t-10 -53.5t-4 -48.5q0 -70 45 -70q54 0 139 127l23 -16q-64 -97 -130.5 -143.5t-166.5 -46.5q-149 0 -224 68.5t-75 199.5q0 58 12 132.5t57 299.5l90 453q-72 18 -100.5 78.5t-1.5 154.5l113 14q25 67 14.5 106.5t-35 56t-59.5 16.5z
M737 25l160 925h-256l-188 -997q43 -32 51.5 -90t-19.5 -127l-90 -12q-25 -38 -30.5 -75t17 -64t73.5 -27q101 0 166 108t116 359zM666 1094l-21 -119h254q23 119 39 172q-39 28 -50.5 81t7.5 124l106 12q29 86 3 129t-95 43q-59 0 -99 -32t-77 -131t-67 -279z" />
    <glyph glyph-name="f_k" unicode="fk" horiz-adv-x="1890" 
d="M1880 176l18 -14q-65 -100 -135 -140t-174 -40q-30 0 -56 2t-56.5 7t-54.5 14t-48.5 23t-39 33.5t-26.5 46.5t-10 61.5t9 78.5l26 117q14 79 2.5 101.5t-51.5 22.5q-39 0 -49 -10l-76 -471q-71 0 -235 -8t-205 -18l94 436l129 717q-73 18 -103 78.5t-3 154.5l112 14
q25 67 14.5 106.5t-35 56t-59.5 16.5q-34 0 -57.5 -14t-43 -42.5t-36 -87t-31 -131.5t-34.5 -192l-21 -119h180l-6 -25h-178l-172 -923q-49 -263 -198.5 -401t-415.5 -138q-61 0 -119.5 14t-108.5 41t-81 73t-31 105q0 86 56 145.5t150 59.5q73 0 117.5 -38t48.5 -95
t-22 -123l-101 -14q-38 -52 -17.5 -95.5t79.5 -43.5q22 0 38.5 4.5t31.5 18.5t26 28.5t22.5 46.5t19.5 60.5t19 82t19.5 99t22.5 123.5l170 970h-148l2 25h148l12 67q46 258 205 399.5t413 141.5q126 0 223.5 -56.5t116.5 -160.5l240 170h20l-186 -1026l127 51
q119 43 158.5 84.5t34.5 97.5l-88 21q-20 97 26 164t154 67q50 0 85.5 -15t54 -41t26.5 -53.5t8 -58.5q0 -77 -60 -134t-163 -89l-242 -74v-6q83 13 176 13q90 0 135.5 -31t50.5 -86t-8 -131l-24 -125q-12 -58 -5.5 -85.5t37.5 -27.5q36 0 69.5 26.5t86.5 98.5z" />
    <glyph glyph-name="f_b" unicode="fb" horiz-adv-x="1896" 
d="M25 -20l170 970h-148l2 25h148l12 67q46 258 205 399.5t413 141.5q126 0 223.5 -56.5t116.5 -160.5l240 170h20l-143 -725l4 -2q20 40 41 69t54 58t80 44t106 15q151 0 224 -94t73 -260q0 -108 -20.5 -204t-67 -180.5t-115.5 -145.5t-171 -96t-228 -35
q-119 0 -206.5 30.5t-139.5 87.5t-76.5 132.5t-24.5 172.5q0 62 19 162l102 570q-72 18 -100.5 78.5t-1.5 154.5l112 14q25 67 14.5 106.5t-35 56t-59.5 16.5q-34 0 -57.5 -14t-43 -42.5t-36 -87t-31 -131.5t-34.5 -192l-21 -119h180l-6 -25h-178l-172 -923
q-49 -263 -198.5 -401t-415.5 -138q-61 0 -119.5 14t-108.5 41t-81 73t-31 105q0 86 56 145.5t150 59.5q73 0 117.5 -38t48.5 -95t-22 -123l-101 -14q-38 -52 -17.5 -95.5t79.5 -43.5q22 0 38.5 4.5t31.5 18.5t26 28.5t22.5 46.5t19.5 60.5t19 82t19.5 99t22.5 123.5z
M1423 905q-51 0 -94.5 -89t-68 -214t-37.5 -239t-13 -183q0 -89 16 -130.5t54 -41.5q39 0 62.5 55t50.5 216l73 446q10 65 9.5 105t-13 57.5t-39.5 17.5z" />
    <glyph glyph-name="f_h" unicode="fh" horiz-adv-x="1984" 
d="M25 -20l170 970h-148l2 25h148l12 67q46 258 205 399.5t413 141.5q126 0 223.5 -56.5t116.5 -160.5l240 170h20l-174 -895l7 -4q22 54 36.5 85.5t37.5 74.5t43 68t49.5 53t62 42.5t75.5 24.5t93 10q123 0 184.5 -58.5t61.5 -162.5q0 -62 -35 -199l-78 -303
q-31 -131 -31 -166q0 -45 41 -45q31 0 63 29t76 103l27 -13q-65 -109 -130.5 -153.5t-178.5 -44.5q-63 0 -114 13t-93 41t-65 77.5t-23 117.5q0 59 28 172t59 212t32 108q5 16 14 46q11 38 15.5 56t7 40.5t-6.5 31t-28 8.5q-27 0 -70 -47t-94 -158q-50 -112 -77.5 -261.5
t-51.5 -428.5q-54 2 -236 -7t-221 -17l86 381l119 768q-72 18 -100.5 78.5t-1.5 154.5l112 14q25 67 14.5 106.5t-35 56t-59.5 16.5q-34 0 -57.5 -14t-43 -42.5t-36 -87t-31 -131.5t-34.5 -192l-21 -119h180l-6 -25h-178l-172 -923q-49 -263 -198.5 -401t-415.5 -138
q-61 0 -119.5 14t-108.5 41t-81 73t-31 105q0 86 56 145.5t150 59.5q73 0 117.5 -38t48.5 -95t-22 -123l-101 -14q-38 -52 -17.5 -95.5t79.5 -43.5q22 0 38.5 4.5t31.5 18.5t26 28.5t22.5 46.5t19.5 60.5t19 82t19.5 99t22.5 123.5z" />
    <glyph glyph-name="f_t" unicode="ft" horiz-adv-x="1468" 
d="M1513 950h-192l-88 -440q-49 -241 -49 -324q0 -110 73 -110q89 0 166 221l29 -8q-20 -56 -38.5 -96.5t-48.5 -83.5t-64.5 -69t-86 -43t-114.5 -17q-75 0 -133 16t-93.5 41.5t-58 61.5t-31 71t-8.5 74q0 87 41 288l80 418h-256l-172 -923q-49 -263 -198.5 -401
t-415.5 -138q-61 0 -119.5 14t-108.5 41t-81 73t-31 105q0 86 56 145.5t150 59.5q73 0 117.5 -38t48.5 -95t-22 -123l-101 -14q-38 -52 -17.5 -95.5t79.5 -43.5q29 0 49.5 8t38.5 33t30.5 53.5t27 87.5t25.5 115.5t28 156.5l170 979h-148l2 25h148l12 67q48 258 206.5 399.5
t411.5 141.5q120 0 195.5 -58t75.5 -159t-61 -157t-152 -56q-111 0 -153 71.5t-5 182.5l113 8q46 67 30 106.5t-75 39.5q-85 0 -153.5 -66t-68.5 -172q0 -60 21 -112t72 -117l-21 -119h256l27 121l385 82h47l-35 -203h195z" />
    <glyph glyph-name="f_j" unicode="fj" horiz-adv-x="1343" 
d="M25 -20l168 970h-152l6 27h150l8 47q22 129 69 226.5t109.5 160t148 101.5t177.5 55t204 16q57 0 115 -7.5t119 -27.5t107.5 -50t76 -78t29.5 -109q0 -112 -65 -172t-158 -60q-97 0 -147 47t-50 123q0 61 29 113l110 10q28 80 -9 133.5t-124 53.5q-71 0 -116 -26
t-82.5 -104t-63.5 -221l-43 -233h655l-161 -977q-18 -111 -55 -195.5t-100 -150t-151.5 -105t-210.5 -54t-276 -1.5v16q151 21 237.5 141.5t116.5 309.5l158 991h-217l-170 -930q-97 -532 -612 -532q-61 0 -119.5 14t-108.5 41t-81 73t-31 105q0 86 56 145.5t150 59.5
q73 0 117.5 -38t48.5 -95t-22 -123l-101 -14q-38 -52 -17.5 -95.5t79.5 -43.5q22 0 38.5 4.5t31.5 18t26.5 29t22.5 46.5t19.5 60.5t19.5 81.5t19.5 99.5t21.5 123.5z" />
    <glyph glyph-name="f_f_j" unicode="ffj" horiz-adv-x="2050" 
d="M2003 975l-162 -977q-23 -139 -76 -237.5t-146.5 -166t-235.5 -93t-334 -9.5v16q151 21 237.5 141.5t116.5 309.5l158 991h-218l-169 -921q-47 -255 -227 -398t-455 -143q-182 0 -279 90q-83 -46 -163.5 -68t-194.5 -22q-56 0 -112 12t-110.5 37.5t-88 74.5t-33.5 114
q0 91 59 144.5t145 53.5q74 0 118.5 -36t49.5 -92.5t-18 -125.5l-105 -12q-38 -58 -15.5 -99.5t85.5 -41.5q74 0 106 82.5t84 355.5q3 16 5 25l170 970h-148l2 25h148l12 67q46 250 221.5 383.5t437.5 133.5q78 0 157.5 -26t129.5 -69q170 119 465 119q57 0 115 -7.5
t118.5 -27.5t107 -50t76 -78t29.5 -109q0 -112 -65 -172t-158 -60q-97 0 -146.5 47t-49.5 123q0 63 28 113l111 10q28 80 -9 133.5t-124 53.5q-71 0 -116 -26t-82.5 -104t-63.5 -221l-43 -233h655zM723 -18l174 968h-256l-168 -872q-13 -71 -45 -168q49 -35 61 -91.5
t-16 -125.5l-90 -12q-25 -38 -30 -74t19 -62t79 -26q97 0 163 108t109 355zM666 1094l-21 -119h254q23 119 39 172q-39 28 -50.5 81t7.5 124l106 12q29 86 3 129t-95 43q-59 0 -99 -32t-77 -131t-67 -279z" />
    <glyph glyph-name="f_f_k" unicode="ffk" horiz-adv-x="2592" 
d="M2580 176l19 -14q-65 -100 -135 -140t-174 -40q-30 0 -56 2t-57 7t-54.5 14t-48.5 23t-39 33.5t-26.5 46.5t-10.5 61.5t9 78.5l27 117q14 79 2.5 101.5t-51.5 22.5t-50 -10l-75 -471q-71 0 -235.5 -8t-205.5 -18l94 436l127 717q-72 18 -100.5 78.5t-1.5 154.5l113 14
q25 67 14.5 106.5t-35 56t-59.5 16.5q-78 0 -117 -96.5t-86 -370.5l-20 -119h194l-6 -25h-193l-161 -878q-48 -258 -230.5 -401.5t-472.5 -143.5q-58 0 -123.5 19t-115.5 55q-147 -113 -385 -113q-56 0 -111.5 12t-109 37.5t-86.5 74.5t-33 114q0 91 59 145.5t147 54.5
q106 0 147 -73.5t-3 -182.5l-103 -12q-38 -58 -16.5 -99.5t84.5 -41.5q21 0 37.5 5.5t31 20.5t25.5 31.5t22.5 49t19.5 61.5t19 81.5t19 96.5t21 117l170 970h-148l2 25h148l12 67q46 250 221.5 383.5t437.5 133.5q76 0 153.5 -24.5t127.5 -66.5q151 115 381 115
q126 0 223.5 -56.5t116.5 -160.5l239 170h21l-188 -1026l126 51q119 43 158.5 84.5t34.5 97.5l-88 21q-20 97 26 164t154 67q50 0 85.5 -15t54 -41t26.5 -53.5t8 -58.5q0 -77 -60 -134t-163 -89l-242 -74v-6q83 13 176 13q90 0 135.5 -31t51 -86t-7.5 -131l-25 -125
q-12 -58 -5 -85.5t38 -27.5q36 0 69 26t86 99zM737 25l160 925h-256l-188 -997q43 -32 51.5 -90t-19.5 -127l-90 -12q-25 -38 -30.5 -75t17 -64t73.5 -27q101 0 166 108t116 359zM666 1094l-21 -119h254q23 119 39 172q-39 28 -50.5 81t7.5 124l106 12q29 86 3 129t-95 43
q-59 0 -99 -32t-77 -131t-67 -279z" />
    <glyph glyph-name="f_f_b" unicode="ffb" horiz-adv-x="2592" 
d="M1571 1561q-78 0 -117 -96.5t-86 -370.5l-20 -119h194l-6 -25h-193l-161 -878q-48 -258 -230.5 -401.5t-472.5 -143.5q-58 0 -123.5 19t-115.5 55q-147 -113 -385 -113q-56 0 -111.5 12t-109 37.5t-86.5 74.5t-33 114q0 91 59 145.5t147 54.5q106 0 147 -73.5t-3 -182.5
l-103 -12q-38 -58 -16.5 -99.5t84.5 -41.5q21 0 37.5 5.5t31 20.5t25.5 31.5t22.5 49t19.5 61.5t19 81.5t19 96.5t21 117l170 970h-148l2 25h148l12 67q46 250 221.5 383.5t437.5 133.5q76 0 153.5 -24.5t127.5 -66.5q151 115 381 115q126 0 223.5 -56.5t116.5 -160.5
l239 170h21l-150 -727l5 -2q21 41 41 69.5t52.5 58t79.5 45t107 15.5q151 0 224 -94t73 -260q0 -108 -20.5 -204t-67 -180.5t-115.5 -145.5t-171 -96t-228 -35q-119 0 -206.5 30.5t-139.5 87.5t-76.5 132.5t-24.5 172.5q0 62 19 162l104 570q-71 19 -98 79t0 154l113 14
q25 67 14.5 106.5t-35 56t-59.5 16.5zM737 25l160 925h-256l-188 -997q43 -32 51.5 -90t-19.5 -127l-90 -12q-25 -38 -30.5 -75t17 -64t73.5 -27q101 0 166 108t116 359zM2120 905q-51 0 -94.5 -89t-68 -214t-37.5 -239t-13 -183q0 -90 16 -131t53 -41q39 0 62.5 55
t50.5 216l74 446q10 65 9.5 105t-13 57.5t-39.5 17.5zM666 1094l-21 -119h254q23 119 39 172q-39 28 -50.5 81t7.5 124l106 12q29 86 3 129t-95 43q-59 0 -99 -32t-77 -131t-67 -279z" />
    <glyph glyph-name="f_f_h" unicode="ffh" horiz-adv-x="2686" 
d="M1571 1561q-78 0 -117 -96.5t-86 -370.5l-20 -119h194l-6 -25h-193l-161 -878q-48 -258 -230.5 -401.5t-472.5 -143.5q-58 0 -123.5 19t-115.5 55q-147 -113 -385 -113q-56 0 -111.5 12t-109 37.5t-86.5 74.5t-33 114q0 91 59 145.5t147 54.5q106 0 147 -73.5t-3 -182.5
l-103 -12q-38 -58 -16.5 -99.5t84.5 -41.5q21 0 37.5 5.5t31 20.5t25.5 31.5t22.5 49t19.5 61.5t19 81.5t19 96.5t21 117l170 970h-148l2 25h148l12 67q46 250 221.5 383.5t437.5 133.5q76 0 153.5 -24.5t127.5 -66.5q151 115 381 115q126 0 223.5 -56.5t116.5 -160.5
l239 170h21l-174 -895l6 -4q22 54 36.5 85.5t37.5 74.5t43 68t49.5 53t62 42.5t75.5 24.5t93 10q123 0 184.5 -58.5t61.5 -162.5q0 -62 -35 -199l-78 -303q-30 -126 -30 -166q0 -45 41 -45q31 0 63 29t76 103l27 -13q-44 -73 -82.5 -113.5t-94 -62.5t-133.5 -22
q-63 0 -114 13t-93 41t-65 77.5t-23 117.5q0 59 28 172t59 212t32 108q5 16 14 46q11 38 15.5 56t7 40.5t-6.5 31t-28 8.5q-27 0 -70 -47t-94 -158q-50 -112 -77.5 -261.5t-51.5 -428.5q-54 2 -235.5 -7t-220.5 -17l86 381l118 768q-72 18 -100.5 78.5t-1.5 154.5l113 14
q25 67 14.5 106.5t-35 56t-59.5 16.5zM737 25l160 925h-256l-188 -997q43 -32 51.5 -90t-19.5 -127l-90 -12q-25 -38 -30.5 -75t17 -64t73.5 -27q101 0 166 108t116 359zM666 1094l-21 -119h254q23 119 39 172q-39 28 -50.5 81t7.5 124l106 12q29 86 3 129t-95 43
q-59 0 -99 -32t-77 -131t-67 -279z" />
    <glyph glyph-name="f_f_t" unicode="fft" horiz-adv-x="2170" 
d="M2216 950h-193l-88 -440q-49 -241 -49 -324q0 -110 74 -110q89 0 166 221l28 -8q-20 -56 -38.5 -96.5t-48.5 -83.5t-64.5 -69t-86 -43t-114.5 -17q-93 0 -159.5 23.5t-100.5 64t-48.5 83.5t-14.5 93q0 87 41 288l79 418h-256l-161 -878q-48 -258 -230.5 -401.5
t-472.5 -143.5q-58 0 -123.5 19t-115.5 55q-147 -113 -385 -113q-56 0 -112 12t-109.5 37.5t-87 74.5t-33.5 114q0 92 57 146t147 54q75 0 120 -35.5t50 -93t-22 -129.5l-101 -12q-38 -58 -17.5 -98.5t83.5 -40.5q21 0 37.5 5.5t31 20.5t25.5 31.5t22.5 49t19.5 61.5
t19 81.5t19 96.5t21 117l170 970h-148l2 25h148l12 67q46 250 221.5 383.5t437.5 133.5q77 0 153 -23.5t134 -69.5q150 117 375 117q134 0 222.5 -60.5t88.5 -168.5q0 -93 -61.5 -147t-151.5 -54q-111 0 -153 71.5t-5 182.5l113 8q34 72 15.5 109t-82.5 37q-97 0 -168.5 -65
t-71.5 -173q0 -60 20.5 -112.5t71.5 -116.5l-20 -119h256l26 121l385 82h47l-34 -203h194zM737 25l160 925h-256l-188 -997q43 -32 51.5 -90t-19.5 -127l-90 -12q-25 -38 -30.5 -75t17 -64t73.5 -27q101 0 166 108t116 359zM666 1094l-21 -119h254q23 119 39 172
q-39 28 -50.5 81t7.5 124l106 12q29 86 3 129t-95 43q-59 0 -99 -32t-77 -131t-67 -279z" />
    <glyph glyph-name="f_iacute" unicode="f&#xed;" horiz-adv-x="1366" 
d="M1327 190l23 -14q-44 -69 -79 -107t-92 -62.5t-135 -24.5q-130 0 -209 59t-79 186q0 67 26 195l103 528h-244l-172 -923q-49 -264 -201.5 -401.5t-429.5 -137.5q-39 0 -80.5 6.5t-86 24t-79 43t-57 67.5t-22.5 95q0 91 59.5 146.5t146.5 55.5q113 0 153.5 -74t-3.5 -180
l-100 -12q-39 -58 -20 -100.5t81 -42.5q30 0 52 14t39 43t31 77.5t28 111.5t32 151q8 43 13 66l170 970h-148l2 25h148l12 67q47 256 195.5 398.5t371.5 142.5q128 0 205.5 -58t77.5 -161q0 -100 -59.5 -155.5t-149.5 -55.5q-111 0 -153 71.5t-5 182.5l113 8q40 54 29.5 100
t-74.5 46q-75 0 -139 -60t-64 -155q0 -75 27 -132.5t82 -119.5l-21 -119h672q-107 -523 -143 -711q-21 -116 -21 -155q0 -23 12 -34.5t29 -11.5q53 0 133 127zM1055 1067l159 416l140 18q30 3 57.5 -2t49.5 -26.5t22 -57.5q0 -37 -16.5 -64t-63.5 -59l-340 -231z" />
    <glyph glyph-name="t_t" unicode="tt" horiz-adv-x="1445" 
d="M1491 950h-193l-88 -440q-49 -241 -49 -324q0 -110 74 -110q89 0 166 221l29 -8q-20 -56 -38.5 -96.5t-48.5 -83t-65 -69t-86.5 -43.5t-114.5 -17q-80 0 -140.5 17.5t-96.5 48t-55.5 65.5t-26.5 77q-139 -211 -359 -211q-90 0 -156 24t-100.5 64.5t-50.5 85t-16 93.5
q0 87 41 288l80 418h-148l6 25h146l41 205l385 82h47l-49 -287h254l41 205l385 82h47l-49 -287h194zM557 74q95 0 197 170q0 87 41 288l79 418h-253l-89 -440q-49 -241 -49 -326q0 -110 74 -110z" />
    <glyph glyph-name=".notdef" horiz-adv-x="409" 
 />
    <glyph glyph-name=".null" horiz-adv-x="0" 
 />
    <glyph glyph-name="nonmarkingreturn" horiz-adv-x="682" 
 />
    <glyph glyph-name="space" unicode=" " horiz-adv-x="307" 
 />
    <glyph glyph-name="exclam" unicode="!" horiz-adv-x="784" 
d="M322 395l12 56q23 121 25 217.5t-12 161t-31 117t-31.5 114t-14.5 123.5q0 55 14 101.5t43 86t81 62t122 22.5q91 0 147 -44.5t56 -139.5q0 -74 -29.5 -145.5t-76 -138.5t-96 -138.5t-96.5 -176.5t-70 -224l-11 -54h-32zM319 303q64 0 101 -32.5t37 -94.5q0 -80 -52 -138
t-143 -58q-70 0 -105.5 41.5t-35.5 97.5q0 76 55 130t143 54z" />
    <glyph glyph-name="quotedbl" unicode="&#x22;" horiz-adv-x="753" 
d="M254 1063l14 471q64 41 107 41q98 0 98 -82q0 -51 -43 -139l-156 -291h-20zM555 1063l14 471q64 41 107 41q98 0 98 -82q0 -51 -43 -139l-156 -291h-20z" />
    <glyph glyph-name="numbersign" unicode="#" horiz-adv-x="1282" 
d="M258 0h-33l111 395h-246l72 271h237l70 247h-248l74 273h240l73 303h35l-76 -303h361l76 303h32l-78 -303h273l-74 -273h-254l-69 -247h264l-70 -271h-258l-106 -395h-33l106 395h-366zM868 913h-366l-70 -247h369z" />
    <glyph glyph-name="dollar" unicode="$" horiz-adv-x="1146" 
d="M518 -137l21 123q-64 -6 -140 4l-24 -127h-49l26 131q-45 6 -99.5 17.5t-91.5 19.5t-50 8q-17 0 -29 -12t-33 -45h-12l63 485h19q27 -115 97.5 -234.5t150.5 -175.5l86 480q-139 54 -211 138t-72 226q0 188 107 317t317 171l31 167h49l-29 -161q69 8 137 2l27 159h47
l-27 -165q34 -6 105.5 -25.5t95.5 -19.5q44 0 74 30l14 -2l-57 -389h-19q-59 252 -225 352l-69 -434q44 -17 72.5 -30t71.5 -36.5t71 -51t55.5 -65t41 -87.5t13.5 -109q0 -194 -138 -342t-347 -190l-23 -129h-47zM821 276q0 40 -12 70t-36.5 51t-45.5 33.5t-55 26.5
l-78 -430q40 6 78 23.5t72.5 46.5t55.5 75.5t21 103.5zM547 23l80 454q-6 2 -127 41l-88 -483q43 -12 135 -12zM571 956q25 -7 131 -38l72 434q-44 14 -135 6zM408 1139q0 -65 28.5 -105.5t89.5 -62.5l62 381q-81 -15 -130.5 -71.5t-49.5 -141.5z" />
    <glyph glyph-name="percent" unicode="%" horiz-adv-x="1603" 
d="M1090 442l-39 -231q-15 -88 -15 -117q0 -44 16.5 -65t53.5 -21q29 0 49.5 15t34.5 48t22.5 67t18.5 91l35 213q12 90 12 115q0 86 -66 86q-57 0 -79.5 -44t-42.5 -157zM795 268q0 183 120 293.5t306 110.5q147 0 224 -71t77 -200q0 -103 -34.5 -184.5t-93.5 -132.5
t-134 -77.5t-160 -26.5q-153 0 -229 79.5t-76 208.5zM432 1227l-39 -232q-14 -82 -14 -116q0 -44 16.5 -65t53.5 -21q23 0 41.5 11t30 28t22 48.5t16.5 59.5t14 74l35 213q13 98 13 114q0 86 -66 86q-57 0 -80.5 -44t-42.5 -156zM137 1053q0 183 120 293t306 110
q148 0 224.5 -70.5t76.5 -199.5q0 -103 -34.5 -185t-93.5 -133t-134 -77.5t-160 -26.5q-152 0 -228.5 80t-76.5 209zM223 0l1102 1434h82l-1100 -1434h-84z" />
    <glyph glyph-name="ampersand" unicode="&#x26;" horiz-adv-x="1927" 
d="M1667 639l-154 -29q-5 -106 -30.5 -196t-80.5 -172t-137 -139.5t-205.5 -91.5t-279.5 -34q-305 0 -471 104t-166 300q0 91 49.5 165.5t136 124.5t199.5 79.5t246 37.5v11q-209 2 -340 76.5t-131 201.5q0 125 82.5 211.5t225 127t335.5 40.5q80 0 149.5 -12t133.5 -40.5
t101.5 -83t37.5 -130.5q0 -63 -18.5 -110t-50 -72.5t-66 -37.5t-72.5 -12q-85 0 -125.5 46.5t-40.5 111.5q0 54 29 103h113q30 59 30 102q0 52 -37.5 78t-97.5 26q-44 0 -85 -18.5t-79 -58.5t-61 -115.5t-23 -177.5q0 -69 12 -143t40 -111q85 45 139 45q25 0 47 -14.5
t22 -43.5q0 -69 -75 -69q-58 0 -146 63q-41 -39 -65.5 -69t-48.5 -79t-34.5 -117.5t-10.5 -162.5q0 -56 16 -106.5t51 -96.5t99 -73t151 -27q88 0 167 30.5t138 84t102 123.5t65 151.5t22 165.5l-312 -39q-43 -6 -55.5 -22.5t-22.5 -67.5l-16 2q6 220 57 324t152 125
q15 2 133.5 16.5t222.5 28.5t142 22q30 6 43.5 24.5t19.5 67.5l16 -2q4 -84 -4 -156.5t-28.5 -135.5t-60 -103.5t-95.5 -50.5z" />
    <glyph glyph-name="quotesingle" unicode="'" horiz-adv-x="462" 
d="M264 1063l15 471q64 41 106 41q98 0 98 -82q0 -51 -43 -139l-155 -291h-21z" />
    <glyph glyph-name="parenleft" unicode="(" horiz-adv-x="831" 
d="M143 467q0 185 29.5 341t85.5 273t131 208.5t170 153t199.5 99t222.5 53.5q0 -5 1 -13t1 -13q-56 -13 -99.5 -42t-75 -76.5t-54.5 -102t-42 -134t-33.5 -157t-32.5 -184.5q-16 -97 -25 -148q-70 -400 -70 -655q0 -190 18 -259.5t90 -111.5l-12 -21q-101 28 -192 99
t-160.5 172.5t-110.5 236.5t-41 281z" />
    <glyph glyph-name="parenright" unicode=")" horiz-adv-x="831" 
d="M719 807q0 -220 -43.5 -400t-118.5 -305.5t-182.5 -215.5t-229 -139t-264.5 -69q0 5 -1 13.5t-1 13.5q137 33 209 175q56 112 104 377q8 47 25 148q16 94 25 144q69 395 69 655q0 190 -18 259.5t-90 111.5l12 20q101 -28 192 -99t160.5 -172t110.5 -236t41 -281z" />
    <glyph glyph-name="asterisk" unicode="*" horiz-adv-x="1107" 
d="M1079 1241l-407 -74l282 -63q93 -17 93 -82q0 -60 -46 -100t-127 -76l-210 317l43 -397q-76 -53 -148 -53q-44 0 -68 16t-26.5 43t5.5 57t26 62l145 278l-326 -311q-116 50 -116 137q0 56 36 83.5t101 41.5l297 62l-385 59q-5 87 28.5 150t104.5 63q33 0 54.5 -13.5
t49.5 -51.5l162 -203l-35 383q76 53 144 53q92 0 92 -68q0 -50 -45 -127l-137 -239l229 201q71 65 133 65q44 0 66 -28t22 -72q0 -60 -37 -113z" />
    <glyph glyph-name="plus" unicode="+" horiz-adv-x="1126" 
d="M1020 621h-440l-74 -433h-72l74 433h-418l14 61h418l70 403h72l-70 -403h440z" />
    <glyph glyph-name="comma" unicode="," horiz-adv-x="655" 
d="M98 -317l-16 30q75 44 127.5 84t79.5 68.5t41.5 58.5t17 46.5t2.5 39.5q0 34 -15.5 60.5t-33.5 29.5l-117 -92q-42 17 -75 60t-33 98q0 83 58 131.5t145 48.5q90 0 139 -62.5t49 -152.5q0 -129 -82.5 -229.5t-286.5 -218.5z" />
    <glyph glyph-name="hyphen" unicode="-" horiz-adv-x="714" 
d="M100 598l6 33h527l-6 -33h-527z" />
    <glyph glyph-name="period" unicode="." horiz-adv-x="647" 
d="M303 348q78 0 124 -37.5t46 -105.5q0 -104 -61 -164.5t-164 -60.5q-86 0 -126 47t-40 110q0 93 66.5 152t154.5 59z" />
    <glyph glyph-name="slash" unicode="/" horiz-adv-x="868" 
d="M-8 -199l907 1827h62l-906 -1827h-63z" />
    <glyph glyph-name="zero" unicode="0" horiz-adv-x="1314" 
d="M68 510q0 96 12.5 190.5t40.5 188.5t69 177.5t101.5 155t134.5 123.5t171.5 81.5t209.5 29.5q504 0 504 -522q0 -129 -26.5 -259t-86 -256t-145.5 -223t-215 -156.5t-283 -59.5q-487 0 -487 530zM801 1430q-96 0 -139.5 -88.5t-90.5 -358.5l-92 -526q-14 -77 -21.5 -130
t-11.5 -108.5t1.5 -91t19 -65t39 -43t63.5 -13.5q93 0 139 88.5t85 327.5l92 561q33 200 35 262q6 154 -78 180q-19 5 -41 5z" />
    <glyph glyph-name="one" unicode="1" horiz-adv-x="1011" 
d="M205 23l213 1237q-66 -11 -163 -12t-138 9l6 19q96 -5 173.5 1.5t130 21t97 40.5t72.5 52.5t59 64.5h240l-248 -1433h205l-8 -23h-864l4 23h221z" />
    <glyph glyph-name="two" unicode="2" horiz-adv-x="1148" 
d="M649 1456q130 0 228 -26.5t154 -72t83 -101t27 -119.5q0 -50 -9 -92t-34 -85t-56 -79.5t-89 -81.5t-117 -84t-157.5 -95t-192.5 -107t-238 -126l-86 -45h538q87 0 148.5 16.5t103.5 54t68 86t49 122.5h25l-113 -621h-967l49 299l222 186q207 174 299 336t92 348
q0 146 -36 203.5t-103 57.5q-52 0 -74 -30.5t-18 -70t22 -82.5h88q25 -112 -26 -194t-175 -82q-91 0 -139.5 58t-48.5 134q0 135 127.5 214t355.5 79z" />
    <glyph glyph-name="three" unicode="3" horiz-adv-x="1214" 
d="M1159 1194q0 -55 -22.5 -103t-65.5 -85.5t-95 -68t-122.5 -56t-135.5 -44t-145 -36.5q0 -2 -1 -5t-1 -5q55 7 116 3t120.5 -11t114 -30t96 -55.5t66 -86t24.5 -122.5q0 -111 -44.5 -200t-116.5 -145.5t-169 -94.5t-196 -53.5t-203 -15.5q-107 0 -185 23t-119.5 64t-60 87
t-18.5 100q0 96 66 163.5t180 67.5q58 0 98 -25.5t54.5 -64.5t10.5 -86t-28 -90h-90q-22 -19 -35.5 -54t-13.5 -70t26 -61t76 -26q87 0 157.5 64.5t106.5 187.5q33 109 33 248q0 136 -42.5 188t-129.5 52q-75 0 -152 -33l-8 26q211 69 305.5 174t94.5 285q0 110 -42.5 162.5
t-107.5 52.5q-43 0 -72 -18t-41 -47.5t-11.5 -65.5t13.5 -74h121q25 -106 -36 -184t-179 -78q-93 0 -138.5 51.5t-45.5 118.5q0 155 147.5 246.5t427.5 91.5q222 0 320 -67.5t98 -194.5z" />
    <glyph glyph-name="four" unicode="4" horiz-adv-x="1253" 
d="M322 584l-240 -187h502l67 389l449 74l-84 -463h174l-4 -30h-176l-58 -342h203l-8 -25h-879l6 25h248l58 342h-551l2 22q155 129 271.5 255t179.5 220t101.5 184t49 145t10.5 105q0 73 -25 125l56 50q88 0 157 -18.5t115.5 -65t46.5 -115.5q0 -43 -11 -79.5t-44.5 -83
t-76 -90t-126.5 -114t-174 -140.5t-239 -183z" />
    <glyph glyph-name="five" unicode="5" horiz-adv-x="1146" 
d="M463 838q-37 0 -112 -20t-130 -56l-22 20l200 652l31 14q190 -78 531 -78q112 0 162.5 36t74.5 112q3 1 8 0t8 0q-12 -232 -150 -353t-370 -121q-62 0 -187.5 16t-168.5 36l-98 -293q126 58 237 90.5t236 32.5q170 0 262 -95t92 -243q0 -191 -96.5 -330.5t-260.5 -208.5
t-374 -69q-99 0 -168.5 21.5t-104.5 59t-50 77.5t-15 87q0 46 13 89t41 82.5t79.5 63t120.5 23.5q79 0 117.5 -39t38.5 -100q0 -72 -31 -129h-94q-24 -24 -39 -57.5t-17 -66.5t22.5 -56t74.5 -23q52 0 95.5 24t72 62t50.5 91t34 105.5t19.5 111.5t10 102t2.5 84
q0 246 -145 246z" />
    <glyph glyph-name="six" unicode="6" horiz-adv-x="1275" 
d="M948 1432q-129 0 -215 -151t-180 -527q63 78 133 118.5t188 40.5q69 0 124 -17.5t100.5 -55.5t70.5 -105.5t25 -161.5q0 -283 -170.5 -438t-456.5 -155q-103 0 -185 27t-148 85t-102 160t-36 242q0 94 15 188.5t48 189.5t80.5 180.5t117 159.5t153 128t193 85t233.5 31
q319 0 319 -252q0 -43 -12 -82.5t-37.5 -75.5t-72.5 -57.5t-109 -21.5q-55 0 -95.5 25.5t-57 64.5t-10 87t39.5 91h90q18 15 31.5 47t16.5 66t-19.5 59t-71.5 25zM547 707q-61 -370 -72 -490q-4 -60 -1 -107.5t25.5 -76.5t65.5 -29q33 0 58.5 13.5t50.5 49t46 102t38 165.5
q47 272 47 371q0 84 -18 113.5t-54 29.5q-80 0 -186 -141z" />
    <glyph glyph-name="seven" unicode="7" horiz-adv-x="1134" 
d="M317 702l11 29h266q2 2 70.5 71.5t147.5 148t159 155.5h-422q-49 0 -80 -1t-66 -4.5t-56.5 -9.5t-46 -17.5t-40 -28t-33 -40.5t-31.5 -54.5t-28 -71.5l-25 -2l144 581l16 10q54 -34 240 -34h733l2 -29q-110 -107 -298.5 -336t-238.5 -338h246l-6 -29h-248
q-18 -35 -39.5 -90.5t-46 -156.5t-24.5 -187q0 -170 75 -260l-6 -20q-88 -14 -154 -15.5t-113.5 14.5t-78 37t-48.5 52.5t-25 59.5t-7 59q0 62 18 118.5t59 116.5t84.5 111.5t117.5 132.5q17 18 26 28h-254z" />
    <glyph glyph-name="eight" unicode="8" horiz-adv-x="1218" 
d="M186 1059q0 187 151 292t437 105q219 0 342 -79t123 -230q0 -164 -135.5 -269t-343.5 -114l-2 -8q108 -14 188 -46t125.5 -76t66.5 -94t21 -108q0 -86 -33.5 -160t-92.5 -127t-139 -90.5t-173.5 -56t-196.5 -18.5q-231 0 -365 100t-134 276q0 169 135 282.5t389 123.5
l2 6q-170 6 -267.5 86.5t-97.5 204.5zM641 743q-57 0 -88 -42.5t-47 -131.5q-30 -173 -49 -391q-16 -170 94 -170q106 0 137 172q35 201 47 387q6 87 -14.5 131.5t-79.5 44.5zM760 1438q-97 0 -123 -183q-3 -21 -16 -102.5t-20 -137t-11 -108.5q-4 -78 13.5 -111.5
t60.5 -33.5q48 0 75 42t43 130q30 166 43 354q11 150 -65 150z" />
    <glyph glyph-name="nine" unicode="9" horiz-adv-x="1271" 
d="M375 8q130 0 215.5 150t179.5 524q-42 -51 -76.5 -81.5t-98.5 -54.5t-146 -24q-68 0 -124 18.5t-101 58t-70 108.5t-25 163q0 282 170 434t457 152q103 0 185 -27t148 -85t102 -160t36 -242q0 -94 -15 -188.5t-48 -189.5t-80.5 -180.5t-117 -159.5t-153 -128t-193 -85
t-233.5 -31q-328 0 -328 239q0 43 12.5 82.5t38 75.5t72.5 58t109 22q55 0 95.5 -26t57 -64.5t10 -87t-39.5 -91.5h-90q-18 -15 -30 -44.5t-13.5 -60t22 -53t72.5 -22.5zM776 729q64 385 74 500q10 104 -9 153.5t-83 49.5q-33 0 -58.5 -13.5t-50.5 -49t-46 -102t-38 -165.5
q-47 -272 -47 -365q0 -85 20.5 -116t59.5 -31q73 0 178 139z" />
    <glyph glyph-name="colon" unicode=":" horiz-adv-x="647" 
d="M301 348q78 0 124 -37.5t46 -105.5q0 -104 -61 -164.5t-164 -60.5q-86 0 -126 47t-40 110q0 93 66.5 152t154.5 59zM426 1026q78 0 124 -37.5t46 -105.5q0 -104 -61 -165t-164 -61q-86 0 -126 47.5t-40 110.5q0 93 66.5 152t154.5 59z" />
    <glyph glyph-name="semicolon" unicode=";" horiz-adv-x="655" 
d="M92 -317l-16 30q75 44 127.5 84t79.5 68.5t41.5 58.5t17 46.5t2.5 39.5q0 34 -15.5 60.5t-33.5 29.5l-117 -92q-42 17 -75 60t-33 98q0 83 57.5 131.5t144.5 48.5q90 0 139.5 -62.5t49.5 -152.5q0 -129 -82.5 -229.5t-286.5 -218.5zM408 1026q78 0 124 -37.5t46 -105.5
q0 -104 -61.5 -165t-164.5 -61q-86 0 -126 47.5t-40 110.5q0 93 67 152t155 59z" />
    <glyph glyph-name="less" unicode="&#x3c;" horiz-adv-x="1126" 
d="M918 176l-857 395l11 58l993 389l-10 -74l-897 -348l774 -354z" />
    <glyph glyph-name="equal" unicode="=" horiz-adv-x="1126" 
d="M993 393h-930l15 64h930zM133 776h930l-12 -63h-930z" />
    <glyph glyph-name="greater" unicode="&#x3e;" horiz-adv-x="1126" 
d="M1055 571l-996 -395l15 72l891 358l-772 346l14 66l858 -389z" />
    <glyph glyph-name="question" unicode="?" horiz-adv-x="1161" 
d="M639 1425q-104 0 -160.5 -54.5t-29.5 -147.5h94q8 -101 -37.5 -166.5t-143.5 -65.5q-91 0 -132.5 48.5t-41.5 115.5t35.5 120.5t90.5 86.5t126.5 55t138.5 30.5t132 8.5q120 0 210.5 -29t142 -78.5t76.5 -108.5t25 -126q0 -87 -27 -153.5t-70.5 -105t-99.5 -68.5
t-115 -45.5t-115 -34t-99.5 -36.5t-70.5 -51t-27 -79q0 -16 5.5 -33.5t19.5 -39t45 -35t75 -13.5q24 0 48 4.5t56.5 20t59 41t51.5 73t39 111.5l23 -4q-24 -138 -111 -217.5t-229 -79.5q-178 0 -276.5 83.5t-98.5 215.5q0 64 20 114t53.5 82.5t77 58t91.5 44.5t96.5 37
t92 40.5t77 50.5t53.5 71t20 98q0 77 -48.5 119t-141.5 42zM563 303q64 0 100.5 -32.5t36.5 -94.5q0 -80 -51.5 -138t-142.5 -58q-70 0 -105.5 41.5t-35.5 97.5q0 76 55 130t143 54z" />
    <glyph glyph-name="at" unicode="@" horiz-adv-x="1818" 
d="M899 807q72 0 114.5 -18.5t76.5 -59.5l32 53h250l-112 -407q-39 -157 -39 -230q0 -47 21.5 -73.5t76.5 -26.5q90 0 165 79t113.5 190.5t38.5 220.5q0 604 -616 604q-108 0 -214.5 -30.5t-200 -85.5t-174 -136t-138 -177.5t-90.5 -214.5t-33 -243q0 -130 42 -233
t111 -168.5t164 -108.5t194 -60.5t208 -17.5q146 0 279 48.5t227 123.5l24 -29q-98 -85 -242 -133.5t-286 -48.5q-119 0 -227 20.5t-208.5 68t-173 118.5t-116 180.5t-43.5 245.5q0 184 70.5 352t191 291.5t292 196.5t363.5 73q293 0 462 -158t169 -452q0 -36 -3.5 -76
t-16.5 -98t-33.5 -111t-57.5 -107t-86 -93.5t-123 -64.5t-163 -25q-121 0 -177 35.5t-79 99.5q-87 -131 -213 -131q-129 0 -201 77t-72 189q0 146 54 270.5t159 202.5t240 78zM977 297l100 408q-14 26 -42.5 43.5t-63.5 17.5q-67 0 -122.5 -65.5t-87.5 -162t-49.5 -193
t-17.5 -171.5q0 -135 84 -135q54 0 112 68.5t87 189.5z" />
    <glyph glyph-name="A" unicode="A" horiz-adv-x="1390" 
d="M745 25l-90 462h-376l-228 -462h148l-4 -25h-269l4 25h84l705 1421h201l305 -1421h78l-5 -25h-692l4 25h135zM555 1047l-264 -529h358z" />
    <glyph glyph-name="B" unicode="B" horiz-adv-x="1345" 
d="M199 1434h589q275 0 410 -71t135 -243q0 -138 -115.5 -239.5t-353.5 -126.5l-2 -4q424 -21 424 -279q0 -108 -43.5 -192t-114 -135.5t-169.5 -84.5t-201 -46t-219 -13h-568l11 25h100l229 1382h-118zM625 735l-121 -710h31q94 0 155 57.5t94 181.5q33 121 33 277
q0 100 -40 147t-134 47h-18zM735 1407l-104 -649h16q84 0 135 55t80 182q29 138 29 246q0 92 -30.5 129t-98.5 37h-27z" />
    <glyph glyph-name="C" unicode="C" horiz-adv-x="1280" 
d="M936 1432q-129 0 -203 -111.5t-137 -357.5q-76 -298 -76 -615q0 -155 60 -238t176 -83q54 0 114 24.5t120 72t112.5 130t81.5 186.5l24 -6q-128 -454 -571 -454q-271 0 -411 133.5t-140 398.5q0 144 30.5 279t96.5 256.5t160.5 212t232 143.5t301.5 53q75 0 152.5 -15
t130 -30.5t65.5 -15.5q21 0 33.5 10t28.5 33h16l-57 -453h-14q-28 86 -59.5 158t-73 141t-91.5 108.5t-102 39.5z" />
    <glyph glyph-name="D" unicode="D" horiz-adv-x="1437" 
d="M1415 883q0 -277 -119 -477.5t-334.5 -303t-506.5 -102.5h-484l4 25h103l233 1382h-114l6 27h536q160 0 280.5 -29t211 -92.5t137.5 -171t47 -258.5zM500 25h12q167 0 263.5 125t148.5 378q63 299 63 572q0 88 -20.5 151t-57.5 95.5t-77 46.5t-89 14h-12z" />
    <glyph glyph-name="E" unicode="E" horiz-adv-x="1245" 
d="M197 1434h1081l-51 -408h-15q-49 205 -160.5 293t-289.5 88h-27l-112 -662h30q94 0 187.5 79t142.5 200h12l-100 -606h-12q-12 152 -81 225.5t-179 73.5h-7l-116 -692h18q380 0 623 424h18l-90 -449h-1100l2 25h107l231 1382h-116z" />
    <glyph glyph-name="F" unicode="F" horiz-adv-x="1189" 
d="M197 1434h1081l-51 -428h-15q-82 401 -458 401h-23l-108 -698h22q99 0 191 78.5t141 209.5h16l-96 -606h-16q-4 79 -29 138t-63 91t-78 47t-82 15h-13l-116 -657h151l-6 -25h-676l2 25h107l227 1382h-115z" />
    <glyph glyph-name="G" unicode="G" horiz-adv-x="1400" 
d="M934 1434q-55 0 -101 -24.5t-81 -67t-65.5 -108t-53.5 -138.5t-45 -168q-66 -287 -66 -518q0 -198 67 -302t179 -104q4 0 15 1t18 1l100 623h-151l4 28h651l-6 -28h-101l-102 -561q-264 -88 -520 -88q-313 0 -452.5 140.5t-139.5 434.5q0 87 14.5 175.5t46.5 177.5
t78.5 169t115 150t151.5 120.5t192 79.5t233 29q83 0 160.5 -15t125 -30.5t56.5 -15.5q37 0 66 43h14l-57 -453h-14q-20 63 -43 119.5t-55.5 119t-67 107t-78 74t-88.5 29.5z" />
    <glyph glyph-name="H" unicode="H" horiz-adv-x="1497" 
d="M197 1434h643l-4 -27h-95l-114 -653h329l111 653h-104l6 27h622l-4 -27h-98l-234 -1382h121l-4 -25h-645l4 25h100l121 698h-331l-121 -698h104l-4 -25h-631l2 25h107l233 1382h-118z" />
    <glyph glyph-name="I" unicode="I" horiz-adv-x="741" 
d="M188 1434h662l-4 -27h-117l-225 -1382h127l-8 -25h-656l6 25h109l227 1382h-125z" />
    <glyph glyph-name="J" unicode="J" horiz-adv-x="999" 
d="M465 1434h657l-6 -27h-104l-156 -930q-44 -259 -179 -378t-382 -119q-162 0 -249 67.5t-87 167.5q0 104 56.5 153.5t131.5 49.5q78 0 122 -38.5t44 -100.5q0 -70 -51 -136h-96q-16 -32 -16 -55q0 -37 28.5 -59.5t69.5 -22.5q70 0 102 66.5t66 275.5l176 1059h-133z" />
    <glyph glyph-name="K" unicode="K" horiz-adv-x="1460" 
d="M199 1434h663l-6 -27h-123l-108 -657l73 14l643 643h-161l6 27h330l-9 -27h-127l-340 -344l254 -1038h119l-2 -25h-682l4 25h119l-156 712l-75 -14l-115 -698h112l-4 -25h-649l8 25h111l225 1382h-121z" />
    <glyph glyph-name="L" unicode="L" horiz-adv-x="1226" 
d="M201 1434h706l-6 -27h-166l-237 -1382h10q87 0 175.5 36.5t156 89t131 119.5t101 117t63.5 94h20l-94 -481h-1098l4 25h107l237 1382h-118z" />
    <glyph glyph-name="M" unicode="M" horiz-adv-x="1673" 
d="M1212 1434h557l-2 -27h-102l-231 -1382h120l-2 -25h-665l4 25h119l229 1376h-8l-586 -1401h-188l-105 1399h-8l-238 -1374h132l-5 -25h-251l4 25h88l243 1382h-90l2 27h525l65 -920h12z" />
    <glyph glyph-name="N" unicode="N" horiz-adv-x="1302" 
d="M1300 1407l-233 -1407h-352l-373 1389h-6l-225 -1364h165l-4 -25h-340l7 25h139l227 1382h-158l7 27h596l317 -1155h10l191 1128h-158l6 27h293l-8 -27h-101z" />
    <glyph glyph-name="O" unicode="O" horiz-adv-x="1429" 
d="M80 514q0 152 30.5 290t94.5 257.5t157 207t226 137.5t293 50q526 0 526 -553q0 -144 -29 -276.5t-92.5 -251t-155 -206t-225 -138.5t-293.5 -51q-271 0 -401.5 143.5t-130.5 390.5zM889 422l92 534q31 186 31 269q0 63 -12 107t-47 73t-93 29q-38 0 -67.5 -6.5
t-53.5 -25.5t-41.5 -35.5t-33 -56t-25 -66.5t-21.5 -87t-18.5 -97.5t-19.5 -117.5l-80 -500q-23 -157 -23 -219q0 -105 34.5 -161t115.5 -56q49 0 84.5 15t62 43.5t47 81t36 116t32.5 160.5z" />
    <glyph glyph-name="P" unicode="P" horiz-adv-x="1267" 
d="M203 1434h594q252 0 385 -80.5t133 -243.5q0 -117 -37.5 -208t-101 -149.5t-154.5 -96t-190.5 -53t-215.5 -15.5h-18l-98 -563h237l-4 -25h-760l7 25h98l229 1382h-110zM731 1407l-129 -793h14q91 0 143.5 75.5t80.5 205.5q41 185 41 340q0 96 -33.5 134t-102.5 38h-14z
" />
    <glyph glyph-name="Q" unicode="Q" horiz-adv-x="1429" 
d="M510 2l197 -12v-21q158 -6 232 -39t128 -135q7 -14 27.5 -56t35 -66.5t36 -56t45 -47t49.5 -15.5q65 0 126 110l27 -14q-42 -82 -107 -127t-180 -45q-78 0 -138.5 18t-103.5 54.5t-71 74.5t-57 94q-9 18 -27.5 56.5t-29 59t-32 51t-41.5 47.5t-52 33t-70 22zM80 514
q0 152 30.5 290t94.5 257.5t157 207t226 137.5t293 50q526 0 526 -553q0 -144 -29 -276.5t-92.5 -251t-155 -206t-225 -138.5t-293.5 -51q-271 0 -401.5 143.5t-130.5 390.5zM889 422l92 534q31 186 31 269q0 63 -12 107t-47 73t-93 29q-38 0 -67.5 -6.5t-53.5 -25.5
t-41.5 -35.5t-33 -56t-25 -66.5t-21.5 -87t-18.5 -97.5t-19.5 -117.5l-80 -500q-23 -157 -23 -219q0 -105 34.5 -161t115.5 -56q49 0 84.5 15t62 43.5t47 81t36 116t32.5 160.5z" />
    <glyph glyph-name="R" unicode="R" horiz-adv-x="1378" 
d="M762 756l-2 -8q81 -2 140 -12.5t110.5 -35t84 -65t51.5 -103.5t21 -149l4 -199q2 -69 16.5 -100t53.5 -31q29 0 50.5 27t41.5 82l25 -8q-25 -71 -48 -100q-62 -79 -208 -79q-36 0 -65.5 2t-68.5 10.5t-69.5 22t-62 39t-52 60.5t-32.5 87t-11 117l4 250q1 100 -25 138
t-75 38h-18l-123 -714h108l-4 -25h-631l5 25h100l229 1382h-114l4 27h489q83 0 153 -4.5t146.5 -15.5t134.5 -32.5t106 -53t73.5 -79.5t25.5 -110q0 -94 -44.5 -165.5t-125 -115.5t-178.5 -68.5t-219 -33.5zM731 1407l-102 -643h10q79 0 127 46.5t74 147.5q43 157 43 295
q0 154 -146 154h-6z" />
    <glyph glyph-name="S" unicode="S" horiz-adv-x="1136" 
d="M524 4q129 0 200 72.5t71 195.5q0 26 -5 49t-11 41t-21 35.5t-25.5 29t-35 26t-38.5 22.5t-47.5 21.5t-50.5 20t-58 22t-61 22.5q-24 10 -42 18t-49.5 26.5t-55 38.5t-51 53t-45 70t-29.5 89t-12 111q0 96 30.5 178t82.5 138t120 96t142.5 58.5t150.5 18.5
q87 0 167 -21.5t128 -43t59 -21.5q37 0 68 68h16l-67 -447h-15q-21 67 -41 119.5t-53.5 116.5t-69.5 106.5t-87 71.5t-109 29q-111 0 -171 -64t-60 -164q0 -33 7.5 -61.5t16.5 -48.5t29 -40t32.5 -31t41 -25.5t40 -20t41.5 -18.5l52.5 -21t57 -23t55.5 -25.5t57 -30.5
t52 -35t49.5 -43t40 -51t33 -61.5t19.5 -71.5t8 -85q0 -124 -46 -226.5t-123.5 -168.5t-177 -102.5t-208.5 -36.5q-92 0 -187 22.5t-158.5 45t-78.5 22.5q-20 0 -33.5 -18t-35.5 -72h-23l80 497h16q9 -44 23.5 -91.5t38.5 -103t58.5 -103.5t76.5 -88t99.5 -63.5t121.5 -23.5
z" />
    <glyph glyph-name="T" unicode="T" horiz-adv-x="1427" 
d="M1524 1434l-84 -521h-19q-15 97 -42.5 180.5t-69 154t-103 113t-135.5 46.5l-233 -1382h192l-4 -25h-797l7 25h178l233 1382q-154 -26 -293 -160.5t-217 -333.5h-20l88 521h1319z" />
    <glyph glyph-name="U" unicode="U" horiz-adv-x="1329" 
d="M762 31q65 0 122.5 21.5t110 68t91.5 128.5t57 193l160 965h-129v27h276l-4 -27h-105l-159 -944q-41 -247 -162.5 -365t-362.5 -118q-116 0 -210.5 22.5t-166.5 68t-111.5 121.5t-39.5 177q0 82 18 190l150 848h-121l2 27h672l-2 -27h-131l-164 -985q-14 -109 -14 -143
q0 -48 4.5 -82.5t18.5 -67.5t38 -53.5t64.5 -32.5t97.5 -12z" />
    <glyph glyph-name="V" unicode="V" horiz-adv-x="1226" 
d="M811 399l500 1008h-154l4 27h285l-4 -27h-88l-709 -1423h-215l-268 1423h-76l4 27h686l-4 -27h-131l160 -1008h10z" />
    <glyph glyph-name="W" unicode="W" horiz-adv-x="1890" 
d="M809 424l207 537l-43 446h-107l4 27h635l-4 -27h-102l112 -973h7l403 973h-199l4 27h375l-4 -27h-133l-588 -1423h-225l-123 901l-350 -901h-234l-268 1423h-78l4 27h662l-4 -27h-129l170 -983h8z" />
    <glyph glyph-name="X" unicode="X" horiz-adv-x="1366" 
d="M1341 0h-761l4 25h170l-232 604l-434 -604h162l-2 -25h-336l4 25h121l467 643l-297 739h-98l4 27h714l-4 -27h-141l207 -547l401 547h-133l4 27h324l-4 -27h-152l-424 -586l328 -796h113z" />
    <glyph glyph-name="Y" unicode="Y" horiz-adv-x="1216" 
d="M842 711l454 696h-143l6 27h281l-10 -27h-89l-489 -756l-111 -626h166l-2 -25h-749l4 25h164l100 622l-223 760h-117l6 27h696l-10 -27h-131l191 -696h6z" />
    <glyph glyph-name="Z" unicode="Z" horiz-adv-x="1265" 
d="M1307 1434l-2 -27l-834 -1382h14q88 0 193.5 43.5t198.5 112t171 154.5t117 169h23l-101 -504h-1097l4 23l870 1384h-43q-210 0 -366 -102t-287 -328h-21l101 457h1059z" />
    <glyph glyph-name="bracketleft" unicode="[" horiz-adv-x="829" 
d="M707 -299l-7 -27h-649l340 1925h653l-2 -26h-112q-76 0 -100.5 -18.5t-36.5 -88.5l-297 -1656q-6 -33 -6 -51.5t3 -31.5t17.5 -18t31 -6.5t50.5 -1.5h115z" />
    <glyph glyph-name="backslash" unicode="\" horiz-adv-x="786" 
d="M311 1628l299 -1827h-61l-297 1827h59z" />
    <glyph glyph-name="bracketright" unicode="]" horiz-adv-x="829" 
d="M178 1573l6 26h650l-340 -1925h-654l2 27h113q76 0 100.5 18t36.5 88l297 1657q6 33 6 51.5t-3 31.5t-17.5 18t-31 6.5t-50.5 1.5h-115z" />
    <glyph glyph-name="asciicircum" unicode="^" horiz-adv-x="1294" 
d="M1133 614l-76 -30l-389 688l-359 -690l-78 32l387 746h101z" />
    <glyph glyph-name="underscore" unicode="_" horiz-adv-x="1036" 
d="M1030 -217h-1024v76h1024v-76z" />
    <glyph glyph-name="grave" unicode="`" 
d="M653 1397l99 -375l-15 -10l-280 211q-54 36 -54 106q0 43 31.5 71.5t70.5 31.5t73 -9z" />
    <glyph glyph-name="a" unicode="a" horiz-adv-x="1196" 
d="M1169 180l23 -14q-58 -99 -122.5 -142.5t-151.5 -43.5q-154 0 -227 73t-54 203q-2 0 -5 1t-5 1q-2 -5 -5 -15q-12 -38 -19 -57t-21 -52t-26.5 -50.5t-33 -40.5t-43 -34.5t-54.5 -20t-69 -8.5q-331 0 -331 342q0 311 128 492t363 181q82 0 123 -30.5t57 -90.5l21 93
q57 -7 213.5 -1t216.5 19q-10 -50 -48.5 -233.5t-63 -310t-44.5 -255.5q-1 -5 -3 -19t-3 -20t-2 -19t-0.5 -19.5t2 -16.5t5 -15.5t9 -11t14 -8t19.5 -2.5q28 0 59.5 25.5t77.5 99.5zM467 55q53 0 101.5 116.5t76 280.5t27.5 312q0 103 -17.5 143.5t-54.5 40.5q-36 0 -53 -41
t-39 -172l-78 -463q-23 -117 -16.5 -167t53.5 -50z" />
    <glyph glyph-name="b" unicode="b" horiz-adv-x="1120" 
d="M59 565l177 944h-177l4 27h621l-176 -727l4 -2q21 41 41 69.5t53 58t80 45t107 15.5q151 0 224 -94t73 -260q0 -108 -21 -204t-67.5 -180.5t-115.5 -145.5t-171 -96t-228 -35q-233 0 -339.5 112t-106.5 311q0 67 18 162zM647 905q-51 0 -94.5 -89t-68 -214t-37.5 -239
t-13 -183q0 -89 16 -130.5t54 -41.5q39 0 61.5 55t50.5 216l74 446q10 65 9.5 105t-13 57.5t-39.5 17.5z" />
    <glyph glyph-name="c" unicode="c" horiz-adv-x="968" 
d="M868 350l29 -6q-13 -58 -30 -104.5t-50.5 -97t-78 -84.5t-115.5 -56t-160 -22q-210 0 -319 104.5t-109 298.5q0 283 167 447.5t455 164.5q164 0 248 -64.5t84 -162.5q0 -87 -53 -150t-154 -63q-86 0 -120.5 39.5t-34.5 95.5q0 46 26 111h97q24 50 24 94t-23 60t-53 16
q-86 0 -134.5 -99t-80.5 -294l-30 -183q-10 -57 -14 -101.5t0 -94t20 -82.5t51.5 -54.5t89.5 -21.5q32 0 67.5 15t74 47.5t72.5 96t54 150.5z" />
    <glyph glyph-name="d" unicode="d" horiz-adv-x="1196" 
d="M686 1536h561q-105 -538 -248 -1317q-17 -91 -12 -122q7 -44 49 -44q61 0 138 129l22 -12q-108 -190 -281 -190q-155 0 -225.5 72t-50.5 204q-2 0 -5 1t-5 1q-18 -56 -32 -91.5t-36.5 -74.5t-49 -61t-66.5 -36.5t-91 -14.5q-92 0 -157 25t-101.5 73t-52.5 109.5
t-16 142.5q0 318 131.5 491.5t353.5 173.5q100 0 142 -42t53 -128l100 684h-125zM461 55q60 0 110 120t75.5 281.5t25.5 307.5q0 102 -19 144t-55 42q-34 0 -51.5 -47t-38.5 -168l-78 -463q-1 -8 -5.5 -32.5t-6.5 -40.5t-4.5 -40.5t-0.5 -40t6 -31.5t15 -24t27 -8z" />
    <glyph glyph-name="e" unicode="e" horiz-adv-x="972" 
d="M659 764l13 80q8 71 -2 100t-43 29q-20 0 -36.5 -9.5t-30 -31t-24 -44.5t-21 -63t-18 -73.5t-18.5 -87.5l-30 -156q80 -2 134.5 59.5t75.5 196.5zM639 995q344 0 344 -213q0 -70 -33 -124.5t-83.5 -86.5t-119.5 -52.5t-131.5 -28t-128.5 -7.5h-43l-14 -80
q-14 -80 -14 -149q0 -111 44.5 -158t135.5 -47q38 0 76 15.5t76.5 48.5t73.5 93t59 142l28 -8q-52 -189 -166.5 -274.5t-302.5 -85.5q-200 0 -314 100t-114 280q0 159 46.5 281.5t131.5 199t198 115.5t251 39z" />
    <glyph glyph-name="f" unicode="f" horiz-adv-x="708" 
d="M29 -20l166 970h-148l2 25h148l12 67q48 258 206.5 399.5t411.5 141.5q67 0 127.5 -14.5t112 -43.5t82.5 -80t31 -116q0 -100 -62 -161.5t-151 -61.5q-113 0 -161 71t-11 189l125 14q34 95 17 138t-69 43q-34 0 -57.5 -14t-43 -42.5t-36 -87t-31 -131.5t-34.5 -192
l-21 -119h236l-7 -25h-233l-172 -923q-49 -263 -198.5 -401t-415.5 -138q-61 0 -119.5 14t-108.5 41t-81 73t-31 105q0 86 56 145.5t150 59.5q73 0 117.5 -38t48.5 -95t-22 -123l-101 -14q-38 -52 -17.5 -95.5t79.5 -43.5q81 0 117 89t86 374z" />
    <glyph glyph-name="g" unicode="g" horiz-adv-x="1161" 
d="M315 -297l-122 -39q-8 -37 -6 -70t31 -56t81 -23q39 0 69.5 13.5t58 46.5t50.5 80.5t48 125.5t48 169.5t52 223.5l-11 6q-44 -82 -68 -111q-75 -89 -208 -89q-155 0 -233 84t-78 260q0 100 13.5 190.5t48 180t87.5 154.5t137.5 105.5t192.5 40.5q56 0 93.5 -12t56.5 -36
t27 -44.5t15 -52.5l25 117q71 -6 218 -0.5t206 18.5q-6 -32 -26.5 -128t-30.5 -150t-34.5 -201t-54.5 -354q-49 -328 -229.5 -496t-472.5 -168q-63 0 -124.5 15.5t-114 45.5t-85 79.5t-32.5 111.5q0 92 56 146.5t136 54.5q92 0 146 -58t34 -180zM465 55q58 0 107 112
t75.5 274t26.5 323q0 184 -74 184q-36 0 -53 -41t-39 -172l-78 -463q-22 -126 -15.5 -171.5t50.5 -45.5z" />
    <glyph glyph-name="h" unicode="h" horiz-adv-x="1261" 
d="M934 -18q-63 0 -114 13t-93 41t-65 77.5t-23 117.5q0 59 28 172t59 212t32 108q5 16 14 46q11 38 15.5 56t7 40.5t-6.5 31t-28 8.5q-27 0 -70 -47t-94 -158q-50 -112 -77.5 -261.5t-51.5 -428.5q-54 2 -236 -7t-221 -17l86 381l168 1142h-141l6 27h582l-181 -895l7 -4
q22 54 36.5 85.5t37.5 74.5t43 68t49.5 53t62 42.5t75.5 24.5t93 10q123 0 184.5 -58.5t61.5 -162.5q0 -62 -35 -199l-78 -303q-31 -131 -31 -166q0 -45 41 -45q31 0 64 29t76 103l26 -13q-65 -109 -130.5 -153.5t-178.5 -44.5z" />
    <glyph glyph-name="i" unicode="i" horiz-adv-x="679" 
d="M428 1081q-58 0 -100 15t-64 39.5t-31.5 51t-9.5 56.5q0 108 84.5 172t204.5 64q94 0 147.5 -43t53.5 -121q0 -108 -84 -171t-201 -63zM641 190l23 -14q-44 -69 -79 -107t-92 -62.5t-135 -24.5q-130 0 -209 59t-79 186q0 67 26 195l103 528h-162l2 25h592
q-120 -584 -144 -711q-20 -110 -20 -155q0 -23 12 -34.5t29 -11.5q53 0 133 127z" />
    <glyph glyph-name="j" unicode="j" horiz-adv-x="686" 
d="M-135 -334l-98 -14q-19 -23 -22.5 -54.5t19 -57t70.5 -25.5q85 0 123 86.5t80 343.5l160 1005h-158l8 25h592l-164 -979q-84 -508 -610 -508q-91 0 -166 23t-126.5 78.5t-51.5 136.5q0 87 59 141.5t148 54.5q104 0 145.5 -75t-8.5 -181zM430 1092q-110 0 -157.5 48
t-47.5 113q0 108 84.5 172t204.5 64q94 0 147.5 -43t53.5 -121q0 -107 -84 -170t-201 -63z" />
    <glyph glyph-name="k" unicode="k" horiz-adv-x="1179" 
d="M1169 176l19 -14q-65 -100 -135 -140t-174 -40q-30 0 -56 2t-57 7t-54.5 14t-48.5 23t-39 33.5t-26.5 46.5t-10.5 61.5t9 78.5l27 117q14 79 2 101.5t-52 22.5q-14 1 -49 -8l-75 -473q-71 0 -235.5 -8t-205.5 -18l94 436l166 1091h-135l4 27h570l-177 -1026l127 51
q119 43 158.5 84.5t34.5 97.5l-88 21q-20 97 26 164t154 67q50 0 85.5 -15t54 -41t26.5 -53.5t8 -58.5q0 -77 -60 -134t-163 -89l-242 -74v-6q83 13 176 13q90 0 135.5 -31t51 -86t-7.5 -131l-25 -125q-12 -58 -5 -85.5t38 -27.5q36 0 69 26t86 99z" />
    <glyph glyph-name="l" unicode="l" horiz-adv-x="681" 
d="M647 188l23 -16q-70 -102 -133.5 -146t-163.5 -44q-149 0 -224 68.5t-75 199.5q0 58 12 132.5t57 299.5l164 827h-139l4 27h551l-238 -1264q-11 -55 -20 -106q-12 -51 -4.5 -81t41.5 -30q56 0 145 133z" />
    <glyph glyph-name="m" unicode="m" horiz-adv-x="1808" 
d="M575 -14q42 158 101 389.5t88 343.5q34 130 31 158t-31 28q-12 0 -24 -5.5t-32 -22t-46 -58t-56 -104.5q-56 -120 -87 -279.5t-52 -425.5q-54 2 -233.5 -7t-219.5 -17l86 381l95 583h-140l2 25h555l-75 -328l8 -4q39 100 72 161t79.5 107t106.5 65t145 19q201 0 201 -180
q0 -48 -35 -143l8 -2q16 36 24.5 54t30.5 58t41 63.5t52 55.5t67 50t82 31t101 13q99 0 154.5 -51t58.5 -135q0 -78 -27 -197l-94 -374q-25 -95 -25 -132q0 -28 14 -36.5t39 -8.5q24 0 58.5 33t70.5 99l23 -13q-60 -109 -127 -153.5t-182 -44.5q-132 0 -211.5 59.5
t-79.5 189.5q0 59 33 184t57.5 198.5t36.5 105.5q18 49 27.5 77.5t14 55.5t-3.5 39t-28 12q-55 0 -133 -141q-129 -235 -186 -756q-54 2 -228 -5t-207 -15z" />
    <glyph glyph-name="n" unicode="n" horiz-adv-x="1257" 
d="M936 -18q-84 0 -148 22.5t-105.5 79t-41.5 141.5q0 36 10.5 93t27.5 122t32 117.5t32 107t19 62.5q10 35 16 57t11 44.5t5.5 35t-2 23t-9.5 14.5t-19 4q-36 0 -65.5 -34.5t-71.5 -114.5q-122 -230 -158 -746q-57 2 -236.5 -5t-218.5 -15l90 385l89 575h-146l2 25h565
l-77 -330l8 -2q21 50 32.5 76t31.5 66.5t35 61.5t38 49.5t46 43t53.5 29t67 20.5t79.5 6q126 0 188 -59t62 -164q0 -63 -21 -149l-98 -390q-23 -95 -23 -122q0 -50 45 -50q64 0 138 132l22 -13q-38 -67 -71 -105.5t-92.5 -65.5t-141.5 -27z" />
    <glyph glyph-name="o" unicode="o" horiz-adv-x="1083" 
d="M446 -20q-430 0 -430 385q0 290 159.5 460t451.5 170q212 0 321 -88.5t109 -277.5q0 -166 -45 -292t-127.5 -203t-192.5 -115.5t-246 -38.5zM586 248l69 416q31 163 27.5 235t-57.5 72q-62 0 -89 -63t-59 -249l-69 -411q-24 -122 -17 -184t62 -62q59 0 84 52t49 194z" />
    <glyph glyph-name="p" unicode="p" horiz-adv-x="1218" 
d="M748 905q-42 0 -78.5 -50t-71.5 -173q-35 -124 -55.5 -271.5t-20.5 -232.5q0 -70 24 -109.5t66 -39.5t57.5 40.5t36.5 172.5q7 44 11 69l69 424q15 103 5.5 136.5t-43.5 33.5zM-39 -461l238 1411h-154l6 25h565l-55 -268l10 -2q25 74 50.5 122.5t63.5 89t93 59.5t129 19
q132 0 206.5 -93.5t74.5 -272.5q0 -149 -40 -273.5t-107.5 -205.5t-154.5 -125.5t-181 -44.5q-195 0 -218 155l-100 -596h227l-6 -26h-780l6 26h127z" />
    <glyph glyph-name="q" unicode="q" horiz-adv-x="1157" 
d="M1055 -487h-744l2 24h174l123 610q0 -1 -2 0.5t-4.5 3t-3.5 1.5q-21 -39 -40 -65.5t-48.5 -54t-71 -41.5t-94.5 -14q-165 0 -241 96.5t-76 286.5q0 288 131.5 461.5t343.5 173.5q105 0 152 -41t53 -145l125 166h296l-245 -1438h172zM467 55q61 0 110.5 117.5t74 276.5
t24.5 309q0 190 -66 190q-38 0 -58 -45t-42 -174l-78 -463q-17 -110 -17 -138q1 -73 52 -73z" />
    <glyph glyph-name="r" unicode="r" horiz-adv-x="1085" 
d="M10 -16l92 419l82 547h-135l4 25h553l-92 -357l8 -2q21 58 38.5 100t52 98.5t71.5 92.5t94 62t123 26q49 0 90.5 -15t73 -58.5t31.5 -110.5q0 -101 -59.5 -156t-149.5 -55q-75 0 -148 37l-14 178q-68 0 -130 -108.5t-93 -296.5q-45 -276 -39 -400q-62 4 -211.5 -5
t-241.5 -21z" />
    <glyph glyph-name="s" unicode="s" horiz-adv-x="1001" 
d="M367 12q65 0 111 17.5t67 45.5t29 53t8 50q0 17 -3 31.5t-12.5 27.5t-16 22.5t-24.5 21t-26 17.5t-32.5 16.5t-33 14t-38 15t-36.5 14.5q-45 18 -75.5 32t-68 39.5t-59.5 54.5t-37.5 72.5t-15.5 96.5q0 111 68.5 189.5t183.5 115.5t265 37q44 0 84.5 -3.5t85 -11.5
t80.5 -23.5t65.5 -37.5t46 -55.5t16.5 -75.5q0 -70 -47 -111.5t-127 -41.5q-59 0 -102 27.5t-43 72.5q0 60 31 99h65q15 34 15 55q0 78 -138 78q-108 0 -160.5 -42.5t-52.5 -97.5q0 -24 11.5 -46t26.5 -37t45.5 -32.5t52 -27.5t61.5 -27q136 -57 187 -91q118 -80 118 -201
q0 -126 -74 -214.5t-197.5 -129.5t-285.5 -41q-181 0 -287 55.5t-106 167.5q0 84 48.5 129t123.5 45t113 -36t38 -93q0 -34 -18 -90h-86q-18 -25 -18 -52q0 -39 41 -66.5t133 -27.5z" />
    <glyph glyph-name="t" unicode="t" horiz-adv-x="768" 
d="M813 950h-192l-89 -440q-49 -241 -49 -324q0 -110 74 -110q89 0 166 221l29 -8q-20 -56 -38.5 -96.5t-48.5 -83t-65 -69t-86.5 -43.5t-114.5 -17q-93 0 -159.5 23.5t-100.5 64t-48.5 83.5t-14.5 93q0 87 41 288l80 418h-148l6 25h146l41 205l385 82h47l-49 -287h194z" />
    <glyph glyph-name="u" unicode="u" horiz-adv-x="1263" 
d="M68 289q90 491 129 661h-129l4 25h561q-135 -589 -168 -778q-13 -83 5 -105q10 -12 28 -12q54 0 118.5 142.5t102.5 377.5q37 249 39 352q52 -2 229 8.5t217 18.5q-115 -550 -147 -795q-10 -83 -1 -107q11 -30 48 -30q58 0 137 129l23 -16q-60 -100 -130.5 -139
t-168.5 -39q-182 0 -251 88.5t-18 259.5l-12 4q-29 -90 -59 -149.5t-74 -108t-105.5 -71.5t-144.5 -23q-146 0 -202.5 84t-30.5 223z" />
    <glyph glyph-name="v" unicode="v" horiz-adv-x="1085" 
d="M889 770l-58 -82q-60 12 -94.5 49t-34.5 97q0 75 47.5 118t116.5 43q45 0 79.5 -16t54.5 -41t33 -60t17.5 -67.5t4.5 -69.5q0 -67 -9 -135.5t-31 -144t-55.5 -144t-86 -131t-118 -107.5t-156.5 -72t-198 -27q-71 0 -130 19t-105.5 59t-65.5 110t-4 164q13 76 30.5 157.5
t40 177t34.5 152.5q9 49 6 66.5t-23 17.5q-41 0 -149 -131l-21 14q88 120 172.5 164.5t188.5 44.5q35 0 67 -5t67 -19t60.5 -36t42.5 -60t17 -87q0 -42 -19 -139q-7 -34 -38 -174t-52 -250q-12 -58 -12 -96q0 -84 78 -84q63 0 135.5 47t133.5 121.5t101.5 179t40.5 209.5
q0 165 -108 168z" />
    <glyph glyph-name="w" unicode="w" horiz-adv-x="1640" 
d="M1071 162q-3 -30 -2.5 -56t18 -43.5t52.5 -17.5q64 0 137 46t134 119.5t101.5 177t40.5 208.5q0 82 -27.5 130.5t-80.5 45.5l-58 -82q-61 17 -93.5 56.5t-32.5 91.5q0 67 44 112t111 45q45 0 80.5 -15.5t56.5 -39t34.5 -56t18.5 -63t5 -63.5q0 -108 -19.5 -213
t-66.5 -208.5t-116.5 -181.5t-177.5 -126.5t-241 -48.5q-74 0 -153 22t-129 74q-130 -96 -320 -96q-68 0 -124.5 20.5t-100 61.5t-61.5 112.5t-3 165.5q29 178 92 448q18 80 17 95q-3 25 -23 26q-23 0 -60 -35t-93 -104l-19 16q86 116 171 162.5t198 46.5q130 0 200.5 -80.5
t41.5 -212.5q-17 -80 -39 -175.5t-36 -163t-30 -158.5q-16 -71 -4.5 -115.5t64.5 -44.5q55 0 116 55q-20 72 0 201q2 9 55 269t68 384q49 -2 216 11t204 22q-137 -611 -166 -825z" />
    <glyph glyph-name="x" unicode="x" horiz-adv-x="1183" 
d="M434 995q56 -2 93 -13.5t66 -43t48 -69.5t47 -109l41 -107q11 22 27 58t27 60t28 56.5t31.5 54t35 45t41.5 37t48 22.5t57 9q74 0 122 -41t48 -116q0 -87 -53 -139t-133 -52q-41 0 -93 19l-16 131q-58 21 -106 -78l-52 -105l156 -401q31 -76 46 -93q18 -20 44 -20
q51 0 98 123l19 -8q-38 -119 -120.5 -177t-188.5 -58q-122 0 -197.5 48t-116.5 169l-51 155l-41 -108q-57 -148 -109.5 -206t-144.5 -58q-71 0 -121.5 46.5t-50.5 125.5q0 90 56.5 140t136.5 50q26 0 53 -8l24 -141q91 -29 134 83l45 121l-144 398q-13 35 -23 49t-24 14
q-19 0 -35 -21t-57 -89l-18 10q69 128 142.5 182.5t180.5 54.5z" />
    <glyph glyph-name="y" unicode="y" horiz-adv-x="1122" 
d="M147 -307l-108 -15q-15 -17 -20.5 -41.5t0.5 -48t30.5 -39.5t65.5 -16q74 0 172 65t205 189q-36 130 -267 922q-27 98 -41 118q-13 19 -34 19q-30 0 -49 -28.5t-66 -131.5l-27 12q13 33 21.5 52t27.5 54.5t36 57.5t45 50t58.5 44t72.5 27.5t89 11.5q111 0 174 -52
t101 -181q32 -111 81.5 -305.5t76.5 -288.5q137 200 184 292t47 154q0 39 -18 57t-54 21l-61 -86q-89 20 -131.5 77t-42.5 126q0 29 10.5 59t32 59.5t62 48.5t93.5 19q205 0 205 -223q0 -69 -33 -161t-88.5 -189t-112.5 -181.5t-120 -166.5q-21 -27 -61 -80q-47 -61 -70 -91
t-65.5 -83t-68 -80.5t-65.5 -69t-69.5 -63t-69 -48.5t-74.5 -40t-76.5 -22t-83.5 -9q-120 0 -198 65.5t-78 163.5q0 97 60.5 154t146.5 57q81 0 132 -60t23 -175z" />
    <glyph glyph-name="z" unicode="z" horiz-adv-x="1132" 
d="M1061 494l24 -5q-31 -146 -74 -248t-95 -157.5t-106.5 -79.5t-119.5 -24q-102 0 -215 77l-213 148q-12 -100 -55 -157.5t-107 -57.5q-59 0 -82.5 29.5t-23.5 70.5q0 58 51 97.5t139 39.5q32 0 72 -6l410 363q-373 26 -420 30q-48 3 -72 -5t-37 -27t-31 -66l-20 4
q50 186 106.5 291t119 144.5t151.5 39.5q111 0 203 -77l211 -177q-1 38 5 75t21 77t48 65t81 25q43 0 70.5 -24t27.5 -76q0 -63 -64 -108.5t-187 -49.5l-414 -348q315 -20 426 -23q79 -2 108 21.5t62 118.5z" />
    <glyph glyph-name="braceleft" unicode="{" horiz-adv-x="937" 
d="M135 666q65 3 111 22.5t72 48.5t40.5 79t18.5 98.5t4 121.5q0 26 -2 85.5t-2 99.5q0 95 39.5 167t109 114t156.5 62.5t190 20.5q109 0 189 -31l-10 -24q-40 14 -90 14q-28 0 -49.5 -4.5t-37 -17t-26 -23.5t-17.5 -35t-10.5 -40t-5 -50t-1.5 -53t0.5 -62t0.5 -65
q0 -60 -4.5 -108t-18 -102.5t-36.5 -97t-62.5 -84t-94 -70.5t-133.5 -50t-177 -29l-4 -8q162 -15 231 -34q192 -56 193 -212q0 -60 -32.5 -162t-65 -212.5t-33.5 -190.5q0 -53 22 -85t82 -32q49 0 92 19l8 -29q-77 -37 -293 -37q-57 0 -111.5 13t-105.5 41.5t-82.5 81
t-31.5 122.5q0 72 21.5 148t48 131t48 130.5t21.5 145.5q0 74 -35.5 111.5t-128.5 52.5z" />
    <glyph glyph-name="bar" unicode="|" horiz-adv-x="665" 
d="M180 -260l318 1888h80l-318 -1888h-80z" />
    <glyph glyph-name="braceright" unicode="}" horiz-adv-x="937" 
d="M840 590q-65 -3 -111 -22.5t-72 -49t-40.5 -79.5t-18.5 -98.5t-4 -121.5q0 -26 2 -85t2 -99q0 -95 -39.5 -167t-109.5 -114.5t-157 -63t-190 -20.5q-108 0 -188 31l10 25q43 -15 90 -15q28 0 49.5 4.5t37 17t26 23.5t17.5 35t10.5 40t5 50t1.5 53t-0.5 62t-0.5 65
q0 60 4.5 108t18 102.5t36.5 97t62.5 84t94 70.5t133.5 50t177 29l4 8q-162 15 -231 34q-193 55 -193 212q0 60 32.5 162t65 212.5t33.5 190.5q0 53 -22 85t-82 32q-51 0 -92 -18l-8 28q77 37 292 37q57 0 111.5 -13t106 -41.5t83 -81t31.5 -122.5q0 -72 -21.5 -148
t-48 -131t-48 -130.5t-21.5 -145.5q0 -74 35.5 -111.5t128.5 -52.5z" />
    <glyph glyph-name="asciitilde" unicode="~" horiz-adv-x="1290" 
d="M852 469q-71 0 -215 41t-223 41q-41 0 -85.5 -22t-74.5 -66l-10 4q4 12 14.5 41.5t16 45.5t17.5 45.5t20.5 47t23.5 43t28 41t32 33.5t38 28t43.5 16.5t50.5 6.5q76 0 227 -41t230 -41q46 0 80 19t65 67l11 -6q-44 -111 -80.5 -180.5t-71.5 -105t-65 -47t-72 -11.5z" />
    <glyph glyph-name="uni00A0" unicode="&#xa0;" horiz-adv-x="335" 
 />
    <glyph glyph-name="exclamdown" unicode="&#xa1;" horiz-adv-x="784" 
d="M451 580l-13 -56q-23 -121 -25 -217.5t12 -161t31 -117t31.5 -114t14.5 -123.5q0 -55 -14 -101.5t-43 -86t-81 -62t-122 -22.5q-91 0 -147 44.5t-56 139.5q0 63 21.5 125t55 112t76.5 114t83 126.5t76.5 153.5t56.5 192l10 54h33zM453 672q-64 0 -101 32.5t-37 94.5
q0 80 52 138t143 58q70 0 105.5 -41.5t35.5 -97.5q0 -76 -55 -130t-143 -54z" />
    <glyph glyph-name="cent" unicode="&#xa2;" horiz-adv-x="968" 
d="M883 518l28 -6q-13 -53 -30 -95t-50 -88.5t-77 -77t-114 -51t-159 -20.5q-46 0 -69 2l-88 -221l-33 14l86 211q-159 23 -240.5 116.5t-81.5 246.5q0 258 166 408.5t453 150.5q25 0 65 -4l92 221l33 -12l-88 -213q112 -18 170 -73t58 -128q0 -78 -52.5 -135t-152.5 -57
q-86 0 -121 35t-35 87q0 41 27 101h96q25 48 25 86q0 69 -76 69q-86 0 -134.5 -90t-80.5 -268l-29 -168q-10 -52 -14 -92.5t0 -86t20 -75.5t51 -49.5t88 -19.5q32 0 67 13.5t73.5 43t72.5 88t54 137.5z" />
    <glyph glyph-name="sterling" unicode="&#xa3;" horiz-adv-x="1241" 
d="M100 657l13 35h182q-98 192 -98 309q0 210 173.5 332.5t473.5 122.5q191 0 288 -67t97 -193q0 -40 -9 -76.5t-30.5 -71.5t-64 -56t-101.5 -21q-85 0 -128.5 44t-43.5 111q0 55 33 119h80q39 56 39 107q0 37 -25 58.5t-70 21.5q-31 0 -53 -9.5t-41.5 -29t-39 -63.5
t-39 -98t-48.5 -147l-121 -387h359l-8 -39h-365l-82 -196q109 -47 278.5 -96.5t233.5 -49.5q71 0 113.5 30t52.5 120h25q-10 -121 -32.5 -211.5t-49.5 -142.5t-63.5 -84t-69 -42t-70.5 -10q-56 0 -133.5 25.5t-132.5 52.5t-132 68.5t-92 48.5q-46 -92 -100 -139t-137 -47
q-107 0 -162 66t-55 167q0 139 74 217t190 78q100 0 211 -41q-41 85 -103 184h-217zM150 256q-64 0 -92.5 -33.5t-28.5 -89.5q0 -11 2 -23t10.5 -29.5t22 -30.5t40.5 -22.5t62 -9.5q23 0 46 7.5t50 24.5t52.5 53t43.5 87q-111 66 -208 66z" />
    <glyph glyph-name="currency" unicode="&#xa4;" horiz-adv-x="1003" 
d="M203 696q0 108 59 197l-158 182l39 37l185 -145q92 63 213 63q124 0 200 -61l185 141l35 -33l-154 -174q57 -85 57 -201q0 -110 -61 -204l153 -201l-36 -35l-193 158q-75 -60 -192 -60q-123 0 -203 56l-182 -152l-37 37l147 182q-57 83 -57 213zM283 696
q0 -122 60.5 -197t193.5 -75q118 0 182.5 77.5t64.5 194.5q0 124 -63 199.5t-189 75.5q-123 0 -186 -78.5t-63 -196.5z" />
    <glyph glyph-name="yen" unicode="&#xa5;" horiz-adv-x="1265" 
d="M154 733l12 35h272l-217 639h-92l8 27h703l-9 -27h-120l182 -621l405 621h-213l9 27h403l-8 -27h-146l-413 -639h280l-8 -35h-280l-29 -172h281l-7 -35h-280l-86 -503h180l-12 -23h-844l10 23h180l84 503h-280l8 35h279l28 172h-280z" />
    <glyph glyph-name="brokenbar" unicode="&#xa6;" horiz-adv-x="665" 
d="M356 844l131 784h80l-131 -784h-80zM170 -260l149 895h80l-149 -895h-80z" />
    <glyph glyph-name="section" unicode="&#xa7;" horiz-adv-x="1435" 
d="M518 -223q211 0 309 364q-95 35 -179.5 80t-166 111t-140 144t-94.5 182t-36 221q0 123 40 223t105.5 164.5t151.5 108.5t174 62.5t178 18.5q219 0 329.5 -76.5t110.5 -205.5q0 -92 -49.5 -149.5t-144.5 -57.5q-79 0 -128.5 44t-49.5 124q0 48 14 86l90 20
q19 51 13.5 85.5t-34.5 56t-64.5 31t-76.5 9.5q-60 0 -106 -23.5t-72.5 -58.5t-44 -82t-24 -86t-7.5 -79q100 -43 179 -84t166.5 -103.5t145.5 -129.5t96 -158.5t38 -194.5q0 -123 -41.5 -233.5t-112.5 -191t-162.5 -140t-194.5 -89.5t-206 -30q-186 0 -293.5 72.5
t-107.5 195.5q0 95 54.5 159t154.5 64q61 0 104 -23.5t61 -61.5t21 -85.5t-16 -95.5l-84 -6q-13 -28 -16.5 -58t4 -58.5t36.5 -47t76 -18.5zM614 1071q-4 -86 -4 -170q0 -78 2.5 -131.5t14.5 -139t34 -154.5t65.5 -153.5t104.5 -160.5q19 116 19 254q0 109 -8 187.5t-32 163
t-72.5 159t-123.5 145.5z" />
    <glyph glyph-name="dieresis" unicode="&#xa8;" 
d="M655 1204q10 66 63.5 111t141.5 45q87 0 127.5 -39.5t28.5 -116.5q-11 -72 -64 -116t-141 -44q-96 0 -131 46t-25 114zM205 1204q10 66 63.5 111t141.5 45q87 0 127 -39.5t28 -116.5q-11 -72 -64 -116t-141 -44q-96 0 -130.5 46t-24.5 114z" />
    <glyph glyph-name="copyright" unicode="&#xa9;" horiz-adv-x="1599" 
d="M1477 655q0 -207 -86 -361.5t-239 -235.5t-353 -81q-165 0 -294.5 48.5t-212.5 135.5t-126 205t-43 261q0 155 53 283.5t145.5 214t216.5 132t265 46.5q312 0 493 -176t181 -472zM1444 643q0 203 -83 347.5t-226 215t-332 70.5q-139 0 -257 -43.5t-205 -124.5t-136 -204
t-49 -275q0 -293 170.5 -455t472.5 -162q298 0 471.5 167.5t173.5 463.5zM856 1034q-35 0 -55.5 -16t-33.5 -61.5t-17.5 -116t-4.5 -189.5q0 -222 21.5 -300.5t89.5 -78.5q50 0 98 39t79.5 89t53.5 106h15l-8 -244h-15q-2 3 -5.5 10.5t-5.5 10.5t-6.5 6.5t-10.5 3.5
q-1 0 -76 -21.5t-137 -21.5q-197 0 -306.5 98.5t-109.5 302.5q0 193 113 297.5t311 104.5q54 0 123 -20.5t73 -20.5q5 0 8.5 1.5t6.5 5.5t5 6.5t5 8.5l4 8h14l7 -243h-15q-34 92 -101 163.5t-120 71.5z" />
    <glyph glyph-name="ordfeminine" unicode="&#xaa;" horiz-adv-x="1097" 
d="M1106 928l14 -8q-63 -115 -219 -115q-104 0 -155.5 57.5t-32.5 157.5l-8 2q-39 -113 -85.5 -165t-140.5 -52q-136 0 -197 67.5t-61 202.5q0 204 99.5 330.5t271.5 126.5q68 0 102 -25.5t54 -72.5l18 79q58 -5 181 -2.5t167 13.5q-77 -333 -115 -568l-2 -11
q-2 -11 -2.5 -18t0.5 -18.5t5 -18.5t14 -12.5t24 -5.5q34 0 68 56zM569 862q44 0 84 87t61 202.5t21 212.5q0 119 -57 119q-32 0 -51.5 -35.5t-36.5 -128.5l-49 -287q-12 -69 -12 -106.5t9.5 -50.5t30.5 -13z" />
    <glyph glyph-name="guillemotleft" unicode="&#xab;" horiz-adv-x="1040" 
d="M168 575l434 234l6 -6l-219 -352l94 -330l-6 -6l-284 190q-46 31 -66.5 64t-20.5 80q0 29 11.5 55.5t20.5 37.5t30 33zM575 575l435 234l6 -6l-219 -352l94 -330l-6 -6l-285 190q-46 31 -66 64t-20 80q0 29 11.5 55.5t20.5 37.5t29 33z" />
    <glyph glyph-name="logicalnot" unicode="&#xac;" horiz-adv-x="1228" 
d="M1010 336v285h-860v63h929v-348h-69z" />
    <glyph glyph-name="uni00AD" unicode="&#xad;" horiz-adv-x="690" 
d="M74 598l6 33h526l-6 -33h-526z" />
    <glyph glyph-name="registered" unicode="&#xae;" horiz-adv-x="940" 
d="M948 983q0 -171 -108.5 -278t-280.5 -107q-186 0 -286.5 103t-100.5 268q0 175 111.5 281t277.5 106q178 0 282.5 -101.5t104.5 -271.5zM905 977q0 160 -97 253t-247 93q-153 0 -248.5 -95.5t-95.5 -256.5q0 -157 89.5 -246.5t252.5 -89.5q157 0 251.5 93t94.5 249z
M557 987h-4v-194h-199v12h45v369h-45v12h228q79 0 115 -18t36 -74q0 -78 -131 -93v-4q82 -7 110.5 -28.5t28.5 -69.5v-51q0 -33 17 -33q32 0 41 76l12 -2q-8 -56 -31.5 -79.5t-85.5 -23.5q-55 0 -79.5 18.5t-24.5 59.5v58q0 41 -6 53t-27 12zM553 1174v-166h6
q28 0 35.5 18.5t7.5 63.5q0 48 -6.5 66t-32.5 18h-10z" />
    <glyph glyph-name="macron" unicode="&#xaf;" 
d="M358 1090l35 192h557l-35 -192h-557z" />
    <glyph glyph-name="degree" unicode="&#xb0;" horiz-adv-x="673" 
d="M276 1284q0 -81 45.5 -130.5t131.5 -49.5q78 0 125 50.5t47 129.5q0 83 -48 131.5t-131 48.5q-78 0 -124 -49.5t-46 -130.5zM195 1284q0 104 69 175t191 71q120 0 185 -66t65 -176q0 -109 -68 -180.5t-188 -71.5q-124 0 -189 68.5t-65 179.5z" />
    <glyph glyph-name="plusminus" unicode="&#xb1;" horiz-adv-x="1126" 
d="M995 0h-929l10 63h930zM1018 621h-440l-64 -392h-70l64 392h-420l14 61h420l62 362h69l-61 -362h440z" />
    <glyph glyph-name="twosuperior" unicode="&#xb2;" horiz-adv-x="784" 
d="M502 1690q90 0 155.5 -19.5t100.5 -52t51 -69.5t16 -79q0 -114 -100 -193.5t-383 -189.5l-141 -55h301q117 0 197.5 44.5t113.5 133.5h16l-65 -403h-666l39 215l99 68q131 91 199.5 190t68.5 229q0 73 -29 113.5t-76 40.5q-45 0 -62 -29t-10.5 -60.5t21.5 -49.5h66
q9 -79 -24.5 -124.5t-110.5 -45.5q-60 0 -88.5 35t-28.5 77q0 91 92 157.5t248 66.5z" />
    <glyph glyph-name="threesuperior" unicode="&#xb3;" horiz-adv-x="804" 
d="M555 1673q166 0 236.5 -41t70.5 -125q0 -63 -53.5 -111.5t-132.5 -74.5t-182 -39q0 -1 -1 -4t-1 -4q36 0 81 2t92 -8.5t86 -28t64 -56.5t25 -93q0 -72 -29.5 -127t-76 -87.5t-111 -53.5t-127.5 -28.5t-134 -7.5q-76 0 -130 19t-79.5 49.5t-36 58.5t-10.5 56q0 53 35 94
t109 41q42 0 69.5 -18t37.5 -45.5t8.5 -57t-13.5 -55.5h-71q-16 -17 -18.5 -44.5t16.5 -50t59 -22.5q72 0 119 67.5t47 188.5q0 170 -115 170q-41 0 -74 -10l-2 20q146 37 199 96.5t53 155.5q0 61 -34 103.5t-97 42.5q-52 0 -86.5 -35t0.5 -86h55q17 -63 -12 -112.5
t-102 -49.5q-53 0 -81 31t-28 73q0 96 102.5 151.5t272.5 55.5z" />
    <glyph glyph-name="acute" unicode="&#xb4;" 
d="M461 1022l160 416l139 18q30 3 57.5 -2t49.5 -26.5t22 -57.5q0 -37 -16.5 -64t-63.5 -59l-340 -231z" />
    <glyph glyph-name="mu" unicode="&#xb5;" horiz-adv-x="1433" 
d="M283 985l438 19l-123 -674q-24 -120 -21.5 -169.5t41.5 -49.5q45 0 89 78.5t71 236.5l96 559l412 19l-143 -783q-21 -110 41 -110q85 0 119 249l26 -6q-13 -98 -35.5 -167.5t-49 -109.5t-65 -62t-74.5 -28.5t-87 -6.5q-65 0 -118 19.5t-85 49.5t-50.5 63t-21.5 64l-6 2
q-112 -196 -270 -196q-23 0 -42.5 3t-49.5 17.5t-55.5 40t-54 75.5t-50.5 118l-16 -9l139 -411q2 -6 10 -29t12 -35.5t10 -32.5t8.5 -37t2.5 -32q0 -51 -45 -91t-117 -22l-180 45z" />
    <glyph glyph-name="paragraph" unicode="&#xb6;" horiz-adv-x="1300" 
d="M1253 1407l-233 -1364q-51 -290 -165 -422.5t-335 -132.5q-101 0 -177 22t-117.5 58t-61 75.5t-19.5 80.5q0 107 63 175t167 68q57 0 97 -24t56 -62t10.5 -86.5t-32.5 -97.5h-98q-17 -32 -21 -62t6.5 -55t42.5 -40t82 -15q39 0 69.5 3t74 14.5t77.5 32t73 58.5t69 91
t57.5 133t44.5 180l234 1370h-168l-175 -997h-235q-121 0 -223.5 55.5t-164 156t-61.5 224.5q0 267 182 427.5t474 160.5h586l-5 -27h-174z" />
    <glyph glyph-name="periodcentered" unicode="&#xb7;" horiz-adv-x="821" 
d="M467 840q74 0 118 -37.5t44 -102.5q0 -104 -58 -163.5t-157 -59.5q-82 0 -120 46.5t-38 111.5q0 90 64.5 147.5t146.5 57.5z" />
    <glyph glyph-name="cedilla" unicode="&#xb8;" 
d="M451 2h41l-103 -129q97 31 189 31q78 0 121.5 -43.5t43.5 -128.5q0 -37 -14 -73.5t-46.5 -73.5t-97.5 -60t-155 -23q-109 0 -157 40.5t-48 92.5q0 45 25.5 74t73.5 29q84 0 86 -98l-58 -27q-17 -37 -6 -61.5t51 -24.5q17 0 33 6.5t34.5 23.5t30 55t11.5 93q0 152 -68 152
q-23 0 -86 -19l-8 23z" />
    <glyph glyph-name="onesuperior" unicode="&#xb9;" horiz-adv-x="741" 
d="M254 838l129 710q-33 -9 -101 -9.5t-94 7.5l5 23q258 -19 385 112h172l-158 -843h133l-10 -31h-611l9 31h141z" />
    <glyph glyph-name="ordmasculine" unicode="&#xba;" horiz-adv-x="1087" 
d="M694 1022l56 311q7 41 10 66t1.5 54.5t-16 43.5t-40.5 14q-81 0 -105 -143l-61 -346q-4 -25 -6.5 -38t-5.5 -35.5t-3 -34.5t1 -29t5.5 -26t11 -18.5t18 -13.5t26.5 -4q45 0 64 36.5t44 162.5zM580 803q-338 0 -338 278q0 96 28 176t84.5 142t149.5 96.5t215 34.5
q155 0 243.5 -69.5t88.5 -200.5q0 -236 -126.5 -346.5t-344.5 -110.5z" />
    <glyph glyph-name="guillemotright" unicode="&#xbb;" horiz-adv-x="1040" 
d="M453 348l-433 -233l-6 6l213 358l-92 330l8 6l287 -197q43 -30 65.5 -60.5t22.5 -74.5q0 -43 -16.5 -73t-48.5 -62zM860 348l-432 -233l-6 6l213 358l-92 330l8 6l287 -197q43 -30 65.5 -60.5t22.5 -74.5q0 -43 -17 -73t-49 -62z" />
    <glyph glyph-name="onequarter" unicode="&#xbc;" horiz-adv-x="1781" 
d="M377 -23l1134 1479h66l-1133 -1479h-67zM240 571l129 711q-33 -9 -101 -9.5t-94 7.5l4 23q258 -19 385 112h172l-157 -844h133l-11 -30h-610l8 30h142zM1577 37h133l-6 -27h-629l4 27h166l37 176h-338l8 27q94 71 165.5 147t109.5 136t62 118.5t31 93t7 60.5q0 48 -14 73
l28 29q41 6 81.5 1t72.5 -18t52 -43t20 -73q0 -30 -9.5 -56t-22 -45.5t-41 -45.5t-49.5 -42t-67 -50t-75 -56l-302 -221h289l31 176l342 43l-45 -219h111l-5 -35h-110z" />
    <glyph glyph-name="onehalf" unicode="&#xbd;" horiz-adv-x="1781" 
d="M289 -23l1134 1479h66l-1133 -1479h-67zM184 571l129 711q-33 -9 -100.5 -9.5t-93.5 7.5l4 23q258 -19 385 112h172l-158 -844h133l-10 -30h-610l8 30h141zM1403 893q90 0 155.5 -19t100.5 -52t51 -69.5t16 -78.5q0 -114 -100 -193.5t-383 -189.5l-141 -55h301
q117 0 197.5 44.5t113.5 133.5h17l-66 -404h-666l39 215l99 68q130 90 199 190t69 230q0 73 -29 113t-76 40q-45 0 -62 -29t-10.5 -60.5t21.5 -49.5h66q9 -79 -24.5 -124.5t-110.5 -45.5q-60 0 -88.5 35.5t-28.5 77.5q0 90 92 156.5t248 66.5z" />
    <glyph glyph-name="threequarters" unicode="&#xbe;" horiz-adv-x="1781" 
d="M440 -23l1135 1479h65l-1132 -1479h-68zM1610 37h133l-6 -27h-629l4 27h166l37 176h-338l8 27q94 71 165.5 147t109.5 136t62 118.5t31 93t7 60.5q0 48 -14 73l28 29q59 7 107.5 -2t83 -42t34.5 -89q0 -30 -9.5 -56t-22 -45.5t-41 -45.5t-49.5 -42t-67 -50t-75 -56
l-301 -221h289l31 176l342 43l-45 -219h110l-4 -35h-110zM575 1407q166 0 237 -41t71 -125q0 -48 -30 -87.5t-83 -66t-116.5 -44t-139.5 -27.5q0 -1 -1 -4t-1 -4q36 0 81 2t92 -9t86 -28.5t64 -56.5t25 -93q0 -72 -29.5 -126.5t-75.5 -87.5t-111 -53.5t-127.5 -28
t-133.5 -7.5q-76 0 -130 19t-79.5 49t-36 58t-10.5 56q0 53 34.5 94.5t108.5 41.5q42 0 69.5 -18t37.5 -45.5t9 -57t-13 -55.5h-72q-16 -17 -18.5 -44.5t16.5 -50t59 -22.5q72 0 119 67.5t47 188.5q0 170 -114 170q-41 0 -74 -10l-2 20q146 37 199 96.5t53 155.5
q0 61 -34 103t-97 42q-52 0 -86.5 -35t0.5 -86h55q16 -63 -13 -112t-102 -49q-53 0 -80.5 30.5t-27.5 73.5q0 96 102 151.5t272 55.5z" />
    <glyph glyph-name="questiondown" unicode="&#xbf;" horiz-adv-x="1167" 
d="M563 -453q104 0 161 55t30 148h-95q-8 101 37.5 166.5t143.5 65.5q91 0 132.5 -48.5t41.5 -115.5q0 -83 -52 -144.5t-135 -94t-167.5 -47.5t-167.5 -15q-120 0 -210.5 29t-142.5 78.5t-77 108.5t-25 126q0 78 21.5 139t57.5 100t83 68.5t99 47.5t103.5 33t98.5 30.5
t83 34t57.5 49t21.5 71.5q0 16 -6 33.5t-20 39t-45 35t-75 13.5q-24 0 -48 -4.5t-56.5 -20t-59 -41t-51.5 -73t-39 -111.5l-22 4q24 138 111 217.5t229 79.5q178 0 276 -83.5t98 -215.5q0 -64 -20 -114t-53.5 -82.5t-77 -58t-92 -44.5t-96.5 -37t-91.5 -40.5t-77 -50.5
t-53.5 -71t-20 -98q0 -77 48.5 -119.5t141.5 -42.5zM639 670q-64 0 -100.5 32.5t-36.5 94.5q0 80 51.5 138t142.5 58q70 0 106 -41.5t36 -97.5q0 -76 -55.5 -130t-143.5 -54z" />
    <glyph glyph-name="Agrave" unicode="&#xc0;" horiz-adv-x="1390" 
d="M745 25l-90 462h-376l-228 -462h148l-4 -25h-269l4 25h84l705 1421h201l305 -1421h78l-5 -25h-692l4 25h135zM555 1047l-264 -529h358zM702 1896l213 -393l-14 -12l-311 162q-54 29 -76 57t-22 68q0 45 28 66.5t96 33.5z" />
    <glyph glyph-name="Aacute" unicode="&#xc1;" horiz-adv-x="1390" 
d="M745 25l-90 462h-376l-228 -462h148l-4 -25h-269l4 25h84l705 1421h201l305 -1421h78l-5 -25h-692l4 25h135zM555 1047l-264 -529h358zM741 1511l226 369l69 -12q115 -20 115 -96q0 -39 -20.5 -65.5t-71.5 -49.5l-307 -156z" />
    <glyph glyph-name="Acircumflex" unicode="&#xc2;" horiz-adv-x="1390" 
d="M745 25l-90 462h-376l-228 -462h148l-4 -25h-269l4 25h84l705 1421h201l305 -1421h78l-5 -25h-692l4 25h135zM555 1047l-264 -529h358zM502 1516l254 288q80 37 159 37q108 0 136 -92l77 -242l-12 -8l-246 137l-358 -133z" />
    <glyph glyph-name="Atilde" unicode="&#xc3;" horiz-adv-x="1390" 
d="M745 25l-90 462h-376l-228 -462h148l-4 -25h-269l4 25h84l705 1421h201l305 -1421h78l-5 -25h-692l4 25h135zM555 1047l-264 -529h358zM963 1530q-79 0 -187 49q-75 33 -117 33q-87 0 -133 -80l-14 6q46 146 111 217.5t165 71.5q13 0 28 -3t25.5 -5.5t31 -10t27 -10.5
t31 -13.5t27.5 -12.5q76 -31 107 -31q27 0 46 4t44 24.5t43 57.5l16 -6q-53 -154 -113.5 -222.5t-137.5 -68.5z" />
    <glyph glyph-name="Adieresis" unicode="&#xc4;" horiz-adv-x="1390" 
d="M745 25l-90 462h-376l-228 -462h148l-4 -25h-269l4 25h84l705 1421h201l305 -1421h78l-5 -25h-692l4 25h135zM555 1047l-264 -529h358zM891 1677q10 66 63.5 111t141.5 45q87 0 127 -39.5t28 -116.5q-11 -72 -63.5 -115.5t-140.5 -43.5q-96 0 -131 45.5t-25 113.5z
M440 1677q10 66 63.5 111t141.5 45q87 0 127.5 -39.5t28.5 -116.5q-11 -72 -64 -115.5t-141 -43.5q-96 0 -131 45.5t-25 113.5z" />
    <glyph glyph-name="Aring" unicode="&#xc5;" horiz-adv-x="1390" 
d="M745 25l-90 462h-376l-228 -462h148l-4 -25h-269l4 25h84l705 1421h201l305 -1421h78l-5 -25h-692l4 25h135zM555 1047l-264 -529h358zM881 1837q-73 0 -121.5 -50.5t-48.5 -131.5q0 -113 123 -113q81 0 127.5 53t46.5 127q0 50 -31 82.5t-96 32.5zM647 1647
q0 101 69.5 170t178.5 69q87 0 129.5 -41.5t42.5 -113.5q0 -104 -68 -171t-176 -67q-176 0 -176 154z" />
    <glyph glyph-name="AE" unicode="&#xc6;" horiz-adv-x="1882" 
d="M715 1407l4 27h1194l-51 -408h-15q-49 205 -160.5 293t-289.5 88h-27l-113 -662h31q94 0 187.5 79t142.5 200h12l-100 -606h-12q-12 152 -81.5 225.5t-179.5 73.5h-6l-116 -692h18q380 0 623 424h18l-90 -449h-1100l2 25h107l114 688h-376l-451 -688h154l-9 -25h-288
l10 25h92l909 1382h-153zM909 1407l-440 -664h362l115 664h-37z" />
    <glyph glyph-name="Ccedilla" unicode="&#xc7;" horiz-adv-x="1280" 
d="M936 1432q-129 0 -203 -111.5t-137 -357.5q-76 -298 -76 -615q0 -155 60 -238t176 -83q54 0 114 24.5t120 72t112.5 130t81.5 186.5l24 -6q-128 -454 -571 -454h-19l-83 -107q97 31 188 31q78 0 122 -43.5t44 -128.5q0 -37 -14 -73.5t-46.5 -73.5t-98 -60t-155.5 -23
q-108 0 -156 40.5t-48 92.5q0 45 25.5 74t72.5 29q84 0 86 -98l-57 -27q-17 -37 -6 -61.5t51 -24.5q17 0 33 6.5t34.5 23.5t29.5 55t11 93q0 152 -67 152q-23 0 -86 -19l-9 23l91 121q-494 28 -494 530q0 144 30.5 279t96.5 256.5t160.5 212t232 143.5t301.5 53
q75 0 152.5 -15t130 -30.5t65.5 -15.5q21 0 33.5 10t28.5 33h16l-57 -453h-14q-28 86 -59.5 158t-73 141t-91.5 108.5t-102 39.5z" />
    <glyph glyph-name="Egrave" unicode="&#xc8;" horiz-adv-x="1245" 
d="M197 1434h1081l-51 -408h-15q-49 205 -160.5 293t-289.5 88h-27l-112 -662h30q94 0 187.5 79t142.5 200h12l-100 -606h-12q-12 152 -81 225.5t-179 73.5h-7l-116 -692h18q380 0 623 424h18l-90 -449h-1100l2 25h107l231 1382h-116zM745 1896l213 -393l-14 -12l-311 162
q-54 29 -76 57t-22 68q0 45 28 66.5t96 33.5z" />
    <glyph glyph-name="Eacute" unicode="&#xc9;" horiz-adv-x="1245" 
d="M197 1434h1081l-51 -408h-15q-49 205 -160.5 293t-289.5 88h-27l-112 -662h30q94 0 187.5 79t142.5 200h12l-100 -606h-12q-12 152 -81 225.5t-179 73.5h-7l-116 -692h18q380 0 623 424h18l-90 -449h-1100l2 25h107l231 1382h-116zM733 1511l225 369l70 -12
q115 -20 115 -96q0 -39 -20.5 -65.5t-71.5 -49.5l-308 -156z" />
    <glyph glyph-name="Ecircumflex" unicode="&#xca;" horiz-adv-x="1245" 
d="M197 1434h1081l-51 -408h-15q-49 205 -160.5 293t-289.5 88h-27l-112 -662h30q94 0 187.5 79t142.5 200h12l-100 -606h-12q-12 152 -81 225.5t-179 73.5h-7l-116 -692h18q380 0 623 424h18l-90 -449h-1100l2 25h107l231 1382h-116zM504 1516l254 288q80 37 160 37
q107 0 135 -92l77 -242l-12 -8l-246 137l-358 -133z" />
    <glyph glyph-name="Edieresis" unicode="&#xcb;" horiz-adv-x="1245" 
d="M197 1434h1081l-51 -408h-15q-49 205 -160.5 293t-289.5 88h-27l-112 -662h30q94 0 187.5 79t142.5 200h12l-100 -606h-12q-12 152 -81 225.5t-179 73.5h-7l-116 -692h18q380 0 623 424h18l-90 -449h-1100l2 25h107l231 1382h-116zM850 1677q10 66 63.5 111t141.5 45
q87 0 127 -39.5t28 -116.5q-11 -72 -63.5 -115.5t-140.5 -43.5q-96 0 -131 45.5t-25 113.5zM399 1677q10 66 63.5 111t141.5 45q87 0 127.5 -39.5t28.5 -116.5q-11 -72 -64 -115.5t-141 -43.5q-96 0 -131 45.5t-25 113.5z" />
    <glyph glyph-name="Igrave" unicode="&#xcc;" horiz-adv-x="741" 
d="M188 1434h662l-4 -27h-117l-225 -1382h127l-8 -25h-656l6 25h109l227 1382h-125zM541 1896l213 -393l-15 -12l-311 162q-54 29 -76 57t-22 68q0 44 28.5 66t96.5 34z" />
    <glyph glyph-name="Iacute" unicode="&#xcd;" horiz-adv-x="741" 
d="M188 1434h662l-4 -27h-117l-225 -1382h127l-8 -25h-656l6 25h109l227 1382h-125zM373 1511l225 369l70 -12q114 -20 114 -96q0 -39 -20.5 -65.5t-71.5 -49.5l-307 -156z" />
    <glyph glyph-name="Icircumflex" unicode="&#xce;" horiz-adv-x="741" 
d="M188 1434h662l-4 -27h-117l-225 -1382h127l-8 -25h-656l6 25h109l227 1382h-125zM217 1516l254 288q80 37 160 37q107 0 135 -92l78 -242l-13 -8l-245 137l-359 -133z" />
    <glyph glyph-name="Idieresis" unicode="&#xcf;" horiz-adv-x="741" 
d="M188 1434h662l-4 -27h-117l-225 -1382h127l-8 -25h-656l6 25h109l227 1382h-125zM614 1677q10 66 63.5 111t141.5 45q87 0 127.5 -39.5t28.5 -116.5q-11 -72 -64 -115.5t-141 -43.5q-96 0 -131 45.5t-25 113.5zM164 1677q10 66 63.5 111t141.5 45q87 0 127 -39.5
t28 -116.5q-11 -72 -64 -115.5t-141 -43.5q-96 0 -130.5 45.5t-24.5 113.5z" />
    <glyph glyph-name="Eth" unicode="&#xd0;" horiz-adv-x="1452" 
d="M1427 883q0 -277 -119 -477.5t-334.5 -303t-506.5 -102.5h-483l4 25h102l121 718h-117l6 33h117l107 631h-115l6 27h537q160 0 280.5 -29t211 -92.5t137 -171t46.5 -258.5zM512 25h12q167 0 263.5 125t148.5 378q63 299 63 572q0 88 -20.5 151t-57 95.5t-76.5 46.5
t-89 14h-13l-106 -631h225l-6 -33h-223z" />
    <glyph glyph-name="Ntilde" unicode="&#xd1;" horiz-adv-x="1302" 
d="M1300 1407l-233 -1407h-352l-373 1389h-6l-225 -1364h165l-4 -25h-340l7 25h139l227 1382h-158l7 27h596l317 -1155h10l191 1128h-158l6 27h293l-8 -27h-101zM967 1530q-79 0 -187 49q-75 33 -116 33q-88 0 -134 -80l-14 6q46 146 111 217.5t166 71.5q13 0 28 -3
t25.5 -5.5t31 -10t27 -10.5t31 -13.5t27.5 -12.5q76 -31 106 -31q27 0 46 4t44 24.5t43 57.5l17 -6q-53 -154 -114 -222.5t-138 -68.5z" />
    <glyph glyph-name="Ograve" unicode="&#xd2;" horiz-adv-x="1429" 
d="M80 514q0 152 30.5 290t94.5 257.5t157 207t226 137.5t293 50q526 0 526 -553q0 -144 -29 -276.5t-92.5 -251t-155 -206t-225 -138.5t-293.5 -51q-271 0 -401.5 143.5t-130.5 390.5zM889 422l92 534q31 186 31 269q0 63 -12 107t-47 73t-93 29q-38 0 -67.5 -6.5
t-53.5 -25.5t-41.5 -35.5t-33 -56t-25 -66.5t-21.5 -87t-18.5 -97.5t-19.5 -117.5l-80 -500q-23 -157 -23 -219q0 -105 34.5 -161t115.5 -56q49 0 84.5 15t62 43.5t47 81t36 116t32.5 160.5zM895 1896l213 -393l-14 -12l-312 162q-54 29 -76 57t-22 68q0 44 28.5 66t96.5 34
z" />
    <glyph glyph-name="Oacute" unicode="&#xd3;" horiz-adv-x="1429" 
d="M80 514q0 152 30.5 290t94.5 257.5t157 207t226 137.5t293 50q526 0 526 -553q0 -144 -29 -276.5t-92.5 -251t-155 -206t-225 -138.5t-293.5 -51q-271 0 -401.5 143.5t-130.5 390.5zM889 422l92 534q31 186 31 269q0 63 -12 107t-47 73t-93 29q-38 0 -67.5 -6.5
t-53.5 -25.5t-41.5 -35.5t-33 -56t-25 -66.5t-21.5 -87t-18.5 -97.5t-19.5 -117.5l-80 -500q-23 -157 -23 -219q0 -105 34.5 -161t115.5 -56q49 0 84.5 15t62 43.5t47 81t36 116t32.5 160.5zM713 1511l225 369l70 -12q114 -20 114 -96q0 -39 -20.5 -65.5t-71.5 -49.5
l-307 -156z" />
    <glyph glyph-name="Ocircumflex" unicode="&#xd4;" horiz-adv-x="1429" 
d="M80 514q0 152 30.5 290t94.5 257.5t157 207t226 137.5t293 50q526 0 526 -553q0 -144 -29 -276.5t-92.5 -251t-155 -206t-225 -138.5t-293.5 -51q-271 0 -401.5 143.5t-130.5 390.5zM889 422l92 534q31 186 31 269q0 63 -12 107t-47 73t-93 29q-38 0 -67.5 -6.5
t-53.5 -25.5t-41.5 -35.5t-33 -56t-25 -66.5t-21.5 -87t-18.5 -97.5t-19.5 -117.5l-80 -500q-23 -157 -23 -219q0 -105 34.5 -161t115.5 -56q49 0 84.5 15t62 43.5t47 81t36 116t32.5 160.5zM571 1516l254 288q80 37 160 37q107 0 135 -92l78 -242l-12 -8l-246 137
l-358 -133z" />
    <glyph glyph-name="Otilde" unicode="&#xd5;" horiz-adv-x="1429" 
d="M80 514q0 152 30.5 290t94.5 257.5t157 207t226 137.5t293 50q526 0 526 -553q0 -144 -29 -276.5t-92.5 -251t-155 -206t-225 -138.5t-293.5 -51q-271 0 -401.5 143.5t-130.5 390.5zM889 422l92 534q31 186 31 269q0 63 -12 107t-47 73t-93 29q-38 0 -67.5 -6.5
t-53.5 -25.5t-41.5 -35.5t-33 -56t-25 -66.5t-21.5 -87t-18.5 -97.5t-19.5 -117.5l-80 -500q-23 -157 -23 -219q0 -105 34.5 -161t115.5 -56q49 0 84.5 15t62 43.5t47 81t36 116t32.5 160.5zM1049 1530q-79 0 -187 49q-75 33 -117 33q-87 0 -133 -80l-14 6q46 146 111 217.5
t165 71.5q13 0 28 -3t25.5 -5.5t31 -10t27 -10.5t31 -13.5t27.5 -12.5q76 -31 107 -31q27 0 46 4t44 24.5t43 57.5l16 -6q-53 -154 -113.5 -222.5t-137.5 -68.5z" />
    <glyph glyph-name="Odieresis" unicode="&#xd6;" horiz-adv-x="1429" 
d="M80 514q0 152 30.5 290t94.5 257.5t157 207t226 137.5t293 50q526 0 526 -553q0 -144 -29 -276.5t-92.5 -251t-155 -206t-225 -138.5t-293.5 -51q-271 0 -401.5 143.5t-130.5 390.5zM889 422l92 534q31 186 31 269q0 63 -12 107t-47 73t-93 29q-38 0 -67.5 -6.5
t-53.5 -25.5t-41.5 -35.5t-33 -56t-25 -66.5t-21.5 -87t-18.5 -97.5t-19.5 -117.5l-80 -500q-23 -157 -23 -219q0 -105 34.5 -161t115.5 -56q49 0 84.5 15t62 43.5t47 81t36 116t32.5 160.5zM967 1677q10 66 63 111t141 45q87 0 127.5 -39.5t28.5 -116.5q-11 -72 -64 -115.5
t-141 -43.5q-96 0 -130.5 45.5t-24.5 113.5zM516 1677q10 66 63.5 111t141.5 45q87 0 127.5 -39.5t28.5 -116.5q-11 -72 -64 -115.5t-141 -43.5q-96 0 -131 45.5t-25 113.5z" />
    <glyph glyph-name="multiply" unicode="&#xd7;" horiz-adv-x="1126" 
d="M971 946l-359 -303l246 -301l-51 -41l-246 297l-362 -307l-43 51l362 309l-246 303l52 45l245 -303l359 303z" />
    <glyph glyph-name="Oslash" unicode="&#xd8;" horiz-adv-x="1429" 
d="M80 514q0 152 30.5 290t94.5 257.5t157 207t226 137.5t293 50q79 0 143 -12l59 133l39 -14l-55 -129q340 -88 340 -531q0 -144 -29 -276.5t-92.5 -251t-155 -206t-225 -138.5t-293.5 -51q-94 0 -170 18l-57 -135l-41 14l57 131q-164 51 -242.5 182t-78.5 324zM889 422
l92 534q31 186 31 269q0 37 -6 71l-514 -1190q29 -100 135 -100q49 0 84.5 15t62 43.5t47 81t36 116t32.5 160.5zM477 223v-39l510 1174q-32 76 -127 76q-38 0 -67.5 -6.5t-53.5 -25.5t-41.5 -35.5t-33 -56t-25 -66.5t-21.5 -87t-18.5 -97.5t-19.5 -117.5l-80 -500
q-23 -157 -23 -219z" />
    <glyph glyph-name="Ugrave" unicode="&#xd9;" horiz-adv-x="1329" 
d="M762 31q65 0 122.5 21.5t110 68t91.5 128.5t57 193l160 965h-129v27h276l-4 -27h-105l-159 -944q-41 -247 -162.5 -365t-362.5 -118q-116 0 -210.5 22.5t-166.5 68t-111.5 121.5t-39.5 177q0 82 18 190l150 848h-121l2 27h672l-2 -27h-131l-164 -985q-14 -109 -14 -143
q0 -48 4.5 -82.5t18.5 -67.5t38 -53.5t64.5 -32.5t97.5 -12zM903 1896l213 -393l-14 -12l-311 162q-54 29 -76.5 57t-22.5 68q0 44 28.5 66t96.5 34z" />
    <glyph glyph-name="Uacute" unicode="&#xda;" horiz-adv-x="1329" 
d="M762 31q-57 0 -97.5 12t-64.5 32.5t-38 53.5t-18.5 67.5t-4.5 82.5q0 35 14 143l164 985h131l2 27h-672l-2 -27h121l-150 -848q-18 -108 -18 -190q0 -101 39.5 -177t111.5 -121.5t166.5 -68t210.5 -22.5q241 0 362.5 118t162.5 365l159 944h105l4 27h-276v-27h129
l-160 -965q-18 -111 -57 -193t-91.5 -128.5t-110 -68t-122.5 -21.5zM844 1511l225 369l70 -12q114 -20 114 -96q0 -39 -20.5 -65.5t-71.5 -49.5l-307 -156z" />
    <glyph glyph-name="Ucircumflex" unicode="&#xdb;" horiz-adv-x="1329" 
d="M762 31q-57 0 -97.5 12t-64.5 32.5t-38 53.5t-18.5 67.5t-4.5 82.5q0 35 14 143l164 985h131l2 27h-672l-2 -27h121l-150 -848q-18 -108 -18 -190q0 -101 39.5 -177t111.5 -121.5t166.5 -68t210.5 -22.5q241 0 362.5 118t162.5 365l159 944h105l4 27h-276v-27h129
l-160 -965q-18 -111 -57 -193t-91.5 -128.5t-110 -68t-122.5 -21.5zM602 1516l254 288q80 37 160 37q107 0 135 -92l78 -242l-12 -8l-246 137l-359 -133z" />
    <glyph glyph-name="Udieresis" unicode="&#xdc;" horiz-adv-x="1329" 
d="M762 31q65 0 122.5 21.5t110 68t91.5 128.5t57 193l160 965h-129v27h276l-4 -27h-105l-159 -944q-41 -247 -162.5 -365t-362.5 -118q-116 0 -210.5 22.5t-166.5 68t-111.5 121.5t-39.5 177q0 82 18 190l150 848h-121l2 27h672l-2 -27h-131l-164 -985q-14 -109 -14 -143
q0 -48 4.5 -82.5t18.5 -67.5t38 -53.5t64.5 -32.5t97.5 -12zM1020 1677q10 66 63.5 111t141.5 45q87 0 127 -39.5t28 -116.5q-11 -72 -63.5 -115.5t-140.5 -43.5q-96 0 -131 45.5t-25 113.5zM569 1677q10 66 63.5 111t141.5 45q87 0 127.5 -39.5t28.5 -116.5
q-11 -72 -64 -115.5t-141 -43.5q-96 0 -131 45.5t-25 113.5z" />
    <glyph glyph-name="Yacute" unicode="&#xdd;" horiz-adv-x="1216" 
d="M842 711l454 696h-143l6 27h281l-10 -27h-89l-489 -756l-111 -626h166l-2 -25h-749l4 25h164l100 622l-223 760h-117l6 27h696l-10 -27h-131l191 -696h6zM829 1511l226 369l69 -12q115 -20 115 -96q0 -39 -20.5 -65.5t-71.5 -49.5l-307 -156z" />
    <glyph glyph-name="Thorn" unicode="&#xde;" horiz-adv-x="1249" 
d="M78 25l233 1386h-133l4 23h822l-3 -23h-270l-39 -252h60q252 0 385 -80t133 -243q0 -117 -37.5 -208t-101 -149.5t-154.5 -96.5t-190.5 -53.5t-215.5 -15.5h-18l-53 -288h237l-4 -25h-760l7 25h98zM686 1133l-129 -793h14q91 0 143.5 75.5t80.5 205.5q41 185 41 340
q0 96 -33.5 134t-102.5 38h-14z" />
    <glyph glyph-name="germandbls" unicode="&#xdf;" horiz-adv-x="1533" 
d="M33 -29l186 1069q31 177 131.5 300t255.5 183t357 60q39 0 63.5 -0.5t64.5 -2.5t66.5 -6t61.5 -11.5t58.5 -18.5t48.5 -27.5t39.5 -37.5t24 -49.5t9.5 -63.5q0 -50 -25 -91.5t-65 -70t-88.5 -54t-97.5 -47.5t-89 -44t-65 -50t-25 -61q0 -43 32.5 -80t121.5 -84
q14 -7 61.5 -30.5t68.5 -35t64 -36.5t64.5 -43.5t52.5 -49t46 -59.5t26.5 -67t11.5 -80q0 -125 -70.5 -218t-187 -139t-260.5 -46q-161 0 -254.5 64t-93.5 171q0 89 52 136.5t130 47.5q93 0 130.5 -68.5t-7.5 -168.5h-78q-54 -154 145 -154q87 0 134 53.5t47 145.5
q0 63 -39.5 106.5t-112.5 79.5q-17 9 -51.5 26t-53.5 26.5t-49.5 27.5t-48 32.5t-39.5 37t-33.5 44.5t-19.5 52t-8 63q0 70 22.5 125t58 93t79 72t86.5 71.5t78.5 81t58 110t22.5 150.5q0 76 -36 116t-93 40q-50 0 -92.5 -15.5t-84.5 -53t-74.5 -110t-51.5 -176.5
l-219 -1188q-47 -261 -191.5 -394.5t-410.5 -133.5q-55 0 -111.5 13t-111 39.5t-89 75.5t-34.5 114q0 98 60 160.5t165 62.5q104 0 146 -77t-13 -191l-90 -11q-41 -70 -25.5 -113.5t66.5 -43.5q28 0 48.5 9t37.5 34t29.5 55t26.5 87.5t24.5 114.5t26.5 152z" />
    <glyph glyph-name="agrave" unicode="&#xe0;" horiz-adv-x="1196" 
d="M1169 180l23 -14q-58 -99 -122.5 -142.5t-151.5 -43.5q-154 0 -227 73t-54 203q-2 0 -5 1t-5 1q-2 -5 -5 -15q-12 -38 -19 -57t-21 -52t-26.5 -50.5t-33 -40.5t-43 -34.5t-54.5 -20t-69 -8.5q-331 0 -331 342q0 311 128 492t363 181q82 0 123 -30.5t57 -90.5l21 93
q57 -7 213.5 -1t216.5 19q-10 -50 -48.5 -233.5t-63 -310t-44.5 -255.5q-1 -5 -3 -19t-3 -20t-2 -19t-0.5 -19.5t2 -16.5t5 -15.5t9 -11t14 -8t19.5 -2.5q28 0 59.5 25.5t77.5 99.5zM467 55q53 0 101.5 116.5t76 280.5t27.5 312q0 103 -17.5 143.5t-54.5 40.5q-36 0 -53 -41
t-39 -172l-78 -463q-23 -117 -16.5 -167t53.5 -50zM760 1434l98 -375l-14 -10l-281 211q-53 36 -53 106q0 43 31 71.5t70 31.5t73 -9z" />
    <glyph glyph-name="aacute" unicode="&#xe1;" horiz-adv-x="1196" 
d="M1169 180l23 -14q-58 -99 -122.5 -142.5t-151.5 -43.5q-154 0 -227 73t-54 203q-2 0 -5 1t-5 1q-2 -5 -5 -15q-12 -38 -19 -57t-21 -52t-26.5 -50.5t-33 -40.5t-43 -34.5t-54.5 -20t-69 -8.5q-331 0 -331 342q0 311 128 492t363 181q82 0 123 -30.5t57 -90.5l21 93
q57 -7 213.5 -1t216.5 19q-10 -50 -48.5 -233.5t-63 -310t-44.5 -255.5q-1 -5 -3 -19t-3 -20t-2 -19t-0.5 -19.5t2 -16.5t5 -15.5t9 -11t14 -8t19.5 -2.5q28 0 59.5 25.5t77.5 99.5zM467 55q53 0 101.5 116.5t76 280.5t27.5 312q0 103 -17.5 143.5t-54.5 40.5q-36 0 -53 -41
t-39 -172l-78 -463q-23 -117 -16.5 -167t53.5 -50zM612 1067l160 416l139 18q30 3 57.5 -2t49.5 -26.5t22 -57.5q0 -38 -16 -64.5t-63 -58.5l-340 -231z" />
    <glyph glyph-name="acircumflex" unicode="&#xe2;" horiz-adv-x="1196" 
d="M1169 180l23 -14q-58 -99 -122.5 -142.5t-151.5 -43.5q-154 0 -227 73t-54 203q-2 0 -5 1t-5 1q-2 -5 -5 -15q-12 -38 -19 -57t-21 -52t-26.5 -50.5t-33 -40.5t-43 -34.5t-54.5 -20t-69 -8.5q-331 0 -331 342q0 311 128 492t363 181q82 0 123 -30.5t57 -90.5l21 93
q57 -7 213.5 -1t216.5 19q-10 -50 -48.5 -233.5t-63 -310t-44.5 -255.5q-1 -5 -3 -19t-3 -20t-2 -19t-0.5 -19.5t2 -16.5t5 -15.5t9 -11t14 -8t19.5 -2.5q28 0 59.5 25.5t77.5 99.5zM467 55q53 0 101.5 116.5t76 280.5t27.5 312q0 103 -17.5 143.5t-54.5 40.5q-36 0 -53 -41
t-39 -172l-78 -463q-23 -117 -16.5 -167t53.5 -50zM406 1057l198 338q20 12 70.5 29.5t91.5 17.5q63 0 97 -27.5t46 -83.5l56 -280l-13 -2l-209 190l-329 -188z" />
    <glyph glyph-name="atilde" unicode="&#xe3;" horiz-adv-x="1196" 
d="M1169 180l23 -14q-58 -99 -122.5 -142.5t-151.5 -43.5q-154 0 -227 73t-54 203q-2 0 -5 1t-5 1q-2 -5 -5 -15q-12 -38 -19 -57t-21 -52t-26.5 -50.5t-33 -40.5t-43 -34.5t-54.5 -20t-69 -8.5q-331 0 -331 342q0 311 128 492t363 181q82 0 123 -30.5t57 -90.5l21 93
q57 -7 213.5 -1t216.5 19q-10 -50 -48.5 -233.5t-63 -310t-44.5 -255.5q-1 -5 -3 -19t-3 -20t-2 -19t-0.5 -19.5t2 -16.5t5 -15.5t9 -11t14 -8t19.5 -2.5q28 0 59.5 25.5t77.5 99.5zM467 55q53 0 101.5 116.5t76 280.5t27.5 312q0 103 -17.5 143.5t-54.5 40.5q-36 0 -53 -41
t-39 -172l-78 -463q-23 -117 -16.5 -167t53.5 -50zM856 1092q-78 0 -186 49q-75 33 -117 33q-87 0 -133 -80l-14 6q46 146 111 217.5t165 71.5q15 0 30.5 -2.5t37.5 -10.5t31 -11.5t38 -16.5t33 -15q73 -30 106 -30q27 0 46 4t44.5 24.5t43.5 57.5l16 -7
q-53 -153 -114 -221.5t-138 -68.5z" />
    <glyph glyph-name="adieresis" unicode="&#xe4;" horiz-adv-x="1196" 
d="M1169 180l23 -14q-58 -99 -122.5 -142.5t-151.5 -43.5q-154 0 -227 73t-54 203q-2 0 -5 1t-5 1q-2 -5 -5 -15q-12 -38 -19 -57t-21 -52t-26.5 -50.5t-33 -40.5t-43 -34.5t-54.5 -20t-69 -8.5q-331 0 -331 342q0 311 128 492t363 181q82 0 123 -30.5t57 -90.5l21 93
q57 -7 213.5 -1t216.5 19q-10 -50 -48.5 -233.5t-63 -310t-44.5 -255.5q-1 -5 -3 -19t-3 -20t-2 -19t-0.5 -19.5t2 -16.5t5 -15.5t9 -11t14 -8t19.5 -2.5q28 0 59.5 25.5t77.5 99.5zM467 55q53 0 101.5 116.5t76 280.5t27.5 312q0 103 -17.5 143.5t-54.5 40.5q-36 0 -53 -41
t-39 -172l-78 -463q-23 -117 -16.5 -167t53.5 -50zM774 1241q10 66 63.5 111t141.5 45q87 0 127.5 -39.5t28.5 -116.5q-11 -72 -64 -116t-141 -44q-96 0 -131 46t-25 114zM324 1241q10 66 63 111t141 45q87 0 127.5 -39.5t28.5 -116.5q-11 -72 -64 -116t-141 -44
q-96 0 -130.5 46t-24.5 114z" />
    <glyph glyph-name="aring" unicode="&#xe5;" horiz-adv-x="1196" 
d="M1169 180l23 -14q-58 -99 -122.5 -142.5t-151.5 -43.5q-154 0 -227 73t-54 203q-2 0 -5 1t-5 1q-2 -5 -5 -15q-12 -38 -19 -57t-21 -52t-26.5 -50.5t-33 -40.5t-43 -34.5t-54.5 -20t-69 -8.5q-331 0 -331 342q0 311 128 492t363 181q82 0 123 -30.5t57 -90.5l21 93
q57 -7 213.5 -1t216.5 19q-10 -50 -48.5 -233.5t-63 -310t-44.5 -255.5q-1 -5 -3 -19t-3 -20t-2 -19t-0.5 -19.5t2 -16.5t5 -15.5t9 -11t14 -8t19.5 -2.5q28 0 59.5 25.5t77.5 99.5zM467 55q53 0 101.5 116.5t76 280.5t27.5 312q0 103 -17.5 143.5t-54.5 40.5q-36 0 -53 -41
t-39 -172l-78 -463q-23 -117 -16.5 -167t53.5 -50zM760 1425q-73 0 -121.5 -50.5t-48.5 -131.5q0 -113 123 -113q81 0 127.5 53.5t46.5 127.5q0 50 -31 82t-96 32zM526 1235q0 101 69.5 170.5t178.5 69.5q87 0 129.5 -42t42.5 -114q0 -104 -68 -171t-176 -67
q-176 0 -176 154z" />
    <glyph glyph-name="ae" unicode="&#xe6;" horiz-adv-x="1572" 
d="M645 307h-8q-11 -45 -21 -78.5t-26.5 -74t-37.5 -69.5t-48.5 -54t-65 -38t-82.5 -13q-331 0 -331 342q0 311 128 492t363 181q82 0 123 -30.5t57 -90.5l21 93q103 -4 281.5 12t256.5 16q167 0 247.5 -56t80.5 -157q0 -75 -40 -132t-99.5 -88.5t-136 -51t-140.5 -24.5
t-123 -3l-16 -90q-61 -344 164 -344q91 0 168 75.5t123 223.5l26 -8q-55 -187 -164.5 -272.5t-302.5 -85.5q-368 0 -397 325zM467 55q53 0 101.5 116.5t76 280.5t27.5 312q0 103 -17.5 143.5t-54.5 40.5q-36 0 -53 -41t-39 -172l-78 -463q-23 -117 -16.5 -167t53.5 -50z
M1253 752l17 106q18 115 -43 115q-67 0 -105.5 -107.5t-72.5 -357.5q90 4 137 66.5t67 177.5z" />
    <glyph glyph-name="ccedilla" unicode="&#xe7;" horiz-adv-x="968" 
d="M868 350l29 -6q-13 -58 -30 -104.5t-50.5 -97t-78 -84.5t-115.5 -56t-160 -22h-31l-84 -107q97 31 189 31q78 0 121.5 -43.5t43.5 -128.5q0 -37 -14 -73.5t-46.5 -73.5t-97.5 -60t-155 -23q-109 0 -157 40.5t-48 92.5q0 45 25.5 74t73.5 29q84 0 86 -98l-58 -27
q-17 -37 -6 -61.5t51 -24.5q17 0 33 6.5t34.5 23.5t30 55t11.5 93q0 152 -68 152q-23 0 -86 -19l-8 23l90 123q-177 15 -267.5 117.5t-90.5 281.5q0 283 167 447.5t455 164.5q164 0 248 -64.5t84 -162.5q0 -87 -53 -150t-154 -63q-86 0 -120.5 39.5t-34.5 95.5q0 46 26 111
h97q24 50 24 94t-23 60t-53 16q-86 0 -134.5 -99t-80.5 -294l-30 -183q-10 -57 -14 -101.5t0 -94t20 -82.5t51.5 -54.5t89.5 -21.5q32 0 67.5 15t74 47.5t72.5 96t54 150.5z" />
    <glyph glyph-name="egrave" unicode="&#xe8;" horiz-adv-x="972" 
d="M659 764l13 80q8 71 -2 100t-43 29q-20 0 -36.5 -9.5t-30 -31t-24 -44.5t-21 -63t-18 -73.5t-18.5 -87.5l-30 -156q80 -2 134.5 59.5t75.5 196.5zM639 995q344 0 344 -213q0 -70 -33 -124.5t-83.5 -86.5t-119.5 -52.5t-131.5 -28t-128.5 -7.5h-43l-14 -80
q-14 -80 -14 -149q0 -111 44.5 -158t135.5 -47q38 0 76 15.5t76.5 48.5t73.5 93t59 142l28 -8q-52 -189 -166.5 -274.5t-302.5 -85.5q-200 0 -314 100t-114 280q0 159 46.5 281.5t131.5 199t198 115.5t251 39zM692 1434l99 -375l-15 -10l-280 211q-54 36 -54 106
q0 43 31 71.5t70 31.5t73 -9z" />
    <glyph glyph-name="eacute" unicode="&#xe9;" horiz-adv-x="972" 
d="M672 844l-13 -80q-21 -135 -75.5 -196.5t-134.5 -59.5l30 156q11 54 18.5 87.5t18 73.5t21 63t24 44.5t30 31t36.5 9.5q33 0 43 -29t2 -100zM639 995q-138 0 -251 -39t-198 -115.5t-131.5 -199t-46.5 -281.5q0 -180 114 -280t314 -100q188 0 302.5 85.5t166.5 274.5
l-28 8q-24 -82 -59 -142t-73.5 -93t-76.5 -48.5t-76 -15.5q-91 0 -135.5 47t-44.5 158q0 69 14 149l14 80h43q66 0 128.5 7.5t131.5 28t119.5 52.5t83.5 86.5t33 124.5q0 213 -344 213zM541 1059l159 416l140 18q30 3 57.5 -2t49.5 -26.5t22 -57.5q0 -37 -16.5 -64
t-63.5 -59l-340 -231z" />
    <glyph glyph-name="ecircumflex" unicode="&#xea;" horiz-adv-x="972" 
d="M672 844l-13 -80q-21 -135 -75.5 -196.5t-134.5 -59.5l30 156q11 54 18.5 87.5t18 73.5t21 63t24 44.5t30 31t36.5 9.5q33 0 43 -29t2 -100zM639 995q-138 0 -251 -39t-198 -115.5t-131.5 -199t-46.5 -281.5q0 -180 114 -280t314 -100q188 0 302.5 85.5t166.5 274.5
l-28 8q-24 -82 -59 -142t-73.5 -93t-76.5 -48.5t-76 -15.5q-91 0 -135.5 47t-44.5 158q0 69 14 149l14 80h43q66 0 128.5 7.5t131.5 28t119.5 52.5t83.5 86.5t33 124.5q0 213 -344 213zM373 1057l198 338q20 12 70.5 29.5t91.5 17.5q63 0 97.5 -27.5t46.5 -83.5l55 -280
l-12 -2l-209 190l-330 -188z" />
    <glyph glyph-name="edieresis" unicode="&#xeb;" horiz-adv-x="972" 
d="M659 764l13 80q8 71 -2 100t-43 29q-20 0 -36.5 -9.5t-30 -31t-24 -44.5t-21 -63t-18 -73.5t-18.5 -87.5l-30 -156q80 -2 134.5 59.5t75.5 196.5zM639 995q344 0 344 -213q0 -70 -33 -124.5t-83.5 -86.5t-119.5 -52.5t-131.5 -28t-128.5 -7.5h-43l-14 -80
q-14 -80 -14 -149q0 -111 44.5 -158t135.5 -47q38 0 76 15.5t76.5 48.5t73.5 93t59 142l28 -8q-52 -189 -166.5 -274.5t-302.5 -85.5q-200 0 -314 100t-114 280q0 159 46.5 281.5t131.5 199t198 115.5t251 39zM729 1241q10 66 63.5 111t141.5 45q87 0 127.5 -39.5
t28.5 -116.5q-11 -72 -64 -116t-141 -44q-96 0 -131 46t-25 114zM279 1241q10 66 63 111t141 45q87 0 127.5 -39.5t28.5 -116.5q-11 -72 -64 -116t-141 -44q-96 0 -130.5 46t-24.5 114z" />
    <glyph glyph-name="igrave" unicode="&#xec;" horiz-adv-x="679" 
d="M426 1434l98 -375l-14 -10l-281 211q-53 36 -53 106q0 43 31 71.5t70 31.5t73 -9zM641 190l23 -14q-44 -69 -79 -107t-92 -62.5t-135 -24.5q-130 0 -209 59t-79 186q0 67 26 195l103 528h-162l2 25h592q-120 -584 -144 -711q-20 -110 -20 -155q0 -23 12 -34.5t29 -11.5
q53 0 133 127z" />
    <glyph glyph-name="iacute" unicode="&#xed;" horiz-adv-x="679" 
d="M332 1059l160 416l139 18q30 3 57.5 -2t49.5 -26.5t22 -57.5q0 -37 -16.5 -64t-63.5 -59l-340 -231zM641 190l23 -14q-44 -69 -79 -107t-92 -62.5t-135 -24.5q-130 0 -209 59t-79 186q0 67 26 195l103 528h-162l2 25h592q-120 -584 -144 -711q-20 -110 -20 -155
q0 -23 12 -34.5t29 -11.5q53 0 133 127z" />
    <glyph glyph-name="icircumflex" unicode="&#xee;" horiz-adv-x="679" 
d="M641 190l23 -14q-44 -69 -79 -107t-92 -62.5t-135 -24.5q-130 0 -209 59t-79 186q0 67 26 195l103 528h-162l2 25h592q-120 -584 -144 -711q-20 -110 -20 -155q0 -23 12 -34.5t29 -11.5q53 0 133 127zM139 1057l199 338q20 12 70.5 29.5t91.5 17.5q63 0 97 -27.5
t46 -83.5l55 -280l-12 -2l-209 190l-330 -188z" />
    <glyph glyph-name="idieresis" unicode="&#xef;" horiz-adv-x="679" 
d="M496 1241q10 66 63 111t141 45q87 0 127.5 -39.5t28.5 -116.5q-11 -72 -64 -116t-141 -44q-96 0 -130.5 46t-24.5 114zM45 1241q10 66 63.5 111t141.5 45q87 0 127.5 -39.5t28.5 -116.5q-11 -72 -64 -116t-141 -44q-96 0 -131 46t-25 114zM641 190l23 -14
q-44 -69 -79 -107t-92 -62.5t-135 -24.5q-130 0 -209 59t-79 186q0 67 26 195l103 528h-162l2 25h592q-120 -584 -144 -711q-20 -110 -20 -155q0 -23 12 -34.5t29 -11.5q53 0 133 127z" />
    <glyph glyph-name="eth" unicode="&#xf0;" horiz-adv-x="1114" 
d="M20 393q0 127 40 237t112 191t180 127.5t238 46.5q123 0 176 -80q6 120 -13.5 242.5t-58.5 196.5l-301 -168v49l281 156q-26 32 -55.5 55t-77.5 43.5t-121.5 30t-169.5 6.5l6 30q139 18 250.5 12t189.5 -26.5t148 -58.5l266 143v-45l-225 -125q227 -180 227 -586
q0 -95 -7.5 -181t-27.5 -177.5t-51 -167.5t-82 -145t-116.5 -116t-158 -75t-204.5 -28q-227 0 -336 107t-109 306zM590 248l65 416v1v1l1 2q30 189 26 238q-4 60 -49 64l-10 1q-30 0 -52 -20t-38.5 -64.5t-27.5 -95t-24 -132.5l-65 -411q-7 -42 -10.5 -68.5t-6 -58t0 -50.5
t8.5 -36.5t19 -25t32 -7.5q58 0 84 56.5t47 189.5z" />
    <glyph glyph-name="ntilde" unicode="&#xf1;" horiz-adv-x="1257" 
d="M936 -18q-84 0 -148 22.5t-105.5 79t-41.5 141.5q0 36 10.5 93t27.5 122t32 117.5t32 107t19 62.5q10 35 16 57t11 44.5t5.5 35t-2 23t-9.5 14.5t-19 4q-36 0 -65.5 -34.5t-71.5 -114.5q-122 -230 -158 -746q-57 2 -236.5 -5t-218.5 -15l90 385l89 575h-146l2 25h565
l-77 -330l8 -2q21 50 32.5 76t31.5 66.5t35 61.5t38 49.5t46 43t53.5 29t67 20.5t79.5 6q126 0 188 -59t62 -164q0 -63 -21 -149l-98 -390q-23 -95 -23 -122q0 -50 45 -50q64 0 138 132l22 -13q-38 -67 -71 -105.5t-92.5 -65.5t-141.5 -27zM889 1092q-79 0 -187 49
q-75 33 -116 33q-87 0 -133 -80l-15 6q46 146 111 217.5t166 71.5q15 0 30.5 -2.5t37.5 -10.5t31 -11.5t38 -16.5t33 -15q73 -30 106 -30q27 0 46 4t44 24.5t43 57.5l17 -7q-53 -153 -114 -221.5t-138 -68.5z" />
    <glyph glyph-name="ograve" unicode="&#xf2;" horiz-adv-x="1083" 
d="M446 -20q-430 0 -430 385q0 290 159.5 460t451.5 170q212 0 321 -88.5t109 -277.5q0 -166 -45 -292t-127.5 -203t-192.5 -115.5t-246 -38.5zM586 248l69 416q31 163 27.5 235t-57.5 72q-62 0 -89 -63t-59 -249l-69 -411q-24 -122 -17 -184t62 -62q59 0 84 52t49 194z
M723 1434l98 -375l-14 -10l-281 211q-53 36 -53 106q0 43 31 71.5t70 31.5t73 -9z" />
    <glyph glyph-name="oacute" unicode="&#xf3;" horiz-adv-x="1083" 
d="M446 -20q-430 0 -430 385q0 290 159.5 460t451.5 170q212 0 321 -88.5t109 -277.5q0 -166 -45 -292t-127.5 -203t-192.5 -115.5t-246 -38.5zM586 248l69 416q31 163 27.5 235t-57.5 72q-62 0 -89 -63t-59 -249l-69 -411q-24 -122 -17 -184t62 -62q59 0 84 52t49 194z
M535 1059l159 416l140 18q30 3 57.5 -2t49.5 -26.5t22 -57.5q0 -37 -16.5 -64t-63.5 -59l-340 -231z" />
    <glyph glyph-name="ocircumflex" unicode="&#xf4;" horiz-adv-x="1083" 
d="M446 -20q-430 0 -430 385q0 290 159.5 460t451.5 170q212 0 321 -88.5t109 -277.5q0 -166 -45 -292t-127.5 -203t-192.5 -115.5t-246 -38.5zM586 248l69 416q31 163 27.5 235t-57.5 72q-62 0 -89 -63t-59 -249l-69 -411q-24 -122 -17 -184t62 -62q59 0 84 52t49 194z
M369 1057l198 338q20 12 70.5 29.5t91.5 17.5q63 0 97 -27.5t46 -83.5l56 -280l-13 -2l-208 190l-330 -188z" />
    <glyph glyph-name="otilde" unicode="&#xf5;" horiz-adv-x="1083" 
d="M446 -20q-430 0 -430 385q0 290 159.5 460t451.5 170q212 0 321 -88.5t109 -277.5q0 -166 -45 -292t-127.5 -203t-192.5 -115.5t-246 -38.5zM586 248l69 416q31 163 27.5 235t-57.5 72q-62 0 -89 -63t-59 -249l-69 -411q-24 -122 -17 -184t62 -62q59 0 84 52t49 194z
M819 1092q-78 0 -186 49q-75 33 -117 33q-87 0 -133 -80l-14 6q46 146 111 217.5t165 71.5q15 0 30.5 -2.5t37.5 -10.5t31 -11.5t38 -16.5t33 -15q73 -30 107 -30q27 0 46 4t44 24.5t43 57.5l16 -7q-53 -153 -114 -221.5t-138 -68.5z" />
    <glyph glyph-name="odieresis" unicode="&#xf6;" horiz-adv-x="1083" 
d="M446 -20q-430 0 -430 385q0 290 159.5 460t451.5 170q212 0 321 -88.5t109 -277.5q0 -166 -45 -292t-127.5 -203t-192.5 -115.5t-246 -38.5zM586 248l69 416q31 163 27.5 235t-57.5 72q-62 0 -89 -63t-59 -249l-69 -411q-24 -122 -17 -184t62 -62q59 0 84 52t49 194z
M721 1241q10 66 63.5 111t141.5 45q87 0 127 -39.5t28 -116.5q-11 -72 -63.5 -116t-140.5 -44q-96 0 -131 46t-25 114zM270 1241q10 66 63.5 111t141.5 45q87 0 127.5 -39.5t28.5 -116.5q-11 -72 -64 -116t-141 -44q-96 0 -131 46t-25 114z" />
    <glyph glyph-name="divide" unicode="&#xf7;" horiz-adv-x="1126" 
d="M639 1030q46 0 72 -21t26 -63q0 -63 -37.5 -103t-97.5 -40q-98 0 -98 88q0 60 40 99.5t95 39.5zM537 496q46 0 73 -21.5t27 -64.5q0 -62 -37.5 -102t-97.5 -40q-52 0 -75.5 24.5t-23.5 63.5q0 60 39.5 100t94.5 40zM1022 621h-930l12 63h930z" />
    <glyph glyph-name="oslash" unicode="&#xf8;" horiz-adv-x="1083" 
d="M446 -20q-84 0 -147 14l-70 -137l-28 10l69 133q-254 67 -254 365q0 290 159.5 460t451.5 170q71 0 153 -14l72 137l29 -12l-70 -131q246 -66 246 -346q0 -166 -45 -292t-127.5 -203t-192.5 -115.5t-246 -38.5zM477 659l-65 -389l260 504q17 103 7 150t-54 47
q-62 0 -89 -63t-59 -249zM586 248l69 416q0 3 1 8.5t1 7.5l-262 -502q-13 -88 -1 -132t59 -44q59 0 84 52t49 194z" />
    <glyph glyph-name="ugrave" unicode="&#xf9;" horiz-adv-x="1263" 
d="M68 289q90 491 129 661h-129l4 25h561q-135 -589 -168 -778q-13 -83 5 -105q10 -12 28 -12q54 0 118.5 142.5t102.5 377.5q37 249 39 352q52 -2 229 8.5t217 18.5q-115 -550 -147 -795q-10 -83 -1 -107q11 -30 48 -30q58 0 137 129l23 -16q-60 -100 -130.5 -139
t-168.5 -39q-182 0 -251 88.5t-18 259.5l-12 4q-29 -90 -59 -149.5t-74 -108t-105.5 -71.5t-144.5 -23q-146 0 -202.5 84t-30.5 223zM786 1434l99 -375l-15 -10l-280 211q-53 36 -53 106q0 43 31 71.5t70 31.5t73 -9z" />
    <glyph glyph-name="uacute" unicode="&#xfa;" horiz-adv-x="1263" 
d="M68 289q90 491 129 661h-129l4 25h561q-135 -589 -168 -778q-13 -83 5 -105q10 -12 28 -12q54 0 118.5 142.5t102.5 377.5q37 249 39 352q52 -2 229 8.5t217 18.5q-115 -550 -147 -795q-10 -83 -1 -107q11 -30 48 -30q58 0 137 129l23 -16q-60 -100 -130.5 -139
t-168.5 -39q-182 0 -251 88.5t-18 259.5l-12 4q-29 -90 -59 -149.5t-74 -108t-105.5 -71.5t-144.5 -23q-146 0 -202.5 84t-30.5 223zM631 1059l160 416l139 18q30 3 57.5 -2t49.5 -26.5t22 -57.5q0 -37 -16.5 -64t-63.5 -59l-340 -231z" />
    <glyph glyph-name="ucircumflex" unicode="&#xfb;" horiz-adv-x="1263" 
d="M68 289q90 491 129 661h-129l4 25h561q-135 -589 -168 -778q-13 -83 5 -105q10 -12 28 -12q54 0 118.5 142.5t102.5 377.5q37 249 39 352q52 -2 229 8.5t217 18.5q-115 -550 -147 -795q-10 -83 -1 -107q11 -30 48 -30q58 0 137 129l23 -16q-60 -100 -130.5 -139
t-168.5 -39q-182 0 -251 88.5t-18 259.5l-12 4q-29 -90 -59 -149.5t-74 -108t-105.5 -71.5t-144.5 -23q-146 0 -202.5 84t-30.5 223zM446 1057l199 338q20 12 70.5 29.5t91.5 17.5q63 0 97 -27.5t46 -83.5l56 -280l-13 -2l-209 190l-329 -188z" />
    <glyph glyph-name="udieresis" unicode="&#xfc;" horiz-adv-x="1263" 
d="M68 289q90 491 129 661h-129l4 25h561q-135 -589 -168 -778q-13 -83 5 -105q10 -12 28 -12q54 0 118.5 142.5t102.5 377.5q37 249 39 352q52 -2 229 8.5t217 18.5q-115 -550 -147 -795q-10 -83 -1 -107q11 -30 48 -30q58 0 137 129l23 -16q-60 -100 -130.5 -139
t-168.5 -39q-182 0 -251 88.5t-18 259.5l-12 4q-29 -90 -59 -149.5t-74 -108t-105.5 -71.5t-144.5 -23q-146 0 -202.5 84t-30.5 223zM799 1241q10 66 63.5 111t141.5 45q87 0 127 -39.5t28 -116.5q-11 -72 -64 -116t-141 -44q-96 0 -130.5 46t-24.5 114zM348 1241
q10 66 63.5 111t141.5 45q87 0 127.5 -39.5t28.5 -116.5q-11 -72 -64 -116t-141 -44q-96 0 -131 46t-25 114z" />
    <glyph glyph-name="yacute" unicode="&#xfd;" horiz-adv-x="1122" 
d="M147 -307l-108 -15q-15 -17 -20.5 -41.5t0.5 -48t30.5 -39.5t65.5 -16q74 0 172 65t205 189q-36 130 -267 922q-27 98 -41 118q-13 19 -34 19q-30 0 -49 -28.5t-66 -131.5l-27 12q13 33 21.5 52t27.5 54.5t36 57.5t45 50t58.5 44t72.5 27.5t89 11.5q111 0 174 -52
t101 -181q32 -111 81.5 -305.5t76.5 -288.5q137 200 184 292t47 154q0 39 -18 57t-54 21l-61 -86q-89 20 -131.5 77t-42.5 126q0 29 10.5 59t32 59.5t62 48.5t93.5 19q205 0 205 -223q0 -69 -33 -161t-88.5 -189t-112.5 -181.5t-120 -166.5q-21 -27 -61 -80q-47 -61 -70 -91
t-65.5 -83t-68 -80.5t-65.5 -69t-69.5 -63t-69 -48.5t-74.5 -40t-76.5 -22t-83.5 -9q-120 0 -198 65.5t-78 163.5q0 97 60.5 154t146.5 57q81 0 132 -60t23 -175zM618 1059l160 416l140 18q30 3 57.5 -2t49.5 -26.5t22 -57.5q0 -37 -16.5 -64t-63.5 -59l-340 -231z" />
    <glyph glyph-name="thorn" unicode="&#xfe;" horiz-adv-x="1218" 
d="M748 905q-42 0 -78.5 -50t-71.5 -173q-35 -124 -55.5 -271.5t-20.5 -232.5q0 -70 24 -109.5t66 -39.5t57.5 40.5t36.5 172.5q7 44 11 69l69 424q15 103 5.5 136.5t-43.5 33.5zM-39 -461l330 1970h-154l6 25h586l-168 -827l10 -2q25 74 50.5 122.5t63.5 89t93 59.5t129 19
q132 0 206.5 -93.5t74.5 -272.5q0 -149 -40 -273.5t-107.5 -205.5t-154.5 -125.5t-181 -44.5q-195 0 -218 155l-100 -596h227l-6 -26h-780l6 26h127z" />
    <glyph glyph-name="ydieresis" unicode="&#xff;" horiz-adv-x="1122" 
d="M147 -307l-108 -15q-15 -17 -20.5 -41.5t0.5 -48t30.5 -39.5t65.5 -16q74 0 172 65t205 189q-36 130 -267 922q-27 98 -41 118q-13 19 -34 19q-30 0 -49 -28.5t-66 -131.5l-27 12q13 33 21.5 52t27.5 54.5t36 57.5t45 50t58.5 44t72.5 27.5t89 11.5q111 0 174 -52
t101 -181q32 -111 81.5 -305.5t76.5 -288.5q137 200 184 292t47 154q0 39 -18 57t-54 21l-61 -86q-89 20 -131.5 77t-42.5 126q0 29 10.5 59t32 59.5t62 48.5t93.5 19q205 0 205 -223q0 -69 -33 -161t-88.5 -189t-112.5 -181.5t-120 -166.5q-21 -27 -61 -80q-47 -61 -70 -91
t-65.5 -83t-68 -80.5t-65.5 -69t-69.5 -63t-69 -48.5t-74.5 -40t-76.5 -22t-83.5 -9q-120 0 -198 65.5t-78 163.5q0 97 60.5 154t146.5 57q81 0 132 -60t23 -175zM737 1241q10 66 63.5 111t141.5 45q87 0 127.5 -39.5t28.5 -116.5q-11 -72 -64 -116t-141 -44q-96 0 -131 46
t-25 114zM287 1241q10 66 63.5 111t141.5 45q87 0 127 -39.5t28 -116.5q-11 -72 -64 -116t-141 -44q-96 0 -130.5 46t-24.5 114z" />
    <glyph glyph-name="Amacron" unicode="&#x100;" horiz-adv-x="1390" 
d="M745 25l-90 462h-376l-228 -462h148l-4 -25h-269l4 25h84l705 1421h201l305 -1421h78l-5 -25h-692l4 25h135zM555 1047l-264 -529h358zM557 1552l35 193h557l-35 -193h-557z" />
    <glyph glyph-name="amacron" unicode="&#x101;" horiz-adv-x="1196" 
d="M1169 180l23 -14q-58 -99 -122.5 -142.5t-151.5 -43.5q-154 0 -227 73t-54 203q-2 0 -5 1t-5 1q-2 -5 -5 -15q-12 -38 -19 -57t-21 -52t-26.5 -50.5t-33 -40.5t-43 -34.5t-54.5 -20t-69 -8.5q-331 0 -331 342q0 311 128 492t363 181q82 0 123 -30.5t57 -90.5l21 93
q57 -7 213.5 -1t216.5 19q-10 -50 -48.5 -233.5t-63 -310t-44.5 -255.5q-1 -5 -3 -19t-3 -20t-2 -19t-0.5 -19.5t2 -16.5t5 -15.5t9 -11t14 -8t19.5 -2.5q28 0 59.5 25.5t77.5 99.5zM467 55q53 0 101.5 116.5t76 280.5t27.5 312q0 103 -17.5 143.5t-54.5 40.5q-36 0 -53 -41
t-39 -172l-78 -463q-23 -117 -16.5 -167t53.5 -50zM442 1126l35 193h557l-35 -193h-557z" />
    <glyph glyph-name="Abreve" unicode="&#x102;" horiz-adv-x="1390" 
d="M745 25l-90 462h-376l-228 -462h148l-4 -25h-269l4 25h84l705 1421h201l305 -1421h78l-5 -25h-692l4 25h135zM555 1047l-264 -529h358zM571 1823l15 2q23 -63 81 -92t187 -29q213 0 289 133l16 -6q-15 -65 -43.5 -122t-70 -105t-102 -75.5t-132.5 -27.5q-66 0 -114 26
t-74.5 72.5t-39 102t-12.5 121.5z" />
    <glyph glyph-name="abreve" unicode="&#x103;" horiz-adv-x="1196" 
d="M1169 180l23 -14q-58 -99 -122.5 -142.5t-151.5 -43.5q-154 0 -227 73t-54 203q-2 0 -5 1t-5 1q-2 -5 -5 -15q-12 -38 -19 -57t-21 -52t-26.5 -50.5t-33 -40.5t-43 -34.5t-54.5 -20t-69 -8.5q-331 0 -331 342q0 311 128 492t363 181q82 0 123 -30.5t57 -90.5l21 93
q57 -7 213.5 -1t216.5 19q-10 -50 -48.5 -233.5t-63 -310t-44.5 -255.5q-1 -5 -3 -19t-3 -20t-2 -19t-0.5 -19.5t2 -16.5t5 -15.5t9 -11t14 -8t19.5 -2.5q28 0 59.5 25.5t77.5 99.5zM467 55q53 0 101.5 116.5t76 280.5t27.5 312q0 103 -17.5 143.5t-54.5 40.5q-36 0 -53 -41
t-39 -172l-78 -463q-23 -117 -16.5 -167t53.5 -50zM469 1438l18 2q14 -65 85.5 -103.5t189.5 -38.5q102 0 189 39t116 99l16 -2q-45 -183 -135 -281t-241 -98q-89 0 -148.5 54.5t-80.5 140t-9 188.5z" />
    <glyph glyph-name="Aogonek" unicode="&#x104;" horiz-adv-x="1390" 
d="M745 25l-90 462h-376l-228 -462h148l-4 -25h-269l4 25h84l705 1421h201l305 -1421h78l-5 -25h-243q-77 -82 -108.5 -142t-31.5 -147q0 -56 19 -81t63 -25q41 0 69 23t58 79l19 -8q-94 -211 -297 -211q-86 0 -134 47.5t-48 126.5q0 35 7.5 64.5t20.5 53.5t36 47t46.5 41
t61 40t71 39.5t83.5 42.5q13 7 20 10h-404l4 25h135zM555 1047l-264 -529h358z" />
    <glyph glyph-name="aogonek" unicode="&#x105;" horiz-adv-x="1196" 
d="M1169 180l23 -14q-26 -44 -57 -78.5t-53.5 -51.5t-59.5 -42q-81 -51 -112 -118.5t-31 -164.5q0 -56 19 -81t63 -25q41 0 68.5 23t57.5 79l19 -8q-94 -211 -297 -211q-86 0 -134 47.5t-48 126.5q0 39 8 71t28.5 60.5t42 49.5t61.5 46.5t73.5 43.5t91.5 47h-14
q-154 0 -227 73t-54 203q-2 0 -5 1t-5 1q-2 -5 -5 -15q-12 -38 -19 -57t-21 -52t-26.5 -50.5t-33 -40.5t-43 -34.5t-54.5 -20t-69 -8.5q-331 0 -331 342q0 311 128 492t363 181q82 0 123 -30.5t57 -90.5l21 93q57 -7 213.5 -1t216.5 19q-10 -50 -48.5 -233.5t-63 -310
t-44.5 -255.5q-1 -5 -3 -19t-3 -20t-2 -19t-0.5 -19.5t2 -16.5t5 -15.5t9 -11t14 -8t19.5 -2.5q28 0 59.5 25.5t77.5 99.5zM467 55q53 0 101.5 116.5t76 280.5t27.5 312q0 103 -17.5 143.5t-54.5 40.5q-36 0 -53 -41t-39 -172l-78 -463q-23 -117 -16.5 -167t53.5 -50z" />
    <glyph glyph-name="Cacute" unicode="&#x106;" horiz-adv-x="1280" 
d="M936 1432q-129 0 -203 -111.5t-137 -357.5q-76 -298 -76 -615q0 -155 60 -238t176 -83q54 0 114 24.5t120 72t112.5 130t81.5 186.5l24 -6q-128 -454 -571 -454q-271 0 -411 133.5t-140 398.5q0 144 30.5 279t96.5 256.5t160.5 212t232 143.5t301.5 53q75 0 152.5 -15
t130 -30.5t65.5 -15.5q21 0 33.5 10t28.5 33h16l-57 -453h-14q-28 86 -59.5 158t-73 141t-91.5 108.5t-102 39.5zM885 1522l225 368l70 -12q114 -20 114 -96q0 -39 -20.5 -65.5t-71.5 -49.5l-307 -156z" />
    <glyph glyph-name="cacute" unicode="&#x107;" horiz-adv-x="968" 
d="M868 350l29 -6q-13 -58 -30 -104.5t-50.5 -97t-78 -84.5t-115.5 -56t-160 -22q-210 0 -319 104.5t-109 298.5q0 283 167 447.5t455 164.5q164 0 248 -64.5t84 -162.5q0 -87 -53 -150t-154 -63q-86 0 -120.5 39.5t-34.5 95.5q0 46 26 111h97q24 50 24 94t-23 60t-53 16
q-86 0 -134.5 -99t-80.5 -294l-30 -183q-10 -57 -14 -101.5t0 -94t20 -82.5t51.5 -54.5t89.5 -21.5q32 0 67.5 15t74 47.5t72.5 96t54 150.5zM590 1059l160 416l139 18q30 3 57.5 -2t49.5 -26.5t22 -57.5q0 -37 -16.5 -64t-63.5 -59l-340 -231z" />
    <glyph glyph-name="Ccircumflex" unicode="&#x108;" horiz-adv-x="1280" 
d="M936 1432q-129 0 -203 -111.5t-137 -357.5q-76 -298 -76 -615q0 -155 60 -238t176 -83q54 0 114 24.5t120 72t112.5 130t81.5 186.5l24 -6q-128 -454 -571 -454q-271 0 -411 133.5t-140 398.5q0 144 30.5 279t96.5 256.5t160.5 212t232 143.5t301.5 53q75 0 152.5 -15
t130 -30.5t65.5 -15.5q21 0 33.5 10t28.5 33h16l-57 -453h-14q-28 86 -59.5 158t-73 141t-91.5 108.5t-102 39.5zM639 1526l254 289q77 36 160 36q107 0 135 -92l78 -241l-13 -9l-245 138l-359 -134z" />
    <glyph glyph-name="ccircumflex" unicode="&#x109;" horiz-adv-x="968" 
d="M868 350l29 -6q-13 -58 -30 -104.5t-50.5 -97t-78 -84.5t-115.5 -56t-160 -22q-210 0 -319 104.5t-109 298.5q0 283 167 447.5t455 164.5q164 0 248 -64.5t84 -162.5q0 -87 -53 -150t-154 -63q-86 0 -120.5 39.5t-34.5 95.5q0 46 26 111h97q24 50 24 94t-23 60t-53 16
q-86 0 -134.5 -99t-80.5 -294l-30 -183q-10 -57 -14 -101.5t0 -94t20 -82.5t51.5 -54.5t89.5 -21.5q32 0 67.5 15t74 47.5t72.5 96t54 150.5zM367 1057l198 338q20 12 70.5 29.5t91.5 17.5q63 0 97 -27.5t46 -83.5l56 -280l-13 -2l-208 190l-330 -188z" />
    <glyph glyph-name="Cdotaccent" unicode="&#x10a;" horiz-adv-x="1280" 
d="M936 1432q-129 0 -203 -111.5t-137 -357.5q-76 -298 -76 -615q0 -155 60 -238t176 -83q54 0 114 24.5t120 72t112.5 130t81.5 186.5l24 -6q-128 -454 -571 -454q-271 0 -411 133.5t-140 398.5q0 144 30.5 279t96.5 256.5t160.5 212t232 143.5t301.5 53q75 0 152.5 -15
t130 -30.5t65.5 -15.5q21 0 33.5 10t28.5 33h16l-57 -453h-14q-28 86 -59.5 158t-73 141t-91.5 108.5t-102 39.5zM961 1516q-99 0 -142 43.5t-43 103.5q0 97 76.5 155t183.5 58q87 0 135 -39t48 -111q0 -97 -76 -153.5t-182 -56.5z" />
    <glyph glyph-name="cdotaccent" unicode="&#x10b;" horiz-adv-x="968" 
d="M868 350l29 -6q-13 -58 -30 -104.5t-50.5 -97t-78 -84.5t-115.5 -56t-160 -22q-210 0 -319 104.5t-109 298.5q0 283 167 447.5t455 164.5q164 0 248 -64.5t84 -162.5q0 -87 -53 -150t-154 -63q-86 0 -120.5 39.5t-34.5 95.5q0 46 26 111h97q24 50 24 94t-23 60t-53 16
q-86 0 -134.5 -99t-80.5 -294l-30 -183q-10 -57 -14 -101.5t0 -94t20 -82.5t51.5 -54.5t89.5 -21.5q32 0 67.5 15t74 47.5t72.5 96t54 150.5zM657 1081q-58 0 -100 15t-63.5 39.5t-31 51t-9.5 56.5q0 108 84 172t204 64q94 0 147.5 -43t53.5 -121q0 -108 -84 -171t-201 -63z
" />
    <glyph glyph-name="Ccaron" unicode="&#x10c;" horiz-adv-x="1280" 
d="M936 1432q-129 0 -203 -111.5t-137 -357.5q-76 -298 -76 -615q0 -155 60 -238t176 -83q54 0 114 24.5t120 72t112.5 130t81.5 186.5l24 -6q-128 -454 -571 -454q-271 0 -411 133.5t-140 398.5q0 144 30.5 279t96.5 256.5t160.5 212t232 143.5t301.5 53q75 0 152.5 -15
t130 -30.5t65.5 -15.5q21 0 33.5 10t28.5 33h16l-57 -453h-14q-28 86 -59.5 158t-73 141t-91.5 108.5t-102 39.5zM1386 1841l-258 -276q-84 -39 -143 -39q-65 0 -97.5 22.5t-53.5 69.5l-86 225l12 10l270 -133l348 133z" />
    <glyph glyph-name="ccaron" unicode="&#x10d;" horiz-adv-x="968" 
d="M868 350l29 -6q-13 -58 -30 -104.5t-50.5 -97t-78 -84.5t-115.5 -56t-160 -22q-210 0 -319 104.5t-109 298.5q0 283 167 447.5t455 164.5q164 0 248 -64.5t84 -162.5q0 -87 -53 -150t-154 -63q-86 0 -120.5 39.5t-34.5 95.5q0 46 26 111h97q24 50 24 94t-23 60t-53 16
q-86 0 -134.5 -99t-80.5 -294l-30 -183q-10 -57 -14 -101.5t0 -94t20 -82.5t51.5 -54.5t89.5 -21.5q32 0 67.5 15t74 47.5t72.5 96t54 150.5zM510 1110l-31 311l10 11l203 -187l342 207l13 -6l-177 -272q-72 -111 -221 -111q-49 0 -85.5 15t-53.5 32z" />
    <glyph glyph-name="Dcaron" unicode="&#x10e;" horiz-adv-x="1437" 
d="M1415 883q0 -277 -119 -477.5t-334.5 -303t-506.5 -102.5h-484l4 25h103l233 1382h-114l6 27h536q160 0 280.5 -29t211 -92.5t137.5 -171t47 -258.5zM500 25h12q167 0 263.5 125t148.5 378q63 299 63 572q0 88 -20.5 151t-57.5 95.5t-77 46.5t-89 14h-12zM1171 1831
l-258 -277q-82 -38 -143 -38q-65 0 -98 23t-54 69l-86 225l13 10l270 -133l348 133z" />
    <glyph glyph-name="dcaron" unicode="&#x10f;" horiz-adv-x="1323" 
d="M686 1536h561q-105 -538 -248 -1317q-17 -91 -12 -122q7 -44 49 -44q61 0 138 129l22 -12q-108 -190 -281 -190q-155 0 -225.5 72t-50.5 204q-2 0 -5 1t-5 1q-18 -56 -32 -91.5t-36.5 -74.5t-49 -61t-66.5 -36.5t-91 -14.5q-92 0 -157 25t-101.5 73t-52.5 109.5
t-16 142.5q0 318 131.5 491.5t353.5 173.5q100 0 142 -42t53 -128l100 684h-125zM461 55q60 0 110 120t75.5 281.5t25.5 307.5q0 102 -19 144t-55 42q-34 0 -51.5 -47t-38.5 -168l-78 -463q-1 -8 -5.5 -32.5t-6.5 -40.5t-4.5 -40.5t-0.5 -40t6 -31.5t15 -24t27 -8z
M1223 1055l-13 20q121 102 121 223q0 82 -71 156l45 35q50 41 85.5 58.5t73.5 17.5q53 0 84 -37.5t31 -91.5q0 -34 -14 -68.5t-32 -62.5t-53 -61t-59.5 -54t-69 -52t-65 -43.5t-63.5 -39.5z" />
    <glyph glyph-name="Dcroat" unicode="&#x110;" horiz-adv-x="1452" 
d="M1427 883q0 -277 -119 -477.5t-334.5 -303t-506.5 -102.5h-483l4 25h102l121 718h-117l6 33h117l107 631h-115l6 27h537q160 0 280.5 -29t211 -92.5t137 -171t46.5 -258.5zM512 25h12q167 0 263.5 125t148.5 378q63 299 63 572q0 88 -20.5 151t-57 95.5t-76.5 46.5
t-89 14h-13l-106 -631h225l-6 -33h-223z" />
    <glyph glyph-name="dcroat" unicode="&#x111;" horiz-adv-x="1196" 
d="M686 1536h561l-59 -299h166l-8 -35h-164q-133 -698 -183 -983q-17 -91 -12 -122q7 -44 49 -44q61 0 138 129l22 -12q-108 -190 -281 -190q-155 0 -225.5 72t-50.5 204q-2 0 -5 1t-5 1q-18 -56 -32 -91.5t-36.5 -74.5t-49 -61t-66.5 -36.5t-91 -14.5q-92 0 -157 25
t-101.5 73t-52.5 109.5t-16 142.5q0 318 131.5 491.5t353.5 173.5q100 0 142 -42t53 -128l55 377h-295l8 35h291l41 272h-125zM461 55q60 0 110 120t75.5 281.5t25.5 307.5q0 102 -19 144t-55 42q-34 0 -51.5 -47t-38.5 -168l-78 -463q-1 -8 -5.5 -32.5t-6.5 -40.5
t-4.5 -40.5t-0.5 -40t6 -31.5t15 -24t27 -8z" />
    <glyph glyph-name="Emacron" unicode="&#x112;" horiz-adv-x="1245" 
d="M197 1434h1081l-51 -408h-15q-49 205 -160.5 293t-289.5 88h-27l-112 -662h30q94 0 187.5 79t142.5 200h12l-100 -606h-12q-12 152 -81 225.5t-179 73.5h-7l-116 -692h18q380 0 623 424h18l-90 -449h-1100l2 25h107l231 1382h-116zM535 1552l34 193h557l-34 -193h-557z
" />
    <glyph glyph-name="emacron" unicode="&#x113;" horiz-adv-x="972" 
d="M672 844l-13 -80q-21 -135 -75.5 -196.5t-134.5 -59.5l30 156q11 54 18.5 87.5t18 73.5t21 63t24 44.5t30 31t36.5 9.5q33 0 43 -29t2 -100zM639 995q-138 0 -251 -39t-198 -115.5t-131.5 -199t-46.5 -281.5q0 -180 114 -280t314 -100q188 0 302.5 85.5t166.5 274.5
l-28 8q-24 -82 -59 -142t-73.5 -93t-76.5 -48.5t-76 -15.5q-91 0 -135.5 47t-44.5 158q0 69 14 149l14 80h43q66 0 128.5 7.5t131.5 28t119.5 52.5t83.5 86.5t33 124.5q0 213 -344 213zM383 1126l35 193h557l-35 -193h-557z" />
    <glyph glyph-name="Ebreve" unicode="&#x114;" horiz-adv-x="1245" 
d="M197 1434h1081l-51 -408h-15q-49 205 -160.5 293t-289.5 88h-27l-112 -662h30q94 0 187.5 79t142.5 200h12l-100 -606h-12q-12 152 -81 225.5t-179 73.5h-7l-116 -692h18q380 0 623 424h18l-90 -449h-1100l2 25h107l231 1382h-116zM567 1823l15 2q23 -63 81 -92t187 -29
q213 0 289 133l16 -6q-15 -65 -43.5 -122t-70 -105t-102 -75.5t-132.5 -27.5q-66 0 -114 26t-74.5 72.5t-39 102t-12.5 121.5z" />
    <glyph glyph-name="ebreve" unicode="&#x115;" horiz-adv-x="972" 
d="M659 764l13 80q8 71 -2 100t-43 29q-20 0 -36.5 -9.5t-30 -31t-24 -44.5t-21 -63t-18 -73.5t-18.5 -87.5l-30 -156q80 -2 134.5 59.5t75.5 196.5zM639 995q344 0 344 -213q0 -70 -33 -124.5t-83.5 -86.5t-119.5 -52.5t-131.5 -28t-128.5 -7.5h-43l-14 -80
q-14 -80 -14 -149q0 -111 44.5 -158t135.5 -47q38 0 76 15.5t76.5 48.5t73.5 93t59 142l28 -8q-52 -189 -166.5 -274.5t-302.5 -85.5q-200 0 -314 100t-114 280q0 159 46.5 281.5t131.5 199t198 115.5t251 39zM403 1438l19 2q14 -65 85 -103.5t189 -38.5q102 0 189 39
t116 99l17 -2q-45 -183 -135.5 -281t-241.5 -98q-89 0 -148.5 54.5t-80.5 140t-9 188.5z" />
    <glyph glyph-name="Edotaccent" unicode="&#x116;" horiz-adv-x="1245" 
d="M197 1434h1081l-51 -408h-15q-49 205 -160.5 293t-289.5 88h-27l-112 -662h30q94 0 187.5 79t142.5 200h12l-100 -606h-12q-12 152 -81 225.5t-179 73.5h-7l-116 -692h18q380 0 623 424h18l-90 -449h-1100l2 25h107l231 1382h-116zM803 1516q-99 0 -142 43.5t-43 103.5
q0 97 77 155t184 58q87 0 134.5 -39t47.5 -111q0 -97 -76 -153.5t-182 -56.5z" />
    <glyph glyph-name="edotaccent" unicode="&#x117;" horiz-adv-x="972" 
d="M672 844l-13 -80q-21 -135 -75.5 -196.5t-134.5 -59.5l30 156q11 54 18.5 87.5t18 73.5t21 63t24 44.5t30 31t36.5 9.5q33 0 43 -29t2 -100zM639 995q-138 0 -251 -39t-198 -115.5t-131.5 -199t-46.5 -281.5q0 -180 114 -280t314 -100q188 0 302.5 85.5t166.5 274.5
l-28 8q-24 -82 -59 -142t-73.5 -93t-76.5 -48.5t-76 -15.5q-91 0 -135.5 47t-44.5 158q0 69 14 149l14 80h43q66 0 128.5 7.5t131.5 28t119.5 52.5t83.5 86.5t33 124.5q0 213 -344 213zM639 1081q-58 0 -100 15t-64 39.5t-31.5 51t-9.5 56.5q0 108 84.5 172t204.5 64
q94 0 147.5 -43t53.5 -121q0 -108 -84 -171t-201 -63z" />
    <glyph glyph-name="Eogonek" unicode="&#x118;" horiz-adv-x="1245" 
d="M197 1434h1081l-51 -408h-15q-49 205 -160.5 293t-289.5 88h-27l-112 -662h30q94 0 187.5 79t142.5 200h12l-100 -606h-12q-12 152 -81 225.5t-179 73.5h-7l-116 -692h18q380 0 623 424h18l-90 -449h-149q-77 -82 -108.5 -142t-31.5 -147q0 -56 19 -81t63 -25q41 0 69 23
t58 79l19 -8q-94 -211 -297 -211q-86 0 -134.5 47.5t-48.5 126.5q0 35 7.5 64.5t20.5 53.5t36 47t46.5 41t61 40t71 39.5t83.5 42.5q13 7 20 10h-905l2 25h107l231 1382h-116z" />
    <glyph glyph-name="eogonek" unicode="&#x119;" horiz-adv-x="972" 
d="M639 995q344 0 344 -213q0 -70 -33 -124.5t-83.5 -86.5t-119.5 -52.5t-131.5 -28t-128.5 -7.5h-43l-14 -80q-14 -80 -14 -149q0 -111 44.5 -158t135.5 -47q38 0 76 15.5t76.5 48.5t73.5 93t59 142l28 -8q-31 -115 -87 -187t-144 -135q-93 -65 -131.5 -136t-38.5 -171
q0 -56 19 -81t63 -25q41 0 69 23t58 79l18 -8q-94 -211 -297 -211q-86 0 -134 47.5t-48 126.5q0 35 8 65t19.5 53.5t37 47.5t46 40.5t62.5 40.5t70.5 39t84.5 43q9 5 14 7q-74 -18 -158 -18q-200 0 -314 100t-114 280q0 159 46.5 281.5t131.5 199t198 115.5t251 39zM659 764
l13 80q8 71 -2 100t-43 29q-20 0 -36.5 -9.5t-30 -31t-24 -44.5t-21 -63t-18 -73.5t-18.5 -87.5l-30 -156q80 -2 134.5 59.5t75.5 196.5z" />
    <glyph glyph-name="Ecaron" unicode="&#x11a;" horiz-adv-x="1245" 
d="M197 1434h1081l-51 -408h-15q-49 205 -160.5 293t-289.5 88h-27l-112 -662h30q94 0 187.5 79t142.5 200h12l-100 -606h-12q-12 152 -81 225.5t-179 73.5h-7l-116 -692h18q380 0 623 424h18l-90 -449h-1100l2 25h107l231 1382h-116zM1180 1831l-258 -277q-82 -38 -144 -38
q-65 0 -97.5 22.5t-53.5 69.5l-86 225l12 10l270 -133l348 133z" />
    <glyph glyph-name="ecaron" unicode="&#x11b;" horiz-adv-x="972" 
d="M659 764l13 80q8 71 -2 100t-43 29q-20 0 -36.5 -9.5t-30 -31t-24 -44.5t-21 -63t-18 -73.5t-18.5 -87.5l-30 -156q80 -2 134.5 59.5t75.5 196.5zM639 995q344 0 344 -213q0 -70 -33 -124.5t-83.5 -86.5t-119.5 -52.5t-131.5 -28t-128.5 -7.5h-43l-14 -80
q-14 -80 -14 -149q0 -111 44.5 -158t135.5 -47q38 0 76 15.5t76.5 48.5t73.5 93t59 142l28 -8q-52 -189 -166.5 -274.5t-302.5 -85.5q-200 0 -314 100t-114 280q0 159 46.5 281.5t131.5 199t198 115.5t251 39zM508 1110l-31 311l10 11l203 -187l342 207l12 -6l-176 -272
q-72 -111 -221 -111q-49 0 -85.5 15t-53.5 32z" />
    <glyph glyph-name="Gcircumflex" unicode="&#x11c;" horiz-adv-x="1400" 
d="M934 1434q-55 0 -101 -24.5t-81 -67t-65.5 -108t-53.5 -138.5t-45 -168q-66 -287 -66 -518q0 -198 67 -302t179 -104q4 0 15 1t18 1l100 623h-151l4 28h651l-6 -28h-101l-102 -561q-264 -88 -520 -88q-313 0 -452.5 140.5t-139.5 434.5q0 87 14.5 175.5t46.5 177.5
t78.5 169t115 150t151.5 120.5t192 79.5t233 29q83 0 160.5 -15t125 -30.5t56.5 -15.5q37 0 66 43h14l-57 -453h-14q-20 63 -43 119.5t-55.5 119t-67 107t-78 74t-88.5 29.5zM649 1516l254 288q80 37 160 37q107 0 135 -92l78 -242l-12 -8l-246 137l-359 -133z" />
    <glyph glyph-name="gcircumflex" unicode="&#x11d;" horiz-adv-x="1161" 
d="M315 -297l-122 -39q-8 -37 -6 -70t31 -56t81 -23q39 0 69.5 13.5t58 46.5t50.5 80.5t48 125.5t48 169.5t52 223.5l-11 6q-44 -82 -68 -111q-75 -89 -208 -89q-155 0 -233 84t-78 260q0 100 13.5 190.5t48 180t87.5 154.5t137.5 105.5t192.5 40.5q56 0 93.5 -12t56.5 -36
t27 -44.5t15 -52.5l25 117q71 -6 218 -0.5t206 18.5q-6 -32 -26.5 -128t-30.5 -150t-34.5 -201t-54.5 -354q-49 -328 -229.5 -496t-472.5 -168q-63 0 -124.5 15.5t-114 45.5t-85 79.5t-32.5 111.5q0 92 56 146.5t136 54.5q92 0 146 -58t34 -180zM465 55q58 0 107 112
t75.5 274t26.5 323q0 184 -74 184q-36 0 -53 -41t-39 -172l-78 -463q-22 -126 -15.5 -171.5t50.5 -45.5zM442 1057l199 338q20 12 70.5 29.5t91.5 17.5q63 0 97 -27.5t46 -83.5l55 -280l-12 -2l-209 190l-329 -188z" />
    <glyph glyph-name="Gbreve" unicode="&#x11e;" horiz-adv-x="1400" 
d="M934 1434q-55 0 -101 -24.5t-81 -67t-65.5 -108t-53.5 -138.5t-45 -168q-66 -287 -66 -518q0 -198 67 -302t179 -104q4 0 15 1t18 1l100 623h-151l4 28h651l-6 -28h-101l-102 -561q-264 -88 -520 -88q-313 0 -452.5 140.5t-139.5 434.5q0 87 14.5 175.5t46.5 177.5
t78.5 169t115 150t151.5 120.5t192 79.5t233 29q83 0 160.5 -15t125 -30.5t56.5 -15.5q37 0 66 43h14l-57 -453h-14q-20 63 -43 119.5t-55.5 119t-67 107t-78 74t-88.5 29.5zM768 1823l14 2q23 -63 81 -92t188 -29q212 0 288 133l17 -6q-15 -65 -43.5 -122t-70 -105
t-102 -75.5t-132.5 -27.5q-66 0 -114 26t-74.5 72.5t-39 102t-12.5 121.5z" />
    <glyph glyph-name="gbreve" unicode="&#x11f;" horiz-adv-x="1161" 
d="M315 -297l-122 -39q-8 -37 -6 -70t31 -56t81 -23q39 0 69.5 13.5t58 46.5t50.5 80.5t48 125.5t48 169.5t52 223.5l-11 6q-44 -82 -68 -111q-75 -89 -208 -89q-155 0 -233 84t-78 260q0 100 13.5 190.5t48 180t87.5 154.5t137.5 105.5t192.5 40.5q56 0 93.5 -12t56.5 -36
t27 -44.5t15 -52.5l25 117q71 -6 218 -0.5t206 18.5q-6 -32 -26.5 -128t-30.5 -150t-34.5 -201t-54.5 -354q-49 -328 -229.5 -496t-472.5 -168q-63 0 -124.5 15.5t-114 45.5t-85 79.5t-32.5 111.5q0 92 56 146.5t136 54.5q92 0 146 -58t34 -180zM465 55q58 0 107 112
t75.5 274t26.5 323q0 184 -74 184q-36 0 -53 -41t-39 -172l-78 -463q-22 -126 -15.5 -171.5t50.5 -45.5zM434 1475l19 2q14 -65 85 -103.5t189 -38.5q102 0 189 39t116 99l17 -3q-45 -182 -135.5 -280t-241.5 -98q-89 0 -148.5 54.5t-80.5 140t-9 188.5z" />
    <glyph glyph-name="Gdotaccent" unicode="&#x120;" horiz-adv-x="1400" 
d="M934 1434q-55 0 -101 -24.5t-81 -67t-65.5 -108t-53.5 -138.5t-45 -168q-66 -287 -66 -518q0 -198 67 -302t179 -104q4 0 15 1t18 1l100 623h-151l4 28h651l-6 -28h-101l-102 -561q-264 -88 -520 -88q-313 0 -452.5 140.5t-139.5 434.5q0 87 14.5 175.5t46.5 177.5
t78.5 169t115 150t151.5 120.5t192 79.5t233 29q83 0 160.5 -15t125 -30.5t56.5 -15.5q37 0 66 43h14l-57 -453h-14q-20 63 -43 119.5t-55.5 119t-67 107t-78 74t-88.5 29.5zM950 1516q-99 0 -141.5 43.5t-42.5 103.5q0 97 76.5 155t183.5 58q87 0 134.5 -39t47.5 -111
q0 -97 -76 -153.5t-182 -56.5z" />
    <glyph glyph-name="gdotaccent" unicode="&#x121;" horiz-adv-x="1161" 
d="M315 -297l-122 -39q-8 -37 -6 -70t31 -56t81 -23q39 0 69.5 13.5t58 46.5t50.5 80.5t48 125.5t48 169.5t52 223.5l-11 6q-44 -82 -68 -111q-75 -89 -208 -89q-155 0 -233 84t-78 260q0 100 13.5 190.5t48 180t87.5 154.5t137.5 105.5t192.5 40.5q56 0 93.5 -12t56.5 -36
t27 -44.5t15 -52.5l25 117q71 -6 218 -0.5t206 18.5q-6 -32 -26.5 -128t-30.5 -150t-34.5 -201t-54.5 -354q-49 -328 -229.5 -496t-472.5 -168q-63 0 -124.5 15.5t-114 45.5t-85 79.5t-32.5 111.5q0 92 56 146.5t136 54.5q92 0 146 -58t34 -180zM465 55q58 0 107 112
t75.5 274t26.5 323q0 184 -74 184q-36 0 -53 -41t-39 -172l-78 -463q-22 -126 -15.5 -171.5t50.5 -45.5zM698 1118q-58 0 -100 15t-63.5 39.5t-31 51t-9.5 56.5q0 108 84 172t204 64q94 0 147.5 -43t53.5 -121q0 -108 -84 -171t-201 -63z" />
    <glyph glyph-name="Gcommaaccent" unicode="&#x122;" horiz-adv-x="1400" 
d="M934 1434q-55 0 -101 -24.5t-81 -67t-65.5 -108t-53.5 -138.5t-45 -168q-66 -287 -66 -518q0 -198 67 -302t179 -104q4 0 15 1t18 1l100 623h-151l4 28h651l-6 -28h-101l-102 -561q-264 -88 -520 -88q-313 0 -452.5 140.5t-139.5 434.5q0 87 14.5 175.5t46.5 177.5
t78.5 169t115 150t151.5 120.5t192 79.5t233 29q83 0 160.5 -15t125 -30.5t56.5 -15.5q37 0 66 43h14l-57 -453h-14q-20 63 -43 119.5t-55.5 119t-67 107t-78 74t-88.5 29.5zM614 -596l-14 23q91 55 124 87q55 54 56 115q0 28 -14.5 42t-32.5 16l-90 -88q-37 11 -64.5 47.5
t-27.5 85.5q0 69 51 115.5t127 46.5q75 0 118.5 -45.5t43.5 -120.5q0 -57 -21 -105t-65.5 -88t-84 -66.5t-106.5 -64.5z" />
    <glyph glyph-name="gcommaaccent" unicode="&#x123;" horiz-adv-x="1161" 
d="M315 -297l-122 -39q-8 -37 -6 -70t31 -56t81 -23q39 0 69.5 13.5t58 46.5t50.5 80.5t48 125.5t48 169.5t52 223.5l-11 6q-44 -82 -68 -111q-75 -89 -208 -89q-155 0 -233 84t-78 260q0 100 13.5 190.5t48 180t87.5 154.5t137.5 105.5t192.5 40.5q56 0 93.5 -12t56.5 -36
t27 -44.5t15 -52.5l25 117q71 -6 218 -0.5t206 18.5q-6 -32 -26.5 -128t-30.5 -150t-34.5 -201t-54.5 -354q-49 -328 -229.5 -496t-472.5 -168q-63 0 -124.5 15.5t-114 45.5t-85 79.5t-32.5 111.5q0 92 56 146.5t136 54.5q92 0 146 -58t34 -180zM465 55q58 0 107 112
t75.5 274t26.5 323q0 184 -74 184q-36 0 -53 -41t-39 -172l-78 -463q-22 -126 -15.5 -171.5t50.5 -45.5zM782 1571l15 -23q-91 -55 -124 -86q-57 -54 -57 -116q0 -28 15 -42t33 -16l90 88q37 -11 64.5 -47.5t27.5 -85.5q0 -69 -51 -115.5t-127 -46.5q-75 0 -118.5 45.5
t-43.5 120.5q0 46 16 87.5t38.5 71.5t63 62t73 52.5t85.5 50.5z" />
    <glyph glyph-name="Hcircumflex" unicode="&#x124;" horiz-adv-x="1497" 
d="M197 1434h643l-4 -27h-95l-114 -653h329l111 653h-104l6 27h622l-4 -27h-98l-234 -1382h121l-4 -25h-645l4 25h100l121 698h-331l-121 -698h104l-4 -25h-631l2 25h107l233 1382h-118zM606 1516l254 288q80 37 160 37q107 0 135 -92l78 -242l-12 -8l-246 137l-359 -133z
" />
    <glyph glyph-name="hcircumflex" unicode="&#x125;" horiz-adv-x="1261" 
d="M934 -18q-63 0 -114 13t-93 41t-65 77.5t-23 117.5q0 59 28 172t59 212t32 108q5 16 14 46q11 38 15.5 56t7 40.5t-6.5 31t-28 8.5q-27 0 -70 -47t-94 -158q-50 -112 -77.5 -261.5t-51.5 -428.5q-54 2 -236 -7t-221 -17l86 381l168 1142h-141l6 27h582l-181 -895l7 -4
q22 54 36.5 85.5t37.5 74.5t43 68t49.5 53t62 42.5t75.5 24.5t93 10q123 0 184.5 -58.5t61.5 -162.5q0 -62 -35 -199l-78 -303q-31 -131 -31 -166q0 -45 41 -45q31 0 64 29t76 103l26 -13q-65 -109 -130.5 -153.5t-178.5 -44.5zM150 1595l253 289q80 37 160 37
q107 0 135 -92l78 -242l-12 -8l-246 137l-358 -133z" />
    <glyph glyph-name="Hbar" unicode="&#x126;" horiz-adv-x="1497" 
d="M197 1434h643l-4 -27h-95l-57 -320h328l55 320h-104l6 27h622l-4 -27h-98l-55 -320h135l-6 -30h-133l-175 -1032h121l-4 -25h-645l4 25h100l121 698h-331l-121 -698h104l-4 -25h-631l2 25h107l174 1032h-129l6 30h127l55 320h-118zM627 754h329l52 303h-328z" />
    <glyph glyph-name="hbar" unicode="&#x127;" horiz-adv-x="1261" 
d="M934 -18q-63 0 -114 13t-93 41t-65 77.5t-23 117.5q0 59 28 172t59 212t32 108q5 16 14 46q11 38 15.5 56t7 40.5t-6.5 31t-28 8.5q-27 0 -70 -47t-94 -158q-50 -112 -77.5 -261.5t-51.5 -428.5q-54 2 -236 -7t-221 -17l86 381l123 835h-158l9 35h153l41 272h-141l6 27
h582l-62 -299h299l-8 -35h-297l-113 -561l7 -4q22 54 36.5 85.5t37.5 74.5t43 68t49.5 53t62 42.5t75.5 24.5t93 10q123 0 184.5 -58.5t61.5 -162.5q0 -62 -35 -199l-78 -303q-31 -131 -31 -166q0 -45 41 -45q31 0 64 29t76 103l26 -13q-65 -109 -130.5 -153.5t-178.5 -44.5
z" />
    <glyph glyph-name="Itilde" unicode="&#x128;" horiz-adv-x="741" 
d="M188 1434h662l-4 -27h-117l-225 -1382h127l-8 -25h-656l6 25h109l227 1382h-125zM680 1530q-78 0 -186 49q-75 33 -117 33q-87 0 -133 -80l-15 6q46 146 111 217.5t166 71.5q13 0 28 -3t25.5 -5.5t31 -10t27 -10.5t31 -13.5t27.5 -12.5q76 -31 106 -31q27 0 46 4t44 24.5
t43 57.5l17 -6q-53 -154 -114 -222.5t-138 -68.5z" />
    <glyph glyph-name="itilde" unicode="&#x129;" horiz-adv-x="679" 
d="M561 1096q-78 0 -186 49q-75 33 -117 33q-87 0 -133 -80l-14 6q46 146 111 217.5t165 71.5q15 0 30.5 -2.5t37.5 -10.5t31 -11.5t38 -16.5t33 -15q73 -30 107 -30q27 0 46 4t44 24.5t43 57.5l16 -7q-53 -153 -114 -221.5t-138 -68.5zM641 190l23 -14q-44 -69 -79 -107
t-92 -62.5t-135 -24.5q-130 0 -209 59t-79 186q0 67 26 195l103 528h-162l2 25h592q-120 -584 -144 -711q-20 -110 -20 -155q0 -23 12 -34.5t29 -11.5q53 0 133 127z" />
    <glyph glyph-name="Imacron" unicode="&#x12a;" horiz-adv-x="741" 
d="M188 1434h662l-4 -27h-117l-225 -1382h127l-8 -25h-656l6 25h109l227 1382h-125zM279 1552l34 193h557l-34 -193h-557z" />
    <glyph glyph-name="imacron" unicode="&#x12b;" horiz-adv-x="679" 
d="M154 1090l34 192h557l-34 -192h-557zM641 190l23 -14q-44 -69 -79 -107t-92 -62.5t-135 -24.5q-130 0 -209 59t-79 186q0 67 26 195l103 528h-162l2 25h592q-120 -584 -144 -711q-20 -110 -20 -155q0 -23 12 -34.5t29 -11.5q53 0 133 127z" />
    <glyph glyph-name="Ibreve" unicode="&#x12c;" horiz-adv-x="741" 
d="M188 1434h662l-4 -27h-117l-225 -1382h127l-8 -25h-656l6 25h109l227 1382h-125zM313 1823l15 2q23 -63 81 -92t187 -29q213 0 289 133l16 -6q-15 -65 -43.5 -122t-70 -105t-102 -75.5t-132.5 -27.5q-66 0 -114 26t-74.5 72.5t-39 102t-12.5 121.5z" />
    <glyph glyph-name="ibreve" unicode="&#x12d;" horiz-adv-x="720" 
d="M199 1442l18 2q14 -65 85 -103t190 -38q102 0 189 38.5t116 98.5l16 -2q-45 -183 -135.5 -281t-241.5 -98q-89 0 -148 54.5t-80 140t-9 188.5zM641 190l23 -14q-44 -69 -79 -107t-92 -62.5t-135 -24.5q-130 0 -209 59t-79 186q0 67 26 195l103 528h-162l2 25h592
q-120 -584 -144 -711q-20 -110 -20 -155q0 -23 12 -34.5t29 -11.5q53 0 133 127z" />
    <glyph glyph-name="Iogonek" unicode="&#x12e;" horiz-adv-x="741" 
d="M188 1434h662l-4 -27h-117l-225 -1382h127l-8 -25h-240q-77 -81 -108 -141.5t-31 -147.5q0 -56 19 -81t63 -25q41 0 69 23t58 79l18 -8q-94 -211 -297 -211q-86 0 -134 47.5t-48 126.5q0 35 7.5 64.5t20.5 53.5t36 47t46.5 41t61 40t71 39.5t83.5 42.5q13 7 20 10h-371
l6 25h109l227 1382h-125z" />
    <glyph glyph-name="iogonek" unicode="&#x12f;" horiz-adv-x="679" 
d="M641 190l23 -14q-72 -113 -152 -172q-86 -62 -122 -130t-36 -163q0 -56 19 -81t63 -25q41 0 69 23t58 79l19 -8q-94 -211 -297 -211q-86 0 -134.5 47.5t-48.5 126.5q0 34 8 64t19 53t36 47t44.5 40t60.5 40t68 38t82 42q-36 -4 -62 -4q-130 0 -209 59t-79 186
q0 67 26 195l103 528h-162l2 25h592q-120 -584 -144 -711q-20 -110 -20 -155q0 -23 12 -34.5t29 -11.5q53 0 133 127zM428 1081q-58 0 -100 15t-64 39.5t-31.5 51t-9.5 56.5q0 108 84.5 172t204.5 64q94 0 147.5 -43t53.5 -121q0 -108 -84 -171t-201 -63z" />
    <glyph glyph-name="Idotaccent" unicode="&#x130;" horiz-adv-x="741" 
d="M188 1434h662l-4 -27h-117l-225 -1382h127l-8 -25h-656l6 25h109l227 1382h-125zM537 1516q-99 0 -142 43.5t-43 103.5q0 97 76.5 155t183.5 58q87 0 135 -39t48 -111q0 -97 -76 -153.5t-182 -56.5z" />
    <glyph glyph-name="dotlessi" unicode="&#x131;" horiz-adv-x="679" 
d="M641 190l23 -14q-44 -69 -79 -107t-92 -62.5t-135 -24.5q-130 0 -209 59t-79 186q0 67 26 195l103 528h-162l2 25h592q-120 -584 -144 -711q-20 -110 -20 -155q0 -23 12 -34.5t29 -11.5q53 0 133 127z" />
    <glyph glyph-name="IJ" unicode="&#x132;" horiz-adv-x="1683" 
d="M186 1434h662l-4 -27h-117l-225 -1382h127l-8 -25h-656l6 25h109l227 1382h-125zM1149 1434h657l-6 -27h-104l-156 -930q-44 -259 -179 -378t-382 -119q-162 0 -249 67.5t-87 167.5q0 104 56.5 153.5t131.5 49.5q78 0 122 -38.5t44 -100.5q0 -70 -51 -136h-96
q-16 -32 -16 -55q0 -37 28.5 -59.5t69.5 -22.5q70 0 102 66.5t66 275.5l176 1059h-133z" />
    <glyph glyph-name="Jcircumflex" unicode="&#x134;" horiz-adv-x="999" 
d="M465 1434h657l-6 -27h-104l-156 -930q-44 -259 -179 -378t-382 -119q-162 0 -249 67.5t-87 167.5q0 104 56.5 153.5t131.5 49.5q78 0 122 -38.5t44 -100.5q0 -70 -51 -136h-96q-16 -32 -16 -55q0 -37 28.5 -59.5t69.5 -22.5q70 0 102 66.5t66 275.5l176 1059h-133z
M494 1516l254 288q80 37 159 37q107 0 135 -92l78 -242l-12 -8l-246 137l-358 -133z" />
    <glyph glyph-name="jcircumflex" unicode="&#x135;" horiz-adv-x="686" 
d="M-135 -334l-98 -14q-19 -23 -22.5 -54.5t19 -57t70.5 -25.5q85 0 123 86.5t80 343.5l160 1005h-158l8 25h592l-164 -979q-84 -508 -610 -508q-91 0 -166 23t-126.5 78.5t-51.5 136.5q0 87 59 141.5t148 54.5q104 0 145.5 -75t-8.5 -181zM154 1057l198 338
q20 12 70.5 29.5t91.5 17.5q63 0 97 -27.5t46 -83.5l56 -280l-13 -2l-208 190l-330 -188z" />
    <glyph glyph-name="Kcommaaccent" unicode="&#x136;" horiz-adv-x="1460" 
d="M199 1434h663l-6 -27h-123l-108 -657l73 14l643 643h-161l6 27h330l-9 -27h-127l-340 -344l254 -1038h119l-2 -25h-682l4 25h119l-156 712l-75 -14l-115 -698h112l-4 -25h-649l8 25h111l225 1382h-121zM532 -596l-14 23q91 55 124 87q55 54 56 115q0 28 -14.5 42
t-32.5 16l-90 -88q-37 11 -64.5 47.5t-27.5 85.5q0 69 51 115.5t127 46.5q75 0 118.5 -45.5t43.5 -120.5q0 -57 -21 -105t-65.5 -88t-84 -66.5t-106.5 -64.5z" />
    <glyph glyph-name="kcommaaccent" unicode="&#x137;" horiz-adv-x="1179" 
d="M1169 176l19 -14q-65 -100 -135 -140t-174 -40q-30 0 -56 2t-57 7t-54.5 14t-48.5 23t-39 33.5t-26.5 46.5t-10.5 61.5t9 78.5l27 117q14 79 2 101.5t-52 22.5q-14 1 -49 -8l-75 -473q-71 0 -235.5 -8t-205.5 -18l94 436l166 1091h-135l4 27h570l-177 -1026l127 51
q119 43 158.5 84.5t34.5 97.5l-88 21q-20 97 26 164t154 67q50 0 85.5 -15t54 -41t26.5 -53.5t8 -58.5q0 -77 -60 -134t-163 -89l-242 -74v-6q83 13 176 13q90 0 135.5 -31t51 -86t-7.5 -131l-25 -125q-12 -58 -5 -85.5t38 -27.5q36 0 69 26t86 99zM424 -596l-14 23
q91 55 124 87q55 54 56 115q0 28 -14.5 42t-32.5 16l-90 -88q-37 12 -65 48t-28 85q0 69 51.5 115.5t127.5 46.5q74 0 117.5 -45t43.5 -121q0 -46 -16 -87.5t-38.5 -71.5t-63 -62t-73 -52.5t-85.5 -50.5z" />
    <glyph glyph-name="kgreenlandic" unicode="&#x138;" horiz-adv-x="1179" 
d="M1169 176l19 -14q-65 -100 -135 -140t-174 -40q-30 0 -56 2t-57 7t-54.5 14t-48.5 23t-39 33.5t-26.5 46.5t-10.5 61.5t9 78.5l27 117q14 79 2 101.5t-52 22.5q-14 1 -49 -8l-75 -473q-71 0 -235.5 -8t-205.5 -18l94 436l74 530h-135l4 27h569l-84 -465l127 51
q119 43 158.5 84.5t34.5 97.5l-88 21q-20 97 26 164t154 67q50 0 85.5 -15t54 -41t26.5 -53.5t8 -58.5q0 -77 -60 -134t-163 -89l-242 -74v-6q83 13 176 13q90 0 135.5 -31t51 -86t-7.5 -131l-25 -125q-12 -58 -5 -85.5t38 -27.5q36 0 69 26t86 99z" />
    <glyph glyph-name="Lacute" unicode="&#x139;" horiz-adv-x="1226" 
d="M201 1434h706l-6 -27h-166l-237 -1382h10q87 0 175.5 36.5t156 89t131 119.5t101 117t63.5 94h20l-94 -481h-1098l4 25h107l237 1382h-118zM422 1511l225 369l70 -12q114 -20 114 -96q0 -39 -20.5 -65.5t-71.5 -49.5l-307 -156z" />
    <glyph glyph-name="lacute" unicode="&#x13a;" horiz-adv-x="686" 
d="M651 188l23 -16q-70 -102 -133.5 -146t-163.5 -44q-149 0 -224 68.5t-75 199.5q0 58 12 132.5t57 299.5l164 827h-139l4 27h551l-238 -1264q-11 -55 -20 -106q-12 -51 -4.5 -81t41.5 -30q56 0 145 133zM430 1610l225 368l70 -12q115 -20 115 -96q0 -39 -20.5 -65.5
t-71.5 -49.5l-308 -156z" />
    <glyph glyph-name="Lcommaaccent" unicode="&#x13b;" horiz-adv-x="1226" 
d="M201 1434h706l-6 -27h-166l-237 -1382h10q87 0 175.5 36.5t156 89t131 119.5t101 117t63.5 94h20l-94 -481h-1098l4 25h107l237 1382h-118zM451 -596l-15 23q91 55 124 87q55 54 56 115q0 28 -14.5 42t-32.5 16l-90 -88q-37 11 -64.5 47.5t-27.5 85.5q0 69 51 115.5
t127 46.5q75 0 118.5 -45.5t43.5 -120.5q0 -46 -16 -87.5t-38.5 -71.5t-63 -62t-73 -52.5t-85.5 -50.5z" />
    <glyph glyph-name="lcommaaccent" unicode="&#x13c;" horiz-adv-x="681" 
d="M647 188l23 -16q-70 -102 -133.5 -146t-163.5 -44q-149 0 -224 68.5t-75 199.5q0 58 12 132.5t57 299.5l164 827h-139l4 27h551l-238 -1264q-11 -55 -20 -106q-12 -51 -4.5 -81t41.5 -30q56 0 145 133zM172 -596l-14 23q91 55 124 87q56 53 56 115q0 28 -14.5 42
t-32.5 16l-90 -88q-37 11 -64.5 47.5t-27.5 85.5q0 69 51 115.5t127 46.5q75 0 118.5 -45.5t43.5 -120.5q0 -57 -21 -105t-65.5 -88t-84 -66.5t-106.5 -64.5z" />
    <glyph glyph-name="Lcaron" unicode="&#x13d;" horiz-adv-x="1226" 
d="M201 1434h706l-6 -27h-166l-237 -1382h10q87 0 175.5 36.5t156 89t131 119.5t101 117t63.5 94h20l-94 -481h-1098l4 25h107l237 1382h-118zM903 971l-12 18q119 100 119 219q0 79 -72 154l45 35q87 73 160 73q50 0 81 -37t31 -87q0 -44 -26 -91.5t-52 -79t-88.5 -78.5
t-84 -61t-89.5 -57q-8 -5 -12 -8z" />
    <glyph glyph-name="lcaron" unicode="&#x13e;" horiz-adv-x="806" 
d="M651 188l23 -16q-70 -102 -133.5 -146t-163.5 -44q-149 0 -224 68.5t-75 199.5q0 58 12 132.5t57 299.5l164 827h-139l4 27h551l-238 -1264q-11 -55 -20 -106q-12 -51 -4.5 -81t41.5 -30q56 0 145 133zM702 1055l-12 20q121 102 121 223q0 81 -72 156l45 35q50 40 86 58
t74 18q53 0 84 -37.5t31 -91.5q0 -34 -14 -68.5t-32 -62.5t-53 -61.5t-59.5 -53.5t-70 -51.5t-65 -43.5t-63.5 -40z" />
    <glyph glyph-name="Ldot" unicode="&#x13f;" horiz-adv-x="1226" 
d="M201 1434h706l-6 -27h-166l-237 -1382h10q87 0 175.5 36.5t156 89t131 119.5t101 117t63.5 94h20l-94 -481h-1098l4 25h107l237 1382h-118zM954 643q-99 0 -141.5 45.5t-42.5 108.5q0 102 77 163.5t183 61.5q86 0 134 -41.5t48 -116.5q0 -101 -76 -161t-182 -60z" />
    <glyph glyph-name="ldot" unicode="&#x140;" horiz-adv-x="1001" 
d="M651 188l23 -16q-70 -102 -133.5 -146t-163.5 -44q-149 0 -224 68.5t-75 199.5q0 58 12 132.5t57 299.5l164 827h-139l4 27h551l-238 -1264q-11 -55 -20 -106q-12 -51 -4.5 -81t41.5 -30q56 0 145 133zM842 643q-99 0 -142 45.5t-43 108.5q0 102 77.5 163.5t183.5 61.5
q86 0 134 -41.5t48 -116.5q0 -101 -76 -161t-182 -60z" />
    <glyph glyph-name="Lslash" unicode="&#x141;" horiz-adv-x="1226" 
d="M201 1434h706l-6 -27h-166l-98 -565l283 145l6 -33l-295 -153l-133 -776h10q87 0 175.5 36.5t156 89t131 119.5t101 117t63.5 94h20l-94 -481h-1098l4 25h107l104 604l-151 -74l-11 31l168 84l127 737h-118z" />
    <glyph glyph-name="lslash" unicode="&#x142;" horiz-adv-x="743" 
d="M666 188l22 -16q-70 -102 -133.5 -146t-163.5 -44q-149 0 -224 68.5t-75 199.5q0 56 12 129t58 303l10 51l-145 -59l-4 26l155 66l148 743h-140l4 27h551l-116 -616l139 59l6 -25l-152 -67l-114 -615l-21 -106q-12 -51 -4.5 -81t41.5 -30q25 0 63 33t83 100z" />
    <glyph glyph-name="Nacute" unicode="&#x143;" horiz-adv-x="1302" 
d="M1300 1407l-233 -1407h-352l-373 1389h-6l-225 -1364h165l-4 -25h-340l7 25h139l227 1382h-158l7 27h596l317 -1155h10l191 1128h-158l6 27h293l-8 -27h-101zM727 1511l225 369l70 -12q115 -20 115 -96q0 -39 -21 -65.5t-72 -49.5l-307 -156z" />
    <glyph glyph-name="nacute" unicode="&#x144;" horiz-adv-x="1257" 
d="M936 -18q-84 0 -148 22.5t-105.5 79t-41.5 141.5q0 36 10.5 93t27.5 122t32 117.5t32 107t19 62.5q10 35 16 57t11 44.5t5.5 35t-2 23t-9.5 14.5t-19 4q-36 0 -65.5 -34.5t-71.5 -114.5q-122 -230 -158 -746q-57 2 -236.5 -5t-218.5 -15l90 385l89 575h-146l2 25h565
l-77 -330l8 -2q21 50 32.5 76t31.5 66.5t35 61.5t38 49.5t46 43t53.5 29t67 20.5t79.5 6q126 0 188 -59t62 -164q0 -63 -21 -149l-98 -390q-23 -95 -23 -122q0 -50 45 -50q64 0 138 132l22 -13q-38 -67 -71 -105.5t-92.5 -65.5t-141.5 -27zM643 1059l160 416l139 18
q30 3 57.5 -2t49.5 -26.5t22 -57.5q0 -37 -16.5 -64t-63.5 -59l-340 -231z" />
    <glyph glyph-name="Ncommaaccent" unicode="&#x145;" horiz-adv-x="1302" 
d="M1300 1407l-233 -1407h-352l-373 1389h-6l-225 -1364h165l-4 -25h-340l7 25h139l227 1382h-158l7 27h596l317 -1155h10l191 1128h-158l6 27h293l-8 -27h-101zM451 -596l-15 23q91 55 124 87q55 54 56 115q0 28 -14.5 42t-32.5 16l-90 -88q-37 11 -64.5 47.5t-27.5 85.5
q0 69 51 115.5t127 46.5q75 0 118.5 -45.5t43.5 -120.5q0 -46 -16 -87.5t-38.5 -71.5t-63 -62t-73 -52.5t-85.5 -50.5z" />
    <glyph glyph-name="ncommaaccent" unicode="&#x146;" horiz-adv-x="1257" 
d="M936 -18q-84 0 -148 22.5t-105.5 79t-41.5 141.5q0 36 10.5 93t27.5 122t32 117.5t32 107t19 62.5q10 35 16 57t11 44.5t5.5 35t-2 23t-9.5 14.5t-19 4q-36 0 -65.5 -34.5t-71.5 -114.5q-122 -230 -158 -746q-57 2 -236.5 -5t-218.5 -15l90 385l89 575h-146l2 25h565
l-77 -330l8 -2q21 50 32.5 76t31.5 66.5t35 61.5t38 49.5t46 43t53.5 29t67 20.5t79.5 6q126 0 188 -59t62 -164q0 -63 -21 -149l-98 -390q-23 -95 -23 -122q0 -50 45 -50q64 0 138 132l22 -13q-38 -67 -71 -105.5t-92.5 -65.5t-141.5 -27zM471 -596l-14 23q91 55 124 87
q55 54 56 115q0 28 -14.5 42t-32.5 16l-90 -88q-37 11 -64.5 47.5t-27.5 85.5q0 69 51 115.5t127 46.5q75 0 118.5 -45.5t43.5 -120.5q0 -57 -21 -105t-65.5 -88t-84 -66.5t-106.5 -64.5z" />
    <glyph glyph-name="Ncaron" unicode="&#x147;" horiz-adv-x="1302" 
d="M1300 1407l-233 -1407h-352l-373 1389h-6l-225 -1364h165l-4 -25h-340l7 25h139l227 1382h-158l7 27h596l317 -1155h10l191 1128h-158l6 27h293l-8 -27h-101zM1262 1831l-258 -277q-82 -38 -144 -38q-65 0 -97.5 22.5t-53.5 69.5l-86 225l12 10l270 -133l348 133z" />
    <glyph glyph-name="ncaron" unicode="&#x148;" horiz-adv-x="1257" 
d="M936 -18q-84 0 -148 22.5t-105.5 79t-41.5 141.5q0 36 10.5 93t27.5 122t32 117.5t32 107t19 62.5q10 35 16 57t11 44.5t5.5 35t-2 23t-9.5 14.5t-19 4q-36 0 -65.5 -34.5t-71.5 -114.5q-122 -230 -158 -746q-57 2 -236.5 -5t-218.5 -15l90 385l89 575h-146l2 25h565
l-77 -330l8 -2q21 50 32.5 76t31.5 66.5t35 61.5t38 49.5t46 43t53.5 29t67 20.5t79.5 6q126 0 188 -59t62 -164q0 -63 -21 -149l-98 -390q-23 -95 -23 -122q0 -50 45 -50q64 0 138 132l22 -13q-38 -67 -71 -105.5t-92.5 -65.5t-141.5 -27zM588 1110l-31 311l10 11l203 -187
l342 207l12 -6l-176 -272q-72 -111 -221 -111q-49 0 -85.5 15t-53.5 32z" />
    <glyph glyph-name="napostrophe" unicode="&#x149;" horiz-adv-x="1394" 
d="M1073 -18q-84 0 -148 22.5t-105.5 79t-41.5 141.5q0 36 10.5 93t27.5 122t32 117.5t32 107t19 62.5q10 35 16 57t11 44.5t5.5 35t-2 23t-9.5 14.5t-19 4q-36 0 -65.5 -34.5t-71.5 -114.5q-122 -230 -158 -746q-57 2 -236 -5t-218 -15l90 385l88 575h-146l2 25h566
l-78 -330l8 -2q21 50 32.5 76t31.5 66.5t35 61.5t38 49.5t46 43t53.5 29t67 20.5t79.5 6q126 0 188 -59t62 -164q0 -63 -21 -149l-98 -390q-22 -91 -22 -122q0 -50 45 -50q63 0 137 132l22 -13q-38 -67 -71 -105.5t-92.5 -65.5t-141.5 -27zM29 909l-15 23q93 55 126 89
q55 53 55 114q0 28 -14.5 41.5t-33.5 15.5l-90 -88q-37 11 -64.5 47.5t-27.5 85.5q0 69 51 115.5t127 46.5q75 0 118.5 -45.5t43.5 -120.5q0 -46 -16 -87.5t-38.5 -71.5t-63 -62t-73 -52.5t-85.5 -50.5z" />
    <glyph glyph-name="Eng" unicode="&#x14a;" horiz-adv-x="1302" 
d="M1300 1407l-233 -1407q-19 -113 -62.5 -204t-113 -161t-172 -108.5t-230.5 -38.5q-160 0 -241.5 59.5t-81.5 151.5q0 90 62.5 152.5t162.5 62.5q58 0 95 -23t49 -60.5t7 -82.5t-28 -90h-92q-40 -47 -21.5 -94t82.5 -47q45 0 77 27.5t60.5 104t49.5 208.5l30 196
l-358 1336h-6l-225 -1364h165l-4 -25h-340l7 25h139l227 1382h-158l7 27h596l317 -1155h10l191 1128h-158l6 27h293l-8 -27h-101z" />
    <glyph glyph-name="eng" unicode="&#x14b;" horiz-adv-x="1257" 
d="M420 -334l-98 -14q-19 -23 -22.5 -54.5t19 -57t70.5 -25.5q89 0 146 98.5t102 339.5l145 774q21 97 18 137.5t-36 40.5q-36 0 -65.5 -34.5t-71.5 -114.5q-122 -230 -158 -746q-57 2 -236.5 -5t-218.5 -15l90 385l89 575h-146l2 25h565l-77 -330l8 -2q21 50 32.5 76
t31.5 66.5t35 61.5t38 49.5t46 43t53.5 29t67 20.5t79.5 6q127 0 192.5 -59.5t65.5 -163.5q0 -73 -21 -176l-114 -600q-97 -508 -631 -508q-91 0 -166 23t-126.5 78.5t-51.5 136.5q0 87 59 141.5t148 54.5q104 0 145.5 -75t-8.5 -181z" />
    <glyph glyph-name="Omacron" unicode="&#x14c;" horiz-adv-x="1429" 
d="M80 514q0 152 30.5 290t94.5 257.5t157 207t226 137.5t293 50q526 0 526 -553q0 -144 -29 -276.5t-92.5 -251t-155 -206t-225 -138.5t-293.5 -51q-271 0 -401.5 143.5t-130.5 390.5zM889 422l92 534q31 186 31 269q0 63 -12 107t-47 73t-93 29q-38 0 -67.5 -6.5
t-53.5 -25.5t-41.5 -35.5t-33 -56t-25 -66.5t-21.5 -87t-18.5 -97.5t-19.5 -117.5l-80 -500q-23 -157 -23 -219q0 -105 34.5 -161t115.5 -56q49 0 84.5 15t62 43.5t47 81t36 116t32.5 160.5zM612 1552l35 193h557l-35 -193h-557z" />
    <glyph glyph-name="omacron" unicode="&#x14d;" horiz-adv-x="1083" 
d="M446 -20q-430 0 -430 385q0 290 159.5 460t451.5 170q212 0 321 -88.5t109 -277.5q0 -166 -45 -292t-127.5 -203t-192.5 -115.5t-246 -38.5zM586 248l69 416q31 163 27.5 235t-57.5 72q-62 0 -89 -63t-59 -249l-69 -411q-24 -122 -17 -184t62 -62q59 0 84 52t49 194z
M383 1126l35 193h557l-35 -193h-557z" />
    <glyph glyph-name="Obreve" unicode="&#x14e;" horiz-adv-x="1429" 
d="M80 514q0 152 30.5 290t94.5 257.5t157 207t226 137.5t293 50q526 0 526 -553q0 -144 -29 -276.5t-92.5 -251t-155 -206t-225 -138.5t-293.5 -51q-271 0 -401.5 143.5t-130.5 390.5zM889 422l92 534q31 186 31 269q0 63 -12 107t-47 73t-93 29q-38 0 -67.5 -6.5
t-53.5 -25.5t-41.5 -35.5t-33 -56t-25 -66.5t-21.5 -87t-18.5 -97.5t-19.5 -117.5l-80 -500q-23 -157 -23 -219q0 -105 34.5 -161t115.5 -56q49 0 84.5 15t62 43.5t47 81t36 116t32.5 160.5zM647 1831l15 2q23 -63 81 -92t187 -29q213 0 289 133l16 -6q-15 -65 -43.5 -122
t-70 -105t-102 -75.5t-132.5 -27.5q-66 0 -114 26t-74.5 72.5t-39 102t-12.5 121.5z" />
    <glyph glyph-name="obreve" unicode="&#x14f;" horiz-adv-x="1083" 
d="M446 -20q-430 0 -430 385q0 290 159.5 460t451.5 170q212 0 321 -88.5t109 -277.5q0 -166 -45 -292t-127.5 -203t-192.5 -115.5t-246 -38.5zM586 248l69 416q31 163 27.5 235t-57.5 72q-62 0 -89 -63t-59 -249l-69 -411q-24 -122 -17 -184t62 -62q59 0 84 52t49 194z
M406 1438l18 2q14 -65 85 -103.5t189 -38.5q102 0 189.5 39t116.5 99l16 -2q-45 -183 -135.5 -281t-241.5 -98q-89 0 -148 54.5t-80 140t-9 188.5z" />
    <glyph glyph-name="Ohungarumlaut" unicode="&#x150;" horiz-adv-x="1429" 
d="M80 514q0 152 30.5 290t94.5 257.5t157 207t226 137.5t293 50q526 0 526 -553q0 -144 -29 -276.5t-92.5 -251t-155 -206t-225 -138.5t-293.5 -51q-271 0 -401.5 143.5t-130.5 390.5zM889 422l92 534q31 186 31 269q0 63 -12 107t-47 73t-93 29q-38 0 -67.5 -6.5
t-53.5 -25.5t-41.5 -35.5t-33 -56t-25 -66.5t-21.5 -87t-18.5 -97.5t-19.5 -117.5l-80 -500q-23 -157 -23 -219q0 -105 34.5 -161t115.5 -56q49 0 84.5 15t62 43.5t47 81t36 116t32.5 160.5zM969 1513l194 320l101 6q63 3 96 -23t33 -79q0 -84 -88 -117l-326 -115zM692 1501
l94 352l95 33q68 20 112.5 -4.5t44.5 -85.5q0 -70 -71 -119l-260 -182z" />
    <glyph glyph-name="ohungarumlaut" unicode="&#x151;" horiz-adv-x="1083" 
d="M446 -20q-430 0 -430 385q0 290 159.5 460t451.5 170q212 0 321 -88.5t109 -277.5q0 -166 -45 -292t-127.5 -203t-192.5 -115.5t-246 -38.5zM586 248l69 416q31 163 27.5 235t-57.5 72q-62 0 -89 -63t-59 -249l-69 -411q-24 -122 -17 -184t62 -62q59 0 84 52t49 194z
M770 1061l148 399l122 31q44 15 90 -6.5t46 -73.5q0 -75 -74 -129l-322 -229zM494 1059l65 409l127 50q27 8 58.5 7.5t57 -22.5t25.5 -59q0 -63 -63 -129l-256 -266z" />
    <glyph glyph-name="OE" unicode="&#x152;" horiz-adv-x="1990" 
d="M80 514q0 152 30 290t93.5 257.5t155 207t221 137.5t284.5 50q87 0 165 -39t128 -129l27 146h837l-51 -408h-14q-49 205 -161 293t-290 88h-26l-113 -662h31q94 0 187 79t142 200h13l-101 -606h-12q-12 152 -81 225.5t-179 73.5h-6l-117 -692h19q379 0 622 424h19
l-91 -449h-878l22 158q-73 -95 -170.5 -136.5t-173.5 -41.5q-271 0 -401.5 143.5t-130.5 390.5zM889 422l115 676q57 336 -144 336q-38 0 -67.5 -6.5t-53.5 -25.5t-41.5 -35.5t-33 -56t-25 -66.5t-21.5 -87t-18.5 -97.5t-19.5 -117.5l-80 -500q-19 -126 -22 -223t33.5 -155
t115.5 -58q109 0 166 93t96 323z" />
    <glyph glyph-name="oe" unicode="&#x153;" horiz-adv-x="1556" 
d="M446 -20q-430 0 -430 385q0 289 157 459.5t443 170.5q162 0 258 -88q137 88 349 88q344 0 344 -225q0 -66 -33 -118t-84 -83t-119 -51t-131.5 -27.5t-128.5 -7.5h-43l-14 -80q-15 -85 -15 -149q0 -111 45 -159t136 -48q85 0 160.5 71t123.5 230l29 -8q-51 -188 -156 -274
t-268 -86q-104 0 -182 31.5t-113 74.5q-59 -47 -147 -76.5t-181 -29.5zM586 248l69 416q31 163 27.5 235t-57.5 72q-32 0 -55 -19.5t-40 -65t-28 -94.5t-25 -133l-69 -411q-23 -107 -16 -175.5t61 -68.5q58 0 84 55.5t49 188.5zM1243 764l12 80q10 70 -0.5 99.5t-44.5 29.5
q-32 0 -56.5 -24t-42.5 -73.5t-30.5 -102t-25.5 -130.5l-23 -135q80 -2 135 59.5t76 196.5z" />
    <glyph glyph-name="Racute" unicode="&#x154;" horiz-adv-x="1378" 
d="M762 756l-2 -8q81 -2 140 -12.5t110.5 -35t84 -65t51.5 -103.5t21 -149l4 -199q2 -69 16.5 -100t53.5 -31q29 0 50.5 27t41.5 82l25 -8q-25 -71 -48 -100q-62 -79 -208 -79q-36 0 -65.5 2t-68.5 10.5t-69.5 22t-62 39t-52 60.5t-32.5 87t-11 117l4 250q1 100 -25 138
t-75 38h-18l-123 -714h108l-4 -25h-631l5 25h100l229 1382h-114l4 27h489q83 0 153 -4.5t146.5 -15.5t134.5 -32.5t106 -53t73.5 -79.5t25.5 -110q0 -94 -44.5 -165.5t-125 -115.5t-178.5 -68.5t-219 -33.5zM731 1407l-102 -643h10q79 0 127 46.5t74 147.5q43 157 43 295
q0 154 -146 154h-6zM696 1511l226 369l69 -12q115 -20 115 -96q0 -39 -20.5 -65.5t-71.5 -49.5l-307 -156z" />
    <glyph glyph-name="racute" unicode="&#x155;" horiz-adv-x="1085" 
d="M10 -16l92 419l82 547h-135l4 25h553l-92 -357l8 -2q21 58 38.5 100t52 98.5t71.5 92.5t94 62t123 26q49 0 90.5 -15t73 -58.5t31.5 -110.5q0 -101 -59.5 -156t-149.5 -55q-75 0 -148 37l-14 178q-68 0 -130 -108.5t-93 -296.5q-45 -276 -39 -400q-62 4 -211.5 -5
t-241.5 -21zM528 1059l160 416l139 18q30 3 57.5 -2t49.5 -26.5t22 -57.5q0 -38 -16 -64.5t-63 -58.5l-340 -231z" />
    <glyph glyph-name="Rcommaaccent" unicode="&#x156;" horiz-adv-x="1378" 
d="M762 756l-2 -8q81 -2 140 -12.5t110.5 -35t84 -65t51.5 -103.5t21 -149l4 -199q2 -69 16.5 -100t53.5 -31q29 0 50.5 27t41.5 82l25 -8q-25 -71 -48 -100q-62 -79 -208 -79q-36 0 -65.5 2t-68.5 10.5t-69.5 22t-62 39t-52 60.5t-32.5 87t-11 117l4 250q1 100 -25 138
t-75 38h-18l-123 -714h108l-4 -25h-631l5 25h100l229 1382h-114l4 27h489q83 0 153 -4.5t146.5 -15.5t134.5 -32.5t106 -53t73.5 -79.5t25.5 -110q0 -94 -44.5 -165.5t-125 -115.5t-178.5 -68.5t-219 -33.5zM731 1407l-102 -643h10q79 0 127 46.5t74 147.5q43 157 43 295
q0 154 -146 154h-6zM532 -596l-14 23q91 55 124 87q55 54 56 115q0 28 -14.5 42t-32.5 16l-90 -88q-37 11 -64.5 47.5t-27.5 85.5q0 69 51 115.5t127 46.5q75 0 118.5 -45.5t43.5 -120.5q0 -57 -21 -105t-65.5 -88t-84 -66.5t-106.5 -64.5z" />
    <glyph glyph-name="rcommaaccent" unicode="&#x157;" horiz-adv-x="1085" 
d="M10 -16l92 419l82 547h-135l4 25h553l-92 -357l8 -2q21 58 38.5 100t52 98.5t71.5 92.5t94 62t123 26q49 0 90.5 -15t73 -58.5t31.5 -110.5q0 -101 -59.5 -156t-149.5 -55q-75 0 -148 37l-14 178q-68 0 -130 -108.5t-93 -296.5q-45 -276 -39 -400q-62 4 -211.5 -5
t-241.5 -21zM117 -596l-15 23q91 55 124 86q56 55 57 116q0 28 -14.5 42t-32.5 16l-91 -88q-37 11 -64.5 47.5t-27.5 85.5q0 69 51 115.5t127 46.5q75 0 118.5 -45.5t43.5 -120.5q0 -46 -16 -87.5t-38.5 -71.5t-63 -62t-73 -52.5t-85.5 -50.5z" />
    <glyph glyph-name="Rcaron" unicode="&#x158;" horiz-adv-x="1378" 
d="M762 756l-2 -8q81 -2 140 -12.5t110.5 -35t84 -65t51.5 -103.5t21 -149l4 -199q2 -69 16.5 -100t53.5 -31q29 0 50.5 27t41.5 82l25 -8q-25 -71 -48 -100q-62 -79 -208 -79q-36 0 -65.5 2t-68.5 10.5t-69.5 22t-62 39t-52 60.5t-32.5 87t-11 117l4 250q1 100 -25 138
t-75 38h-18l-123 -714h108l-4 -25h-631l5 25h100l229 1382h-114l4 27h489q83 0 153 -4.5t146.5 -15.5t134.5 -32.5t106 -53t73.5 -79.5t25.5 -110q0 -94 -44.5 -165.5t-125 -115.5t-178.5 -68.5t-219 -33.5zM731 1407l-102 -643h10q79 0 127 46.5t74 147.5q43 157 43 295
q0 154 -146 154h-6zM1171 1831l-258 -277q-82 -38 -143 -38q-65 0 -98 23t-54 69l-86 225l13 10l270 -133l348 133z" />
    <glyph glyph-name="rcaron" unicode="&#x159;" horiz-adv-x="1085" 
d="M10 -16l92 419l82 547h-135l4 25h553l-92 -357l8 -2q21 58 38.5 100t52 98.5t71.5 92.5t94 62t123 26q49 0 90.5 -15t73 -58.5t31.5 -110.5q0 -101 -59.5 -156t-149.5 -55q-75 0 -148 37l-14 178q-68 0 -130 -108.5t-93 -296.5q-45 -276 -39 -400q-62 4 -211.5 -5
t-241.5 -21zM514 1110l-31 311l11 11l202 -187l342 207l13 -6l-177 -272q-72 -111 -221 -111q-49 0 -85.5 15t-53.5 32z" />
    <glyph glyph-name="Sacute" unicode="&#x15a;" horiz-adv-x="1136" 
d="M524 4q129 0 200 72.5t71 195.5q0 26 -5 49t-11 41t-21 35.5t-25.5 29t-35 26t-38.5 22.5t-47.5 21.5t-50.5 20t-58 22t-61 22.5q-24 10 -42 18t-49.5 26.5t-55 38.5t-51 53t-45 70t-29.5 89t-12 111q0 96 30.5 178t82.5 138t120 96t142.5 58.5t150.5 18.5
q87 0 167 -21.5t128 -43t59 -21.5q37 0 68 68h16l-67 -447h-15q-21 67 -41 119.5t-53.5 116.5t-69.5 106.5t-87 71.5t-109 29q-111 0 -171 -64t-60 -164q0 -33 7.5 -61.5t16.5 -48.5t29 -40t32.5 -31t41 -25.5t40 -20t41.5 -18.5l52.5 -21t57 -23t55.5 -25.5t57 -30.5
t52 -35t49.5 -43t40 -51t33 -61.5t19.5 -71.5t8 -85q0 -124 -46 -226.5t-123.5 -168.5t-177 -102.5t-208.5 -36.5q-92 0 -187 22.5t-158.5 45t-78.5 22.5q-20 0 -33.5 -18t-35.5 -72h-23l80 497h16q9 -44 23.5 -91.5t38.5 -103t58.5 -103.5t76.5 -88t99.5 -63.5t121.5 -23.5
zM639 1511l225 369l70 -12q115 -20 115 -96q0 -39 -21 -65.5t-72 -49.5l-307 -156z" />
    <glyph glyph-name="sacute" unicode="&#x15b;" horiz-adv-x="1001" 
d="M367 12q65 0 111 17.5t67 45.5t29 53t8 50q0 17 -3 31.5t-12.5 27.5t-16 22.5t-24.5 21t-26 17.5t-32.5 16.5t-33 14t-38 15t-36.5 14.5q-45 18 -75.5 32t-68 39.5t-59.5 54.5t-37.5 72.5t-15.5 96.5q0 111 68.5 189.5t183.5 115.5t265 37q44 0 84.5 -3.5t85 -11.5
t80.5 -23.5t65.5 -37.5t46 -55.5t16.5 -75.5q0 -70 -47 -111.5t-127 -41.5q-59 0 -102 27.5t-43 72.5q0 60 31 99h65q15 34 15 55q0 78 -138 78q-108 0 -160.5 -42.5t-52.5 -97.5q0 -24 11.5 -46t26.5 -37t45.5 -32.5t52 -27.5t61.5 -27q136 -57 187 -91q118 -80 118 -201
q0 -126 -74 -214.5t-197.5 -129.5t-285.5 -41q-181 0 -287 55.5t-106 167.5q0 84 48.5 129t123.5 45t113 -36t38 -93q0 -34 -18 -90h-86q-18 -25 -18 -52q0 -39 41 -66.5t133 -27.5zM539 1059l159 416l140 18q30 3 57.5 -2t49.5 -26.5t22 -57.5q0 -37 -16.5 -64t-63.5 -59
l-340 -231z" />
    <glyph glyph-name="Scircumflex" unicode="&#x15c;" horiz-adv-x="1136" 
d="M524 4q129 0 200 72.5t71 195.5q0 26 -5 49t-11 41t-21 35.5t-25.5 29t-35 26t-38.5 22.5t-47.5 21.5t-50.5 20t-58 22t-61 22.5q-24 10 -42 18t-49.5 26.5t-55 38.5t-51 53t-45 70t-29.5 89t-12 111q0 96 30.5 178t82.5 138t120 96t142.5 58.5t150.5 18.5
q87 0 167 -21.5t128 -43t59 -21.5q37 0 68 68h16l-67 -447h-15q-21 67 -41 119.5t-53.5 116.5t-69.5 106.5t-87 71.5t-109 29q-111 0 -171 -64t-60 -164q0 -33 7.5 -61.5t16.5 -48.5t29 -40t32.5 -31t41 -25.5t40 -20t41.5 -18.5l52.5 -21t57 -23t55.5 -25.5t57 -30.5
t52 -35t49.5 -43t40 -51t33 -61.5t19.5 -71.5t8 -85q0 -124 -46 -226.5t-123.5 -168.5t-177 -102.5t-208.5 -36.5q-92 0 -187 22.5t-158.5 45t-78.5 22.5q-20 0 -33.5 -18t-35.5 -72h-23l80 497h16q9 -44 23.5 -91.5t38.5 -103t58.5 -103.5t76.5 -88t99.5 -63.5t121.5 -23.5
zM424 1516l254 288q80 37 160 37q107 0 135 -92l78 -242l-13 -8l-245 137l-359 -133z" />
    <glyph glyph-name="scircumflex" unicode="&#x15d;" horiz-adv-x="1001" 
d="M367 12q65 0 111 17.5t67 45.5t29 53t8 50q0 17 -3 31.5t-12.5 27.5t-16 22.5t-24.5 21t-26 17.5t-32.5 16.5t-33 14t-38 15t-36.5 14.5q-45 18 -75.5 32t-68 39.5t-59.5 54.5t-37.5 72.5t-15.5 96.5q0 111 68.5 189.5t183.5 115.5t265 37q44 0 84.5 -3.5t85 -11.5
t80.5 -23.5t65.5 -37.5t46 -55.5t16.5 -75.5q0 -70 -47 -111.5t-127 -41.5q-59 0 -102 27.5t-43 72.5q0 60 31 99h65q15 34 15 55q0 78 -138 78q-108 0 -160.5 -42.5t-52.5 -97.5q0 -24 11.5 -46t26.5 -37t45.5 -32.5t52 -27.5t61.5 -27q136 -57 187 -91q118 -80 118 -201
q0 -126 -74 -214.5t-197.5 -129.5t-285.5 -41q-181 0 -287 55.5t-106 167.5q0 84 48.5 129t123.5 45t113 -36t38 -93q0 -34 -18 -90h-86q-18 -25 -18 -52q0 -39 41 -66.5t133 -27.5zM362 1057l199 338q20 12 70.5 29.5t91.5 17.5q63 0 97 -27.5t46 -83.5l56 -280l-13 -2
l-209 190l-329 -188z" />
    <glyph glyph-name="Scedilla" unicode="&#x15e;" horiz-adv-x="1136" 
d="M524 4q129 0 200 72.5t71 195.5q0 26 -5 49t-11 41t-21 35.5t-25.5 29t-35 26t-38.5 22.5t-47.5 21.5t-50.5 20t-58 22t-61 22.5q-24 10 -42 18t-49.5 26.5t-55 38.5t-51 53t-45 70t-29.5 89t-12 111q0 96 30.5 178t82.5 138t120 96t142.5 58.5t150.5 18.5
q87 0 167 -21.5t128 -43t59 -21.5q37 0 68 68h16l-67 -447h-15q-21 67 -41 119.5t-53.5 116.5t-69.5 106.5t-87 71.5t-109 29q-111 0 -171 -64t-60 -164q0 -33 7.5 -61.5t16.5 -48.5t29 -40t32.5 -31t41 -25.5t40 -20t41.5 -18.5l52.5 -21t57 -23t55.5 -25.5t57 -30.5
t52 -35t49.5 -43t40 -51t33 -61.5t19.5 -71.5t8 -85q0 -124 -46 -226.5t-123.5 -168.5t-177 -102.5t-208.5 -36.5h-12l-84 -107q97 31 188 31q78 0 122 -43.5t44 -128.5q0 -37 -14 -73.5t-46.5 -73.5t-97.5 -60t-155 -23q-109 0 -157 40.5t-48 92.5q0 45 25.5 74t73.5 29
q84 0 86 -98l-58 -27q-17 -37 -6 -61.5t51 -24.5q17 0 33 6.5t34.5 23.5t30 55t11.5 93q0 152 -68 152q-23 0 -86 -19l-8 23l90 121q-80 5 -164 27t-139 41.5t-70 19.5q-20 0 -33.5 -18t-35.5 -72h-23l80 497h16q9 -44 23.5 -91.5t38.5 -103t58.5 -103.5t76.5 -88
t99.5 -63.5t121.5 -23.5z" />
    <glyph glyph-name="scedilla" unicode="&#x15f;" horiz-adv-x="1001" 
d="M367 12q65 0 111 17.5t67 45.5t29 53t8 50q0 17 -3 31.5t-12.5 27.5t-16 22.5t-24.5 21t-26 17.5t-32.5 16.5t-33 14t-38 15t-36.5 14.5q-45 18 -75.5 32t-68 39.5t-59.5 54.5t-37.5 72.5t-15.5 96.5q0 111 68.5 189.5t183.5 115.5t265 37q44 0 84.5 -3.5t85 -11.5
t80.5 -23.5t65.5 -37.5t46 -55.5t16.5 -75.5q0 -70 -47 -111.5t-127 -41.5q-59 0 -102 27.5t-43 72.5q0 60 31 99h65q15 34 15 55q0 78 -138 78q-108 0 -160.5 -42.5t-52.5 -97.5q0 -24 11.5 -46t26.5 -37t45.5 -32.5t52 -27.5t61.5 -27q136 -57 187 -91q118 -80 118 -201
q0 -125 -73.5 -213t-195.5 -129.5t-282 -42.5l-84 -107q97 31 189 31q78 0 122 -43.5t44 -128.5q0 -37 -14 -73.5t-46.5 -73.5t-98 -60t-155.5 -23q-109 0 -157 40.5t-48 92.5q0 45 25.5 74t73.5 29q84 0 86 -98l-58 -27q-17 -37 -6 -61.5t51 -24.5q17 0 33 6.5t34.5 23.5
t30 55t11.5 93q0 152 -68 152q-23 0 -86 -19l-8 23l88 119q-165 5 -261.5 61t-96.5 162q0 84 48.5 129t123.5 45t113 -36t38 -93q0 -34 -18 -90h-86q-18 -25 -18 -52q0 -39 41 -66.5t133 -27.5z" />
    <glyph glyph-name="Scaron" unicode="&#x160;" horiz-adv-x="1136" 
d="M524 4q129 0 200 72.5t71 195.5q0 26 -5 49t-11 41t-21 35.5t-25.5 29t-35 26t-38.5 22.5t-47.5 21.5t-50.5 20t-58 22t-61 22.5q-24 10 -42 18t-49.5 26.5t-55 38.5t-51 53t-45 70t-29.5 89t-12 111q0 96 30.5 178t82.5 138t120 96t142.5 58.5t150.5 18.5
q87 0 167 -21.5t128 -43t59 -21.5q37 0 68 68h16l-67 -447h-15q-21 67 -41 119.5t-53.5 116.5t-69.5 106.5t-87 71.5t-109 29q-111 0 -171 -64t-60 -164q0 -33 7.5 -61.5t16.5 -48.5t29 -40t32.5 -31t41 -25.5t40 -20t41.5 -18.5l52.5 -21t57 -23t55.5 -25.5t57 -30.5
t52 -35t49.5 -43t40 -51t33 -61.5t19.5 -71.5t8 -85q0 -124 -46 -226.5t-123.5 -168.5t-177 -102.5t-208.5 -36.5q-92 0 -187 22.5t-158.5 45t-78.5 22.5q-20 0 -33.5 -18t-35.5 -72h-23l80 497h16q9 -44 23.5 -91.5t38.5 -103t58.5 -103.5t76.5 -88t99.5 -63.5t121.5 -23.5
zM1108 1831l-258 -277q-82 -38 -143 -38q-65 0 -98 23t-54 69l-86 225l12 10l271 -133l348 133z" />
    <glyph glyph-name="scaron" unicode="&#x161;" horiz-adv-x="1001" 
d="M367 12q65 0 111 17.5t67 45.5t29 53t8 50q0 17 -3 31.5t-12.5 27.5t-16 22.5t-24.5 21t-26 17.5t-32.5 16.5t-33 14t-38 15t-36.5 14.5q-45 18 -75.5 32t-68 39.5t-59.5 54.5t-37.5 72.5t-15.5 96.5q0 111 68.5 189.5t183.5 115.5t265 37q44 0 84.5 -3.5t85 -11.5
t80.5 -23.5t65.5 -37.5t46 -55.5t16.5 -75.5q0 -70 -47 -111.5t-127 -41.5q-59 0 -102 27.5t-43 72.5q0 60 31 99h65q15 34 15 55q0 78 -138 78q-108 0 -160.5 -42.5t-52.5 -97.5q0 -24 11.5 -46t26.5 -37t45.5 -32.5t52 -27.5t61.5 -27q136 -57 187 -91q118 -80 118 -201
q0 -126 -74 -214.5t-197.5 -129.5t-285.5 -41q-181 0 -287 55.5t-106 167.5q0 84 48.5 129t123.5 45t113 -36t38 -93q0 -34 -18 -90h-86q-18 -25 -18 -52q0 -39 41 -66.5t133 -27.5zM522 1110l-30 311l10 11l203 -187l342 207l12 -6l-176 -272q-72 -111 -221 -111
q-49 0 -86.5 15.5t-53.5 31.5z" />
    <glyph glyph-name="uni0162" unicode="&#x162;" horiz-adv-x="1427" 
d="M1524 1434l-84 -521h-19q-15 97 -42.5 180.5t-69 154t-103 113t-135.5 46.5l-233 -1382h192l-4 -25h-393l-101 -127q97 31 189 31q78 0 122 -43.5t44 -128.5q0 -37 -14 -73.5t-46.5 -73.5t-98 -60t-155.5 -23q-108 0 -156 40.5t-48 92.5q0 45 25.5 74t72.5 29
q84 0 86 -98l-57 -27q-17 -37 -6 -61.5t51 -24.5q17 0 33 6.5t34.5 23.5t29.5 55t11 93q0 152 -67 152q-23 0 -86 -19l-9 23l105 139h-363l7 25h178l233 1382q-154 -26 -293 -160.5t-217 -333.5h-20l88 521h1319z" />
    <glyph glyph-name="uni0163" unicode="&#x163;" horiz-adv-x="768" 
d="M813 950h-192l-89 -440q-49 -241 -49 -324q0 -110 74 -110q89 0 166 221l29 -8q-20 -56 -38.5 -96.5t-48.5 -83t-65 -69t-86.5 -43.5t-114.5 -17q-27 0 -67 4l-86 -111q97 31 188 31q78 0 122 -43.5t44 -128.5q0 -37 -14 -73.5t-46.5 -73.5t-97.5 -60t-155 -23
q-109 0 -157 40.5t-48 92.5q0 45 25.5 74t72.5 29q84 0 86 -98l-57 -27q-17 -37 -6 -61.5t51 -24.5q17 0 33 6.5t34.5 23.5t29.5 55t11 93q0 152 -67 152q-23 0 -86 -19l-8 23l96 129q-63 11 -108 37.5t-68.5 63t-34 74t-10.5 79.5q0 87 41 288l80 418h-148l6 25h146l41 205
l385 82h47l-49 -287h194z" />
    <glyph glyph-name="Tcaron" unicode="&#x164;" horiz-adv-x="1427" 
d="M1524 1434l-84 -521h-19q-15 97 -42.5 180.5t-69 154t-103 113t-135.5 46.5l-233 -1382h192l-4 -25h-797l7 25h178l233 1382q-154 -26 -293 -160.5t-217 -333.5h-20l88 521h1319zM1272 1831l-258 -277q-82 -38 -144 -38q-65 0 -97.5 22.5t-53.5 69.5l-86 225l12 10
l270 -133l349 133z" />
    <glyph glyph-name="tcaron" unicode="&#x165;" horiz-adv-x="768" 
d="M813 950h-192l-89 -440q-49 -241 -49 -324q0 -110 74 -110q89 0 166 221l29 -8q-20 -56 -38.5 -96.5t-48.5 -83t-65 -69t-86.5 -43.5t-114.5 -17q-93 0 -159.5 23.5t-100.5 64t-48.5 83.5t-14.5 93q0 87 41 288l80 418h-148l6 25h146l41 205l385 82h47l-49 -287h194z
M713 1061l-13 18q121 102 121 224q0 79 -71 153l45 37q49 40 84.5 57t74.5 17q53 0 84 -37.5t31 -89.5q0 -34 -13.5 -68.5t-32.5 -63t-52.5 -60.5t-60 -54t-68.5 -51t-65.5 -43.5t-63.5 -38.5z" />
    <glyph glyph-name="Tbar" unicode="&#x166;" horiz-adv-x="1427" 
d="M1524 1434l-84 -521h-19q-15 97 -42.5 180.5t-69 154t-103 113t-135.5 46.5l-117 -682h279l-6 -31h-277l-112 -669h192l-4 -25h-797l7 25h178l112 669h-276l6 31h274l117 682q-154 -26 -293 -160.5t-217 -333.5h-20l88 521h1319z" />
    <glyph glyph-name="tbar" unicode="&#x167;" horiz-adv-x="768" 
d="M813 950h-192l-66 -321h229l-6 -25h-227l-19 -94q-49 -241 -49 -324q0 -110 74 -110q89 0 166 221l29 -8q-20 -56 -38.5 -96.5t-48.5 -83t-65 -69t-86.5 -43.5t-114.5 -17q-93 0 -159.5 23.5t-100.5 64t-48.5 83.5t-14.5 93q0 87 41 288l12 72h-133l6 25h133l62 321h-148
l6 25h146l41 205l385 82h47l-49 -287h194z" />
    <glyph glyph-name="Utilde" unicode="&#x168;" horiz-adv-x="1329" 
d="M762 31q-57 0 -97.5 12t-64.5 32.5t-38 53.5t-18.5 67.5t-4.5 82.5q0 35 14 143l164 985h131l2 27h-672l-2 -27h121l-150 -848q-18 -108 -18 -190q0 -101 39.5 -177t111.5 -121.5t166.5 -68t210.5 -22.5q241 0 362.5 118t162.5 365l159 944h105l4 27h-276v-27h129
l-160 -965q-18 -111 -57 -193t-91.5 -128.5t-110 -68t-122.5 -21.5zM1034 1530q-78 0 -186 49q-75 33 -117 33q-87 0 -133 -80l-14 6q46 146 111 217.5t165 71.5q13 0 28 -3t25.5 -5.5t31 -10t27 -10.5t31 -13.5t27.5 -12.5q76 -31 107 -31q27 0 46 4t44 24.5t43 57.5l16 -6
q-53 -154 -114 -222.5t-138 -68.5z" />
    <glyph glyph-name="utilde" unicode="&#x169;" horiz-adv-x="1263" 
d="M68 289q90 491 129 661h-129l4 25h561q-135 -589 -168 -778q-13 -83 5 -105q10 -12 28 -12q54 0 118.5 142.5t102.5 377.5q37 249 39 352q52 -2 229 8.5t217 18.5q-115 -550 -147 -795q-10 -83 -1 -107q11 -30 48 -30q58 0 137 129l23 -16q-60 -100 -130.5 -139
t-168.5 -39q-182 0 -251 88.5t-18 259.5l-12 4q-29 -90 -59 -149.5t-74 -108t-105.5 -71.5t-144.5 -23q-146 0 -202.5 84t-30.5 223zM887 1092q-79 0 -187 49q-75 33 -116 33q-87 0 -133 -80l-15 6q46 146 111 217.5t166 71.5q15 0 30.5 -2.5t37.5 -10.5t31 -11.5t38 -16.5
t33 -15q73 -30 106 -30q27 0 46 4t44 24.5t43 57.5l17 -7q-53 -153 -114 -221.5t-138 -68.5z" />
    <glyph glyph-name="Umacron" unicode="&#x16a;" horiz-adv-x="1329" 
d="M762 31q-57 0 -97.5 12t-64.5 32.5t-38 53.5t-18.5 67.5t-4.5 82.5q0 35 14 143l164 985h131l2 27h-672l-2 -27h121l-150 -848q-18 -108 -18 -190q0 -101 39.5 -177t111.5 -121.5t166.5 -68t210.5 -22.5q241 0 362.5 118t162.5 365l159 944h105l4 27h-276v-27h129
l-160 -965q-18 -111 -57 -193t-91.5 -128.5t-110 -68t-122.5 -21.5zM629 1552l35 193h557l-35 -193h-557z" />
    <glyph glyph-name="umacron" unicode="&#x16b;" horiz-adv-x="1263" 
d="M68 289q90 491 129 661h-129l4 25h561q-135 -589 -168 -778q-13 -83 5 -105q10 -12 28 -12q54 0 118.5 142.5t102.5 377.5q37 249 39 352q52 -2 229 8.5t217 18.5q-115 -550 -147 -795q-10 -83 -1 -107q11 -30 48 -30q58 0 137 129l23 -16q-60 -100 -130.5 -139
t-168.5 -39q-182 0 -251 88.5t-18 259.5l-12 4q-29 -90 -59 -149.5t-74 -108t-105.5 -71.5t-144.5 -23q-146 0 -202.5 84t-30.5 223zM432 1126l35 193h557l-35 -193h-557z" />
    <glyph glyph-name="Ubreve" unicode="&#x16c;" horiz-adv-x="1329" 
d="M762 31q65 0 122.5 21.5t110 68t91.5 128.5t57 193l160 965h-129v27h276l-4 -27h-105l-159 -944q-41 -247 -162.5 -365t-362.5 -118q-116 0 -210.5 22.5t-166.5 68t-111.5 121.5t-39.5 177q0 82 18 190l150 848h-121l2 27h672l-2 -27h-131l-164 -985q-14 -109 -14 -143
q0 -48 4.5 -82.5t18.5 -67.5t38 -53.5t64.5 -32.5t97.5 -12zM672 1823l14 2q23 -63 81 -92t187 -29q213 0 289 133l17 -6q-15 -65 -43.5 -122t-70.5 -105t-102.5 -75.5t-132.5 -27.5q-53 0 -94.5 17.5t-68.5 47t-44.5 71.5t-24.5 87.5t-7 98.5z" />
    <glyph glyph-name="ubreve" unicode="&#x16d;" horiz-adv-x="1263" 
d="M68 289q90 491 129 661h-129l4 25h561q-135 -589 -168 -778q-13 -83 5 -105q10 -12 28 -12q54 0 118.5 142.5t102.5 377.5q37 249 39 352q52 -2 229 8.5t217 18.5q-115 -550 -147 -795q-10 -83 -1 -107q11 -30 48 -30q58 0 137 129l23 -16q-60 -100 -130.5 -139
t-168.5 -39q-182 0 -251 88.5t-18 259.5l-12 4q-29 -90 -59 -149.5t-74 -108t-105.5 -71.5t-144.5 -23q-146 0 -202.5 84t-30.5 223zM479 1438l19 2q14 -65 85 -103.5t189 -38.5q102 0 189 39t116 99l17 -2q-45 -183 -135.5 -281t-241.5 -98q-89 0 -148.5 54.5t-80.5 140
t-9 188.5z" />
    <glyph glyph-name="Uring" unicode="&#x16e;" horiz-adv-x="1329" 
d="M762 31q-57 0 -97.5 12t-64.5 32.5t-38 53.5t-18.5 67.5t-4.5 82.5q0 35 14 143l164 985h131l2 27h-672l-2 -27h121l-150 -848q-18 -108 -18 -190q0 -101 39.5 -177t111.5 -121.5t166.5 -68t210.5 -22.5q241 0 362.5 118t162.5 365l159 944h105l4 27h-276v-27h129
l-160 -965q-18 -111 -57 -193t-91.5 -128.5t-110 -68t-122.5 -21.5zM1016 1853q-73 0 -121.5 -50.5t-48.5 -131.5q0 -112 123 -112q81 0 127.5 53t46.5 127q0 50 -31 82t-96 32zM782 1663q0 101 69.5 170.5t178.5 69.5q87 0 129.5 -42t42.5 -114q0 -104 -68 -171t-176 -67
q-176 0 -176 154z" />
    <glyph glyph-name="uring" unicode="&#x16f;" horiz-adv-x="1263" 
d="M68 289q90 491 129 661h-129l4 25h561q-135 -589 -168 -778q-13 -83 5 -105q10 -12 28 -12q54 0 118.5 142.5t102.5 377.5q37 249 39 352q52 -2 229 8.5t217 18.5q-115 -550 -147 -795q-10 -83 -1 -107q11 -30 48 -30q58 0 137 129l23 -16q-60 -100 -130.5 -139
t-168.5 -39q-182 0 -251 88.5t-18 259.5l-12 4q-29 -90 -59 -149.5t-74 -108t-105.5 -71.5t-144.5 -23q-146 0 -202.5 84t-30.5 223zM782 1425q-73 0 -121.5 -50.5t-48.5 -131.5q0 -113 123 -113q81 0 127.5 53.5t46.5 127.5q0 50 -31 82t-96 32zM549 1235q0 101 69.5 170.5
t178.5 69.5q87 0 129.5 -42t42.5 -114q0 -104 -68 -171t-176 -67q-176 0 -176 154z" />
    <glyph glyph-name="Uhungarumlaut" unicode="&#x170;" horiz-adv-x="1329" 
d="M762 31q-57 0 -97.5 12t-64.5 32.5t-38 53.5t-18.5 67.5t-4.5 82.5q0 35 14 143l164 985h131l2 27h-672l-2 -27h121l-150 -848q-18 -108 -18 -190q0 -101 39.5 -177t111.5 -121.5t166.5 -68t210.5 -22.5q241 0 362.5 118t162.5 365l159 944h105l4 27h-276v-27h129
l-160 -965q-18 -111 -57 -193t-91.5 -128.5t-110 -68t-122.5 -21.5zM936 1513l194 320l101 6q63 3 96 -23t33 -79q0 -84 -88 -117l-326 -115zM659 1501l95 352l94 33q68 20 113 -4.5t45 -85.5q0 -70 -72 -119l-260 -182z" />
    <glyph glyph-name="uhungarumlaut" unicode="&#x171;" horiz-adv-x="1263" 
d="M68 289q90 491 129 661h-129l4 25h561q-135 -589 -168 -778q-13 -83 5 -105q10 -12 28 -12q54 0 118.5 142.5t102.5 377.5q37 249 39 352q52 -2 229 8.5t217 18.5q-115 -550 -147 -795q-10 -83 -1 -107q11 -30 48 -30q58 0 137 129l23 -16q-60 -100 -130.5 -139
t-168.5 -39q-182 0 -251 88.5t-18 259.5l-12 4q-29 -90 -59 -149.5t-74 -108t-105.5 -71.5t-144.5 -23q-146 0 -202.5 84t-30.5 223zM776 1061l148 399l123 31q44 15 89.5 -6.5t45.5 -73.5q0 -75 -74 -129l-322 -229zM500 1059l65 409l127 50q27 8 58.5 7.5t57.5 -22.5
t26 -59q0 -62 -64 -129l-256 -266z" />
    <glyph glyph-name="Uogonek" unicode="&#x172;" horiz-adv-x="1329" 
d="M762 31q65 0 122.5 21.5t110 68t91.5 128.5t57 193l160 965h-129v27h276l-4 -27h-105l-159 -944q-29 -165 -88.5 -265.5t-167.5 -177.5q-97 -68 -140 -139.5t-43 -169.5q0 -56 19 -81t63 -25q41 0 69 23t58 79l19 -8q-94 -211 -297 -211q-86 0 -134 47.5t-48 126.5
q0 48 14.5 87t40 68.5t66.5 58t89.5 54.5t112.5 58q6 2 9 3.5t7.5 4t8.5 4.5q-88 -20 -183 -20q-116 0 -210.5 22.5t-166.5 68t-111.5 121.5t-39.5 177q0 82 18 190l150 848h-121l2 27h672l-2 -27h-131l-164 -985q-14 -109 -14 -143q0 -48 4.5 -82.5t18.5 -67.5t38 -53.5
t64.5 -32.5t97.5 -12z" />
    <glyph glyph-name="uogonek" unicode="&#x173;" horiz-adv-x="1263" 
d="M68 289q90 491 129 661h-129l4 25h561q-135 -589 -168 -778q-13 -83 5 -105q10 -12 28 -12q54 0 118.5 142.5t102.5 377.5q37 249 39 352q52 -2 229 8.5t217 18.5q-115 -550 -147 -795q-10 -83 -1 -107q11 -30 48 -30q58 0 137 129l23 -16q-52 -85 -136 -148
q-88 -65 -123.5 -134t-35.5 -167q0 -56 19 -81t63 -25q41 0 69 23t58 79l18 -8q-94 -211 -297 -211q-86 0 -134 47.5t-48 126.5q0 34 8 64t19 53.5t35.5 47t45.5 41t60.5 40t69.5 38.5t83 42q-37 -6 -73 -6q-182 0 -251 88.5t-18 259.5l-12 4q-29 -90 -59 -149.5t-74 -108
t-105.5 -71.5t-144.5 -23q-146 0 -202.5 84t-30.5 223z" />
    <glyph glyph-name="Wcircumflex" unicode="&#x174;" horiz-adv-x="1890" 
d="M809 424l207 537l-43 446h-107l4 27h635l-4 -27h-102l112 -973h7l403 973h-199l4 27h375l-4 -27h-133l-588 -1423h-225l-123 901l-350 -901h-234l-268 1423h-78l4 27h662l-4 -27h-129l170 -983h8zM862 1516l254 288q80 37 160 37q107 0 135 -92l78 -242l-12 -8l-246 137
l-359 -133z" />
    <glyph glyph-name="wcircumflex" unicode="&#x175;" horiz-adv-x="1640" 
d="M1071 162q-3 -30 -2.5 -56t18 -43.5t52.5 -17.5q64 0 137 46t134 119.5t101.5 177t40.5 208.5q0 82 -27.5 130.5t-80.5 45.5l-58 -82q-61 17 -93.5 56.5t-32.5 91.5q0 67 44 112t111 45q45 0 80.5 -15.5t56.5 -39t34.5 -56t18.5 -63t5 -63.5q0 -108 -19.5 -213
t-66.5 -208.5t-116.5 -181.5t-177.5 -126.5t-241 -48.5q-74 0 -153 22t-129 74q-130 -96 -320 -96q-68 0 -124.5 20.5t-100 61.5t-61.5 112.5t-3 165.5q29 178 92 448q18 80 17 95q-3 25 -23 26q-23 0 -60 -35t-93 -104l-19 16q86 116 171 162.5t198 46.5q130 0 200.5 -80.5
t41.5 -212.5q-17 -80 -39 -175.5t-36 -163t-30 -158.5q-16 -71 -4.5 -115.5t64.5 -44.5q55 0 116 55q-20 72 0 201q2 9 55 269t68 384q49 -2 216 11t204 22q-137 -611 -166 -825zM705 1057l198 338q20 12 70.5 29.5t91.5 17.5q63 0 97 -27.5t46 -83.5l56 -280l-13 -2
l-209 190l-329 -188z" />
    <glyph glyph-name="Ycircumflex" unicode="&#x176;" horiz-adv-x="1216" 
d="M842 711l454 696h-143l6 27h281l-10 -27h-89l-489 -756l-111 -626h166l-2 -25h-749l4 25h164l100 622l-223 760h-117l6 27h696l-10 -27h-131l191 -696h6zM557 1516l254 288q80 37 160 37q107 0 135 -92l78 -242l-13 -8l-245 137l-359 -133z" />
    <glyph glyph-name="ycircumflex" unicode="&#x177;" horiz-adv-x="1122" 
d="M147 -307l-108 -15q-15 -17 -20.5 -41.5t0.5 -48t30.5 -39.5t65.5 -16q74 0 172 65t205 189q-36 130 -267 922q-27 98 -41 118q-13 19 -34 19q-30 0 -49 -28.5t-66 -131.5l-27 12q13 33 21.5 52t27.5 54.5t36 57.5t45 50t58.5 44t72.5 27.5t89 11.5q111 0 174 -52
t101 -181q32 -111 81.5 -305.5t76.5 -288.5q137 200 184 292t47 154q0 39 -18 57t-54 21l-61 -86q-89 20 -131.5 77t-42.5 126q0 29 10.5 59t32 59.5t62 48.5t93.5 19q205 0 205 -223q0 -69 -33 -161t-88.5 -189t-112.5 -181.5t-120 -166.5q-21 -27 -61 -80q-47 -61 -70 -91
t-65.5 -83t-68 -80.5t-65.5 -69t-69.5 -63t-69 -48.5t-74.5 -40t-76.5 -22t-83.5 -9q-120 0 -198 65.5t-78 163.5q0 97 60.5 154t146.5 57q81 0 132 -60t23 -175zM428 1057l199 338q20 12 70 29.5t91 17.5q63 0 97.5 -27.5t46.5 -83.5l55 -280l-12 -2l-209 190l-330 -188z
" />
    <glyph glyph-name="Ydieresis" unicode="&#x178;" horiz-adv-x="1216" 
d="M842 711l454 696h-143l6 27h281l-10 -27h-89l-489 -756l-111 -626h166l-2 -25h-749l4 25h164l100 622l-223 760h-117l6 27h696l-10 -27h-131l191 -696h6zM952 1677q10 66 63.5 111t141.5 45q87 0 127.5 -39.5t28.5 -116.5q-11 -72 -64 -115.5t-141 -43.5q-96 0 -131 45.5
t-25 113.5zM502 1677q10 66 63.5 111t141.5 45q87 0 127 -39.5t28 -116.5q-11 -72 -64 -115.5t-141 -43.5q-96 0 -130.5 45.5t-24.5 113.5z" />
    <glyph glyph-name="Zacute" unicode="&#x179;" horiz-adv-x="1265" 
d="M1307 1434l-2 -27l-834 -1382h14q88 0 193.5 43.5t198.5 112t171 154.5t117 169h23l-101 -504h-1097l4 23l870 1384h-43q-210 0 -366 -102t-287 -328h-21l101 457h1059zM698 1511l226 369l69 -12q115 -20 115 -96q0 -39 -20.5 -65.5t-71.5 -49.5l-307 -156z" />
    <glyph glyph-name="zacute" unicode="&#x17a;" horiz-adv-x="1132" 
d="M1061 494l24 -5q-31 -146 -74 -248t-95 -157.5t-106.5 -79.5t-119.5 -24q-102 0 -215 77l-213 148q-12 -100 -55 -157.5t-107 -57.5q-59 0 -82.5 29.5t-23.5 70.5q0 58 51 97.5t139 39.5q32 0 72 -6l410 363q-373 26 -420 30q-48 3 -72 -5t-37 -27t-31 -66l-20 4
q50 186 106.5 291t119 144.5t151.5 39.5q111 0 203 -77l211 -177q-1 38 5 75t21 77t48 65t81 25q43 0 70.5 -24t27.5 -76q0 -63 -64 -108.5t-187 -49.5l-414 -348q315 -20 426 -23q79 -2 108 21.5t62 118.5zM608 1059l160 416l139 18q30 3 57.5 -2t49.5 -26.5t22 -57.5
q0 -37 -16.5 -64t-63.5 -59l-340 -231z" />
    <glyph glyph-name="Zdotaccent" unicode="&#x17b;" horiz-adv-x="1265" 
d="M1307 1434l-2 -27l-834 -1382h14q88 0 193.5 43.5t198.5 112t171 154.5t117 169h23l-101 -504h-1097l4 23l870 1384h-43q-210 0 -366 -102t-287 -328h-21l101 457h1059zM791 1516q-99 0 -142 43.5t-43 103.5q0 97 76.5 155t183.5 58q87 0 135 -39t48 -111
q0 -97 -76 -153.5t-182 -56.5z" />
    <glyph glyph-name="zdotaccent" unicode="&#x17c;" horiz-adv-x="1132" 
d="M1061 494l24 -5q-31 -146 -74 -248t-95 -157.5t-106.5 -79.5t-119.5 -24q-102 0 -215 77l-213 148q-12 -100 -55 -157.5t-107 -57.5q-59 0 -82.5 29.5t-23.5 70.5q0 58 51 97.5t139 39.5q32 0 72 -6l410 363q-373 26 -420 30q-48 3 -72 -5t-37 -27t-31 -66l-20 4
q50 186 106.5 291t119 144.5t151.5 39.5q111 0 203 -77l211 -177q-1 38 5 75t21 77t48 65t81 25q43 0 70.5 -24t27.5 -76q0 -63 -64 -108.5t-187 -49.5l-414 -348q315 -20 426 -23q79 -2 108 21.5t62 118.5zM702 1081q-58 0 -100 15t-63.5 39.5t-31 51t-9.5 56.5
q0 108 84 172t204 64q94 0 147.5 -43t53.5 -121q0 -108 -84 -171t-201 -63z" />
    <glyph glyph-name="Zcaron" unicode="&#x17d;" horiz-adv-x="1265" 
d="M1307 1434l-2 -27l-834 -1382h14q88 0 193.5 43.5t198.5 112t171 154.5t117 169h23l-101 -504h-1097l4 23l870 1384h-43q-210 0 -366 -102t-287 -328h-21l101 457h1059zM1194 1831l-258 -277q-82 -38 -143 -38q-65 0 -98 23t-54 69l-86 225l12 10l271 -133l348 133z" />
    <glyph glyph-name="zcaron" unicode="&#x17e;" horiz-adv-x="1132" 
d="M1061 494l24 -5q-31 -146 -74 -248t-95 -157.5t-106.5 -79.5t-119.5 -24q-102 0 -215 77l-213 148q-12 -100 -55 -157.5t-107 -57.5q-59 0 -82.5 29.5t-23.5 70.5q0 58 51 97.5t139 39.5q32 0 72 -6l410 363q-373 26 -420 30q-48 3 -72 -5t-37 -27t-31 -66l-20 4
q50 186 106.5 291t119 144.5t151.5 39.5q111 0 203 -77l211 -177q-1 38 5 75t21 77t48 65t81 25q43 0 70.5 -24t27.5 -76q0 -63 -64 -108.5t-187 -49.5l-414 -348q315 -20 426 -23q79 -2 108 21.5t62 118.5zM545 1110l-31 311l10 11l203 -187l342 207l12 -6l-176 -272
q-72 -111 -221 -111q-49 0 -85.5 15t-53.5 32z" />
    <glyph glyph-name="longs" unicode="&#x17f;" horiz-adv-x="708" 
d="M29 -20l180 1062q48 258 206.5 399.5t411.5 141.5q67 0 127.5 -14.5t112 -43.5t82.5 -80t31 -116q0 -100 -62 -161.5t-151 -61.5q-113 0 -161 71t-11 189l125 14q34 95 17 138t-69 43q-34 0 -57.5 -14t-43 -42.5t-36 -87t-31 -131.5t-34.5 -192l-197 -1067
q-49 -263 -198.5 -401t-415.5 -138q-61 0 -119.5 14t-108.5 41t-81 73t-31 105q0 86 56 145.5t150 59.5q73 0 117.5 -38t48.5 -95t-22 -123l-101 -14q-38 -52 -17.5 -95.5t79.5 -43.5q81 0 117 89t86 374z" />
    <glyph glyph-name="florin" unicode="&#x192;" horiz-adv-x="1191" 
d="M1008 836l-9 -35h-254l-141 -764q-86 -471 -612 -471q-157 0 -241.5 58t-84.5 171q0 88 48.5 149.5t146.5 61.5q55 0 93 -21t53.5 -56t14 -79.5t-21.5 -93.5h-82q-28 -54 -29.5 -90t16 -50.5t48.5 -14.5q34 0 58 12.5t48 47t44 100.5t40 169l156 871h-139l8 35h137
l25 149q17 96 58 178t108 149t169.5 105.5t229.5 38.5q176 0 281.5 -68t105.5 -184q0 -77 -50.5 -135.5t-135.5 -58.5q-94 0 -137.5 46t-43.5 124q0 38 27 90h80q24 88 -1.5 125t-76.5 37q-24 0 -39 -4t-29 -20.5t-22.5 -35t-19.5 -64t-19 -89t-22 -127.5l-41 -256h256z" />
    <glyph glyph-name="Aringacute" unicode="&#x1fa;" horiz-adv-x="1390" 
d="M639 1575q0 101 69.5 170.5t178.5 69.5q87 0 129.5 -42t42.5 -114q0 -75 -37 -133t-102 -84l305 -1417h78l-5 -25h-692l4 25h135l-90 462h-376l-228 -462h148l-4 -25h-269l4 25h84l701 1415q-76 36 -76 135zM555 1047l-264 -529h358zM872 1765q-73 0 -121.5 -50.5
t-48.5 -131.5q0 -113 123 -113q81 0 127.5 53.5t46.5 127.5q0 50 -31 82t-96 32zM713 1843l282 328l66 -23q49 -19 74.5 -42t25.5 -56q0 -81 -110 -115l-330 -102z" />
    <glyph glyph-name="aringacute" unicode="&#x1fb;" horiz-adv-x="1196" 
d="M1169 180l23 -14q-58 -99 -122.5 -142.5t-151.5 -43.5q-154 0 -227 73t-54 203q-2 0 -5 1t-5 1q-2 -5 -5 -15q-12 -38 -19 -57t-21 -52t-26.5 -50.5t-33 -40.5t-43 -34.5t-54.5 -20t-69 -8.5q-331 0 -331 342q0 311 128 492t363 181q82 0 123 -30.5t57 -90.5l21 93
q57 -7 213.5 -1t216.5 19q-10 -50 -48.5 -233.5t-63 -310t-44.5 -255.5q-1 -5 -3 -19t-3 -20t-2 -19t-0.5 -19.5t2 -16.5t5 -15.5t9 -11t14 -8t19.5 -2.5q28 0 59.5 25.5t77.5 99.5zM467 55q53 0 101.5 116.5t76 280.5t27.5 312q0 103 -17.5 143.5t-54.5 40.5q-36 0 -53 -41
t-39 -172l-78 -463q-23 -117 -16.5 -167t53.5 -50zM758 1368q-73 0 -121.5 -50.5t-48.5 -131.5q0 -113 123 -113q81 0 127.5 53t46.5 127q0 50 -31 82.5t-96 32.5zM524 1178q0 101 69.5 170t178.5 69q87 0 129.5 -41.5t42.5 -113.5q0 -104 -68 -171t-176 -67
q-176 0 -176 154zM604 1421l225 369l70 -12q115 -20 115 -97q0 -39 -20.5 -65t-71.5 -49l-308 -156z" />
    <glyph glyph-name="AEacute" unicode="&#x1fc;" horiz-adv-x="1882" 
d="M715 1407l4 27h1194l-51 -408h-15q-49 205 -160.5 293t-289.5 88h-27l-113 -662h31q94 0 187.5 79t142.5 200h12l-100 -606h-12q-12 152 -81.5 225.5t-179.5 73.5h-6l-116 -692h18q380 0 623 424h18l-90 -449h-1100l2 25h107l114 688h-376l-451 -688h154l-9 -25h-288
l10 25h92l909 1382h-153zM909 1407l-440 -664h362l115 664h-37zM1260 1511l225 369l69 -12q115 -20 115 -96q0 -39 -20.5 -65.5t-71.5 -49.5l-307 -156z" />
    <glyph glyph-name="aeacute" unicode="&#x1fd;" horiz-adv-x="1722" 
d="M719 307h8q29 -325 397 -325q193 0 302.5 85.5t164.5 272.5l-26 8q-46 -148 -123 -223.5t-168 -75.5q-225 0 -164 344l16 90q59 -2 123 3t140.5 24.5t136 51t99.5 88.5t40 132q0 101 -80.5 157t-247.5 56q-78 0 -256.5 -16t-281.5 -12l-21 -93q-16 60 -57 90.5t-123 30.5
q-236 0 -364 -181t-128 -492q0 -342 332 -342q45 0 82.5 13t65 38t48.5 54t37.5 69.5t26.5 74t21 78.5zM549 55q-47 0 -53.5 50t16.5 167l78 463q22 131 39 172t53 41q37 0 54.5 -40.5t17.5 -143.5q0 -148 -27.5 -312t-76 -280.5t-101.5 -116.5zM1352 858l-17 -106
q-20 -115 -67.5 -177.5t-137.5 -66.5q34 250 72.5 357.5t106.5 107.5q61 0 43 -115zM858 1059l160 416l139 18q30 3 57.5 -2t49.5 -26.5t22 -57.5q0 -37 -16.5 -64t-63.5 -59l-340 -231z" />
    <glyph glyph-name="Oslashacute" unicode="&#x1fe;" horiz-adv-x="1429" 
d="M80 514q0 152 30.5 290t94.5 257.5t157 207t226 137.5t293 50q79 0 143 -12l59 133l39 -14l-55 -129q340 -88 340 -531q0 -144 -29 -276.5t-92.5 -251t-155 -206t-225 -138.5t-293.5 -51q-94 0 -170 18l-57 -135l-41 14l57 131q-164 51 -242.5 182t-78.5 324zM889 422
l92 534q31 186 31 269q0 37 -6 71l-514 -1190q29 -100 135 -100q49 0 84.5 15t62 43.5t47 81t36 116t32.5 160.5zM477 223v-39l510 1174q-32 76 -127 76q-38 0 -67.5 -6.5t-53.5 -25.5t-41.5 -35.5t-33 -56t-25 -66.5t-21.5 -87t-18.5 -97.5t-19.5 -117.5l-80 -500
q-23 -157 -23 -219zM713 1511l225 369l70 -12q114 -20 114 -96q0 -39 -20.5 -65.5t-71.5 -49.5l-307 -156z" />
    <glyph glyph-name="oslashacute" unicode="&#x1ff;" horiz-adv-x="1083" 
d="M446 -20q-84 0 -147 14l-70 -137l-28 10l69 133q-254 67 -254 365q0 290 159.5 460t451.5 170q71 0 153 -14l72 137l29 -12l-70 -131q246 -66 246 -346q0 -166 -45 -292t-127.5 -203t-192.5 -115.5t-246 -38.5zM477 659l-65 -389l260 504q17 103 7 150t-54 47
q-62 0 -89 -63t-59 -249zM586 248l69 416q0 3 1 8.5t1 7.5l-262 -502q-13 -88 -1 -132t59 -44q59 0 84 52t49 194zM522 1063l160 416l139 18q30 3 57.5 -2t49.5 -26.5t22 -57.5q0 -37 -16.5 -64t-63.5 -59l-340 -231z" />
    <glyph glyph-name="Scommaaccent" unicode="&#x218;" horiz-adv-x="1136" 
d="M524 4q129 0 200 72.5t71 195.5q0 26 -5 49t-11 41t-21 35.5t-25.5 29t-35 26t-38.5 22.5t-47.5 21.5t-50.5 20t-58 22t-61 22.5q-24 10 -42 18t-49.5 26.5t-55 38.5t-51 53t-45 70t-29.5 89t-12 111q0 96 30.5 178t82.5 138t120 96t142.5 58.5t150.5 18.5
q87 0 167 -21.5t128 -43t59 -21.5q37 0 68 68h16l-67 -447h-15q-21 67 -41 119.5t-53.5 116.5t-69.5 106.5t-87 71.5t-109 29q-111 0 -171 -64t-60 -164q0 -33 7.5 -61.5t16.5 -48.5t29 -40t32.5 -31t41 -25.5t40 -20t41.5 -18.5l52.5 -21t57 -23t55.5 -25.5t57 -30.5
t52 -35t49.5 -43t40 -51t33 -61.5t19.5 -71.5t8 -85q0 -124 -46 -226.5t-123.5 -168.5t-177 -102.5t-208.5 -36.5q-92 0 -187 22.5t-158.5 45t-78.5 22.5q-20 0 -33.5 -18t-35.5 -72h-23l80 497h16q9 -44 23.5 -91.5t38.5 -103t58.5 -103.5t76.5 -88t99.5 -63.5t121.5 -23.5
zM369 -596l-15 23q91 55 124 86q56 55 57 116q0 28 -15 42t-33 16l-90 -88q-37 11 -64.5 47.5t-27.5 85.5q0 69 51 115.5t127 46.5q75 0 118.5 -45.5t43.5 -120.5q0 -46 -16 -87.5t-38.5 -71.5t-63 -62t-73 -52.5t-85.5 -50.5z" />
    <glyph glyph-name="scommaaccent" unicode="&#x219;" horiz-adv-x="1001" 
d="M367 12q65 0 111 17.5t67 45.5t29 53t8 50q0 17 -3 31.5t-12.5 27.5t-16 22.5t-24.5 21t-26 17.5t-32.5 16.5t-33 14t-38 15t-36.5 14.5q-45 18 -75.5 32t-68 39.5t-59.5 54.5t-37.5 72.5t-15.5 96.5q0 111 68.5 189.5t183.5 115.5t265 37q44 0 84.5 -3.5t85 -11.5
t80.5 -23.5t65.5 -37.5t46 -55.5t16.5 -75.5q0 -70 -47 -111.5t-127 -41.5q-59 0 -102 27.5t-43 72.5q0 60 31 99h65q15 34 15 55q0 78 -138 78q-108 0 -160.5 -42.5t-52.5 -97.5q0 -24 11.5 -46t26.5 -37t45.5 -32.5t52 -27.5t61.5 -27q136 -57 187 -91q118 -80 118 -201
q0 -126 -74 -214.5t-197.5 -129.5t-285.5 -41q-181 0 -287 55.5t-106 167.5q0 84 48.5 129t123.5 45t113 -36t38 -93q0 -34 -18 -90h-86q-18 -25 -18 -52q0 -39 41 -66.5t133 -27.5zM246 -596l-15 23q91 55 124 86q56 55 57 116q0 28 -14.5 42t-32.5 16l-91 -88
q-37 11 -64.5 47.5t-27.5 85.5q0 69 51 115.5t127 46.5q75 0 118.5 -45.5t43.5 -120.5q0 -46 -16 -87.5t-38.5 -71.5t-63 -62t-73 -52.5t-85.5 -50.5z" />
    <glyph glyph-name="uni021A" unicode="&#x21a;" horiz-adv-x="1427" 
d="M1524 1434l-84 -521h-19q-15 97 -42.5 180.5t-69 154t-103 113t-135.5 46.5l-233 -1382h192l-4 -25h-797l7 25h178l233 1382q-154 -26 -293 -160.5t-217 -333.5h-20l88 521h1319zM492 -596l-15 23q91 55 124 87q55 54 56 115q0 28 -14.5 42t-32.5 16l-90 -88
q-37 11 -64.5 47.5t-27.5 85.5q0 69 51 115.5t127 46.5q75 0 118.5 -45.5t43.5 -120.5q0 -46 -16 -87.5t-38.5 -71.5t-63 -62t-73 -52.5t-85.5 -50.5z" />
    <glyph glyph-name="uni021B" unicode="&#x21b;" horiz-adv-x="768" 
d="M813 950h-192l-89 -440q-49 -241 -49 -324q0 -110 74 -110q89 0 166 221l29 -8q-20 -56 -38.5 -96.5t-48.5 -83t-65 -69t-86.5 -43.5t-114.5 -17q-93 0 -159.5 23.5t-100.5 64t-48.5 83.5t-14.5 93q0 87 41 288l80 418h-148l6 25h146l41 205l385 82h47l-49 -287h194z
M225 -596l-14 23q91 55 124 87q56 53 56 115q0 28 -14.5 42t-32.5 16l-90 -88q-37 11 -64.5 47.5t-27.5 85.5q0 69 51 115.5t127 46.5q75 0 118.5 -45.5t43.5 -120.5q0 -57 -21 -105t-65.5 -88t-84 -66.5t-106.5 -64.5z" />
    <glyph glyph-name="dotlessj" unicode="&#x237;" horiz-adv-x="686" 
d="M-135 -334l-98 -14q-19 -23 -22.5 -54.5t19 -57t70.5 -25.5q85 0 123 86.5t80 343.5l160 1005h-158l8 25h592l-164 -979q-84 -508 -610 -508q-91 0 -166 23t-126.5 78.5t-51.5 136.5q0 87 59 141.5t148 54.5q104 0 145.5 -75t-8.5 -181z" />
    <glyph glyph-name="apostrophe" unicode="&#x2bc;" horiz-adv-x="432" 
d="M166 995l-14 23q36 21 48 28.5t44.5 31.5t46.5 41.5t27.5 45t13.5 56.5q0 28 -14.5 41.5t-32.5 15.5l-90 -88q-37 12 -65 48t-28 85q0 69 51.5 115.5t127.5 46.5q74 0 117.5 -45t43.5 -121q0 -46 -16 -87.5t-38.5 -71.5t-63 -62t-73 -52.5t-85.5 -50.5z" />
    <glyph glyph-name="circumflex" unicode="&#x2c6;" 
d="M305 1020l199 338q20 12 70.5 29.5t91.5 17.5q63 0 97 -27.5t46 -83.5l55 -280l-12 -2l-209 190l-330 -188z" />
    <glyph glyph-name="caron" unicode="&#x2c7;" 
d="M506 1073l-31 311l10 11l203 -187l342 207l12 -6l-176 -272q-72 -111 -221 -111q-49 0 -85.5 15t-53.5 32z" />
    <glyph glyph-name="uni02C9" unicode="&#x2c9;" 
d="M451 1090l36 192h557l-36 -192h-557z" />
    <glyph glyph-name="breve" unicode="&#x2d8;" 
d="M301 1401l18 2q14 -65 85 -103t190 -38q102 0 189 38.5t116 98.5l16 -2q-45 -183 -135 -281t-241 -98q-89 0 -148.5 54.5t-80.5 140t-9 188.5z" />
    <glyph glyph-name="dotaccent" unicode="&#x2d9;" 
d="M418 1081q-58 0 -100 15t-64 39.5t-31.5 51t-9.5 56.5q0 108 84.5 172t204.5 64q94 0 147 -43t53 -121q0 -108 -83.5 -171t-200.5 -63z" />
    <glyph glyph-name="ring" unicode="&#x2da;" 
d="M535 1389q-73 0 -121.5 -51t-48.5 -132q0 -112 122 -112q81 0 128 53.5t47 126.5q0 50 -31 82.5t-96 32.5zM301 1198q0 101 69.5 170.5t178.5 69.5q87 0 129.5 -42t42.5 -114q0 -104 -68 -171t-176 -67q-176 0 -176 154z" />
    <glyph glyph-name="ogonek" unicode="&#x2db;" 
d="M569 20l21 13l10 -4q-65 -69 -95 -108t-50.5 -92.5t-20.5 -117.5q0 -56 19 -81t63 -25q41 0 69 23t58 79l19 -8q-94 -211 -297 -211q-86 0 -134.5 47.5t-48.5 126.5q0 59 17 102t73 86t92.5 63.5t142.5 74.5q40 21 62 32z" />
    <glyph glyph-name="tilde" unicode="&#x2dc;" 
d="M711 1055q-79 0 -187 49q-75 33 -116 33q-88 0 -134 -80l-14 6q46 146 111 217.5t166 71.5q15 0 30.5 -2.5t37.5 -10.5t31 -11.5t38 -16.5t33 -15q73 -30 106 -30q27 0 46 4t44 24.5t43 57.5l17 -6q-53 -154 -114 -222.5t-138 -68.5z" />
    <glyph glyph-name="hungarumlaut" unicode="&#x2dd;" 
d="M516 1024l148 399l122 31q44 15 90 -6.5t46 -73.5q0 -75 -74 -129l-322 -229zM240 1022l65 410l127 49q27 8 58.5 7.5t57 -22.5t25.5 -59q0 -63 -63 -129l-256 -266z" />
    <glyph glyph-name="uni0394" unicode="&#x394;" horiz-adv-x="1521" 
d="M1350 0h-1358l862 1466h221zM668 1051l-568 -959h707z" />
    <glyph glyph-name="uni03A9" unicode="&#x3a9;" horiz-adv-x="1863" 
d="M944 0l37 215q114 84 150.5 154t66.5 249l68 404q18 122 18 188q0 104 -40 162t-138 58q-63 0 -113 -23t-81 -58.5t-55.5 -92t-37 -108t-24.5 -122.5l-70 -414q-25 -150 -25 -225q0 -114 48 -170l-37 -217h-625l64 541h24q2 -92 20 -149t61.5 -91t107.5 -46.5t167 -12.5
h148q-189 92 -281 216.5t-92 305.5q0 208 99 365t281 242t421 85q283 0 433.5 -132.5t150.5 -356.5q0 -68 -14.5 -131.5t-32.5 -113t-58 -101t-67 -85t-84.5 -76t-85.5 -63t-95 -57t-87.5 -47t-88.5 -43.5q-11 -5 -16 -8h174q137 0 217.5 24.5t135.5 88t100 186.5h22
l-115 -541h-651z" />
    <glyph glyph-name="uni03BC" unicode="&#x3bc;" horiz-adv-x="1484" 
d="M205 985l438 19l-123 -674q-24 -120 -21 -169.5t42 -49.5q45 0 88 78t71 237l97 559l411 19l-143 -783q-21 -110 41 -110q85 0 119 249l26 -6q-13 -98 -35.5 -167.5t-49 -109.5t-65 -62t-74.5 -28.5t-87 -6.5q-65 0 -118 19.5t-85 49.5t-50 63t-21 64l-7 2
q-112 -196 -270 -196q-23 0 -42.5 3t-49.5 17.5t-55.5 40t-54 75.5t-50.5 118l-16 -9l139 -411q2 -6 10 -29t12 -35.5t10 -32.5t8.5 -37t2.5 -32q0 -51 -45 -91t-117 -22l-180 45z" />
    <glyph glyph-name="pi" unicode="&#x3c0;" horiz-adv-x="1329" 
d="M993 707h-102q-78 -223 -78 -330q0 -172 170 -172q50 0 90.5 30.5t63.5 86.5l20 -7q-16 -47 -24 -70t-25 -66t-31 -65.5t-36.5 -53t-45.5 -45.5t-55 -26.5t-68 -11.5q-70 0 -121 50.5t-51 130.5q0 54 16 125.5t33.5 123.5t53.5 152t53 150q-126 8 -309 22
q-17 -84 -41.5 -222t-41.5 -220.5t-34 -132.5q-23 -66 -58.5 -108.5t-66.5 -56.5t-61 -14q-56 0 -82.5 29.5t-26.5 67.5q0 18 3 35t6.5 29t13 27.5t14 23.5t19 23.5t19 20t22.5 22t22 21.5q98 94 163.5 200.5t100.5 258.5q-19 1 -99 8t-87 7q-51 0 -87.5 -18t-64.5 -73
l-18 9q58 165 106 252t98 122t121 35q49 0 323.5 -17.5t324.5 -17.5q45 0 75 18t58 68l16 -6q-23 -76 -38 -121.5t-33.5 -95.5t-33.5 -77t-35 -54t-42 -39.5t-48.5 -20t-60.5 -7.5z" />
    <glyph glyph-name="Wgrave" unicode="&#x1e80;" horiz-adv-x="1890" 
d="M809 424l207 537l-43 446h-107l4 27h635l-4 -27h-102l112 -973h7l403 973h-199l4 27h375l-4 -27h-133l-588 -1423h-225l-123 901l-350 -901h-234l-268 1423h-78l4 27h662l-4 -27h-129l170 -983h8zM1188 1896l213 -393l-15 -12l-311 162q-54 29 -76 57t-22 68
q0 44 28.5 66t96.5 34z" />
    <glyph glyph-name="wgrave" unicode="&#x1e81;" horiz-adv-x="1640" 
d="M1071 162q-3 -30 -2.5 -56t18 -43.5t52.5 -17.5q64 0 137 46t134 119.5t101.5 177t40.5 208.5q0 82 -27.5 130.5t-80.5 45.5l-58 -82q-61 17 -93.5 56.5t-32.5 91.5q0 67 44 112t111 45q45 0 80.5 -15.5t56.5 -39t34.5 -56t18.5 -63t5 -63.5q0 -108 -19.5 -213
t-66.5 -208.5t-116.5 -181.5t-177.5 -126.5t-241 -48.5q-74 0 -153 22t-129 74q-130 -96 -320 -96q-68 0 -124.5 20.5t-100 61.5t-61.5 112.5t-3 165.5q29 178 92 448q18 80 17 95q-3 25 -23 26q-23 0 -60 -35t-93 -104l-19 16q86 116 171 162.5t198 46.5q130 0 200.5 -80.5
t41.5 -212.5q-17 -80 -39 -175.5t-36 -163t-30 -158.5q-16 -71 -4.5 -115.5t64.5 -44.5q55 0 116 55q-20 72 0 201q2 9 55 269t68 384q49 -2 216 11t204 22q-137 -611 -166 -825zM942 1434l98 -375l-14 -10l-281 211q-53 36 -53 106q0 43 31 71.5t70 31.5t73 -9z" />
    <glyph glyph-name="Wacute" unicode="&#x1e82;" horiz-adv-x="1890" 
d="M809 424l207 537l-43 446h-107l4 27h635l-4 -27h-102l112 -973h7l403 973h-199l4 27h375l-4 -27h-133l-588 -1423h-225l-123 901l-350 -901h-234l-268 1423h-78l4 27h662l-4 -27h-129l170 -983h8zM1044 1511l226 369l69 -12q115 -20 115 -96q0 -39 -20.5 -65.5
t-71.5 -49.5l-307 -156z" />
    <glyph glyph-name="wacute" unicode="&#x1e83;" horiz-adv-x="1640" 
d="M1071 162q-3 -30 -2.5 -56t18 -43.5t52.5 -17.5q64 0 137 46t134 119.5t101.5 177t40.5 208.5q0 82 -27.5 130.5t-80.5 45.5l-58 -82q-61 17 -93.5 56.5t-32.5 91.5q0 67 44 112t111 45q45 0 80.5 -15.5t56.5 -39t34.5 -56t18.5 -63t5 -63.5q0 -108 -19.5 -213
t-66.5 -208.5t-116.5 -181.5t-177.5 -126.5t-241 -48.5q-74 0 -153 22t-129 74q-130 -96 -320 -96q-68 0 -124.5 20.5t-100 61.5t-61.5 112.5t-3 165.5q29 178 92 448q18 80 17 95q-3 25 -23 26q-23 0 -60 -35t-93 -104l-19 16q86 116 171 162.5t198 46.5q130 0 200.5 -80.5
t41.5 -212.5q-17 -80 -39 -175.5t-36 -163t-30 -158.5q-16 -71 -4.5 -115.5t64.5 -44.5q55 0 116 55q-20 72 0 201q2 9 55 269t68 384q49 -2 216 11t204 22q-137 -611 -166 -825zM852 1059l160 416l139 18q30 3 57.5 -2t49.5 -26.5t22 -57.5q0 -37 -16.5 -64t-63.5 -59
l-340 -231z" />
    <glyph glyph-name="Wdieresis" unicode="&#x1e84;" horiz-adv-x="1890" 
d="M809 424l207 537l-43 446h-107l4 27h635l-4 -27h-102l112 -973h7l403 973h-199l4 27h375l-4 -27h-133l-588 -1423h-225l-123 901l-350 -901h-234l-268 1423h-78l4 27h662l-4 -27h-129l170 -983h8zM1239 1677q10 66 63.5 111t141.5 45q87 0 127 -39.5t28 -116.5
q-11 -72 -63.5 -115.5t-140.5 -43.5q-96 0 -131 45.5t-25 113.5zM788 1677q10 66 63.5 111t141.5 45q87 0 127.5 -39.5t28.5 -116.5q-11 -72 -64 -115.5t-141 -43.5q-96 0 -131 45.5t-25 113.5z" />
    <glyph glyph-name="wdieresis" unicode="&#x1e85;" horiz-adv-x="1640" 
d="M1071 162q-3 -30 -2.5 -56t18 -43.5t52.5 -17.5q64 0 137 46t134 119.5t101.5 177t40.5 208.5q0 82 -27.5 130.5t-80.5 45.5l-58 -82q-61 17 -93.5 56.5t-32.5 91.5q0 67 44 112t111 45q45 0 80.5 -15.5t56.5 -39t34.5 -56t18.5 -63t5 -63.5q0 -108 -19.5 -213
t-66.5 -208.5t-116.5 -181.5t-177.5 -126.5t-241 -48.5q-74 0 -153 22t-129 74q-130 -96 -320 -96q-68 0 -124.5 20.5t-100 61.5t-61.5 112.5t-3 165.5q29 178 92 448q18 80 17 95q-3 25 -23 26q-23 0 -60 -35t-93 -104l-19 16q86 116 171 162.5t198 46.5q130 0 200.5 -80.5
t41.5 -212.5q-17 -80 -39 -175.5t-36 -163t-30 -158.5q-16 -71 -4.5 -115.5t64.5 -44.5q55 0 116 55q-20 72 0 201q2 9 55 269t68 384q49 -2 216 11t204 22q-137 -611 -166 -825zM987 1241q10 66 63.5 111t141.5 45q87 0 127.5 -39.5t28.5 -116.5q-11 -72 -64 -116t-141 -44
q-96 0 -131 46t-25 114zM537 1241q10 66 63 111t141 45q87 0 127.5 -39.5t28.5 -116.5q-11 -72 -64 -116t-141 -44q-96 0 -130.5 46t-24.5 114z" />
    <glyph glyph-name="Ygrave" unicode="&#x1ef2;" horiz-adv-x="1216" 
d="M842 711l454 696h-143l6 27h281l-10 -27h-89l-489 -756l-111 -626h166l-2 -25h-749l4 25h164l100 622l-223 760h-117l6 27h696l-10 -27h-131l191 -696h6zM885 1896l213 -393l-15 -12l-311 162q-54 29 -76 57t-22 68q0 44 28.5 66t96.5 34z" />
    <glyph glyph-name="ygrave" unicode="&#x1ef3;" horiz-adv-x="1122" 
d="M147 -307l-108 -15q-15 -17 -20.5 -41.5t0.5 -48t30.5 -39.5t65.5 -16q74 0 172 65t205 189q-36 130 -267 922q-27 98 -41 118q-13 19 -34 19q-30 0 -49 -28.5t-66 -131.5l-27 12q13 33 21.5 52t27.5 54.5t36 57.5t45 50t58.5 44t72.5 27.5t89 11.5q111 0 174 -52
t101 -181q32 -111 81.5 -305.5t76.5 -288.5q137 200 184 292t47 154q0 39 -18 57t-54 21l-61 -86q-89 20 -131.5 77t-42.5 126q0 29 10.5 59t32 59.5t62 48.5t93.5 19q205 0 205 -223q0 -69 -33 -161t-88.5 -189t-112.5 -181.5t-120 -166.5q-21 -27 -61 -80q-47 -61 -70 -91
t-65.5 -83t-68 -80.5t-65.5 -69t-69.5 -63t-69 -48.5t-74.5 -40t-76.5 -22t-83.5 -9q-120 0 -198 65.5t-78 163.5q0 97 60.5 154t146.5 57q81 0 132 -60t23 -175zM752 1434l98 -375l-14 -10l-281 211q-53 36 -53 106q0 43 31 71.5t70 31.5t73 -9z" />
    <glyph glyph-name="thinspace" unicode="&#x2009;" horiz-adv-x="102" 
 />
    <glyph glyph-name="endash" unicode="&#x2013;" 
d="M72 573l8 39h876l-8 -39h-876z" />
    <glyph glyph-name="emdash" unicode="&#x2014;" horiz-adv-x="2048" 
d="M72 573l10 39h1900l-10 -39h-1900z" />
    <glyph glyph-name="quoteleft" unicode="&#x2018;" horiz-adv-x="591" 
d="M569 1536l11 -20q-90 -50 -139.5 -108t-49.5 -110q0 -49 55 -77l78 69q37 -16 64.5 -51.5t27.5 -87.5t-17 -89.5t-46 -57t-60 -28.5t-65 -9q-99 0 -145.5 56t-46.5 132q0 62 24.5 116t73.5 101t103.5 84.5t131.5 79.5z" />
    <glyph glyph-name="quoteright" unicode="&#x2019;" horiz-adv-x="591" 
d="M276 936l-10 20q90 50 139.5 108t49.5 110q0 48 -56 77l-77 -69q-37 16 -65 51.5t-28 87.5t17 89.5t46 57t60.5 28.5t65.5 9q99 0 145.5 -56t46.5 -132q0 -61 -25 -115.5t-74 -101.5t-103.5 -84.5t-131.5 -79.5z" />
    <glyph glyph-name="quotesinglbase" unicode="&#x201a;" horiz-adv-x="602" 
d="M98 -297l-10 21q90 50 139 107.5t49 109.5q0 49 -55 77l-78 -69q-37 16 -64.5 51.5t-27.5 87.5t17 89.5t46 57t60.5 28.5t65.5 9q99 0 145.5 -56t46.5 -132q0 -61 -25 -115.5t-74 -101.5t-103.5 -84.5t-131.5 -79.5z" />
    <glyph glyph-name="quotedblleft" unicode="&#x201c;" horiz-adv-x="1034" 
d="M569 1536l11 -20q-90 -50 -139.5 -108t-49.5 -110q0 -49 55 -77l78 69q37 -16 64.5 -51.5t27.5 -87.5t-17 -89.5t-46 -57t-60 -28.5t-65 -9q-99 0 -145.5 56t-46.5 132q0 62 24.5 116t73.5 101t103.5 84.5t131.5 79.5zM1010 1536l10 -20q-90 -50 -139.5 -108t-49.5 -110
q0 -48 56 -77l78 69q37 -16 64.5 -51.5t27.5 -87.5t-17 -89.5t-46 -57t-60.5 -28.5t-65.5 -9q-99 0 -145.5 56t-46.5 132q0 61 25 115.5t74 101.5t103.5 84.5t131.5 79.5z" />
    <glyph glyph-name="quotedblright" unicode="&#x201d;" horiz-adv-x="1026" 
d="M276 936l-10 20q90 50 139.5 108t49.5 110q0 48 -56 77l-77 -69q-37 16 -65 51.5t-28 87.5t17 89.5t46 57t60.5 28.5t65.5 9q99 0 145.5 -56t46.5 -132q0 -61 -25 -115.5t-74 -101.5t-103.5 -84.5t-131.5 -79.5zM711 936l-11 20q90 50 139.5 108t49.5 110q0 49 -55 77
l-78 -69q-37 16 -64.5 51.5t-27.5 87.5t17 89.5t46 57t60 28.5t65 9q99 0 145.5 -56t46.5 -132q0 -62 -24.5 -116t-73.5 -101t-103.5 -84.5t-131.5 -79.5z" />
    <glyph glyph-name="quotedblbase" unicode="&#x201e;" horiz-adv-x="1044" 
d="M98 -295l-10 21q90 50 139 107.5t49 109.5q0 49 -55 77l-78 -69q-37 16 -64.5 51.5t-27.5 87.5t17 89.5t46 57t60.5 28.5t65.5 9q99 0 145.5 -56t46.5 -132q0 -61 -25 -115.5t-74 -101.5t-103.5 -84.5t-131.5 -79.5zM541 -295l-11 21q90 50 139.5 107.5t49.5 109.5
q0 49 -55 77l-78 -69q-37 16 -64.5 51.5t-27.5 87.5t17 89.5t46 57t60 28.5t65 9q99 0 145.5 -56t46.5 -132q0 -62 -24.5 -116t-73.5 -101t-103.5 -84.5t-131.5 -79.5z" />
    <glyph glyph-name="dagger" unicode="&#x2020;" horiz-adv-x="1097" 
d="M766 698l-2 -12q-58 -60 -134 -194.5t-108 -290.5l-92 -447h-49l74 416q10 58 12 114t-3 105.5t-18.5 105t-29 104t-39.5 110.5l2 12q63 51 134.5 136.5t90.5 143.5q-40 -2 -97.5 -36.5l-112.5 -67.5t-91 -33q-49 0 -89 38t-40 104q0 77 45 118t98 41q39 0 79.5 -20.5
t69.5 -45.5t67.5 -46.5t72.5 -22.5q2 14 2 41q0 44 -30.5 136.5t-30.5 123.5q0 65 44 109.5t124 44.5q63 0 94 -33.5t31 -83.5q0 -41 -27 -85t-60.5 -78.5t-67.5 -84t-44 -96.5q42 3 106.5 38.5t125 69t98.5 33.5q49 0 86 -33.5t37 -107.5q0 -69 -46.5 -114.5t-103.5 -45.5
q-43 0 -95 29.5t-109 64t-105 41.5q4 -60 45 -147.5t86 -153.5z" />
    <glyph glyph-name="daggerdbl" unicode="&#x2021;" horiz-adv-x="1265" 
d="M1032 225q0 -81 -47.5 -122.5t-101.5 -41.5q-38 0 -76.5 20.5t-66.5 46t-66 47t-74 22.5q-2 -14 -2 -41q0 -47 36 -145t36 -128q0 -67 -41 -105t-119 -38q-67 0 -103 33t-36 82q0 41 27.5 86t61.5 79t68.5 83t44.5 96q-42 -3 -103 -38t-123 -67.5t-109 -32.5t-85 35.5
t-38 100.5q0 70 48.5 115.5t106.5 45.5q42 0 93.5 -30.5t107 -63t104.5 -35.5q-3 12 -7.5 25t-8.5 23.5t-12 24.5t-12.5 22.5t-15.5 23.5t-15 21t-17.5 22.5t-16.5 20.5t-17.5 21.5t-16.5 19.5l2 12q132 82 183 151q-25 52 -117 168l2 13q71 42 135.5 101.5t85.5 94.5
q-42 -3 -100 -35t-112.5 -63t-90.5 -31q-49 0 -87 38t-38 104q0 77 47 118t100 41q32 0 63 -14t57.5 -34t52 -40t56 -35t60.5 -16q2 14 2 41q0 43 -32.5 138.5t-32.5 127.5q0 65 42.5 108.5t121.5 43.5q63 0 94 -33.5t31 -83.5q0 -33 -17.5 -68t-44 -66.5t-54 -63.5
t-51.5 -71.5t-32 -78.5q42 3 103 39.5t123 71t108 34.5q48 0 83 -33.5t35 -105.5q0 -71 -48.5 -116.5t-106.5 -45.5q-34 0 -73.5 19t-70.5 42.5t-73.5 44t-81.5 23.5q23 -116 133 -215l-2 -12q-104 -65 -180 -158q26 -58 123 -155l-3 -13q-66 -49 -135.5 -114t-87.5 -97
q42 3 98 35t108.5 63t88.5 31q49 0 89 -36.5t40 -96.5z" />
    <glyph glyph-name="bullet" unicode="&#x2022;" 
d="M522 825q128 0 204.5 -63t76.5 -184q0 -147 -82.5 -224.5t-226.5 -77.5q-76 0 -132.5 20.5t-87.5 57t-46 79t-15 91.5q0 137 88.5 219t220.5 82z" />
    <glyph glyph-name="ellipsis" unicode="&#x2026;" horiz-adv-x="1710" 
d="M303 348q78 0 124 -37.5t46 -105.5q0 -104 -61 -164.5t-164 -60.5q-86 0 -126 47t-40 110q0 93 66.5 152t154.5 59zM815 348q78 0 124 -37.5t46 -105.5q0 -104 -61 -164.5t-164 -60.5q-86 0 -126 47t-40 110q0 93 66.5 152t154.5 59zM1366 348q78 0 124 -37.5t46 -105.5
q0 -104 -61 -164.5t-164 -60.5q-86 0 -126 47t-40 110q0 93 66.5 152t154.5 59z" />
    <glyph glyph-name="perthousand" unicode="&#x2030;" horiz-adv-x="2273" 
d="M1475 244q0 178 119 276t304 98q145 0 225.5 -61.5t80.5 -191.5q0 -99 -37 -176t-98.5 -121t-133.5 -66t-151 -22q-153 0 -231 69.5t-78 194.5zM1767 403l-34 -215q-13 -89 -13 -102q0 -80 72 -80q56 0 80.5 50.5t44.5 166.5l29 178q3 19 4.5 29t4 30.5t2 32.5t-1.5 29
t-5.5 27.5t-12 20.5t-19.5 15t-28 5q-59 0 -82.5 -41.5t-40.5 -145.5zM688 244q0 178 119.5 276t304.5 98q144 0 224.5 -61.5t80.5 -191.5q0 -99 -37 -176t-98.5 -121t-133.5 -66t-151 -22q-153 0 -231 69.5t-78 194.5zM981 403l-35 -215q-12 -82 -12 -102q0 -80 72 -80
q55 0 79.5 50t44.5 167l29 178q3 21 4.5 29.5t4.5 30t2.5 32.5t-1.5 29t-6 28t-12 20.5t-19 15t-28 4.5q-59 0 -82.5 -41.5t-40.5 -145.5zM137 0l1163 1434h82l-1161 -1434h-84zM125 1081q0 178 119.5 276.5t304.5 98.5q144 0 224.5 -62t80.5 -192q0 -99 -37 -176
t-98.5 -121t-133.5 -66t-151 -22q-153 0 -231 69.5t-78 194.5zM418 1241l-35 -215q-12 -82 -12 -102q0 -40 16.5 -60t54.5 -20q56 0 80.5 50.5t44.5 166.5l29 178q3 21 4.5 29.5t4.5 30t2.5 32.5t-1.5 28.5t-6 27.5t-12 20.5t-19 15t-28 4.5q-59 0 -82.5 -41.5t-40.5 -144.5
z" />
    <glyph glyph-name="guilsinglleft" unicode="&#x2039;" horiz-adv-x="632" 
d="M168 575l434 234l6 -6l-219 -352l94 -330l-6 -6l-284 190q-46 31 -66.5 64t-20.5 80q0 29 11.5 55.5t20.5 37.5t30 33z" />
    <glyph glyph-name="guilsinglright" unicode="&#x203a;" horiz-adv-x="632" 
d="M453 348l-433 -233l-6 6l213 358l-92 330l8 6l287 -197q43 -30 65.5 -60.5t22.5 -74.5q0 -43 -16.5 -73t-48.5 -62z" />
    <glyph glyph-name="fraction" unicode="&#x2044;" horiz-adv-x="380" 
d="M-438 -23l1134 1479h66l-1133 -1479h-67z" />
    <glyph glyph-name="foursuperior" unicode="&#x2074;" horiz-adv-x="876" 
d="M731 834h133l-6 -27h-629l4 27h166l37 176h-338l8 26q94 71 165.5 147t109.5 136t62 118.5t31 93t7 60.5q0 49 -14 74l29 29q59 7 107.5 -2t83 -42t34.5 -89q0 -30 -9.5 -56t-22 -45.5t-41 -45.5t-49.5 -42t-67 -50t-75 -56l-301 -222h288l31 177l342 43l-45 -220h111
l-4 -34h-111z" />
    <glyph glyph-name="Euro" unicode="&#x20ac;" horiz-adv-x="1288" 
d="M1065 1425q-96 0 -181 -77t-143 -200.5t-88 -277.5h355l-15 -49h-350q-11 -62 -18 -164h344l-11 -49h-335v-10q0 -588 251 -588q50 0 75.5 28.5t25.5 67.5q0 43 -25 72h-76q-20 36 -20 84q0 65 42.5 112.5t117.5 47.5t122.5 -42t47.5 -128q0 -58 -23.5 -105.5
t-60.5 -77.5t-85.5 -51t-96.5 -29.5t-95 -8.5q-137 0 -246.5 36t-180.5 95t-118.5 142t-69 170t-24.5 185h-143l12 49h131q0 75 19 164h-103l15 49h96q36 129 98 231t138 167.5t169.5 108.5t188.5 61t199 18q97 0 168 -21t110 -58t57.5 -80.5t18.5 -94.5q0 -79 -43.5 -132.5
t-132.5 -53.5q-67 0 -105.5 35.5t-38.5 91.5q0 39 23 96h82q31 61 31 107q0 79 -109 79z" />
    <glyph glyph-name="afii61352" unicode="&#x2116;" horiz-adv-x="2357" 
d="M1477 1190l-201 -1204h-320l-430 1204l-149 -907q-14 -81 -35 -139t-43.5 -89.5t-53.5 -48.5t-56.5 -21.5t-61.5 -4.5q-49 0 -84.5 15.5t-54 41t-27 52t-8.5 54.5q0 69 46.5 116.5t119.5 47.5q56 0 83 -24.5t27 -63.5q0 -49 -39 -104h-63q-31 -36 -31 -66q0 -39 54 -39
q60 0 110.5 53.5t73.5 182.5l170 1016l-49 145h-129l4 27h622l361 -1002l125 748q12 73 34.5 126t46.5 81t56 44.5t55.5 20.5t52.5 4q90 0 135.5 -50t45.5 -110q0 -66 -49 -117t-119 -51q-56 0 -83.5 29t-27.5 72q0 61 39 92h62q24 27 24 57q0 49 -53 49q-22 0 -46.5 -11.5
t-51 -36t-49 -73.5t-33.5 -116zM1532 604q0 184 116 300t300 116q124 0 204 -70t80 -209q0 -112 -39 -198.5t-101.5 -135.5t-132 -73.5t-140.5 -24.5q-139 0 -213 81t-74 214zM1812 657q-36 -214 -36 -256q0 -36 12.5 -51.5t42.5 -15.5q24 0 41.5 11t29 31.5t21 55t17 75.5
t16.5 98q6 41 10 63q33 196 33 256q0 37 -12 53t-41 16q-30 0 -49 -14t-31 -46t-20.5 -75.5t-19.5 -110.5q-9 -58 -14 -90zM1503 180l6 43h602l-6 -43h-602z" />
    <glyph glyph-name="trademark" unicode="&#x2122;" horiz-adv-x="1912" 
d="M825 1327l13 -258h-17q-32 131 -73.5 181t-100.5 50v-702h105v-29h-496v29h106v702q-55 -2 -98 -56t-82 -175h-12l14 258h641zM1536 1327h379v-31h-82v-702h82v-25h-436v25h80v706l-199 -731h-143l-207 709v-684h94v-25h-203v25h74v702h-74v31h391l123 -448z" />
    <glyph glyph-name="Omega" unicode="&#x2126;" horiz-adv-x="1863" 
d="M944 0l37 215q114 84 150.5 154t66.5 249l68 404q18 122 18 188q0 104 -40 162t-138 58q-63 0 -113 -23t-81 -58.5t-55.5 -92t-37 -108t-24.5 -122.5l-70 -414q-25 -150 -25 -225q0 -114 48 -170l-37 -217h-625l64 541h24q2 -92 20 -149t61.5 -91t107.5 -46.5t167 -12.5
h148q-189 92 -281 216.5t-92 305.5q0 208 99 365t281 242t421 85q283 0 433.5 -132.5t150.5 -356.5q0 -68 -14.5 -131.5t-32.5 -113t-58 -101t-67 -85t-84.5 -76t-85.5 -63t-95 -57t-87.5 -47t-88.5 -43.5q-11 -5 -16 -8h174q137 0 217.5 24.5t135.5 88t100 186.5h22
l-115 -541h-651z" />
    <glyph glyph-name="partialdiff" unicode="&#x2202;" horiz-adv-x="1280" 
d="M657 1374q106 0 199 -35t166.5 -103t116.5 -179.5t43 -253.5q0 -122 -24.5 -238.5t-77 -223.5t-128 -187.5t-185.5 -128.5t-241 -48q-211 0 -321.5 104t-110.5 298q0 91 26.5 171.5t80 147.5t144 106.5t208.5 39.5q108 0 176.5 -42t91.5 -145q2 9 11 47t11.5 49.5t9 43
t8.5 50t4.5 45.5t2.5 52q0 200 -64 302t-179 102q-68 0 -99.5 -35t-31.5 -82q0 -39 10 -62h61q15 -47 15 -79q0 -60 -42 -97t-110 -37q-73 0 -115.5 47.5t-42.5 112.5q0 115 98.5 186.5t288.5 71.5zM657 799q-55 0 -97 -43.5t-64.5 -106t-37 -144t-18.5 -144t-4 -119.5
q0 -119 26 -178.5t91 -59.5t117 89.5t79 227t27 289.5q0 189 -119 189z" />
    <glyph glyph-name="Delta" unicode="&#x2206;" horiz-adv-x="1521" 
d="M1350 0h-1358l862 1466h221zM668 1051l-568 -959h707z" />
    <glyph glyph-name="product" unicode="&#x220f;" horiz-adv-x="1669" 
d="M244 1434h1511l-6 -29h-154l-280 -1688h153l-6 -26h-704l2 26h98l279 1690h-289l-283 -1690h103l-6 -26h-707l4 26h152l280 1690h-153z" />
    <glyph glyph-name="summation" unicode="&#x2211;" horiz-adv-x="1359" 
d="M1092 -309h-1219l-12 37l798 723l-528 958l19 25h1185l-51 -385h-24q-18 358 -392 358h-290l391 -737l-725 -645h465q114 0 188.5 18t129.5 65.5t91 116.5t72 185h37z" />
    <glyph glyph-name="minus" unicode="&#x2212;" horiz-adv-x="1126" 
d="M1022 621h-930l12 63h930z" />
    <glyph glyph-name="uni2215" unicode="&#x2215;" horiz-adv-x="380" 
d="M-438 -23l1134 1479h66l-1133 -1479h-67z" />
    <glyph glyph-name="uni2219" unicode="&#x2219;" horiz-adv-x="821" 
d="M467 840q74 0 118 -37.5t44 -102.5q0 -104 -58 -163.5t-157 -59.5q-82 0 -120 46.5t-38 111.5q0 90 64.5 147.5t146.5 57.5z" />
    <glyph glyph-name="radical" unicode="&#x221a;" horiz-adv-x="1257" 
d="M1362 1524l-627 -1524h-217l-223 811l-158 -68l-12 23l659 258l117 -504l426 1012z" />
    <glyph glyph-name="infinity" unicode="&#x221e;" horiz-adv-x="1398" 
d="M1307 514q0 -127 -81.5 -227.5t-213.5 -100.5q-194 0 -389 207q-39 -49 -65.5 -77.5t-61.5 -56t-73.5 -39t-86.5 -11.5q-77 0 -128.5 39.5t-72 96t-20.5 124.5q0 145 88.5 238.5t202.5 93.5q81 0 155 -36.5t176 -131.5q80 85 155 124.5t165 39.5q109 0 179.5 -73.5
t70.5 -209.5zM1243 559q0 33 -10 64t-32 60t-62.5 47t-94.5 18q-72 0 -132.5 -36.5t-137.5 -109.5q9 -9 42 -39.5t48.5 -44t46.5 -40t52.5 -40t49.5 -29.5t53.5 -23t49.5 -7q54 0 90.5 49t36.5 131zM336 254q74 0 133 44t117 124q-11 10 -56 54.5t-73 68.5t-74 47.5
t-88 23.5q-49 0 -87 -40.5t-38 -106.5q0 -30 6 -60.5t21.5 -68.5t51.5 -62t87 -24z" />
    </font>
</defs>
</svg>
