<?xml version="1.0" standalone="no"?>
<!DOCTYPE svg PUBLIC "-//W3C//DTD SVG 1.1//EN" "http://www.w3.org/Graphics/SVG/1.1/DTD/svg11.dtd" >
<svg xmlns="http://www.w3.org/2000/svg" xmlns:xlink="http://www.w3.org/1999/xlink" version="1.1">
<metadata>
Created by FontForge 20170731 at Wed Feb 17 08:57:46 2021
 By Aleksey,,,
Copyright (c) 2011 by TypeTogether. All rights reserved.
</metadata>
<defs>
<font id="AbrilDisplay-Bold" horiz-adv-x="1126" >
  <font-face 
    font-family="Abril Display"
    font-weight="700"
    font-stretch="normal"
    units-per-em="2048"
    panose-1="2 0 8 3 0 0 0 2 0 3"
    ascent="1536"
    descent="-512"
    x-height="975"
    cap-height="1434"
    bbox="-444 -944 2826 2134"
    underline-thickness="102"
    underline-position="-307"
    unicode-range="U+0020-FB06"
  />
<missing-glyph horiz-adv-x="409" 
 />
    <glyph glyph-name="ij" unicode="ij" horiz-adv-x="1234" 
d="M135 1309q0 66 42.5 110.5t125.5 44.5q76 0 119 -39t43 -116q0 -71 -41.5 -114.5t-122.5 -43.5q-62 0 -101 25t-52 58.5t-13 74.5zM35 975h426v-922h135v-53h-557v53h133v869h-137v53zM1083 975v-850q0 -139 -23.5 -251.5t-72.5 -200.5t-133.5 -136.5t-198.5 -48.5
q-72 0 -123.5 18.5t-78.5 50t-38.5 65.5t-11.5 73q0 76 45 120t111 44q62 0 95.5 -35t33.5 -96q0 -40 -12 -80h-60q-14 -32 -14 -51q0 -58 72 -58q78 0 100.5 72t22.5 274v1037h-166v53h452zM743 1307q0 68 42 112.5t126 44.5q76 0 119 -39t43 -116q0 -71 -41.5 -114.5
t-124.5 -43.5q-87 0 -125.5 46t-38.5 110z" />
    <glyph glyph-name="ff" unicode="ff" horiz-adv-x="1396" 
d="M1270 1534q-34 0 -59 -9.5t-40.5 -31.5t-24.5 -45t-13.5 -63t-5.5 -71t-1 -83v-256h263v-53h-263v-869h250v-53h-663v53h127v869h-383v-869h131v-53h-551v53h133v869h-139v53h139v33q0 254 116.5 391t348.5 137q106 0 176 -38.5t100 -106.5q58 96 141 144t222 48
q148 0 222.5 -64.5t74.5 -158.5q0 -80 -39.5 -119t-108.5 -39q-66 0 -103.5 35.5t-37.5 95.5q0 32 16 78h68q8 32 8 45q0 78 -104 78zM633 1487q-99 0 -137.5 -65.5t-38.5 -215.5v-231h383v24q0 95 24 183q-30 -23 -82 -23q-66 0 -104.5 33.5t-38.5 93.5q0 36 10 78h70
q8 28 8 43q0 36 -23.5 58t-70.5 22z" />
    <glyph glyph-name="fi" unicode="fi" horiz-adv-x="1286" 
d="M731 1536q-66 0 -115 -20t-79 -53t-48.5 -83t-25 -102.5t-6.5 -118.5v-184h669v-922h129v-53h-542v53h127v869h-383v-869h131v-53h-551v53h133v869h-139v53h139v6q0 138 32.5 246.5t99.5 189t178 123.5t261 43q165 0 260 -70t95 -180q0 -82 -47 -128t-121 -46
q-75 0 -115.5 36.5t-40.5 104.5q0 25 10 70l84 14q11 37 11 54q0 49 -39.5 73.5t-106.5 24.5z" />
    <glyph glyph-name="fl" unicode="fl" horiz-adv-x="1298" 
d="M633 1536q-102 0 -139 -74t-37 -231v-256h223v-53h-223v-869h131v-53h-551v53h133v869h-139v53h139q-1 186 46 319.5t152 211t263 77.5q109 0 179 -36.5t101 -98.5l183 88h34v-1483h127v-53h-534v53h119v1059l20 133q-26 -39 -90 -39q-60 0 -95.5 33.5t-35.5 91.5
q0 30 12 84h72q21 46 -3.5 83.5t-86.5 37.5z" />
    <glyph glyph-name="ffi" unicode="ffi" horiz-adv-x="1964" 
d="M1798 975v-922h135v-53h-557v53h133v869h-383v-869h138v-53h-551v53h127v869h-383v-869h131v-53h-551v53h133v869h-139v53h139v33q0 254 116.5 391t348.5 137q231 0 291 -182q139 229 491 229q168 0 264.5 -70t96.5 -180q0 -80 -45.5 -126t-116.5 -46q-77 0 -118.5 42.5
t-41.5 113.5q0 24 6 51l86 14q27 74 -13.5 114t-127.5 40q-67 0 -117 -19.5t-81 -52.5t-50 -82.5t-26 -102.5t-7 -120v-184h672zM633 1487q-99 0 -137.5 -65.5t-38.5 -215.5v-231h383v24q0 95 24 183q-30 -23 -82 -23q-66 0 -104.5 33.5t-38.5 93.5q0 36 10 78h70
q18 51 -3.5 87t-82.5 36z" />
    <glyph glyph-name="ffl" unicode="ffl" horiz-adv-x="1968" 
d="M633 1487q-99 0 -137.5 -65.5t-38.5 -215.5v-231h383v24q0 95 24 183q-30 -23 -82 -23q-66 0 -104.5 33.5t-38.5 93.5q0 36 10 78h70q18 51 -3.5 87t-82.5 36zM1286 1583q220 0 295 -135l182 88h35v-1483h127v-53h-534v53h118v1059l21 133q-26 -39 -90 -39
q-60 0 -95.5 33.5t-35.5 91.5q0 30 12 84h72q21 47 -5.5 84t-93.5 37q-96 0 -132 -74t-36 -231v-256h224v-53h-224v-869h131v-53h-550v53h133v869h-383v-869h131v-53h-551v53h133v869h-139v53h139v33q0 254 116.5 391t348.5 137q109 0 188 -46t105 -128q50 108 143.5 164.5
t214.5 56.5z" />
    <glyph glyph-name="f_k" unicode="fk" horiz-adv-x="1884" 
d="M631 1583q109 0 179 -36.5t101 -98.5l183 88h34v-983l54 14l405 355h-170v53h410v-53h-146l-272 -242l375 -627h90v-53h-524v53h116l-268 455l-70 -14v-441h127v-53h-534v53h119v1059l20 133q-26 -39 -90 -39q-60 0 -95.5 33.5t-35.5 91.5q0 30 12 84h72q21 46 -3.5 83.5
t-86.5 37.5q-102 0 -139 -74t-37 -231v-256h223v-53h-223v-869h131v-53h-551v53h133v869h-139v53h139q-1 186 46 319.5t152 211t263 77.5z" />
    <glyph glyph-name="f_b" unicode="fb" horiz-adv-x="1878" 
d="M633 1536q-102 0 -139 -74t-37 -231v-256h223v-53h-223v-869h223v-53h-643v53h133v869h-139v53h139q-1 186 46 319.5t152 211t263 77.5q109 0 179 -36.5t101 -98.5l183 88h34v-717q98 176 310 176q181 0 280 -127t99 -379q0 -509 -437 -509q-107 0 -177.5 33.5
t-115.5 107.5l-129 -133h-118v1124l20 133q-26 -39 -90 -39q-61 0 -96 33t-35 92q0 30 12 84h72q21 46 -3.5 83.5t-86.5 37.5zM1354 907q-91 0 -158.5 -80.5t-67.5 -208.5v-327q0 -103 54.5 -173.5t150.5 -70.5q100 0 139 99.5t39 345.5q0 231 -33 323t-124 92z" />
    <glyph glyph-name="f_h" unicode="fh" horiz-adv-x="1929" 
d="M1128 1536v-743q87 202 332 202q312 0 312 -342v-600h135v-53h-543v53h119v631q0 126 -26.5 173.5t-88.5 47.5q-98 0 -169 -90.5t-71 -220.5v-541h127v-53h-534v53h119v1059l20 133q-26 -39 -90 -39q-60 0 -95.5 33.5t-35.5 91.5q0 30 12 84h72q21 46 -3.5 83.5
t-86.5 37.5q-102 0 -139 -74t-37 -231v-256h223v-53h-223v-869h131v-53h-551v53h133v869h-139v53h139q-1 186 46 319.5t152 211t263 77.5q109 0 179 -36.5t101 -98.5l183 88h34z" />
    <glyph glyph-name="f_t" unicode="ft" horiz-adv-x="1488" 
d="M840 258v664h-383v-869h250v-53h-670v53h133v869h-139v53h139v63q0 264 103 404.5t333 140.5q144 0 220.5 -64t76.5 -159q0 -76 -39.5 -117t-105.5 -41q-67 0 -103.5 34t-36.5 93q0 39 13 80h65q9 30 9 51q0 36 -26 55t-71 19q-38 0 -65.5 -13t-44 -34t-26 -55.5
t-12.5 -70t-3 -85.5v-301h383v168l288 74v-242h277v-53h-277v-672q0 -92 24.5 -134t88.5 -42q144 0 172 219l49 -6q-7 -66 -24.5 -116.5t-51.5 -96t-95 -70t-146 -24.5q-146 0 -225.5 62t-79.5 216z" />
    <glyph glyph-name="f_j" unicode="fj" horiz-adv-x="1280" 
d="M698 -512q-72 0 -123.5 18.5t-78.5 50t-38.5 65.5t-11.5 73q0 76 45 120t111 44q62 0 95.5 -35t33.5 -96q0 -40 -12 -80h-60q-14 -32 -14 -51q0 -58 72 -58q76 0 99.5 73t23.5 273v1037h-383v-869h161v-53h-581v53h133v869h-139v53h139q-1 140 31.5 249.5t100.5 191
t180.5 124.5t265.5 43q168 0 264 -70t96 -180q0 -81 -43.5 -127.5t-118.5 -46.5q-80 0 -121 40t-41 112q0 22 7 57l88 23q27 73 -13.5 109t-128.5 36q-67 0 -117 -19.5t-80.5 -52.5t-49.5 -82.5t-26 -102.5t-7 -120v-184h671v-772q0 -87 -7 -164.5t-23.5 -162t-48 -151.5
t-77.5 -122t-116 -85t-158 -30z" />
    <glyph glyph-name="f_f_j" unicode="ffj" horiz-adv-x="1949" 
d="M635 1536q231 0 291 -182q139 229 491 229q168 0 264.5 -70t96.5 -180q0 -80 -45.5 -127t-116.5 -47q-77 0 -117.5 40t-40.5 110q0 32 6 59l84 18q27 74 -13.5 112t-127.5 38q-129 0 -200 -70.5t-77 -208.5q-4 -62 -4 -98v-184h672v-719q0 -86 -4.5 -160.5t-17 -154.5
t-32.5 -144.5t-53.5 -123.5t-77.5 -98.5t-106.5 -63t-138.5 -23.5q-72 0 -123.5 18.5t-78.5 50t-38.5 65.5t-11.5 73q0 76 45 120t111 44q62 0 95.5 -35t33.5 -96q0 -40 -12 -80h-60q-14 -31 -14 -51q0 -58 71 -58q76 0 99.5 73t23.5 273v1037h-383v-869h162v-53h-575v53
h127v869h-383v-869h131v-53h-551v53h133v869h-139v53h139v33q0 254 116.5 391t348.5 137zM633 1487q-99 0 -137.5 -65.5t-38.5 -215.5v-231h383v24q0 95 24 183q-30 -23 -82 -23q-66 0 -104.5 33.5t-38.5 93.5q0 36 10 78h70q18 51 -3.5 87t-82.5 36z" />
    <glyph glyph-name="f_f_k" unicode="ffk" horiz-adv-x="2553" 
d="M633 1487q-99 0 -137.5 -65.5t-38.5 -215.5v-231h383v24q0 95 24 183q-30 -23 -82 -23q-66 0 -104.5 33.5t-38.5 93.5q0 36 10 78h70q18 51 -3.5 87t-82.5 36zM1292 1583q222 0 289 -135l182 88h35v-983l53 14l406 355h-170v53h410v-53h-146l-272 -242l375 -627h90v-53
h-525v53h117l-268 455l-70 -14v-441h127v-53h-534v53h118v1059l21 133q-26 -39 -90 -39q-60 0 -95.5 33.5t-35.5 91.5q0 30 12 84h72q21 46 -3.5 83.5t-86.5 37.5q-102 0 -139.5 -74t-37.5 -231v-256h224v-53h-224v-869h140v-53h-559v53h133v869h-383v-869h131v-53h-551v53
h133v869h-139v53h139v33q0 254 116.5 391t348.5 137q109 0 188 -46t105 -128q51 108 144 164.5t220 56.5z" />
    <glyph glyph-name="f_f_b" unicode="ffb" horiz-adv-x="2547" 
d="M633 1487q-99 0 -137.5 -65.5t-38.5 -215.5v-231h383v24q0 95 24 183q-30 -23 -82 -23q-66 0 -104.5 33.5t-38.5 93.5q0 36 10 78h70q18 51 -3.5 87t-82.5 36zM1294 1583q110 0 183 -37t104 -98l182 88h35v-717q98 176 309 176q181 0 280 -127t99 -379q0 -509 -436 -509
q-107 0 -177.5 33.5t-115.5 107.5l-129 -133h-119v1124l21 133q-26 -39 -90 -39q-61 0 -96 33t-35 92q0 30 12 84h72q21 46 -3.5 83.5t-86.5 37.5q-102 0 -139.5 -74t-37.5 -231v-256h224v-53h-224v-869h224v-53h-643v53h133v869h-383v-869h131v-53h-551v53h133v869h-139v53
h139v33q0 254 116.5 391t348.5 137q109 0 188 -46t105 -128q51 108 144.5 164.5t221.5 56.5zM2023 907q-91 0 -158 -80.5t-67 -208.5v-327q0 -103 54.5 -173.5t150.5 -70.5q100 0 139 99.5t39 345.5q0 230 -33 322.5t-125 92.5z" />
    <glyph glyph-name="f_f_h" unicode="ffh" horiz-adv-x="2598" 
d="M633 1487q-99 0 -137.5 -65.5t-38.5 -215.5v-231h383v24q0 95 24 183q-30 -23 -82 -23q-66 0 -104.5 33.5t-38.5 93.5q0 36 10 78h70q18 51 -3.5 87t-82.5 36zM1294 1583q108 0 182 -37t105 -98l182 88h35v-743q87 202 332 202q311 0 311 -342v-600h135v-53h-542v53h118
v631q0 126 -26 173.5t-88 47.5q-98 0 -169 -90.5t-71 -220.5v-541h127v-53h-534v53h118v1059l21 133q-26 -39 -90 -39q-60 0 -95.5 33.5t-35.5 91.5q0 30 12 84h72q21 46 -3.5 83.5t-86.5 37.5q-102 0 -139.5 -74t-37.5 -231v-256h224v-53h-224v-869h140v-53h-559v53h133
v869h-383v-869h131v-53h-551v53h133v869h-139v53h139v33q0 254 116.5 391t348.5 137q109 0 188 -46t105 -128q104 221 366 221z" />
    <glyph glyph-name="f_f_t" unicode="fft" horiz-adv-x="2158" 
d="M1274 1583q145 0 222 -64t77 -159q0 -76 -40 -117t-106 -41q-67 0 -103 34t-36 93q0 43 12 80h66q8 27 8 51q0 36 -25.5 55t-70.5 19q-38 0 -66 -12.5t-44.5 -34t-26 -55.5t-12.5 -70t-3 -86v-301h383v170l289 74v-244h277v-53h-277v-672q0 -92 24.5 -134t88.5 -42
q144 0 172 219l49 -6q-7 -66 -24.5 -116.5t-51.5 -96t-95 -70t-146 -24.5q-71 0 -123.5 13t-95.5 43.5t-65 86t-22 135.5v664h-383v-869h250v-53h-669v53h133v869h-383v-869h131v-53h-551v53h133v869h-139v53h139v33q0 254 116.5 391t348.5 137q106 0 176 -38.5t100 -106.5
q58 96 141 144t222 48zM633 1487q-99 0 -137.5 -65.5t-38.5 -215.5v-231h383v24q0 95 24 183q-30 -23 -82 -23q-66 0 -104.5 33.5t-38.5 93.5q0 36 10 78h70q18 51 -3.5 87t-82.5 36z" />
    <glyph glyph-name="f_iacute" unicode="f&#xed;" horiz-adv-x="1286" 
d="M598 1534q-36 0 -62 -13t-41 -33.5t-23.5 -55.5t-11.5 -70.5t-3 -85.5v-301h671v-922h136v-53h-549v53h125v869h-383v-869h129v-53h-549v53h133v869h-139v53h139v63q0 129 23 227.5t73 170.5t132.5 109.5t197.5 37.5q137 0 207.5 -63.5t70.5 -159.5q0 -76 -38.5 -117
t-102.5 -41t-99.5 34t-35.5 93q0 43 12 80h66q8 27 8 51q0 36 -23.5 55t-62.5 19zM895 1120l145 383l64 15q10 2 31 2q35 0 55 -19.5t20 -52.5q0 -42 -51 -96l-233 -250z" />
    <glyph glyph-name="t_t.alt" unicode="tt" horiz-adv-x="1527" 
d="M879 258v664h-441v-672q0 -93 24 -134.5t89 -41.5q144 0 172 219l47 -6q-6 -52 -17 -94t-34.5 -83t-57 -68.5t-86 -44.5t-120.5 -17q-71 0 -124 13t-96 43.5t-65.5 86t-22.5 135.5v664h-133v53h133v264l291 74v-338h441v264l290 74v-338h275v-53h-275v-672
q0 -93 24 -134.5t89 -41.5q144 0 172 219l47 -6q-6 -52 -17 -94t-34.5 -83t-57 -68.5t-86 -44.5t-120.5 -17q-71 0 -124 13t-95.5 43.5t-65 86t-22.5 135.5z" />
    <glyph glyph-name=".notdef" horiz-adv-x="409" 
 />
    <glyph glyph-name=".null" horiz-adv-x="0" 
 />
    <glyph glyph-name="nonmarkingreturn" horiz-adv-x="682" 
 />
    <glyph glyph-name="space" unicode=" " horiz-adv-x="409" 
 />
    <glyph glyph-name="exclam" unicode="!" horiz-adv-x="772" 
d="M354 365v186q0 123 -16 246.5t-35 204.5t-35 166t-16 139q0 74 40.5 111.5t104.5 37.5q62 0 98.5 -36.5t36.5 -112.5q0 -59 -18 -144.5t-39 -164.5t-39 -201.5t-18 -247.5v-184h-64zM242 121q0 61 37.5 102t103.5 41t104.5 -35t38.5 -104q0 -66 -36.5 -105.5
t-104.5 -39.5q-74 0 -108.5 41t-34.5 100z" />
    <glyph glyph-name="quotedbl" unicode="&#x22;" horiz-adv-x="749" 
d="M188 1038l-55 490q71 45 117 45q31 0 48 -19t17 -51q0 -45 -12 -112l-65 -353h-50zM492 1038l-56 490q71 45 117 45q31 0 48 -19t17 -51q0 -45 -12 -112l-65 -353h-49z" />
    <glyph glyph-name="numbersign" unicode="#" horiz-adv-x="1228" 
d="M356 0h-92l45 285h-246l19 86h240l61 362h-246l17 88h239l39 266h94l-41 -266h312l39 266h94l-41 -266h248l-15 -88h-243l-58 -362h244l-14 -86h-240l-47 -285h-92l47 285h-316zM786 733h-311l-61 -362h315z" />
    <glyph glyph-name="dollar" unicode="$" horiz-adv-x="1157" 
d="M459 -145v155q-54 9 -128.5 29t-92.5 20q-19 0 -27.5 -11.5t-24.5 -47.5h-36l-19 461h45q92 -292 283 -373v514q-154 51 -234 143t-80 256q0 142 82.5 256t231.5 148v172h63v-162q8 0 24 1t25 1q39 0 74 -6v166h64v-176q34 -8 94 -27.5t82 -19.5q18 0 27 8.5t20 32.5h33
l12 -394h-43q-42 123 -95 204t-130 120v-457q60 -20 106 -41t92.5 -55.5t77 -77t49.5 -104t19 -137.5q0 -171 -92 -291t-252 -152v-155h-64v147q-16 -2 -47 -2q-51 0 -76 2v-147h-63zM606 59q25 0 39 2v486l-121 37h-2v-516q40 -9 84 -9zM895 297q0 81 -45.5 133t-140.5 92
v-450q85 24 135.5 82t50.5 143zM621 895l24 -6v459q-45 10 -84 10q-27 0 -39 -2v-432q68 -22 99 -29zM301 1151q0 -74 40.5 -122t117.5 -81v395q-75 -22 -116.5 -72t-41.5 -120z" />
    <glyph glyph-name="percent" unicode="%" horiz-adv-x="1564" 
d="M817 315q0 160 97.5 258.5t246.5 98.5t240.5 -86t91.5 -254q0 -166 -97.5 -259t-240.5 -93q-163 0 -250.5 92t-87.5 243zM1022 317q0 -154 29 -223t106 -69q78 0 104.5 71.5t26.5 231.5q0 161 -28 229t-101 68q-77 0 -107 -71.5t-30 -236.5zM311 0l863 1434h81
l-860 -1434h-84zM78 1100q0 160 96.5 258t245.5 98q150 0 242 -86t92 -254q0 -166 -98 -259t-242 -93q-161 0 -248.5 92.5t-87.5 243.5zM281 1102q0 -155 29 -224t106 -69q42 0 68.5 19t40.5 60.5t19 93t5 130.5q0 160 -29 228.5t-102 68.5q-76 0 -106.5 -71.5t-30.5 -235.5
z" />
    <glyph glyph-name="ampersand" unicode="&#x26;" horiz-adv-x="1622" 
d="M1016 -406q109 0 166 85.5t57 211.5q0 86 -27 153.5t-79 135.5q-157 -200 -457 -200q-116 0 -211.5 22t-171.5 67t-118 122t-42 180q0 131 69.5 219t215.5 145q-152 149 -152 332q0 77 24.5 141.5t67 109.5t99.5 76.5t120.5 46.5t131.5 15q173 0 261.5 -69.5t88.5 -190.5
q0 -221 -330 -356q110 -76 215 -142q179 -109 281 -204q39 144 45 290h-154v56h357v-56h-138q-13 -185 -55 -342q85 -95 129.5 -186t44.5 -215q0 -136 -62 -252.5t-168 -185t-231 -68.5t-191.5 56.5t-66.5 140.5q0 73 41.5 116t106.5 43q63 0 98 -31t35 -93q0 -31 -12 -74
h-68q-8 -19 -8 -41q0 -58 88 -58zM731 66q226 0 354 170q-47 53 -107.5 99t-160.5 111q-34 22 -98 63t-99 64t-80.5 56t-78.5 63q-35 -42 -50.5 -103.5t-15.5 -164.5q0 -188 86.5 -273t249.5 -85zM494 1188q0 -94 45 -167.5t149 -150.5q106 54 147.5 133t41.5 189t-47 164.5
t-128 54.5q-39 0 -74 -12t-66 -37t-49.5 -69.5t-18.5 -104.5z" />
    <glyph glyph-name="quotesingle" unicode="'" horiz-adv-x="415" 
d="M178 1038l-55 490q71 45 117 45q31 0 48 -19t17 -51q0 -45 -12 -112l-66 -353h-49z" />
    <glyph glyph-name="parenleft" unicode="(" horiz-adv-x="684" 
d="M106 645q0 133 25 265t75.5 251.5t120.5 213.5t166.5 154t206.5 70l5 -40q-51 -8 -90 -29.5t-68 -55.5t-49 -90.5t-33 -122t-20.5 -162.5t-10 -198.5t-2.5 -243.5q0 -149 2.5 -254.5t9.5 -203.5t20.5 -163t33 -121t49 -90t68 -57t90.5 -34l-7 -43q-118 14 -217 76.5
t-167 156t-116 213t-70 248t-22 260.5z" />
    <glyph glyph-name="parenright" unicode=")" horiz-adv-x="684" 
d="M575 653q0 -133 -25 -265t-75 -251.5t-119.5 -213.5t-165.5 -154t-206 -70l-4 41q51 8 90 29.5t68 55.5t49 90.5t33 121.5t20 162t9.5 198.5t2.5 243.5q0 148 -3 254t-10 204t-20 163.5t-33 121.5t-49 90t-67.5 57t-89.5 34l4 43q99 -12 185 -57.5t150 -116t113.5 -160
t80.5 -193t46.5 -211t15.5 -217.5z" />
    <glyph glyph-name="asterisk" unicode="*" horiz-adv-x="1042" 
d="M891 1274l-342 -74l250 -72q46 -13 72 -32t26 -56q0 -73 -115 -125l-243 254l71 -344q-58 -47 -114 -47q-38 0 -61 20t-23 52q0 39 16 88l76 233l-244 -256q-115 47 -115 125q0 36 26 56t73 32l248 72l-342 74q-7 32 -7 59q0 44 21.5 78.5t62.5 34.5q27 0 49 -12.5
t56 -42.5l176 -162l-76 334q57 49 115 49q37 0 60.5 -21t23.5 -53t-21 -96l-69 -215l166 162q57 57 108 57q42 0 63 -32t21 -81q0 -32 -8 -59z" />
    <glyph glyph-name="plus" unicode="+" 
d="M1028 612h-430v-424h-82v424h-418v74h418v399h82v-399h430v-74z" />
    <glyph glyph-name="comma" unicode="," horiz-adv-x="528" 
d="M180 -319l-33 38q105 95 143 159.5t38 121.5q0 69 -49 76l-80 -74q-43 14 -77 53.5t-34 94.5q0 69 44.5 111t111.5 42q91 0 138.5 -62.5t47.5 -158.5q0 -112 -58.5 -205.5t-191.5 -195.5z" />
    <glyph glyph-name="hyphen" unicode="-" horiz-adv-x="688" 
d="M94 512v119h498v-119h-498z" />
    <glyph glyph-name="period" unicode="." horiz-adv-x="542" 
d="M109 141q0 71 42 117.5t117 46.5q77 0 121.5 -40t44.5 -120q0 -75 -42 -120t-118 -45q-86 0 -125.5 47.5t-39.5 113.5z" />
    <glyph glyph-name="slash" unicode="/" horiz-adv-x="718" 
d="M16 -199l605 1827h81l-602 -1827h-84z" />
    <glyph glyph-name="zero" unicode="0" horiz-adv-x="1263" 
d="M66 719q0 157 28.5 282t79 209t122 140t154.5 81t181 25q99 0 183 -24.5t156 -80t122.5 -140t79 -209.5t28.5 -283t-29 -283.5t-80 -210t-123.5 -140.5t-156 -80.5t-180.5 -24.5q-143 0 -252 55t-177 154.5t-102 233t-34 296.5zM387 715q0 -133 4 -226.5t14.5 -172
t27.5 -127.5t44.5 -83.5t65 -48.5t88.5 -14q53 0 90.5 14t65.5 48t45 82.5t27 127.5t14 172t4 226q0 160 -6.5 267.5t-22 191t-44 130t-70.5 69t-103 22.5q-60 0 -101.5 -23.5t-69.5 -70.5t-44 -130t-22.5 -190.5t-6.5 -263.5z" />
    <glyph glyph-name="one" unicode="1" horiz-adv-x="835" 
d="M293 1362l-242 -23l-8 58l438 59h117v-1397h184v-59h-714v59h225v1303z" />
    <glyph glyph-name="two" unicode="2" horiz-adv-x="1081" 
d="M76 0v164l260 276q197 206 270.5 352t73.5 330q0 148 -45.5 209.5t-159.5 61.5q-84 0 -135 -38.5t-51 -99.5q0 -31 12 -61h59q17 -49 17 -96q0 -60 -43 -96.5t-109 -36.5q-74 0 -113.5 47.5t-39.5 122.5q0 148 121.5 234.5t330.5 86.5q224 0 339.5 -91.5t115.5 -256.5
q0 -57 -9 -101t-41 -100.5t-77 -110t-134 -139.5t-193.5 -178.5t-272.5 -236.5h436q58 0 100 9.5t70 26.5t47.5 47.5t31 64.5t21.5 85h46l-17 -475h-911z" />
    <glyph glyph-name="three" unicode="3" horiz-adv-x="1103" 
d="M526 1456q217 0 327 -84t110 -237q0 -129 -96 -218t-277 -135q227 -24 335.5 -122t108.5 -254q0 -194 -154 -310t-413 -116q-63 0 -120.5 9t-112 30.5t-94 54t-63.5 83t-24 113.5q0 77 40.5 125.5t115.5 48.5q65 0 106 -37.5t41 -97.5q0 -34 -16 -96h-59q-11 -37 -11 -57
q0 -52 52.5 -82.5t140.5 -30.5q136 0 197 88t61 268q0 79 -15 138.5t-44 100t-62.5 66t-79.5 46.5q-87 -21 -188 -31l-8 61q73 7 123 19t94 35.5t69.5 60.5t39.5 94t14 137q0 139 -45.5 204t-139.5 65q-80 0 -126 -34.5t-46 -86.5q0 -19 8 -51h58q14 -47 14 -88
q0 -59 -39.5 -95t-103.5 -36q-71 0 -108.5 45t-37.5 116q0 135 117.5 213t310.5 78z" />
    <glyph glyph-name="four" unicode="4" horiz-adv-x="1175" 
d="M401 0v59h193v308h-567v57l591 1010h271v-1000h186v160h55v-379h-55v152h-186v-308h141v-59h-629zM113 434h481v828z" />
    <glyph glyph-name="five" unicode="5" horiz-adv-x="1081" 
d="M467 809q-129 0 -272 -88l-37 18v672l32 25q128 -19 352.5 -43.5t268.5 -24.5q34 0 52 19.5t30 66.5l43 -6q-18 -141 -37.5 -214.5t-45 -100.5t-67.5 -27q-51 0 -170 39l-389 112l-8 -454q152 76 309 76q104 0 187 -24.5t136.5 -64.5t88.5 -96.5t49.5 -116t14.5 -126.5
q0 -218 -150 -344.5t-401 -126.5q-77 0 -145.5 16t-128 49.5t-95 93.5t-35.5 140q0 74 40.5 122t115.5 48q65 0 106 -38.5t41 -99.5q0 -36 -16 -94h-60q-12 -27 -12 -55q0 -52 50 -85.5t132 -33.5q132 0 184 102.5t52 321.5q0 185 -45.5 263.5t-169.5 78.5z" />
    <glyph glyph-name="six" unicode="6" horiz-adv-x="1155" 
d="M70 631q0 396 164 610.5t442 214.5q178 0 276.5 -75.5t98.5 -194.5q0 -68 -42 -112t-110 -44q-61 0 -103 35.5t-42 97.5q0 24 12 74l53 4q6 27 6 51q0 103 -147 103q-73 0 -125 -30.5t-92 -102.5t-60.5 -200t-21.5 -314q104 161 317 161q87 0 160.5 -26.5t129 -78.5
t87 -135.5t31.5 -189.5q0 -230 -138 -364.5t-376 -134.5q-255 0 -387.5 155.5t-132.5 495.5zM383 453q0 -107 8 -177.5t30 -126t63 -81t104 -25.5q52 0 89.5 18.5t60.5 51t36 84.5t18 109t5 136q0 214 -38.5 299.5t-135.5 85.5q-79 0 -142 -51.5t-82 -128.5
q-16 -55 -16 -194z" />
    <glyph glyph-name="seven" unicode="7" horiz-adv-x="995" 
d="M233 207q0 58 13.5 112t54 136t122 199t210.5 278l213 266h-488q-77 0 -117 -6t-69.5 -30.5t-42.5 -61t-27 -109.5h-47l19 443h905v-144l-156 -278q-100 -179 -165 -316t-93 -227.5t-36.5 -143t-8.5 -106.5q0 -98 55 -186l-36 -47q-140 -17 -223 44.5t-83 176.5z" />
    <glyph glyph-name="eight" unicode="8" horiz-adv-x="1177" 
d="M487 754q-183 20 -283 108.5t-100 227.5q0 169 128 267.5t360 98.5q228 0 356.5 -95.5t128.5 -264.5q0 -144 -97.5 -233.5t-277.5 -108.5v-6q209 -21 312.5 -118t103.5 -257q0 -193 -134 -293t-392 -100q-260 0 -396.5 100.5t-136.5 290.5q0 166 108.5 263t319.5 114v6z
M592 715q-119 0 -172 -83.5t-53 -260.5q0 -172 52 -250t173 -78q120 0 171.5 80t51.5 254q0 173 -53.5 255.5t-169.5 82.5zM406 1096q0 -161 44 -235.5t146 -74.5q101 0 141.5 73.5t40.5 236.5q0 151 -42 224t-144 73t-144 -73t-42 -224z" />
    <glyph glyph-name="nine" unicode="9" horiz-adv-x="1155" 
d="M1090 788q0 -396 -158.5 -602t-439.5 -206q-183 0 -287.5 79.5t-104.5 194.5q0 78 41.5 128t114.5 50q64 0 104.5 -38t40.5 -105q0 -38 -12 -78h-57q-13 -29 -13 -61q0 -48 45 -77.5t125 -29.5q149 0 218.5 148t70.5 499q-101 -164 -317 -164q-86 0 -160 29t-130 84
t-88 142t-32 196q0 154 68.5 263.5t185 162.5t270.5 53q249 0 382 -163.5t133 -504.5zM741 756q33 73 33 207q0 229 -41 329.5t-160 100.5q-52 0 -90 -18.5t-61 -50t-36.5 -83t-18.5 -107.5t-5 -133q0 -222 37.5 -309.5t137.5 -87.5q69 0 121 41t83 111z" />
    <glyph glyph-name="colon" unicode=":" horiz-adv-x="542" 
d="M109 141q0 71 42 117.5t117 46.5q77 0 121.5 -40t44.5 -120q0 -75 -42 -120t-118 -45q-86 0 -125.5 47.5t-39.5 113.5zM109 819q0 71 42 117.5t117 46.5q77 0 121.5 -40t44.5 -120q0 -75 -42 -120.5t-118 -45.5q-86 0 -125.5 48t-39.5 114z" />
    <glyph glyph-name="semicolon" unicode=";" horiz-adv-x="528" 
d="M180 -319l-33 38q105 95 143 159.5t38 121.5q0 69 -49 76l-80 -74q-43 14 -77 53.5t-34 94.5q0 69 44.5 111t111.5 42q91 0 138.5 -62.5t47.5 -158.5q0 -112 -58.5 -205.5t-191.5 -195.5zM102 819q0 71 42.5 117.5t117.5 46.5q77 0 121.5 -40t44.5 -120q0 -75 -42 -120.5
t-118 -45.5q-86 0 -126 48t-40 114z" />
    <glyph glyph-name="less" unicode="&#x3c;" 
d="M1026 176l-926 395v58l926 389v-78l-811 -338l811 -344v-82z" />
    <glyph glyph-name="equal" unicode="=" 
d="M1028 383h-930v74h930v-74zM98 776h930v-74h-930v74z" />
    <glyph glyph-name="greater" unicode="&#x3e;" 
d="M1026 571l-926 -395v82l811 344l-811 338v78l926 -389v-58z" />
    <glyph glyph-name="question" unicode="?" horiz-adv-x="1122" 
d="M545 1456q202 0 316 -90t114 -244q0 -164 -170 -317l-295 -273v-178h-51v422q0 36 22 58l140 145q59 59 81.5 109.5t22.5 121.5q0 94 -57.5 145.5t-155.5 51.5q-90 0 -136 -36.5t-46 -90.5q0 -24 8 -45h53q17 -46 17 -86q0 -62 -41.5 -100.5t-106.5 -38.5q-71 0 -108 45
t-37 116q0 123 116 204t314 81zM340 121q0 61 38 102t103 41t105.5 -35t40.5 -104q0 -66 -38 -105.5t-104 -39.5q-77 0 -111 40.5t-34 100.5z" />
    <glyph glyph-name="at" unicode="@" horiz-adv-x="1769" 
d="M887 809q110 0 192 -72l31 58h172l-65 -373q-25 -150 -25 -217q0 -84 24.5 -118t79.5 -34q105 0 185 115t80 315q0 288 -169 456.5t-460 168.5q-148 0 -278.5 -51.5t-228.5 -145t-155 -236t-57 -313.5q0 -143 41 -258.5t109.5 -191.5t161.5 -127.5t193 -73.5t208 -22
q271 0 473 164l41 -46q-96 -87 -234 -134.5t-291 -47.5q-125 0 -238 26.5t-213 84t-173 141.5t-115.5 205.5t-42.5 269.5q0 232 97.5 417.5t282 293.5t425.5 108q152 0 279.5 -44.5t220.5 -129t145.5 -215t52.5 -293.5q0 -244 -109.5 -373.5t-289.5 -129.5q-198 0 -242 149
q-76 -145 -237 -145q-139 0 -206 92t-67 240q0 119 36.5 214.5t95.5 153.5t128.5 88.5t141.5 30.5zM997 270l66 416q-70 70 -150 70q-63 0 -110 -48t-71 -125t-35 -155t-11 -156q0 -114 27.5 -165.5t89.5 -51.5q71 0 124.5 64t69.5 151z" />
    <glyph glyph-name="A" unicode="A" horiz-adv-x="1392" 
d="M930 59l-142 418h-432l-149 -418h162v-59h-363v59h121l514 1377h115l506 -1377h122v-59h-612v59h158zM580 1083l-203 -546h393z" />
    <glyph glyph-name="B" unicode="B" horiz-adv-x="1308" 
d="M57 1434h541q136 0 236.5 -17t176.5 -56t114 -105.5t38 -161.5q0 -278 -323 -332v-4q189 -25 292 -114.5t103 -240.5q0 -94 -32 -165t-86.5 -116t-138.5 -72.5t-177.5 -38.5t-212.5 -11h-531v59h154v1315h-154v60zM518 715v-656h96q163 0 227 78t64 260
q0 171 -67.5 244.5t-241.5 73.5h-78zM518 1374v-598h53q157 0 218 72.5t61 241.5q0 161 -57.5 222.5t-208.5 61.5h-66z" />
    <glyph glyph-name="C" unicode="C" horiz-adv-x="1372" 
d="M786 1393q-94 0 -162 -35.5t-117 -114t-73 -208.5t-24 -314q0 -678 387 -678q285 0 415 406h43l-14 -447h-31q-15 41 -51 41q-24 0 -81.5 -15.5t-141.5 -31.5t-172 -16q-324 0 -502 180t-178 549q0 180 51 322.5t143 235t217 141t275 48.5q82 0 160 -16t133 -31.5
t80 -15.5q22 0 31.5 9t17.5 32h31l16 -435h-45q-62 195 -161.5 294.5t-246.5 99.5z" />
    <glyph glyph-name="D" unicode="D" horiz-adv-x="1505" 
d="M1417 741q0 -169 -42.5 -298.5t-116 -212.5t-182.5 -135.5t-232 -73.5t-275 -21h-514v59h156v1315h-156v60h572q193 0 336 -37t246.5 -118t155.5 -215t52 -323zM520 59h82q256 0 369.5 160t113.5 518q0 131 -13 229t-42.5 169t-69.5 117t-100.5 73t-129 38t-161.5 11h-49
v-1315z" />
    <glyph glyph-name="E" unicode="E" horiz-adv-x="1269" 
d="M63 1434h1047l20 -396h-47q-27 105 -62.5 171t-90 102.5t-119 49.5t-164.5 13h-135v-612h88q108 0 162.5 61t79.5 201h45v-606h-49q-31 161 -84.5 219.5t-173.5 58.5h-68v-637h145q206 0 318 93t153 284h43l-14 -436h-1094v59h142v1315h-142v60z" />
    <glyph glyph-name="F" unicode="F" horiz-adv-x="1206" 
d="M63 1434h1037l20 -410h-51q-21 89 -48.5 150t-62 100.5t-84 61.5t-105.5 30t-136 8h-121v-635h104q108 0 162 60t78 200h45v-606h-49q-30 163 -79.5 221t-166.5 58h-94v-613h260v-59h-709v59h142v1315h-142v60z" />
    <glyph glyph-name="G" unicode="G" horiz-adv-x="1464" 
d="M778 43q175 0 211 139v342h-160v60h564v-60h-107v-522h-39q-12 26 -30 38.5t-52 12.5q-28 0 -92 -18.5t-148 -36.5t-161 -18q-324 0 -502 178.5t-178 543.5q0 182 52 326.5t145.5 237.5t219.5 141.5t277 48.5q80 0 157 -16t132 -31.5t80 -15.5q15 0 24 5.5t13 12.5t10 23
h37l14 -435h-47q-61 187 -165.5 290.5t-250.5 103.5q-124 0 -204 -65t-124 -218t-44 -401q0 -666 368 -666z" />
    <glyph glyph-name="H" unicode="H" horiz-adv-x="1546" 
d="M63 1434h590v-60h-141v-606h522v606h-141v60h590v-60h-142v-1315h142v-59h-590v59h141v635h-522v-635h141v-59h-590v59h142v1315h-142v60z" />
    <glyph glyph-name="I" unicode="I" horiz-adv-x="716" 
d="M72 1434h573v-60h-133v-1315h133v-59h-573v59h133v1315h-133v60z" />
    <glyph glyph-name="J" unicode="J" horiz-adv-x="980" 
d="M328 1434h616v-60h-133v-893q0 -247 -110.5 -373t-329.5 -126q-152 0 -235 62t-83 173q0 83 44 128.5t116 45.5q64 0 100.5 -36.5t36.5 -98.5q0 -48 -16 -100h-64q-10 -23 -10 -39q0 -33 29 -53.5t78 -20.5q81 0 108 54.5t27 209.5v1067h-174v60z" />
    <glyph glyph-name="K" unicode="K" horiz-adv-x="1417" 
d="M72 1434h573v-60h-133v-629l47 13l524 616h-157v60h387v-60h-133l-387 -463l503 -852h119v-59h-594v59h121l-375 621l-55 -12v-609h133v-59h-573v59h133v1315h-133v60z" />
    <glyph glyph-name="L" unicode="L" horiz-adv-x="1210" 
d="M63 1434h666v-60h-217v-1315h115q103 0 178 24.5t129.5 78t92 126.5t69.5 181h51l-29 -469h-1055v59h142v1315h-142v60z" />
    <glyph glyph-name="M" unicode="M" horiz-adv-x="1755" 
d="M1186 1434h495v-60h-133v-1315h133v-59h-573v59h133v1284h-8l-373 -1343h-168l-407 1346h-9v-1287h134v-59h-338v59h133v1315h-133v60h503l316 -1067z" />
    <glyph glyph-name="N" unicode="N" horiz-adv-x="1427" 
d="M1231 1374v-1382h-182l-773 1333v-1266h134v-59h-338v59h133v1315h-133v60h495l592 -1033v973h-133v60h338v-60h-133z" />
    <glyph glyph-name="O" unicode="O" horiz-adv-x="1495" 
d="M1083 719q0 101 -3 175.5t-11.5 149t-24 125.5t-40 96t-59 71.5t-82.5 41.5t-109 15q-74 0 -129 -19t-92.5 -61t-61.5 -95.5t-37 -136.5t-17.5 -169t-4.5 -207q0 -108 5 -189.5t18.5 -160.5t37.5 -133t61 -96t91.5 -62.5t126.5 -20.5q83 0 141.5 29t95.5 80.5t58 138.5
t28.5 186.5t7.5 241.5zM84 702q0 349 181.5 551.5t498.5 202.5q311 0 480 -192t169 -539q0 -353 -169.5 -549t-500.5 -196q-324 0 -491.5 187t-167.5 535z" />
    <glyph glyph-name="P" unicode="P" horiz-adv-x="1290" 
d="M51 1434h561q113 0 202 -11.5t166.5 -39.5t128.5 -73.5t79.5 -116t28.5 -163.5q0 -103 -33 -181t-89.5 -127t-141.5 -79.5t-180 -42.5t-214 -12h-47v-529h256v-59h-717v59h154v1315h-154v60zM512 1374v-727h74q164 0 232.5 88.5t68.5 290.5q0 198 -65 273t-224 75h-86z
" />
    <glyph glyph-name="Q" unicode="Q" horiz-adv-x="1495" 
d="M84 702q0 349 181.5 551.5t498.5 202.5q311 0 480 -192t169 -539q0 -324 -143 -513t-426 -216v-10q96 -12 143.5 -59t75.5 -130q30 -90 52.5 -123.5t68.5 -33.5q36 0 56.5 34.5t29.5 118.5l55 -4q-6 -121 -69 -187.5t-181 -66.5q-58 0 -104 13t-77 34.5t-55.5 56.5
t-40 71.5t-30.5 86.5q-25 86 -44 113t-48 27q-46 0 -141 -82l-31 32q81 73 160 93v8q-283 23 -431.5 207.5t-148.5 506.5zM1083 719q0 101 -3 175.5t-11.5 148.5t-24 125t-40 96.5t-59 72t-82.5 41.5t-109 15q-56 0 -100.5 -11t-79 -34.5t-60 -54.5t-43.5 -78t-29.5 -97
t-18 -118.5t-9 -137t-2.5 -157.5q0 -108 5 -189.5t18.5 -160.5t37.5 -133t61 -96t91.5 -62.5t126.5 -20.5q83 0 141.5 29t95.5 81t58 139t28.5 186.5t7.5 240.5z" />
    <glyph glyph-name="R" unicode="R" horiz-adv-x="1400" 
d="M635 709h-123v-650h174v-59h-635v59h154v1315h-154v60h553q100 0 174 -5t146 -17.5t120 -37t86 -61.5t56 -92.5t18 -128.5q0 -91 -26 -156t-77.5 -104t-117.5 -59.5t-156 -27.5v-6q181 -22 255.5 -98.5t74.5 -251.5v-139q0 -87 13.5 -121.5t60.5 -34.5q40 0 57.5 35.5
t40.5 149.5l47 -11q-8 -50 -15 -81.5t-19 -68.5t-29.5 -59t-43.5 -42t-63 -28.5t-86 -8.5q-162 0 -222 69t-60 242v211q0 104 -46.5 155.5t-156.5 51.5zM512 1374v-606h55q161 0 234 74t73 250q0 88 -18 144t-58 86t-92 41t-133 11h-61z" />
    <glyph glyph-name="S" unicode="S" horiz-adv-x="1191" 
d="M623 43q132 0 220.5 67t88.5 181q0 35 -6 63.5t-21 52.5t-30.5 42t-46 35.5t-54.5 29.5t-69.5 27t-78 24.5t-91.5 26.5q-81 22 -137 43t-111 55.5t-87.5 77.5t-52.5 107.5t-20 148.5t29.5 160.5t85 137.5t144 97.5t198.5 36.5q75 0 145.5 -16t120 -31.5t72.5 -15.5
q21 0 31 9t20 32h35l14 -414h-45q-33 89 -68 152.5t-83.5 116t-113.5 78.5t-147 26q-124 0 -197 -62.5t-73 -159.5q0 -46 18 -83t45 -62t75.5 -47.5t92 -36.5t111.5 -33q47 -12 75.5 -20.5t72.5 -23t72 -28t64.5 -35t59.5 -44t48 -54.5t39 -68t23 -82.5t9 -100.5
q0 -212 -131.5 -342.5t-354.5 -130.5q-85 0 -169.5 15t-142.5 30.5t-79 15.5q-19 0 -29 -13.5t-24 -47.5h-39l-20 477h45q31 -90 73 -162.5t99 -130.5t132 -89.5t163 -31.5z" />
    <glyph glyph-name="T" unicode="T" horiz-adv-x="1345" 
d="M1262 1434l20 -463h-51q-30 127 -61 203.5t-77 122t-101 61.5t-140 16h-27v-1315h187v-59h-678v59h186v1315h-28q-112 0 -179 -33.5t-114 -119.5t-84 -250h-54l21 463h1180z" />
    <glyph glyph-name="U" unicode="U" horiz-adv-x="1427" 
d="M819 59q164 0 258 101t94 297v917h-137v60h340v-60h-129v-899q0 -120 -25 -207.5t-82.5 -154t-158.5 -100t-246 -33.5q-127 0 -223 25t-170 81t-112 154t-38 237v897h-133v60h584v-60h-143v-936q0 -86 14 -150t48.5 -118t99.5 -82.5t159 -28.5z" />
    <glyph glyph-name="V" unicode="V" horiz-adv-x="1376" 
d="M807 356l367 1018h-173v60h369v-60h-117l-503 -1382h-113l-510 1382h-121v60h623v-60h-170z" />
    <glyph glyph-name="W" unicode="W" horiz-adv-x="2066" 
d="M784 367l240 655l-119 352h-131v60h602v-60h-155l338 -983l288 983h-202v60h417v-60h-137l-416 -1382h-116l-330 921l-334 -921h-113l-487 1382h-123v60h619v-60h-166z" />
    <glyph glyph-name="X" unicode="X" horiz-adv-x="1396" 
d="M1376 0h-643v59h162l-317 557l-334 -557h200v-59h-424v59h144l371 629l-404 686h-131v60h637v-60h-166l289 -508l309 508h-195v60h420v-60h-141l-350 -575l438 -740h135v-59z" />
    <glyph glyph-name="Y" unicode="Y" horiz-adv-x="1280" 
d="M754 758l303 616h-197v60h414v-60h-141l-338 -684v-631h149v-59h-606v59h149v611l-358 704h-123v60h615v-60h-158z" />
    <glyph glyph-name="Z" unicode="Z" horiz-adv-x="1269" 
d="M1135 1434v-58l-678 -1317h196q189 0 303 100.5t166 319.5h49l-24 -479h-1045v51l686 1323h-190q-65 0 -109 -4.5t-87 -19t-73.5 -39.5t-60.5 -67.5t-55 -101t-51 -141.5h-49l26 433h996z" />
    <glyph glyph-name="bracketleft" unicode="[" horiz-adv-x="641" 
d="M641 -262v-55h-487v1927h487v-56h-102q-76 0 -97.5 -18t-21.5 -88v-1602q0 -27 1.5 -44t7 -30t12 -19t22 -10t30.5 -4.5t44 -0.5h104z" />
    <glyph glyph-name="backslash" unicode="\" horiz-adv-x="718" 
d="M100 1628l605 -1827h-87l-602 1827h84z" />
    <glyph glyph-name="bracketright" unicode="]" horiz-adv-x="638" 
d="M0 -317v55h106q29 0 44 0.5t30.5 4.5t22 10t12 19t7 30t1.5 44v1602q0 70 -21.5 88t-97.5 18h-104v56h487v-1927h-487z" />
    <glyph glyph-name="asciicircum" unicode="^" horiz-adv-x="1112" 
d="M1008 614l-76 -30l-389 688l-359 -690l-78 32l388 746h100z" />
    <glyph glyph-name="underscore" unicode="_" horiz-adv-x="1024" 
d="M1024 -217h-1024v76h1024v-76z" />
    <glyph glyph-name="grave" unicode="`" horiz-adv-x="1024" 
d="M494 1503l145 -383l-31 -16l-235 248q-49 49 -49 96q0 33 20.5 52.5t56.5 19.5q19 0 31 -2z" />
    <glyph glyph-name="a" unicode="a" horiz-adv-x="1091" 
d="M512 489h92v150q0 171 -34 239t-126 68q-57 0 -93 -20.5t-36 -59.5q0 -16 7 -41h55q16 -43 16 -86q0 -63 -41 -100t-106 -37q-71 0 -107.5 40t-36.5 110q0 117 106.5 180t285.5 63q218 0 307.5 -84t89.5 -303v-403q0 -115 63 -115q34 0 53 40.5t29 156.5l47 -4
q-7 -167 -61.5 -235t-175.5 -68q-204 0 -234 145q-68 -145 -262 -145q-293 0 -293 243q0 77 31.5 130t93.5 82.5t141.5 41.5t188.5 12zM455 68q59 0 104 54.5t45 145.5v170h-47q-107 0 -154 -51.5t-47 -157.5q0 -89 23.5 -125t75.5 -36z" />
    <glyph glyph-name="b" unicode="b" horiz-adv-x="1189" 
d="M666 907q-91 0 -158.5 -80.5t-67.5 -208.5v-327q0 -103 54.5 -173.5t150.5 -70.5q100 0 139 99.5t39 345.5q0 231 -33 323t-124 92zM442 1536v-717q98 176 308 176q181 0 279.5 -127t98.5 -379q0 -509 -436 -509q-106 0 -174.5 33t-114.5 108l-129 -133h-118v1495h-138
v53h424z" />
    <glyph glyph-name="c" unicode="c" horiz-adv-x="980" 
d="M584 946q-121 0 -174.5 -104t-53.5 -355q0 -231 56 -330.5t188 -99.5q67 0 118.5 24t82.5 65.5t48.5 83.5t27.5 92l57 -9q-9 -47 -21 -84.5t-42.5 -86.5t-72 -82t-113.5 -56.5t-165 -23.5q-226 0 -347.5 127.5t-121.5 363.5q0 255 138.5 389.5t379.5 134.5
q172 0 265.5 -70t93.5 -190q0 -84 -40 -128t-108 -44t-109.5 39t-41.5 111q0 37 10 73h63q11 37 11 60q0 45 -33 72.5t-96 27.5z" />
    <glyph glyph-name="d" unicode="d" horiz-adv-x="1193" 
d="M537 70q82 0 146.5 67.5t64.5 181.5v371q0 90 -54.5 163t-140.5 73q-103 0 -144.5 -103t-41.5 -340q0 -232 35.5 -322.5t134.5 -90.5zM766 0l-18 147q-88 -167 -304 -167q-181 0 -282 126.5t-101 374.5q0 253 109 383.5t309 130.5q188 0 262 -121v609h-157v53h450v-1483
h133v-53h-401z" />
    <glyph glyph-name="e" unicode="e" horiz-adv-x="1021" 
d="M51 481q0 130 38.5 230t108 161t160 92t199.5 31q211 0 313 -118t93 -349h-607v-55q0 -213 58 -316.5t207 -103.5q223 0 288 246l56 -8q-16 -69 -45 -122t-77 -97.5t-124 -68t-176 -23.5q-245 0 -368.5 134.5t-123.5 366.5zM356 584h324q3 203 -26.5 282.5t-118.5 79.5
t-132 -83t-47 -279z" />
    <glyph glyph-name="f" unicode="f" horiz-adv-x="727" 
d="M608 1534q-38 0 -65.5 -13t-44 -34t-26 -55.5t-12.5 -70t-3 -85.5v-301h262v-53h-262v-869h250v-53h-670v53h133v869h-139v53h139v63q0 264 103 404.5t333 140.5q144 0 220.5 -64t76.5 -159q0 -76 -39.5 -117t-105.5 -41q-67 0 -103.5 34t-36.5 93q0 39 13 80h65
q9 30 9 51q0 36 -26 55t-71 19z" />
    <glyph glyph-name="g" unicode="g" horiz-adv-x="1044" 
d="M893 662q0 -164 -105.5 -257.5t-285.5 -93.5q-63 0 -154 17q-108 -72 -108 -105q0 -16 21.5 -23t80.5 -7h244q77 0 137 -7.5t118.5 -28t97 -55t62 -92.5t23.5 -135q0 -86 -31 -155t-96 -122t-176.5 -81.5t-263.5 -28.5q-234 0 -349.5 59.5t-115.5 169.5q0 125 153 164
l91 -49q-21 -51 -21 -108q0 -81 65.5 -132t217.5 -51q174 0 268 64t94 170q0 87 -60.5 122t-217.5 35h-232q-136 0 -197 46t-61 118q0 66 45 118.5t154 129.5q-203 71 -203 305q0 71 25 132.5t74 110t130.5 76t186.5 27.5q118 0 205 -47q-5 80 16.5 147t75 111.5t131.5 44.5
q67 0 110 -38.5t43 -102.5q0 -48 -31.5 -83.5t-80.5 -35.5q-38 0 -67.5 19.5t-39.5 44.5l49 57q-6 51 -57 51q-40 0 -68 -47.5t-28 -144.5q0 -35 2 -53q129 -94 129 -256zM358 649q0 -112 16.5 -175t45 -85t76.5 -22q34 0 56.5 11t40 41.5t26 87t8.5 144.5q0 118 -15 183.5
t-41.5 88.5t-72.5 23q-47 0 -75.5 -22t-46.5 -89t-18 -186z" />
    <glyph glyph-name="h" unicode="h" horiz-adv-x="1257" 
d="M35 1536h422v-743q87 202 331 202q312 0 312 -342v-600h135v-53h-543v53h119v631q0 126 -26 173.5t-89 47.5q-98 0 -168.5 -90t-70.5 -221v-541h121v-53h-543v53h133v1430h-133v53z" />
    <glyph glyph-name="i" unicode="i" horiz-adv-x="626" 
d="M135 1309q0 66 42.5 110.5t125.5 44.5q76 0 119 -39t43 -116q0 -71 -41.5 -114.5t-122.5 -43.5q-62 0 -101 25t-52 58.5t-13 74.5zM35 975h426v-922h135v-53h-557v53h133v869h-137v53z" />
    <glyph glyph-name="j" unicode="j" horiz-adv-x="608" 
d="M457 975v-850q0 -139 -23.5 -251.5t-72.5 -200.5t-133.5 -136.5t-198.5 -48.5q-72 0 -123.5 18.5t-78.5 50t-38.5 65.5t-11.5 73q0 77 44.5 120.5t110.5 43.5q62 0 95.5 -35t33.5 -96q0 -40 -12 -80h-59q-15 -34 -15 -51q0 -58 72 -58q78 0 100.5 72t22.5 274v1037h-166
v53h453zM117 1307q0 68 42 112.5t126 44.5q76 0 118.5 -39t42.5 -116q0 -71 -41 -114.5t-124 -43.5q-87 0 -125.5 46t-38.5 110z" />
    <glyph glyph-name="k" unicode="k" horiz-adv-x="1212" 
d="M678 0v53h117l-269 455l-69 -14v-441h114v-53h-536v53h133v1430h-137v53h426v-983l53 14l405 355h-170v53h410v-53h-145l-273 -242l375 -627h90v-53h-524z" />
    <glyph glyph-name="l" unicode="l" horiz-adv-x="626" 
d="M33 1536h424v-1483h135v-53h-555v53h133v1430h-137v53z" />
    <glyph glyph-name="m" unicode="m" horiz-adv-x="1830" 
d="M35 975h422v-184q17 42 39 74t57.5 63.5t89.5 49t123 17.5q238 0 287 -221q91 221 323 221q297 0 297 -342v-600h135v-53h-536v53h112v643q0 121 -23 164t-83 43q-88 0 -150.5 -86.5t-62.5 -218.5v-545h115v-53h-516v53h112v639q0 123 -23 167t-81 44q-89 0 -152 -90.5
t-63 -222.5v-537h114v-53h-536v53h133v869h-133v53z" />
    <glyph glyph-name="n" unicode="n" horiz-adv-x="1257" 
d="M35 975h422v-184q90 204 334 204q309 0 309 -342v-600h135v-53h-543v53h119v631q0 121 -26.5 168t-92.5 47q-94 0 -164.5 -91t-70.5 -222v-533h121v-53h-543v53h133v869h-133v53z" />
    <glyph glyph-name="o" unicode="o" horiz-adv-x="1093" 
d="M737 496q0 89 -4 153.5t-16 123.5t-32.5 95t-53.5 57t-80 21q-50 0 -85 -21t-56.5 -56.5t-33.5 -95.5t-16 -124.5t-4 -156.5t4.5 -158.5t16.5 -127t33.5 -97.5t56.5 -58.5t84 -21.5q39 0 68.5 12t50 39t33.5 62.5t20.5 91t10.5 116.5t3 146zM51 483q0 246 133.5 379
t370.5 133q487 0 487 -497q0 -249 -126 -383.5t-369 -134.5q-241 0 -368.5 131t-127.5 372z" />
    <glyph glyph-name="p" unicode="p" horiz-adv-x="1196" 
d="M666 907q-84 0 -150.5 -81.5t-66.5 -207.5v-327q0 -97 55 -170.5t149 -73.5q103 0 140.5 97t37.5 343q0 237 -34 328.5t-131 91.5zM449 975v-156q98 176 307 176q181 0 280 -126.5t99 -376.5q0 -255 -107.5 -383.5t-312.5 -128.5q-188 0 -264 116v-530h264v-53h-697v53
h146v1356h-137v53h422z" />
    <glyph glyph-name="q" unicode="q" horiz-adv-x="1193" 
d="M526 68q91 0 156.5 79.5t65.5 196.5v330q0 108 -57 181t-144 73q-96 0 -138 -98t-42 -338t34 -332t125 -92zM743 -434v586q-44 -84 -116 -128t-187 -44q-181 0 -280 127.5t-99 377.5q0 253 110.5 381.5t317.5 128.5q196 0 267 -139l6 119h397v-53h-125v-1356h117v-53
h-621v53h213z" />
    <glyph glyph-name="r" unicode="r" horiz-adv-x="946" 
d="M664 911q-83 0 -145 -106.5t-62 -245.5v-506h182v-53h-604v53h133v869h-133v53h422v-191q31 105 100 158t162 53q95 0 153 -57t58 -156q0 -85 -40 -129.5t-108 -44.5q-65 0 -104 38t-39 114q0 29 6 59h64q10 23 10 45q0 47 -55 47z" />
    <glyph glyph-name="s" unicode="s" horiz-adv-x="892" 
d="M82 -20v354h47q61 -289 342 -289q113 0 167 40t54 110q0 50 -35 83t-71.5 45t-125.5 33q-5 2 -8 2.5t-7.5 1.5t-8.5 2q-43 10 -71 17t-68.5 21t-66.5 28.5t-55 38t-46 51t-28 66t-11 84.5q0 144 96.5 235.5t253.5 91.5q102 0 205 -47q36 -16 57 -16q18 0 26.5 15t14.5 52
h41v-309h-45q-80 248 -295 248q-95 0 -147.5 -34.5t-52.5 -96.5q0 -78 91 -117q40 -17 165 -45q43 -10 70.5 -18t67.5 -22.5t65.5 -30.5t54.5 -41t45.5 -55t27.5 -72.5t11 -92.5q0 -156 -98.5 -244.5t-272.5 -88.5q-138 0 -258 63q-24 16 -35 16q-18 0 -29 -16t-24 -63h-43z
" />
    <glyph glyph-name="t" unicode="t" horiz-adv-x="796" 
d="M147 258v664h-133v53h133v264l291 74v-338h275v-53h-275v-672q0 -93 24 -134.5t89 -41.5q144 0 172 219l47 -6q-6 -52 -17 -94t-34.5 -83t-57 -68.5t-86 -44.5t-120.5 -17q-71 0 -124 13t-96 43.5t-65.5 86t-22.5 135.5z" />
    <glyph glyph-name="u" unicode="u" horiz-adv-x="1239" 
d="M1208 0h-401l-16 166q-85 -186 -318 -186q-313 0 -313 342v600h-135v53h424v-684q0 -124 25.5 -172.5t96.5 -48.5q87 0 150 82t63 198v572h-125v53h414v-922h135v-53z" />
    <glyph glyph-name="v" unicode="v" horiz-adv-x="1052" 
d="M0 922v53h547v-53h-146l248 -662l232 662h-140v53h312v-53h-95l-333 -928h-150l-383 928h-92z" />
    <glyph glyph-name="w" unicode="w" horiz-adv-x="1607" 
d="M647 922v53h481v-53h-104l225 -666l197 666h-148v53h310v-53h-97l-282 -928h-162l-233 655l-244 -655h-156l-338 928h-96v53h520v-53h-117l218 -674l178 491l-60 183h-92z" />
    <glyph glyph-name="x" unicode="x" horiz-adv-x="1150" 
d="M643 604l250 318h-143v53h325v-53h-102l-291 -371l346 -498h123v-53h-600v53h147l-229 340l-262 -340h151v-53h-344v53h113l301 400l-322 469h-112v53h588v-53h-148z" />
    <glyph glyph-name="y" unicode="y" horiz-adv-x="1062" 
d="M8 922v53h533v-53h-138l242 -676l242 676h-142v53h318v-53h-100l-402 -1088q-75 -201 -142.5 -273.5t-187.5 -72.5q-110 0 -169.5 55t-59.5 138q0 75 39.5 117t103.5 42q63 0 99.5 -30t36.5 -91q0 -26 -13 -73h-67q-13 -26 -13 -47q0 -24 19 -38t55 -14q77 0 128 76
t112 250l43 127h-82l-365 922h-90z" />
    <glyph glyph-name="z" unicode="z" horiz-adv-x="1003" 
d="M930 975v-51l-533 -871h158q78 0 132 17.5t93.5 59.5t66 99.5t52.5 149.5h41l-27 -379h-839v45l542 877h-143q-70 0 -113 -6.5t-80 -22.5t-62 -51t-47 -85t-46 -132h-41l22 350h824z" />
    <glyph glyph-name="braceleft" unicode="{" horiz-adv-x="722" 
d="M76 690q38 1 68 10t60 32t47 71.5t17 120.5q0 82 -29.5 228t-29.5 200q0 260 311 260q89 0 158 -25l-14 -45q-44 14 -86 14q-47 0 -75 -25.5t-28 -100.5q0 -61 28.5 -239.5t28.5 -248.5q0 -72 -18.5 -121.5t-58 -79t-87.5 -45t-120 -24.5v-2q69 -11 117 -27.5t88 -47.5
t59.5 -81t19.5 -121q0 -67 -28.5 -261t-28.5 -249q0 -75 31.5 -104t85.5 -29q46 0 90 19l16 -45q-75 -31 -155 -31q-167 0 -250.5 70.5t-83.5 201.5q0 47 29.5 208.5t29.5 240.5q0 229 -192 233v43z" />
    <glyph glyph-name="bar" unicode="|" horiz-adv-x="686" 
d="M287 -260v1888h80v-1888h-80z" />
    <glyph glyph-name="braceright" unicode="}" horiz-adv-x="722" 
d="M645 688v-43q-192 -4 -192 -233q0 -79 29.5 -240.5t29.5 -208.5q0 -131 -83.5 -201.5t-250.5 -70.5q-80 0 -153 30l14 46q47 -19 90 -19q55 0 87 29t32 104q0 55 -29 249t-29 261q0 71 19.5 121t59.5 81t88 47.5t118 27.5v2q-72 9 -120 24.5t-87.5 45t-58.5 79t-19 121.5
q0 70 29 248t29 239q0 75 -29 101t-76 26q-42 0 -86 -14l-12 45q69 25 156 25q311 0 311 -260q0 -54 -29.5 -200t-29.5 -228q0 -72 17 -120.5t47 -71.5t60 -32t68 -10z" />
    <glyph glyph-name="asciitilde" unicode="~" horiz-adv-x="1019" 
d="M737 547q-92 0 -276 47q-144 37 -209 37q-88 0 -133 -90l-35 12q15 57 33 100.5t45 82t65.5 59t87.5 20.5q76 0 244 -41q164 -41 238 -41q42 0 69 19t54 71l36 -10q-43 -151 -93 -208.5t-126 -57.5z" />
    <glyph glyph-name="uni00A0" unicode="&#xa0;" horiz-adv-x="409" 
 />
    <glyph glyph-name="exclamdown" unicode="&#xa1;" horiz-adv-x="772" 
d="M354 424v186h64v-184q0 -125 18 -247.5t39 -201.5t39 -164.5t18 -144.5q0 -76 -36.5 -112.5t-98.5 -36.5q-64 0 -104.5 37.5t-40.5 111.5q0 54 16 139t35 166t35 204.5t16 246.5zM242 854q0 59 34.5 100t108.5 41q68 0 104.5 -39.5t36.5 -105.5q0 -69 -38.5 -104
t-104.5 -35t-103.5 41t-37.5 102z" />
    <glyph glyph-name="cent" unicode="&#xa2;" horiz-adv-x="1013" 
d="M319 -41l56 229q-138 39 -211.5 146t-73.5 276q0 227 132 349t358 122h10l53 219l62 -14l-52 -211q127 -15 196 -79.5t69 -161.5q0 -77 -36 -117.5t-98 -40.5q-63 0 -96 36.5t-33 100.5q0 29 9 64h59q8 27 8 55q0 36 -24 60.5t-66 33.5l-176 -733q51 -43 143 -43
q58 0 104 20t75 55.5t46.5 70.5t30.5 79l58 -12q-12 -46 -25 -79.5t-43 -76.5t-69 -70.5t-105 -47t-150 -19.5q-48 0 -94 6l-55 -233zM377 633q0 -186 39 -271l162 668q-104 -6 -152.5 -96.5t-48.5 -300.5z" />
    <glyph glyph-name="sterling" unicode="&#xa3;" horiz-adv-x="1202" 
d="M74 604v64h182q-26 57 -36.5 81.5t-29.5 76.5t-26.5 98.5t-7.5 97.5q0 203 135.5 318.5t361.5 115.5q198 0 302 -81.5t104 -211.5q0 -79 -42.5 -126.5t-117.5 -47.5q-67 0 -110.5 37.5t-43.5 101.5q0 36 13 80h67q11 33 11 52q0 55 -41 95t-121 40q-119 0 -162 -81.5
t-43 -256.5v-389h393v-64h-393v-86q0 -93 -33.5 -164t-107.5 -153l4 -6q145 92 243 92q51 0 110 -21t102.5 -45.5t88.5 -45.5t72 -21q47 0 69.5 40t31.5 148l55 -2q-6 -181 -73 -280t-175 -99q-57 0 -103 12.5t-108 42.5l-311 140q-21 -93 -67 -136t-107 -43
q-45 0 -68.5 23.5t-23.5 56.5q0 57 57.5 101.5t146.5 50.5q50 95 50 215q0 78 -41 180h-207z" />
    <glyph glyph-name="currency" unicode="&#xa4;" horiz-adv-x="1085" 
d="M203 696q0 108 59 197l-158 182l39 37l185 -145q92 63 213 63q124 0 200 -61l185 141l35 -33l-154 -174q57 -85 57 -201q0 -110 -61 -204l153 -201l-36 -35l-193 158q-75 -60 -192 -60q-123 0 -203 56l-182 -152l-37 37l147 182q-57 83 -57 213zM283 696
q0 -122 60.5 -197t193.5 -75q118 0 182.5 77.5t64.5 194.5q0 124 -63 199.5t-189 75.5q-123 0 -186 -78.5t-63 -196.5z" />
    <glyph glyph-name="yen" unicode="&#xa5;" horiz-adv-x="1247" 
d="M733 811l289 569h-191v54h408v-54h-139l-303 -602h268v-63h-289v-148h289v-63h-289v-445h150v-59h-607v59h150v445h-283v63h283v148h-283v63h252l-313 602h-121v54h608v-54h-153z" />
    <glyph glyph-name="brokenbar" unicode="&#xa6;" horiz-adv-x="686" 
d="M285 844v784h80v-784h-80zM285 -260v895h80v-895h-80z" />
    <glyph glyph-name="section" unicode="&#xa7;" horiz-adv-x="1329" 
d="M123 852q0 142 50 258.5t134 191t192.5 114.5t227.5 40q174 0 280.5 -68t106.5 -196q0 -69 -41 -116.5t-115 -47.5q-67 0 -110 37.5t-43 99.5q0 33 12 68l70 16q8 24 8 60q0 102 -164 102q-146 0 -218.5 -94t-92.5 -266q766 -152 766 -695q0 -145 -50 -264t-134 -194.5
t-192.5 -116.5t-227.5 -41q-174 0 -280.5 68t-106.5 196q0 68 42.5 117t116.5 49q66 0 108 -38t42 -101q0 -38 -12 -68l-70 -16q-10 -25 -10 -62q0 -100 166 -100q77 0 133.5 27t93 79.5t57 120.5t29.5 158q-111 21 -205 49.5t-183 69t-156.5 94.5t-118.5 121.5t-78 155.5
t-27 192zM899 334q0 270 -116 430t-367 237q-4 -39 -4 -122q0 -264 116 -424t367 -236q4 74 4 115z" />
    <glyph glyph-name="dieresis" unicode="&#xa8;" horiz-adv-x="1024" 
d="M598 1290q0 55 35 92t96 37q60 0 96.5 -32t36.5 -97q0 -60 -34.5 -96.5t-96.5 -36.5q-69 0 -101 39t-32 94zM201 1290q0 55 34.5 92t96.5 37q60 0 96.5 -32t36.5 -97q0 -60 -34 -96.5t-97 -36.5q-68 0 -100.5 39.5t-32.5 93.5z" />
    <glyph glyph-name="copyright" unicode="&#xa9;" horiz-adv-x="1599" 
d="M1477 655q0 -207 -86 -361.5t-239 -235.5t-353 -81q-165 0 -294.5 48.5t-212.5 135.5t-126 205t-43 261q0 155 53 283.5t145.5 214t216.5 132t265 46.5q312 0 493 -176t181 -472zM840 1016q-65 0 -103 -32t-58 -112.5t-20 -220.5q0 -196 42.5 -280t140.5 -84q76 0 134 61
t87 158h24l-8 -244h-20q-1 3 -4 8.5t-5 8.5t-5 7t-6.5 5.5t-8.5 1.5q-1 0 -73 -21.5t-134 -21.5q-178 0 -284.5 99.5t-106.5 301.5q0 189 112.5 295.5t286.5 106.5q54 0 121.5 -20.5t71.5 -20.5q5 0 8.5 1.5t6.5 5.5t5 6.5t5 8.5l4 8h18l6 -243h-28q-28 100 -84.5 158.5
t-124.5 58.5zM1405 643q0 190 -78.5 327t-213 205t-310.5 68q-129 0 -239.5 -42t-191.5 -119.5t-127 -194t-46 -258.5q0 -276 159.5 -433t440.5 -157q279 0 442.5 162.5t163.5 441.5z" />
    <glyph glyph-name="ordfeminine" unicode="&#xaa;" horiz-adv-x="882" 
d="M397 975h84v96q0 50 -4 82.5t-16.5 63t-38 45t-64.5 14.5q-58 0 -77.5 -20t-6.5 -58h41q13 -39 13 -61q0 -45 -32.5 -73t-80.5 -28q-54 0 -82.5 30t-28.5 79q0 86 80.5 132t216.5 46q164 0 236 -60t72 -214v-285q0 -43 11.5 -58.5t35.5 -15.5q25 0 37.5 27t19.5 102
q6 0 19.5 -1t19.5 -1q-4 -119 -49 -167t-135 -48q-155 0 -176 103q-51 -103 -203 -103q-44 0 -81 8.5t-70 27t-51.5 54t-18.5 84.5q0 106 83.5 152.5t245.5 46.5zM373 674q44 0 76 36.5t32 100.5v117h-32q-82 0 -114 -34.5t-32 -111.5q0 -61 16 -84.5t54 -23.5z" />
    <glyph glyph-name="guillemotleft" unicode="&#xab;" horiz-adv-x="995" 
d="M117 530l354 293l31 -20l-203 -330l199 -354l-29 -21l-317 275q-31 27 -44.5 45.5t-13.5 40.5q0 34 23 71zM477 530l354 293l31 -20l-203 -330l199 -354l-29 -21l-317 275q-31 26 -44 45t-13 41q0 36 22 71z" />
    <glyph glyph-name="logicalnot" unicode="&#xac;" horiz-adv-x="1228" 
d="M1001 336v274h-851v74h929v-348h-78z" />
    <glyph glyph-name="uni00AD" unicode="&#xad;" horiz-adv-x="688" 
d="M94 512v119h498v-119h-498z" />
    <glyph glyph-name="registered" unicode="&#xae;" horiz-adv-x="940" 
d="M858 983q0 -171 -108.5 -278t-280.5 -107q-186 0 -286.5 103t-100.5 268q0 175 111.5 281t277.5 106q178 0 282.5 -101.5t104.5 -271.5zM457 987h-17v-172h37v-22h-192v22h45v348h-45v23h180q81 0 122.5 -18.5t41.5 -73.5q0 -48 -32.5 -70t-94.5 -27v-2q69 -4 95 -25
t26 -71v-45q0 -17 4 -25t18 -8q24 0 33 64l22 -2q-5 -48 -24.5 -72.5t-71.5 -24.5q-90 0 -90 72v64q0 33 -12.5 49t-44.5 16zM440 1163v-155h6q45 0 62.5 20t17.5 62q0 40 -15.5 56.5t-59.5 16.5h-11zM797 977q0 153 -92 240.5t-234 87.5q-145 0 -235.5 -90.5t-90.5 -243.5
q0 -149 85.5 -234.5t240.5 -85.5q149 0 237.5 88.5t88.5 237.5z" />
    <glyph glyph-name="macron" unicode="&#xaf;" horiz-adv-x="1024" 
d="M233 1210v138h558v-138h-558z" />
    <glyph glyph-name="degree" unicode="&#xb0;" horiz-adv-x="569" 
d="M150 1290q0 -68 34 -107.5t103 -39.5q64 0 98.5 40t34.5 107q0 69 -35.5 107.5t-101.5 38.5q-64 0 -98.5 -40t-34.5 -106zM70 1290q0 88 58 147.5t161 59.5q101 0 156 -55t55 -148q0 -92 -57 -152.5t-158 -60.5q-106 0 -160.5 57.5t-54.5 151.5z" />
    <glyph glyph-name="plusminus" unicode="&#xb1;" 
d="M1028 612h-432v-383h-82v383h-416v74h416v358h82v-358h432v-74zM1028 0h-930v74h930v-74z" />
    <glyph glyph-name="twosuperior" unicode="&#xb2;" horiz-adv-x="708" 
d="M47 807v141l139 119q130 111 185 202t55 210q0 80 -27.5 112.5t-99.5 32.5q-102 0 -102 -57q0 -15 8 -43h41q10 -23 10 -54q0 -44 -28.5 -70t-75.5 -26q-55 0 -84 33t-29 82q0 84 77.5 138t229.5 54q144 0 221.5 -54.5t77.5 -162.5q0 -67 -39 -127t-134 -139t-296 -221
h266q84 0 118.5 36t51.5 115h50l-11 -321h-604z" />
    <glyph glyph-name="threesuperior" unicode="&#xb3;" horiz-adv-x="718" 
d="M344 1681q143 0 216 -51t73 -141q0 -84 -61.5 -137.5t-174.5 -77.5q139 -13 210 -71.5t71 -151.5q0 -115 -101 -185.5t-262 -70.5q-54 0 -101.5 9t-91.5 28.5t-69.5 57.5t-25.5 91q0 54 27.5 86.5t82.5 32.5q47 0 74 -25t27 -67q0 -28 -11 -54h-39q-10 -13 -10 -34
q0 -30 29 -48t84 -18q83 0 119 46t36 138q0 89 -28.5 134.5t-81.5 72.5q-63 -12 -119 -16l-6 55q56 7 90.5 16.5t62.5 29.5t40 54.5t12 88.5q0 79 -27.5 115t-91.5 36q-47 0 -73.5 -17.5t-26.5 -43.5q0 -21 8 -41h39q8 -16 8 -47q0 -42 -28 -66.5t-74 -24.5q-50 0 -76.5 29
t-26.5 80q0 84 75.5 136t221.5 52z" />
    <glyph glyph-name="acute" unicode="&#xb4;" horiz-adv-x="1024" 
d="M346 1120l146 383l63 15q10 2 31 2q35 0 55.5 -19.5t20.5 -52.5q0 -41 -52 -96l-233 -250z" />
    <glyph glyph-name="mu" unicode="&#xb5;" horiz-adv-x="1325" 
d="M485 1012v-650q0 -59 4.5 -100.5t16.5 -78t36 -54.5t60 -18q76 0 132.5 76.5t56.5 220.5v585l307 19v-817q0 -54 15 -75.5t46 -21.5q24 0 40 13.5t28.5 57t17.5 120.5q8 0 23.5 -1t23.5 -1q-7 -169 -67 -238t-181 -69q-114 0 -177.5 55t-75.5 153q-34 -96 -106 -153.5
t-159 -57.5q-76 0 -136 35.5t-105 134.5l-9 -6q25 -74 71 -198t70 -196.5t27 -106.5q4 -47 -36.5 -74t-88.5 -17l-155 33v1411z" />
    <glyph glyph-name="paragraph" unicode="&#xb6;" horiz-adv-x="1378" 
d="M776 -74v518h-35q-255 0 -404 125t-149 369q0 233 154.5 364.5t425.5 131.5h465v-54h-129v-1312q0 -256 -120 -371t-386 -115q-93 0 -162.5 23.5t-107.5 62.5t-56 82.5t-18 91.5q0 90 51 140.5t125 50.5q70 0 110 -39t40 -109q0 -38 -17 -94h-71q-21 -37 -21 -70
q0 -38 34 -63t95 -25q93 0 134.5 66.5t41.5 226.5zM844 -96q0 -187 -70 -250q65 15 113 45.5t76.5 68.5t45.5 91.5t23 106.5t6 120v1294h-194v-1476z" />
    <glyph glyph-name="periodcentered" unicode="&#xb7;" horiz-adv-x="577" 
d="M133 655q0 71 42.5 117.5t119.5 46.5q76 0 121 -40t45 -120q0 -75 -42.5 -120t-119.5 -45q-86 0 -126 47.5t-40 113.5z" />
    <glyph glyph-name="cedilla" unicode="&#xb8;" horiz-adv-x="1024" 
d="M500 27h57l-82 -140q49 7 57 7q88 0 136.5 -47t48.5 -123q0 -80 -61.5 -138.5t-180.5 -58.5q-82 0 -132 35.5t-50 89.5q0 36 18.5 55t48.5 19q58 0 78 -62l-45 -37q0 -27 18.5 -46t55.5 -19q42 0 64 31.5t22 111.5q0 76 -17 110.5t-65 34.5q-28 0 -61 -8l-7 21z" />
    <glyph glyph-name="onesuperior" unicode="&#xb9;" horiz-adv-x="573" 
d="M182 1606l-141 -17l-8 53l291 39h90v-821h104v-53h-473v53h137v746z" />
    <glyph glyph-name="ordmasculine" unicode="&#xba;" horiz-adv-x="899" 
d="M586 969q0 64 -2.5 107.5t-10.5 84t-22.5 64t-38.5 37.5t-59 14q-86 0 -113 -71.5t-27 -239.5q0 -82 5 -135t19.5 -96.5t43 -63t72.5 -19.5q82 0 107.5 68.5t25.5 249.5zM72 961q0 174 102.5 268t282.5 94t275 -87.5t95 -266.5q0 -175 -97 -271t-281 -96q-181 0 -279 94
t-98 265z" />
    <glyph glyph-name="guillemotright" unicode="&#xbb;" horiz-adv-x="995" 
d="M518 391l-354 -293l-27 21l201 330l-199 352l27 22l317 -274q31 -27 44.5 -45.5t13.5 -40.5q0 -35 -23 -72zM879 391l-355 -293l-26 21l200 330l-198 352l26 22l318 -274q31 -26 44 -45t13 -41q0 -37 -22 -72z" />
    <glyph glyph-name="onequarter" unicode="&#xbc;" horiz-adv-x="1740" 
d="M260 1360l-141 -17l-8 54l290 39h91v-822h104v-53h-473v53h137v746zM403 0l863 1434h82l-861 -1434h-84zM1141 0v53h123v156h-353v49l357 602h223v-592h108v78h56v-217h-56v80h-108v-156h88v-53h-438zM983 268h281v473z" />
    <glyph glyph-name="onehalf" unicode="&#xbd;" horiz-adv-x="1740" 
d="M250 1360l-141 -17l-9 54l291 39h90v-822h105v-53h-473v53h137v746zM387 0l862 1434h82l-860 -1434h-84zM1055 0v141l139 119q130 111 185 202t55 210q0 80 -27.5 112.5t-99.5 32.5q-103 0 -103 -57q0 -15 8 -43h41q11 -26 11 -53q0 -44 -29 -70.5t-76 -26.5
q-55 0 -83.5 33t-28.5 82q0 84 77.5 138t229.5 54q144 0 221.5 -54.5t77.5 -162.5q0 -67 -39 -127t-134 -139t-296 -221h266q44 0 74.5 10t49 31.5t28.5 46.5t18 64h49l-10 -322h-604z" />
    <glyph glyph-name="threequarters" unicode="&#xbe;" horiz-adv-x="1740" 
d="M379 1436q143 0 216 -51.5t73 -141.5q0 -84 -61.5 -137.5t-174.5 -77.5q139 -13 210 -71.5t71 -151.5q0 -115 -101 -185.5t-262 -70.5q-43 0 -81.5 5t-77.5 18t-67 33.5t-45.5 54t-17.5 75.5q0 54 28 86.5t83 32.5q47 0 73.5 -25t26.5 -67q0 -30 -10 -53h-39
q-10 -13 -10 -35q0 -30 29 -48t84 -18q83 0 119 46.5t36 138.5q0 89 -28.5 134t-81.5 72q-63 -12 -119 -16l-6 55q56 7 90.5 16.5t62.5 29.5t40 54.5t12 88.5q0 79 -27.5 115t-91.5 36q-48 0 -74.5 -17.5t-26.5 -43.5q0 -18 9 -41h39q8 -16 8 -47q0 -42 -28 -66t-75 -24
q-50 0 -76 28.5t-26 79.5q0 84 75.5 136.5t221.5 52.5zM457 0l862 1434h82l-860 -1434h-84zM1188 0v53h123v156h-353v49l357 602h223v-592h109v78h55v-217h-55v80h-109v-156h88v-53h-438zM1030 268h281v473z" />
    <glyph glyph-name="questiondown" unicode="&#xbf;" horiz-adv-x="1122" 
d="M582 -481q-202 0 -316 90t-114 244q0 164 170 317l294 272v179h52v-422q0 -35 -23 -58l-139 -145q-60 -60 -82.5 -110.5t-22.5 -121.5q0 -94 57.5 -145t155.5 -51q90 0 136.5 36.5t46.5 90.5q0 21 -9 45h-53q-16 43 -16 86q0 63 41 101t106 38q71 0 108.5 -45.5
t37.5 -116.5q0 -122 -116 -203t-314 -81zM786 854q0 -61 -38 -102t-103 -41t-105 35t-40 104q0 66 37.5 105.5t103.5 39.5q77 0 111 -40.5t34 -100.5z" />
    <glyph glyph-name="Agrave" unicode="&#xc0;" horiz-adv-x="1392" 
d="M930 59l-142 418h-432l-149 -418h162v-59h-363v59h121l514 1377h115l506 -1377h122v-59h-612v59h158zM580 1083l-203 -546h393zM596 1837l278 -309l-24 -27l-311 152q-82 34 -82 96q0 61 80 78z" />
    <glyph glyph-name="Aacute" unicode="&#xc1;" horiz-adv-x="1392" 
d="M930 59l-142 418h-432l-149 -418h162v-59h-363v59h121l514 1377h115l506 -1377h122v-59h-612v59h158zM580 1083l-203 -546h393zM528 1528l279 309l59 -10q80 -17 80 -78q0 -62 -82 -96l-311 -152z" />
    <glyph glyph-name="Acircumflex" unicode="&#xc2;" horiz-adv-x="1392" 
d="M930 59l-142 418h-432l-149 -418h162v-59h-363v59h121l514 1377h115l506 -1377h122v-59h-612v59h158zM580 1083l-203 -546h393zM379 1526l250 278q42 25 84 25q31 0 54.5 -17.5t53.5 -54.5l189 -231l-25 -27l-287 164l-297 -166z" />
    <glyph glyph-name="Atilde" unicode="&#xc3;" horiz-adv-x="1392" 
d="M930 59l-142 418h-432l-149 -418h162v-59h-363v59h121l514 1377h115l506 -1377h122v-59h-612v59h158zM580 1083l-203 -546h393zM838 1571q-77 0 -189 49q-83 33 -123 33q-72 0 -108 -86l-39 12q34 120 84 180t141 60q13 0 25 -1t26 -4.5t23.5 -6t25.5 -8.5t23 -9t26 -11
t25 -10q82 -32 119 -32q39 0 65.5 18t45.5 70l41 -10q-33 -129 -85.5 -186.5t-125.5 -57.5z" />
    <glyph glyph-name="Adieresis" unicode="&#xc4;" horiz-adv-x="1392" 
d="M930 59l-142 418h-432l-149 -418h162v-59h-363v59h121l514 1377h115l506 -1377h122v-59h-612v59h158zM580 1083l-203 -546h393zM770 1669q0 54 35.5 91.5t95.5 37.5t96.5 -32t36.5 -97q0 -60 -34.5 -96.5t-96.5 -36.5q-69 0 -101 38.5t-32 94.5zM367 1669q0 54 34.5 91.5
t96.5 37.5q60 0 96.5 -32t36.5 -97q0 -60 -34.5 -96.5t-96.5 -36.5q-69 0 -101 38.5t-32 94.5z" />
    <glyph glyph-name="Aring" unicode="&#xc5;" horiz-adv-x="1392" 
d="M930 59l-142 418h-432l-149 -418h162v-59h-363v59h121l514 1377h115l506 -1377h122v-59h-612v59h158zM580 1083l-203 -546h393zM588 1661q0 -50 27.5 -83.5t84.5 -33.5q53 0 81 33.5t28 83.5q0 49 -29.5 83t-83.5 34q-51 0 -79.5 -34.5t-28.5 -82.5zM512 1661
q0 76 49 126t141 50q88 0 135.5 -47t47.5 -125q0 -82 -49 -132t-138 -50q-94 0 -140 48t-46 130z" />
    <glyph glyph-name="AE" unicode="&#xc6;" horiz-adv-x="1966" 
d="M635 1434h1171l21 -396h-49q-26 105 -61.5 171t-90 102.5t-119.5 49.5t-164 13h-137v-631h62q125 0 182.5 57t85.5 208h47v-607h-51q-31 162 -83.5 219.5t-174.5 57.5h-68v-619h148q206 0 318 93t151 284h45l-17 -436h-1093v59h141v619h-385l-317 -619h161v-59h-352v59
h111l674 1315h-156v60zM899 1374h-31l-321 -631h352v631z" />
    <glyph glyph-name="Ccedilla" unicode="&#xc7;" horiz-adv-x="1372" 
d="M786 1393q-94 0 -162 -35.5t-117 -114t-73 -208.5t-24 -314q0 -678 387 -678q285 0 415 406h43l-14 -447h-31q-15 41 -51 41q-23 0 -78 -15t-136 -30.5t-163 -17.5l-53 -93q49 7 57 7q88 0 136.5 -47t48.5 -123q0 -80 -61.5 -138.5t-180.5 -58.5q-82 0 -132 35.5
t-50 89.5q0 36 18.5 55t48.5 19q58 0 78 -62l-45 -37q0 -27 18.5 -46t55.5 -19q42 0 64 31.5t22 111.5q0 76 -17 110.5t-65 34.5q-28 0 -61 -8l-7 21l68 117q-306 11 -473.5 190.5t-167.5 538.5q0 180 51 322.5t143 235t217 141t275 48.5q82 0 160 -16t133 -31.5t80 -15.5
q22 0 31.5 9t17.5 32h31l16 -435h-45q-62 195 -161.5 294.5t-246.5 99.5z" />
    <glyph glyph-name="Egrave" unicode="&#xc8;" horiz-adv-x="1269" 
d="M63 1434h1047l20 -396h-47q-27 105 -62.5 171t-90 102.5t-119 49.5t-164.5 13h-135v-612h88q108 0 162.5 61t79.5 201h45v-606h-49q-31 161 -84.5 219.5t-173.5 58.5h-68v-637h145q206 0 318 93t153 284h43l-14 -436h-1094v59h142v1315h-142v60zM535 1837l278 -309
l-25 -27l-311 152q-82 34 -82 96q0 61 80 78z" />
    <glyph glyph-name="Eacute" unicode="&#xc9;" horiz-adv-x="1269" 
d="M63 1434h1047l20 -396h-47q-27 105 -62.5 171t-90 102.5t-119 49.5t-164.5 13h-135v-612h88q108 0 162.5 61t79.5 201h45v-606h-49q-31 161 -84.5 219.5t-173.5 58.5h-68v-637h145q206 0 318 93t153 284h43l-14 -436h-1094v59h142v1315h-142v60zM451 1528l278 309l59 -10
q80 -17 80 -78q0 -62 -82 -96l-311 -152z" />
    <glyph glyph-name="Ecircumflex" unicode="&#xca;" horiz-adv-x="1269" 
d="M63 1434h1047l20 -396h-47q-27 105 -62.5 171t-90 102.5t-119 49.5t-164.5 13h-135v-612h88q108 0 162.5 61t79.5 201h45v-606h-49q-31 161 -84.5 219.5t-173.5 58.5h-68v-637h145q206 0 318 93t153 284h43l-14 -436h-1094v59h142v1315h-142v60zM307 1526l250 278
q42 25 84 25q31 0 55 -17.5t54 -54.5l188 -231l-25 -27l-286 164l-297 -166z" />
    <glyph glyph-name="Edieresis" unicode="&#xcb;" horiz-adv-x="1269" 
d="M63 1434h1047l20 -396h-47q-27 105 -62.5 171t-90 102.5t-119 49.5t-164.5 13h-135v-612h88q108 0 162.5 61t79.5 201h45v-606h-49q-31 161 -84.5 219.5t-173.5 58.5h-68v-637h145q206 0 318 93t153 284h43l-14 -436h-1094v59h142v1315h-142v60zM698 1669q0 54 35.5 91.5
t95.5 37.5t97 -32t37 -97q0 -60 -35 -96.5t-97 -36.5q-69 0 -101 38.5t-32 94.5zM295 1669q0 54 34.5 91.5t96.5 37.5q60 0 96.5 -32t36.5 -97q0 -60 -34.5 -96.5t-96.5 -36.5q-69 0 -101 38.5t-32 94.5z" />
    <glyph glyph-name="Igrave" unicode="&#xcc;" horiz-adv-x="716" 
d="M72 1434h573v-60h-133v-1315h133v-59h-573v59h133v1315h-133v60zM266 1837l279 -309l-25 -27l-311 152q-82 34 -82 96q0 61 80 78z" />
    <glyph glyph-name="Iacute" unicode="&#xcd;" horiz-adv-x="716" 
d="M72 1434h573v-60h-133v-1315h133v-59h-573v59h133v1315h-133v60zM182 1528l279 309l59 -10q80 -17 80 -78q0 -62 -82 -96l-311 -152z" />
    <glyph glyph-name="Icircumflex" unicode="&#xce;" horiz-adv-x="716" 
d="M72 1434h573v-60h-133v-1315h133v-59h-573v59h133v1315h-133v60zM39 1526l250 278q42 25 84 25q31 0 54.5 -17.5t53.5 -54.5l189 -231l-25 -27l-287 164l-297 -166z" />
    <glyph glyph-name="Idieresis" unicode="&#xcf;" horiz-adv-x="716" 
d="M72 1434h573v-60h-133v-1315h133v-59h-573v59h133v1315h-133v60zM430 1669q0 54 35.5 91.5t95.5 37.5t96.5 -32t36.5 -97q0 -60 -34.5 -96.5t-96.5 -36.5q-69 0 -101 38.5t-32 94.5zM27 1669q0 54 34.5 91.5t96.5 37.5q60 0 96.5 -32t36.5 -97q0 -60 -34.5 -96.5
t-96.5 -36.5q-69 0 -101 38.5t-32 94.5z" />
    <glyph glyph-name="Eth" unicode="&#xd0;" horiz-adv-x="1505" 
d="M1417 741q0 -169 -42.5 -298.5t-116 -212.5t-182.5 -135.5t-232 -73.5t-275 -21h-514v59h156v668h-168v59h168v588h-156v60h572q193 0 336 -37t246.5 -118t155.5 -215t52 -323zM520 59h82q256 0 369.5 160t113.5 518q0 131 -13 229t-42.5 169t-69.5 117t-100.5 73
t-129 38t-161.5 11h-49v-588h320v-59h-320v-668z" />
    <glyph glyph-name="Ntilde" unicode="&#xd1;" horiz-adv-x="1427" 
d="M1231 1374v-1382h-182l-773 1333v-1266h134v-59h-338v59h133v1315h-133v60h495l592 -1033v973h-133v60h338v-60h-133zM852 1571q-76 0 -188 49q-83 33 -123 33q-73 0 -109 -86l-39 12q34 120 84 180t141 60q13 0 25 -1t26.5 -4.5t23 -6t26 -9t23 -8.5t26.5 -10.5
t25 -10.5q82 -32 118 -32q39 0 65.5 18t45.5 70l41 -10q-33 -129 -85.5 -186.5t-125.5 -57.5z" />
    <glyph glyph-name="Ograve" unicode="&#xd2;" horiz-adv-x="1495" 
d="M1083 719q0 101 -3 175.5t-11.5 149t-24 125.5t-40 96t-59 71.5t-82.5 41.5t-109 15q-74 0 -129 -19t-92.5 -61t-61.5 -95.5t-37 -136.5t-17.5 -169t-4.5 -207q0 -108 5 -189.5t18.5 -160.5t37.5 -133t61 -96t91.5 -62.5t126.5 -20.5q83 0 141.5 29t95.5 80.5t58 138.5
t28.5 186.5t7.5 241.5zM84 702q0 349 181.5 551.5t498.5 202.5q311 0 480 -192t169 -539q0 -353 -169.5 -549t-500.5 -196q-324 0 -491.5 187t-167.5 535zM662 1837l278 -309l-25 -27l-311 152q-82 34 -82 96q0 61 80 78z" />
    <glyph glyph-name="Oacute" unicode="&#xd3;" horiz-adv-x="1495" 
d="M1083 719q0 101 -3 175.5t-11.5 149t-24 125.5t-40 96t-59 71.5t-82.5 41.5t-109 15q-74 0 -129 -19t-92.5 -61t-61.5 -95.5t-37 -136.5t-17.5 -169t-4.5 -207q0 -108 5 -189.5t18.5 -160.5t37.5 -133t61 -96t91.5 -62.5t126.5 -20.5q83 0 141.5 29t95.5 80.5t58 138.5
t28.5 186.5t7.5 241.5zM84 702q0 349 181.5 551.5t498.5 202.5q311 0 480 -192t169 -539q0 -353 -169.5 -549t-500.5 -196q-324 0 -491.5 187t-167.5 535zM578 1528l278 309l59 -10q80 -17 80 -78q0 -62 -82 -96l-311 -152z" />
    <glyph glyph-name="Ocircumflex" unicode="&#xd4;" horiz-adv-x="1495" 
d="M1083 719q0 101 -3 175.5t-11.5 149t-24 125.5t-40 96t-59 71.5t-82.5 41.5t-109 15q-74 0 -129 -19t-92.5 -61t-61.5 -95.5t-37 -136.5t-17.5 -169t-4.5 -207q0 -108 5 -189.5t18.5 -160.5t37.5 -133t61 -96t91.5 -62.5t126.5 -20.5q83 0 141.5 29t95.5 80.5t58 138.5
t28.5 186.5t7.5 241.5zM84 702q0 349 181.5 551.5t498.5 202.5q311 0 480 -192t169 -539q0 -353 -169.5 -549t-500.5 -196q-324 0 -491.5 187t-167.5 535zM434 1526l250 278q42 25 84 25q31 0 55 -17.5t54 -54.5l188 -231l-25 -27l-286 164l-297 -166z" />
    <glyph glyph-name="Otilde" unicode="&#xd5;" horiz-adv-x="1495" 
d="M1083 719q0 101 -3 175.5t-11.5 149t-24 125.5t-40 96t-59 71.5t-82.5 41.5t-109 15q-74 0 -129 -19t-92.5 -61t-61.5 -95.5t-37 -136.5t-17.5 -169t-4.5 -207q0 -108 5 -189.5t18.5 -160.5t37.5 -133t61 -96t91.5 -62.5t126.5 -20.5q83 0 141.5 29t95.5 80.5t58 138.5
t28.5 186.5t7.5 241.5zM84 702q0 349 181.5 551.5t498.5 202.5q311 0 480 -192t169 -539q0 -353 -169.5 -549t-500.5 -196q-324 0 -491.5 187t-167.5 535zM893 1571q-76 0 -188 49q-83 33 -123 33q-73 0 -109 -86l-39 12q34 120 84 180t141 60q13 0 25 -1t26.5 -4.5t23 -6
t26 -9t23 -8.5t26.5 -10.5t25 -10.5q82 -32 118 -32q39 0 65.5 18t45.5 70l41 -10q-33 -129 -85.5 -186.5t-125.5 -57.5z" />
    <glyph glyph-name="Odieresis" unicode="&#xd6;" horiz-adv-x="1495" 
d="M1083 719q0 101 -3 175.5t-11.5 149t-24 125.5t-40 96t-59 71.5t-82.5 41.5t-109 15q-74 0 -129 -19t-92.5 -61t-61.5 -95.5t-37 -136.5t-17.5 -169t-4.5 -207q0 -108 5 -189.5t18.5 -160.5t37.5 -133t61 -96t91.5 -62.5t126.5 -20.5q83 0 141.5 29t95.5 80.5t58 138.5
t28.5 186.5t7.5 241.5zM84 702q0 349 181.5 551.5t498.5 202.5q311 0 480 -192t169 -539q0 -353 -169.5 -549t-500.5 -196q-324 0 -491.5 187t-167.5 535zM825 1669q0 54 35.5 91.5t95.5 37.5t97 -32t37 -97q0 -60 -35 -96.5t-97 -36.5q-69 0 -101 38.5t-32 94.5zM422 1669
q0 54 34.5 91.5t96.5 37.5q60 0 96.5 -32t36.5 -97q0 -60 -34.5 -96.5t-96.5 -36.5q-69 0 -101 38.5t-32 94.5z" />
    <glyph glyph-name="multiply" unicode="&#xd7;" 
d="M918 946l-306 -303l299 -301l-53 -49l-297 297l-301 -299l-51 51l299 301l-299 303l51 53l301 -303l303 303z" />
    <glyph glyph-name="Oslash" unicode="&#xd8;" horiz-adv-x="1495" 
d="M84 702q0 349 181.5 551.5t498.5 202.5q98 0 199 -24l57 149l65 -22l-55 -148q186 -72 284.5 -248t98.5 -438q0 -353 -169.5 -549t-500.5 -196q-126 0 -241 32l-58 -151l-65 20l57 154q-174 75 -263 244.5t-89 422.5zM1083 719q0 226 -20 362.5t-78 212.5l-444 -1177
q80 -74 211 -74q83 0 141.5 29t95.5 80.5t58 138.5t28.5 186.5t7.5 241.5zM412 705q0 -189 17 -316t63 -207l438 1164q-68 47 -176 47q-74 0 -129 -19t-92.5 -61t-61.5 -95.5t-37 -136.5t-17.5 -169t-4.5 -207z" />
    <glyph glyph-name="Ugrave" unicode="&#xd9;" horiz-adv-x="1427" 
d="M819 59q-94 0 -159 28.5t-99.5 82.5t-48.5 118t-14 150v936h143v60h-584v-60h133v-897q0 -139 38 -237t112 -154t170 -81t223 -25q145 0 246 33.5t158.5 100t82.5 154t25 207.5v899h129v60h-340v-60h137v-917q0 -196 -94 -297t-258 -101zM649 1837l279 -309l-25 -27
l-311 152q-82 34 -82 96q0 61 80 78z" />
    <glyph glyph-name="Uacute" unicode="&#xda;" horiz-adv-x="1427" 
d="M819 59q-94 0 -159 28.5t-99.5 82.5t-48.5 118t-14 150v936h143v60h-584v-60h133v-897q0 -139 38 -237t112 -154t170 -81t223 -25q145 0 246 33.5t158.5 100t82.5 154t25 207.5v899h129v60h-340v-60h137v-917q0 -196 -94 -297t-258 -101zM608 1528l279 309l59 -10
q80 -17 80 -78q0 -62 -82 -96l-311 -152z" />
    <glyph glyph-name="Ucircumflex" unicode="&#xdb;" horiz-adv-x="1427" 
d="M819 59q-94 0 -159 28.5t-99.5 82.5t-48.5 118t-14 150v936h143v60h-584v-60h133v-897q0 -139 38 -237t112 -154t170 -81t223 -25q145 0 246 33.5t158.5 100t82.5 154t25 207.5v899h129v60h-340v-60h137v-917q0 -196 -94 -297t-258 -101zM453 1526l249 278q42 25 84 25
q31 0 55 -17.5t54 -54.5l188 -231l-24 -27l-287 164l-297 -166z" />
    <glyph glyph-name="Udieresis" unicode="&#xdc;" horiz-adv-x="1427" 
d="M819 59q164 0 258 101t94 297v917h-137v60h340v-60h-129v-899q0 -120 -25 -207.5t-82.5 -154t-158.5 -100t-246 -33.5q-127 0 -223 25t-170 81t-112 154t-38 237v897h-133v60h584v-60h-143v-936q0 -86 14 -150t48.5 -118t99.5 -82.5t159 -28.5zM844 1669q0 54 35.5 91.5
t95.5 37.5t96.5 -32t36.5 -97q0 -60 -34.5 -96.5t-96.5 -36.5q-69 0 -101 38.5t-32 94.5zM440 1669q0 54 34.5 91.5t96.5 37.5q60 0 97 -32t37 -97q0 -60 -35 -96.5t-97 -36.5q-69 0 -101 38.5t-32 94.5z" />
    <glyph glyph-name="Yacute" unicode="&#xdd;" horiz-adv-x="1280" 
d="M754 758l303 616h-197v60h414v-60h-141l-338 -684v-631h149v-59h-606v59h149v611l-358 704h-123v60h615v-60h-158zM500 1528l278 309l60 -10q80 -17 80 -78q0 -62 -82 -96l-312 -152z" />
    <glyph glyph-name="Thorn" unicode="&#xde;" horiz-adv-x="1290" 
d="M512 1374v-215h100q143 0 248.5 -19t188.5 -63.5t125.5 -124.5t42.5 -196q0 -103 -33 -181t-89.5 -127.5t-141.5 -80t-180 -42.5t-214 -12h-47v-254h256v-59h-717v59h154v1315h-154v60h717v-60h-256zM512 1100v-727h74q164 0 232.5 88.5t68.5 290.5q0 198 -65 273
t-224 75h-86z" />
    <glyph glyph-name="germandbls" unicode="&#xdf;" horiz-adv-x="1355" 
d="M592 -16v362h49q29 -144 114.5 -222.5t211.5 -78.5q94 0 147 41.5t53 114.5q0 51 -29 88.5t-75 61.5t-102 45t-112 47.5t-102 60.5t-75 91.5t-29 133.5q0 68 25 130t62 105.5t81 89.5t81 84.5t62 88t25 100.5q0 91 -69 146t-197 55q-66 0 -114 -17t-74 -42.5t-41 -66.5
t-19 -77.5t-4 -87.5v-1237h-443v53h156v985q0 277 134 412t386 135q104 0 178.5 -22.5t113 -61.5t55 -81.5t16.5 -92.5q0 -63 -25.5 -119t-62 -96.5t-73 -77.5t-62 -79.5t-25.5 -86.5q0 -42 27.5 -74.5t72 -55t98 -45t107 -52t98 -68.5t72 -103t27.5 -146q0 -156 -98 -250
t-252 -94q-130 0 -234 65q-32 16 -43 16q-32 0 -47 -77h-45z" />
    <glyph glyph-name="agrave" unicode="&#xe0;" horiz-adv-x="1091" 
d="M512 489h92v150q0 171 -34 239t-126 68q-57 0 -93 -20.5t-36 -59.5q0 -16 7 -41h55q16 -43 16 -86q0 -63 -41 -100t-106 -37q-71 0 -107.5 40t-36.5 110q0 117 106.5 180t285.5 63q218 0 307.5 -84t89.5 -303v-403q0 -115 63 -115q34 0 53 40.5t29 156.5l47 -4
q-7 -167 -61.5 -235t-175.5 -68q-204 0 -234 145q-68 -145 -262 -145q-293 0 -293 243q0 77 31.5 130t93.5 82.5t141.5 41.5t188.5 12zM455 68q59 0 104 54.5t45 145.5v170h-47q-107 0 -154 -51.5t-47 -157.5q0 -89 23.5 -125t75.5 -36zM465 1503l145 -383l-30 -16l-236 248
q-49 49 -49 96q0 33 21 52.5t57 19.5q18 0 30 -2z" />
    <glyph glyph-name="aacute" unicode="&#xe1;" horiz-adv-x="1091" 
d="M512 489h92v150q0 171 -34 239t-126 68q-57 0 -93 -20.5t-36 -59.5q0 -16 7 -41h55q16 -43 16 -86q0 -63 -41 -100t-106 -37q-71 0 -107.5 40t-36.5 110q0 117 106.5 180t285.5 63q218 0 307.5 -84t89.5 -303v-403q0 -115 63 -115q34 0 53 40.5t29 156.5l47 -4
q-7 -167 -61.5 -235t-175.5 -68q-204 0 -234 145q-68 -145 -262 -145q-293 0 -293 243q0 77 31.5 130t93.5 82.5t141.5 41.5t188.5 12zM455 68q59 0 104 54.5t45 145.5v170h-47q-107 0 -154 -51.5t-47 -157.5q0 -89 23.5 -125t75.5 -36zM375 1120l145 383l64 15q10 2 30 2
q35 0 55.5 -19.5t20.5 -52.5q0 -42 -51 -96l-233 -250z" />
    <glyph glyph-name="acircumflex" unicode="&#xe2;" horiz-adv-x="1091" 
d="M512 489h92v150q0 171 -34 239t-126 68q-57 0 -93 -20.5t-36 -59.5q0 -16 7 -41h55q16 -43 16 -86q0 -63 -41 -100t-106 -37q-71 0 -107.5 40t-36.5 110q0 117 106.5 180t285.5 63q218 0 307.5 -84t89.5 -303v-403q0 -115 63 -115q34 0 53 40.5t29 156.5l47 -4
q-7 -167 -61.5 -235t-175.5 -68q-204 0 -234 145q-68 -145 -262 -145q-293 0 -293 243q0 77 31.5 130t93.5 82.5t141.5 41.5t188.5 12zM455 68q59 0 104 54.5t45 145.5v170h-47q-107 0 -154 -51.5t-47 -157.5q0 -89 23.5 -125t75.5 -36zM217 1118l207 365q37 26 90 26
q35 0 59 -16.5t43 -54.5l154 -320l-27 -18l-251 239l-248 -241z" />
    <glyph glyph-name="atilde" unicode="&#xe3;" horiz-adv-x="1091" 
d="M512 489h92v150q0 171 -34 239t-126 68q-57 0 -93 -20.5t-36 -59.5q0 -16 7 -41h55q16 -43 16 -86q0 -63 -41 -100t-106 -37q-71 0 -107.5 40t-36.5 110q0 117 106.5 180t285.5 63q218 0 307.5 -84t89.5 -303v-403q0 -115 63 -115q34 0 53 40.5t29 156.5l47 -4
q-7 -167 -61.5 -235t-175.5 -68q-204 0 -234 145q-68 -145 -262 -145q-293 0 -293 243q0 77 31.5 130t93.5 82.5t141.5 41.5t188.5 12zM455 68q59 0 104 54.5t45 145.5v170h-47q-107 0 -154 -51.5t-47 -157.5q0 -89 23.5 -125t75.5 -36zM631 1188q-77 0 -189 49
q-83 33 -123 33q-72 0 -108 -86l-39 12q35 119 84.5 179.5t140.5 60.5q13 0 25 -1t26 -4.5t23.5 -6t25.5 -8.5t23 -9t26 -11t25 -10q82 -32 119 -32q39 0 65.5 17.5t45.5 68.5l41 -10q-33 -128 -85.5 -185t-125.5 -57z" />
    <glyph glyph-name="adieresis" unicode="&#xe4;" horiz-adv-x="1091" 
d="M512 489h92v150q0 171 -34 239t-126 68q-57 0 -93 -20.5t-36 -59.5q0 -16 7 -41h55q16 -43 16 -86q0 -63 -41 -100t-106 -37q-71 0 -107.5 40t-36.5 110q0 117 106.5 180t285.5 63q218 0 307.5 -84t89.5 -303v-403q0 -115 63 -115q34 0 53 40.5t29 156.5l47 -4
q-7 -167 -61.5 -235t-175.5 -68q-204 0 -234 145q-68 -145 -262 -145q-293 0 -293 243q0 77 31.5 130t93.5 82.5t141.5 41.5t188.5 12zM455 68q59 0 104 54.5t45 145.5v170h-47q-107 0 -154 -51.5t-47 -157.5q0 -89 23.5 -125t75.5 -36zM561 1290q0 55 35 92t96 37
q60 0 96.5 -32t36.5 -97q0 -60 -34.5 -96.5t-96.5 -36.5q-69 0 -101 39t-32 94zM164 1290q0 55 34.5 92t96.5 37q60 0 96.5 -32t36.5 -97q0 -60 -34 -96.5t-97 -36.5q-68 0 -100.5 39.5t-32.5 93.5z" />
    <glyph glyph-name="aring" unicode="&#xe5;" horiz-adv-x="1091" 
d="M512 489h92v150q0 171 -34 239t-126 68q-57 0 -93 -20.5t-36 -59.5q0 -16 7 -41h55q16 -43 16 -86q0 -63 -41 -100t-106 -37q-71 0 -107.5 40t-36.5 110q0 117 106.5 180t285.5 63q218 0 307.5 -84t89.5 -303v-403q0 -115 63 -115q34 0 53 40.5t29 156.5l47 -4
q-7 -167 -61.5 -235t-175.5 -68q-204 0 -234 145q-68 -145 -262 -145q-293 0 -293 243q0 77 31.5 130t93.5 82.5t141.5 41.5t188.5 12zM455 68q59 0 104 54.5t45 145.5v170h-47q-107 0 -154 -51.5t-47 -157.5q0 -89 23.5 -125t75.5 -36zM381 1319q0 -51 28 -85t87 -34
q54 0 82 33t28 86q0 51 -29 85t-85 34q-53 0 -82 -35t-29 -84zM307 1319q0 76 49.5 126t141.5 50q88 0 135 -47t47 -125q0 -82 -48.5 -132t-137.5 -50q-94 0 -140.5 48t-46.5 130z" />
    <glyph glyph-name="ae" unicode="&#xe6;" horiz-adv-x="1556" 
d="M891 563h323q5 208 -25.5 295.5t-119.5 87.5q-90 0 -133.5 -85.5t-44.5 -297.5zM481 68q49 0 102.5 35.5t78.5 93.5q-52 104 -58 252h-53q-103 0 -149 -52t-46 -159q0 -92 29.5 -131t95.5 -39zM481 995q208 0 291 -133q56 67 141 100t181 33q210 0 313.5 -125.5
t89.5 -361.5h-606q0 -90 6 -155t23 -124.5t46 -96t76 -58t113 -21.5q224 0 289 246l55 -8q-16 -69 -45 -122t-77 -97.5t-124 -68t-176 -23.5q-265 0 -383 163q-107 -163 -332 -163q-62 0 -113.5 11.5t-96 38.5t-70 78t-25.5 123q0 77 31.5 130.5t93.5 83.5t141.5 42.5
t188.5 12.5h92v139q0 171 -34 239t-126 68q-57 0 -93 -20.5t-36 -59.5q0 -16 7 -41h55q16 -43 16 -86q0 -63 -41 -100t-106 -37q-71 0 -107.5 40t-36.5 110q0 117 104 180t275 63z" />
    <glyph glyph-name="ccedilla" unicode="&#xe7;" horiz-adv-x="980" 
d="M584 946q-121 0 -174.5 -104t-53.5 -355q0 -231 56 -330.5t188 -99.5q67 0 118.5 24t82.5 65.5t48.5 83.5t27.5 92l57 -9q-9 -46 -20.5 -82t-40 -84t-67 -81t-105 -58t-152.5 -28l-53 -93q49 7 57 7q88 0 136 -47t48 -123q0 -80 -61 -138.5t-180 -58.5q-82 0 -132.5 35.5
t-50.5 89.5q0 36 19 55t49 19q58 0 78 -62l-45 -37q0 -28 18 -46.5t55 -18.5q42 0 64 31.5t22 111.5q0 76 -16.5 110.5t-64.5 34.5q-29 0 -62 -8l-6 21l68 117q-212 7 -326.5 134.5t-114.5 356.5q0 255 138.5 389.5t379.5 134.5q172 0 265.5 -70t93.5 -190q0 -84 -40 -128
t-108 -44t-109.5 39t-41.5 111q0 37 10 73h63q11 37 11 60q0 45 -33 72.5t-96 27.5z" />
    <glyph glyph-name="egrave" unicode="&#xe8;" horiz-adv-x="1021" 
d="M51 481q0 -232 123.5 -366.5t368.5 -134.5q100 0 176 23.5t124 68t77 97.5t45 122l-56 8q-65 -246 -288 -246q-149 0 -207 103.5t-58 316.5v55h607q9 231 -93 349t-313 118q-109 0 -199.5 -31t-160 -92t-108 -161t-38.5 -230zM680 584h-324q4 196 47 279t132 83
t118.5 -79.5t26.5 -282.5zM506 1503l145 -383l-30 -16l-236 248q-49 49 -49 96q0 33 21 52.5t57 19.5q18 0 30 -2z" />
    <glyph glyph-name="eacute" unicode="&#xe9;" horiz-adv-x="1021" 
d="M51 481q0 -232 123.5 -366.5t368.5 -134.5q100 0 176 23.5t124 68t77 97.5t45 122l-56 8q-65 -246 -288 -246q-149 0 -207 103.5t-58 316.5v55h607q9 231 -93 349t-313 118q-109 0 -199.5 -31t-160 -92t-108 -161t-38.5 -230zM680 584h-324q4 196 47 279t132 83
t118.5 -79.5t26.5 -282.5zM416 1120l145 383l64 15q10 2 30 2q35 0 55.5 -19.5t20.5 -52.5q0 -42 -51 -96l-234 -250z" />
    <glyph glyph-name="ecircumflex" unicode="&#xea;" horiz-adv-x="1021" 
d="M51 481q0 -232 123.5 -366.5t368.5 -134.5q100 0 176 23.5t124 68t77 97.5t45 122l-56 8q-65 -246 -288 -246q-149 0 -207 103.5t-58 316.5v55h607q9 231 -93 349t-313 118q-109 0 -199.5 -31t-160 -92t-108 -161t-38.5 -230zM680 584h-324q4 196 47 279t132 83
t118.5 -79.5t26.5 -282.5zM258 1118l207 365q37 26 90 26q35 0 59 -16.5t43 -54.5l154 -320l-27 -18l-252 239l-247 -241z" />
    <glyph glyph-name="edieresis" unicode="&#xeb;" horiz-adv-x="1021" 
d="M51 481q0 130 38.5 230t108 161t160 92t199.5 31q211 0 313 -118t93 -349h-607v-55q0 -213 58 -316.5t207 -103.5q223 0 288 246l56 -8q-16 -69 -45 -122t-77 -97.5t-124 -68t-176 -23.5q-245 0 -368.5 134.5t-123.5 366.5zM356 584h324q3 203 -26.5 282.5t-118.5 79.5
t-132 -83t-47 -279zM602 1290q0 55 35 92t96 37q60 0 96.5 -32t36.5 -97q0 -60 -34.5 -96.5t-96.5 -36.5q-69 0 -101 39t-32 94zM205 1290q0 55 34.5 92t96.5 37q60 0 96.5 -32t36.5 -97q0 -60 -34 -96.5t-97 -36.5q-68 0 -100.5 39.5t-32.5 93.5z" />
    <glyph glyph-name="igrave" unicode="&#xec;" horiz-adv-x="626" 
d="M35 975h426v-922h135v-53h-557v53h133v869h-137v53zM264 1503l146 -383l-31 -16l-236 248q-49 49 -49 96q0 33 21 52.5t57 19.5q19 0 31 -2z" />
    <glyph glyph-name="iacute" unicode="&#xed;" horiz-adv-x="626" 
d="M35 975h426v-922h135v-53h-557v53h133v869h-137v53zM174 1120l145 383l64 15q10 2 31 2q35 0 55 -19.5t20 -52.5q0 -42 -51 -96l-233 -250z" />
    <glyph glyph-name="icircumflex" unicode="&#xee;" horiz-adv-x="626" 
d="M35 975h426v-922h135v-53h-557v53h133v869h-137v53zM10 1118l207 365q37 26 90 26q68 0 103 -71l153 -320l-26 -18l-252 239l-248 -241z" />
    <glyph glyph-name="idieresis" unicode="&#xef;" horiz-adv-x="626" 
d="M35 975h426v-922h135v-53h-557v53h133v869h-137v53zM360 1290q0 55 35.5 92t96.5 37q60 0 96.5 -32t36.5 -97q0 -60 -34.5 -96.5t-96.5 -36.5q-69 0 -101.5 39.5t-32.5 93.5zM-37 1290q0 55 34.5 92t96.5 37q60 0 96.5 -32t36.5 -97q0 -60 -34 -96.5t-97 -36.5
q-68 0 -100.5 39.5t-32.5 93.5z" />
    <glyph glyph-name="eth" unicode="&#xf0;" horiz-adv-x="1110" 
d="M471 1169l-27 52l170 129q-116 145 -362 194l6 35q303 -4 490 -129l170 129l22 -49l-147 -115q260 -218 260 -723q0 -133 -15.5 -239t-52 -196t-94 -150t-144.5 -93.5t-200 -33.5q-237 0 -366.5 134t-129.5 380q0 103 26 187.5t70 142t103 97t124 57t134 17.5
q187 0 254 -161q-6 100 -14 165t-33.5 153t-67.5 153zM547 946q-102 0 -144.5 -105t-42.5 -341q0 -93 4 -160t16.5 -129t33.5 -100t55 -60t82 -22q40 0 70.5 12.5t51.5 40t34.5 64t21.5 93t11 119t3 148.5q0 88 -7.5 158t-27 138t-60.5 106t-101 38z" />
    <glyph glyph-name="ntilde" unicode="&#xf1;" horiz-adv-x="1257" 
d="M35 975h422v-184q90 204 334 204q309 0 309 -342v-600h135v-53h-543v53h119v631q0 121 -26.5 168t-92.5 47q-94 0 -164.5 -91t-70.5 -222v-533h121v-53h-543v53h133v869h-133v53zM764 1188q-77 0 -189 49q-83 33 -122 33q-73 0 -109 -86l-39 12q35 119 84.5 179.5
t140.5 60.5q13 0 25 -1t26.5 -4.5t23 -6t26 -9t23 -8.5t26.5 -10.5t25 -10.5q82 -32 118 -32q39 0 65.5 17.5t45.5 68.5l41 -10q-33 -128 -85.5 -185t-125.5 -57z" />
    <glyph glyph-name="ograve" unicode="&#xf2;" horiz-adv-x="1093" 
d="M737 496q0 89 -4 153.5t-16 123.5t-32.5 95t-53.5 57t-80 21q-50 0 -85 -21t-56.5 -56.5t-33.5 -95.5t-16 -124.5t-4 -156.5t4.5 -158.5t16.5 -127t33.5 -97.5t56.5 -58.5t84 -21.5q39 0 68.5 12t50 39t33.5 62.5t20.5 91t10.5 116.5t3 146zM51 483q0 246 133.5 379
t370.5 133q487 0 487 -497q0 -249 -126 -383.5t-369 -134.5q-241 0 -368.5 131t-127.5 372zM522 1503l146 -383l-31 -16l-236 248q-49 49 -49 96q0 33 21 52.5t57 19.5q19 0 31 -2z" />
    <glyph glyph-name="oacute" unicode="&#xf3;" horiz-adv-x="1093" 
d="M737 496q0 89 -4 153.5t-16 123.5t-32.5 95t-53.5 57t-80 21q-50 0 -85 -21t-56.5 -56.5t-33.5 -95.5t-16 -124.5t-4 -156.5t4.5 -158.5t16.5 -127t33.5 -97.5t56.5 -58.5t84 -21.5q39 0 68.5 12t50 39t33.5 62.5t20.5 91t10.5 116.5t3 146zM51 483q0 246 133.5 379
t370.5 133q487 0 487 -497q0 -249 -126 -383.5t-369 -134.5q-241 0 -368.5 131t-127.5 372zM432 1120l146 383l63 15q10 2 31 2q35 0 55.5 -19.5t20.5 -52.5q0 -41 -52 -96l-233 -250z" />
    <glyph glyph-name="ocircumflex" unicode="&#xf4;" horiz-adv-x="1093" 
d="M737 496q0 89 -4 153.5t-16 123.5t-32.5 95t-53.5 57t-80 21q-50 0 -85 -21t-56.5 -56.5t-33.5 -95.5t-16 -124.5t-4 -156.5t4.5 -158.5t16.5 -127t33.5 -97.5t56.5 -58.5t84 -21.5q39 0 68.5 12t50 39t33.5 62.5t20.5 91t10.5 116.5t3 146zM51 483q0 246 133.5 379
t370.5 133q487 0 487 -497q0 -249 -126 -383.5t-369 -134.5q-241 0 -368.5 131t-127.5 372zM274 1118l207 365q37 26 90 26q68 0 103 -71l153 -320l-26 -18l-252 239l-248 -241z" />
    <glyph glyph-name="otilde" unicode="&#xf5;" horiz-adv-x="1093" 
d="M737 496q0 89 -4 153.5t-16 123.5t-32.5 95t-53.5 57t-80 21q-50 0 -85 -21t-56.5 -56.5t-33.5 -95.5t-16 -124.5t-4 -156.5t4.5 -158.5t16.5 -127t33.5 -97.5t56.5 -58.5t84 -21.5q39 0 68.5 12t50 39t33.5 62.5t20.5 91t10.5 116.5t3 146zM51 483q0 246 133.5 379
t370.5 133q487 0 487 -497q0 -249 -126 -383.5t-369 -134.5q-241 0 -368.5 131t-127.5 372zM688 1188q-76 0 -188 49q-82 33 -123 33q-73 0 -109 -86l-39 12q35 119 85 179.5t141 60.5q13 0 25 -1t26 -4.5t23.5 -6t25.5 -8.5t23 -9t26 -11t25 -10q82 -32 119 -32
q39 0 65 17.5t45 68.5l41 -10q-33 -128 -85.5 -185t-125.5 -57z" />
    <glyph glyph-name="odieresis" unicode="&#xf6;" horiz-adv-x="1093" 
d="M737 496q0 89 -4 153.5t-16 123.5t-32.5 95t-53.5 57t-80 21q-50 0 -85 -21t-56.5 -56.5t-33.5 -95.5t-16 -124.5t-4 -156.5t4.5 -158.5t16.5 -127t33.5 -97.5t56.5 -58.5t84 -21.5q39 0 68.5 12t50 39t33.5 62.5t20.5 91t10.5 116.5t3 146zM51 483q0 246 133.5 379
t370.5 133q487 0 487 -497q0 -249 -126 -383.5t-369 -134.5q-241 0 -368.5 131t-127.5 372zM618 1290q0 55 35.5 92t96.5 37q60 0 96.5 -32t36.5 -97q0 -60 -34.5 -96.5t-96.5 -36.5q-69 0 -101.5 39.5t-32.5 93.5zM221 1290q0 55 34.5 92t96.5 37q60 0 96.5 -32t36.5 -97
q0 -60 -34 -96.5t-97 -36.5q-68 0 -100.5 39.5t-32.5 93.5z" />
    <glyph glyph-name="divide" unicode="&#xf7;" 
d="M457 950q0 49 29.5 81t82.5 32t85 -28t32 -83q0 -54 -29.5 -85t-83.5 -31q-61 0 -88.5 32.5t-27.5 81.5zM457 350q0 49 29.5 81t82.5 32t85 -28t32 -83q0 -54 -29.5 -85t-83.5 -31q-61 0 -88.5 32.5t-27.5 81.5zM1028 610h-930v74h930v-74z" />
    <glyph glyph-name="oslash" unicode="&#xf8;" horiz-adv-x="1093" 
d="M51 483q0 246 133.5 379t370.5 133q71 0 133 -12l49 129l58 -22l-47 -121q294 -87 294 -471q0 -249 -126 -383.5t-369 -134.5q-97 0 -170 20l-47 -125l-58 21l47 122q-132 52 -200 171t-68 294zM737 496q0 244 -39 342l-282 -738q44 -71 135 -71q39 0 68.5 12t50 39
t33.5 62.5t20.5 91t10.5 116.5t3 146zM356 492q0 -212 25 -310l276 721q-40 43 -106 43q-50 0 -85 -21t-56.5 -56.5t-33.5 -95.5t-16 -124.5t-4 -156.5z" />
    <glyph glyph-name="ugrave" unicode="&#xf9;" horiz-adv-x="1239" 
d="M1208 0h-401l-16 166q-85 -186 -318 -186q-313 0 -313 342v600h-135v53h424v-684q0 -124 25.5 -172.5t96.5 -48.5q87 0 150 82t63 198v572h-125v53h414v-922h135v-53zM549 1503l145 -383l-30 -16l-236 248q-49 49 -49 96q0 33 21 52.5t57 19.5q18 0 30 -2z" />
    <glyph glyph-name="uacute" unicode="&#xfa;" horiz-adv-x="1239" 
d="M1208 0h-401l-16 166q-85 -186 -318 -186q-313 0 -313 342v600h-135v53h424v-684q0 -124 25.5 -172.5t96.5 -48.5q87 0 150 82t63 198v572h-125v53h414v-922h135v-53zM465 1120l145 383l64 15q10 2 31 2q35 0 55 -19.5t20 -52.5q0 -42 -51 -96l-233 -250z" />
    <glyph glyph-name="ucircumflex" unicode="&#xfb;" horiz-adv-x="1239" 
d="M1208 0h-401l-16 166q-85 -186 -318 -186q-313 0 -313 342v600h-135v53h424v-684q0 -124 25.5 -172.5t96.5 -48.5q87 0 150 82t63 198v572h-125v53h414v-922h135v-53zM307 1118l207 365q37 26 90 26q68 0 103 -71l153 -320l-26 -18l-252 239l-248 -241z" />
    <glyph glyph-name="udieresis" unicode="&#xfc;" horiz-adv-x="1239" 
d="M1208 0h-401l-16 166q-85 -186 -318 -186q-313 0 -313 342v600h-135v53h424v-684q0 -124 25.5 -172.5t96.5 -48.5q87 0 150 82t63 198v572h-125v53h414v-922h135v-53zM651 1290q0 55 35 92t96 37q60 0 96.5 -32t36.5 -97q0 -60 -34.5 -96.5t-96.5 -36.5q-69 0 -101 39
t-32 94zM254 1290q0 55 34.5 92t96.5 37q60 0 96.5 -32t36.5 -97q0 -60 -34 -96.5t-97 -36.5q-68 0 -100.5 39.5t-32.5 93.5z" />
    <glyph glyph-name="yacute" unicode="&#xfd;" horiz-adv-x="1062" 
d="M8 975v-53h90l365 -922h82l-43 -127q-61 -174 -112 -250t-128 -76q-36 0 -55 14t-19 38q0 21 13 47h67q13 47 13 73q0 61 -36.5 91t-99.5 30q-64 0 -103.5 -42t-39.5 -117q0 -83 59.5 -138t169.5 -55q120 0 187.5 72.5t142.5 273.5l402 1088h100v53h-318v-53h142
l-242 -676l-242 676h138v53h-533zM463 1120l145 383l64 15q10 2 30 2q35 0 55.5 -19.5t20.5 -52.5q0 -42 -51 -96l-233 -250z" />
    <glyph glyph-name="thorn" unicode="&#xfe;" horiz-adv-x="1189" 
d="M662 907q-88 0 -155 -81t-67 -208v-327q0 -97 55.5 -170.5t149.5 -73.5q103 0 140.5 97t37.5 343q0 235 -34 327.5t-127 92.5zM748 995q181 0 279.5 -126.5t98.5 -376.5q0 -255 -107 -383.5t-312 -128.5q-189 0 -265 116v-530h265v-53h-697v53h146v422v1495h-138v53h424
v-717q98 176 306 176z" />
    <glyph glyph-name="ydieresis" unicode="&#xff;" horiz-adv-x="1062" 
d="M8 922v53h533v-53h-138l242 -676l242 676h-142v53h318v-53h-100l-402 -1088q-75 -201 -142.5 -273.5t-187.5 -72.5q-110 0 -169.5 55t-59.5 138q0 75 39.5 117t103.5 42q63 0 99.5 -30t36.5 -91q0 -26 -13 -73h-67q-13 -26 -13 -47q0 -24 19 -38t55 -14q77 0 128 76
t112 250l43 127h-82l-365 922h-90zM651 1290q0 55 35 92t96 37q60 0 96.5 -32t36.5 -97q0 -60 -34.5 -96.5t-96.5 -36.5q-69 0 -101 39t-32 94zM254 1290q0 55 34.5 92t96.5 37q60 0 96.5 -32t36.5 -97q0 -60 -34 -96.5t-97 -36.5q-68 0 -100.5 39.5t-32.5 93.5z" />
    <glyph glyph-name="Amacron" unicode="&#x100;" horiz-adv-x="1392" 
d="M930 59l-142 418h-432l-149 -418h162v-59h-363v59h121l514 1377h115l506 -1377h122v-59h-612v59h158zM580 1083l-203 -546h393zM424 1591v129h557v-129h-557z" />
    <glyph glyph-name="amacron" unicode="&#x101;" horiz-adv-x="1091" 
d="M512 489h92v150q0 171 -34 239t-126 68q-57 0 -93 -20.5t-36 -59.5q0 -16 7 -41h55q16 -43 16 -86q0 -63 -41 -100t-106 -37q-71 0 -107.5 40t-36.5 110q0 117 106.5 180t285.5 63q218 0 307.5 -84t89.5 -303v-403q0 -115 63 -115q34 0 53 40.5t29 156.5l47 -4
q-7 -167 -61.5 -235t-175.5 -68q-204 0 -234 145q-68 -145 -262 -145q-293 0 -293 243q0 77 31.5 130t93.5 82.5t141.5 41.5t188.5 12zM455 68q59 0 104 54.5t45 145.5v170h-47q-107 0 -154 -51.5t-47 -157.5q0 -89 23.5 -125t75.5 -36zM215 1210v138h557v-138h-557z" />
    <glyph glyph-name="Abreve" unicode="&#x102;" horiz-adv-x="1392" 
d="M930 59l-142 418h-432l-149 -418h162v-59h-363v59h121l514 1377h115l506 -1377h122v-59h-612v59h158zM580 1083l-203 -546h393zM406 1784l40 6q31 -66 88.5 -96.5t167.5 -30.5q113 0 167 28.5t81 98.5l41 -6q-6 -59 -24 -107.5t-51.5 -88.5t-90 -62.5t-131.5 -22.5
t-130 22t-86.5 63t-48 88t-23.5 108z" />
    <glyph glyph-name="abreve" unicode="&#x103;" horiz-adv-x="1091" 
d="M512 489h92v150q0 171 -34 239t-126 68q-57 0 -93 -20.5t-36 -59.5q0 -16 7 -41h55q16 -43 16 -86q0 -63 -41 -100t-106 -37q-71 0 -107.5 40t-36.5 110q0 117 106.5 180t285.5 63q218 0 307.5 -84t89.5 -303v-403q0 -115 63 -115q34 0 53 40.5t29 156.5l47 -4
q-7 -167 -61.5 -235t-175.5 -68q-204 0 -234 145q-68 -145 -262 -145q-293 0 -293 243q0 77 31.5 130t93.5 82.5t141.5 41.5t188.5 12zM455 68q59 0 104 54.5t45 145.5v170h-47q-107 0 -154 -51.5t-47 -157.5q0 -89 23.5 -125t75.5 -36zM197 1434l43 6q30 -85 87 -120.5
t173 -35.5q119 0 173.5 33.5t80.5 122.5l41 -6q-6 -68 -24.5 -123t-53 -100t-92 -70t-133.5 -25q-62 0 -110.5 17t-80 45t-54 70t-33.5 86.5t-17 99.5z" />
    <glyph glyph-name="Aogonek" unicode="&#x104;" horiz-adv-x="1392" 
d="M930 59l-142 418h-432l-149 -418h162v-59h-363v59h121l514 1377h115l506 -1377h122v-59h-190q-76 -60 -107.5 -115t-31.5 -151q0 -103 78 -103q32 0 58.5 20.5t55.5 63.5l31 -20q-18 -30 -32.5 -49.5t-41.5 -45.5t-64 -39.5t-83 -13.5q-92 0 -142.5 42t-50.5 120
q0 38 13.5 72t33.5 60t57 56t68.5 50.5t83.5 52.5h-348v59h158zM580 1083l-203 -546h393z" />
    <glyph glyph-name="aogonek" unicode="&#x105;" horiz-adv-x="1091" 
d="M512 489h92v150q0 171 -34 239t-126 68q-57 0 -93 -20.5t-36 -59.5q0 -16 7 -41h55q16 -43 16 -86q0 -63 -41 -100t-106 -37q-71 0 -107.5 40t-36.5 110q0 117 106.5 180t285.5 63q218 0 307.5 -84t89.5 -303v-403q0 -115 63 -115q34 0 53 40.5t29 156.5l47 -4
q-6 -124 -33.5 -187.5t-86.5 -97.5q-78 -45 -112 -105.5t-34 -158.5q0 -103 78 -103q33 0 59.5 20.5t55.5 63.5l30 -20q-18 -30 -32.5 -49.5t-41.5 -45.5t-64 -39.5t-83 -13.5q-92 0 -142 42t-50 120q0 43 17.5 81t53 71.5t72.5 59.5t92 59h-16q-204 0 -234 145
q-68 -145 -262 -145q-293 0 -293 243q0 77 31.5 130t93.5 82.5t141.5 41.5t188.5 12zM455 68q59 0 104 54.5t45 145.5v170h-47q-107 0 -154 -51.5t-47 -157.5q0 -89 23.5 -125t75.5 -36z" />
    <glyph glyph-name="Cacute" unicode="&#x106;" horiz-adv-x="1372" 
d="M786 1393q-94 0 -162 -35.5t-117 -114t-73 -208.5t-24 -314q0 -678 387 -678q285 0 415 406h43l-14 -447h-31q-15 41 -51 41q-24 0 -81.5 -15.5t-141.5 -31.5t-172 -16q-324 0 -502 180t-178 549q0 180 51 322.5t143 235t217 141t275 48.5q82 0 160 -16t133 -31.5
t80 -15.5q22 0 31.5 9t17.5 32h31l16 -435h-45q-62 195 -161.5 294.5t-246.5 99.5zM594 1528l278 309l60 -10q80 -17 80 -78q0 -62 -82 -96l-312 -152z" />
    <glyph glyph-name="cacute" unicode="&#x107;" horiz-adv-x="980" 
d="M584 946q-121 0 -174.5 -104t-53.5 -355q0 -231 56 -330.5t188 -99.5q67 0 118.5 24t82.5 65.5t48.5 83.5t27.5 92l57 -9q-9 -47 -21 -84.5t-42.5 -86.5t-72 -82t-113.5 -56.5t-165 -23.5q-226 0 -347.5 127.5t-121.5 363.5q0 255 138.5 389.5t379.5 134.5
q172 0 265.5 -70t93.5 -190q0 -84 -40 -128t-108 -44t-109.5 39t-41.5 111q0 37 10 73h63q11 37 11 60q0 45 -33 72.5t-96 27.5zM442 1120l146 383l63 15q10 2 31 2q35 0 55.5 -19.5t20.5 -52.5q0 -42 -51 -96l-234 -250z" />
    <glyph glyph-name="Ccircumflex" unicode="&#x108;" horiz-adv-x="1372" 
d="M786 1393q-94 0 -162 -35.5t-117 -114t-73 -208.5t-24 -314q0 -678 387 -678q285 0 415 406h43l-14 -447h-31q-15 41 -51 41q-24 0 -81.5 -15.5t-141.5 -31.5t-172 -16q-324 0 -502 180t-178 549q0 180 51 322.5t143 235t217 141t275 48.5q82 0 160 -16t133 -31.5
t80 -15.5q22 0 31.5 9t17.5 32h31l16 -435h-45q-62 195 -161.5 294.5t-246.5 99.5zM451 1526l249 278q42 25 84 25q31 0 55 -17.5t54 -54.5l188 -231l-24 -27l-287 164l-297 -166z" />
    <glyph glyph-name="ccircumflex" unicode="&#x109;" horiz-adv-x="980" 
d="M584 946q-121 0 -174.5 -104t-53.5 -355q0 -231 56 -330.5t188 -99.5q67 0 118.5 24t82.5 65.5t48.5 83.5t27.5 92l57 -9q-9 -47 -21 -84.5t-42.5 -86.5t-72 -82t-113.5 -56.5t-165 -23.5q-226 0 -347.5 127.5t-121.5 363.5q0 255 138.5 389.5t379.5 134.5
q172 0 265.5 -70t93.5 -190q0 -84 -40 -128t-108 -44t-109.5 39t-41.5 111q0 37 10 73h63q11 37 11 60q0 45 -33 72.5t-96 27.5zM272 1118l207 365q37 26 90 26q68 0 103 -71l153 -320l-26 -18l-252 239l-248 -241z" />
    <glyph glyph-name="Cdotaccent" unicode="&#x10a;" horiz-adv-x="1372" 
d="M786 1393q-94 0 -162 -35.5t-117 -114t-73 -208.5t-24 -314q0 -678 387 -678q285 0 415 406h43l-14 -447h-31q-15 41 -51 41q-24 0 -81.5 -15.5t-141.5 -31.5t-172 -16q-324 0 -502 180t-178 549q0 180 51 322.5t143 235t217 141t275 48.5q82 0 160 -16t133 -31.5
t80 -15.5q22 0 31.5 9t17.5 32h31l16 -435h-45q-62 195 -161.5 294.5t-246.5 99.5zM606 1692q0 67 40.5 110t123.5 43q77 0 121.5 -38.5t44.5 -114.5q0 -71 -41.5 -114.5t-124.5 -43.5q-88 0 -126 46t-38 112z" />
    <glyph glyph-name="cdotaccent" unicode="&#x10b;" horiz-adv-x="980" 
d="M584 946q-121 0 -174.5 -104t-53.5 -355q0 -231 56 -330.5t188 -99.5q67 0 118.5 24t82.5 65.5t48.5 83.5t27.5 92l57 -9q-9 -47 -21 -84.5t-42.5 -86.5t-72 -82t-113.5 -56.5t-165 -23.5q-226 0 -347.5 127.5t-121.5 363.5q0 255 138.5 389.5t379.5 134.5
q172 0 265.5 -70t93.5 -190q0 -84 -40 -128t-108 -44t-109.5 39t-41.5 111q0 37 10 73h63q11 37 11 60q0 45 -33 72.5t-96 27.5zM385 1309q0 67 40.5 111t123.5 44q78 0 122 -39t44 -116q0 -71 -41.5 -114.5t-124.5 -43.5q-88 0 -126 46t-38 112z" />
    <glyph glyph-name="Ccaron" unicode="&#x10c;" horiz-adv-x="1372" 
d="M786 1393q-94 0 -162 -35.5t-117 -114t-73 -208.5t-24 -314q0 -678 387 -678q285 0 415 406h43l-14 -447h-31q-15 41 -51 41q-24 0 -81.5 -15.5t-141.5 -31.5t-172 -16q-324 0 -502 180t-178 549q0 180 51 322.5t143 235t217 141t275 48.5q82 0 160 -16t133 -31.5
t80 -15.5q22 0 31.5 9t17.5 32h31l16 -435h-45q-62 195 -161.5 294.5t-246.5 99.5zM1096 1812l-252 -278q-45 -27 -84 -27q-31 0 -54 17.5t-53 56.5l-188 229l22 29l289 -166l295 166z" />
    <glyph glyph-name="ccaron" unicode="&#x10d;" horiz-adv-x="980" 
d="M584 946q-121 0 -174.5 -104t-53.5 -355q0 -231 56 -330.5t188 -99.5q67 0 118.5 24t82.5 65.5t48.5 83.5t27.5 92l57 -9q-9 -47 -21 -84.5t-42.5 -86.5t-72 -82t-113.5 -56.5t-165 -23.5q-226 0 -347.5 127.5t-121.5 363.5q0 255 138.5 389.5t379.5 134.5
q172 0 265.5 -70t93.5 -190q0 -84 -40 -128t-108 -44t-109.5 39t-41.5 111q0 37 10 73h63q11 37 11 60q0 45 -33 72.5t-96 27.5zM465 1145l-199 362l25 21l266 -236l244 234l26 -19l-172 -315q-39 -74 -102 -74q-49 0 -88 27z" />
    <glyph glyph-name="Dcaron" unicode="&#x10e;" horiz-adv-x="1505" 
d="M1417 741q0 -169 -42.5 -298.5t-116 -212.5t-182.5 -135.5t-232 -73.5t-275 -21h-514v59h156v1315h-156v60h572q193 0 336 -37t246.5 -118t155.5 -215t52 -323zM520 59h82q256 0 369.5 160t113.5 518q0 131 -13 229t-42.5 169t-69.5 117t-100.5 73t-129 38t-161.5 11h-49
v-1315zM975 1812l-252 -278q-45 -27 -84 -27q-31 0 -54 17.5t-53 56.5l-188 229l23 29l288 -166l295 166z" />
    <glyph glyph-name="dcaron" unicode="&#x10f;" horiz-adv-x="1327" 
d="M537 70q-99 0 -134.5 90.5t-35.5 322.5q0 237 41.5 340t144.5 103q86 0 140.5 -73t54.5 -163v-371q0 -114 -64.5 -181.5t-146.5 -67.5zM748 147l18 -147h401v53h-133v1483h-450v-53h157v-609q-74 121 -262 121q-200 0 -309 -130.5t-109 -383.5q0 -248 101 -374.5
t282 -126.5q216 0 304 167zM1135 1079l-35 39q100 92 100 185q0 49 -24 81.5t-74 67.5l45 55q38 45 86 45q56 0 85.5 -42t29.5 -101q0 -161 -213 -330z" />
    <glyph glyph-name="Dcroat" unicode="&#x110;" horiz-adv-x="1505" 
d="M1417 741q0 -169 -42.5 -298.5t-116 -212.5t-182.5 -135.5t-232 -73.5t-275 -21h-514v59h156v668h-168v59h168v588h-156v60h572q193 0 336 -37t246.5 -118t155.5 -215t52 -323zM520 59h82q256 0 369.5 160t113.5 518q0 131 -13 229t-42.5 169t-69.5 117t-100.5 73
t-129 38t-161.5 11h-49v-588h320v-59h-320v-668z" />
    <glyph glyph-name="dcroat" unicode="&#x111;" horiz-adv-x="1193" 
d="M766 0l-18 147q-88 -167 -304 -167q-181 0 -282 126.5t-101 374.5q0 253 109 383.5t309 130.5q188 0 262 -121v320h-338v53h338v236h-157v53h450v-289h142v-53h-142v-1141h133v-53h-401zM537 70q82 0 146.5 67.5t64.5 181.5v371q0 90 -54.5 163t-140.5 73
q-103 0 -144.5 -103t-41.5 -340q0 -232 35.5 -322.5t134.5 -90.5z" />
    <glyph glyph-name="Emacron" unicode="&#x112;" horiz-adv-x="1269" 
d="M63 1434h1047l20 -396h-47q-27 105 -62.5 171t-90 102.5t-119 49.5t-164.5 13h-135v-612h88q108 0 162.5 61t79.5 201h45v-606h-49q-31 161 -84.5 219.5t-173.5 58.5h-68v-637h145q206 0 318 93t153 284h43l-14 -436h-1094v59h142v1315h-142v60zM352 1591v129h557v-129
h-557z" />
    <glyph glyph-name="emacron" unicode="&#x113;" horiz-adv-x="1021" 
d="M51 481q0 -232 123.5 -366.5t368.5 -134.5q100 0 176 23.5t124 68t77 97.5t45 122l-56 8q-65 -246 -288 -246q-149 0 -207 103.5t-58 316.5v55h607q9 231 -93 349t-313 118q-109 0 -199.5 -31t-160 -92t-108 -161t-38.5 -230zM680 584h-324q4 196 47 279t132 83
t118.5 -79.5t26.5 -282.5zM268 1210v138h557v-138h-557z" />
    <glyph glyph-name="Ebreve" unicode="&#x114;" horiz-adv-x="1269" 
d="M63 1434h1047l20 -396h-47q-27 105 -62.5 171t-90 102.5t-119 49.5t-164.5 13h-135v-612h88q108 0 162.5 61t79.5 201h45v-606h-49q-31 161 -84.5 219.5t-173.5 58.5h-68v-637h145q206 0 318 93t153 284h43l-14 -436h-1094v59h142v1315h-142v60zM334 1784l41 6
q31 -66 88.5 -96.5t167.5 -30.5q113 0 167 28.5t81 98.5l41 -6q-6 -59 -24 -107.5t-51.5 -88.5t-90 -62.5t-131.5 -22.5t-130 22t-86.5 63t-48.5 88t-24 108z" />
    <glyph glyph-name="ebreve" unicode="&#x115;" horiz-adv-x="1021" 
d="M51 481q0 130 38.5 230t108 161t160 92t199.5 31q211 0 313 -118t93 -349h-607v-55q0 -213 58 -316.5t207 -103.5q223 0 288 246l56 -8q-16 -69 -45 -122t-77 -97.5t-124 -68t-176 -23.5q-245 0 -368.5 134.5t-123.5 366.5zM356 584h324q3 203 -26.5 282.5t-118.5 79.5
t-132 -83t-47 -279zM238 1434l43 6q30 -85 87 -120.5t173 -35.5q119 0 173.5 33.5t80.5 122.5l41 -6q-6 -68 -24.5 -123t-53 -100t-92.5 -70t-134 -25q-77 0 -132.5 24.5t-88 71t-49.5 99.5t-24 123z" />
    <glyph glyph-name="Edotaccent" unicode="&#x116;" horiz-adv-x="1269" 
d="M63 1434h1047l20 -396h-47q-27 105 -62.5 171t-90 102.5t-119 49.5t-164.5 13h-135v-612h88q108 0 162.5 61t79.5 201h45v-606h-49q-31 161 -84.5 219.5t-173.5 58.5h-68v-637h145q206 0 318 93t153 284h43l-14 -436h-1094v59h142v1315h-142v60zM463 1692q0 67 40.5 110
t123.5 43q77 0 121.5 -38.5t44.5 -114.5q0 -71 -41.5 -114.5t-124.5 -43.5q-88 0 -126 46t-38 112z" />
    <glyph glyph-name="edotaccent" unicode="&#x117;" horiz-adv-x="1021" 
d="M51 481q0 130 38.5 230t108 161t160 92t199.5 31q211 0 313 -118t93 -349h-607v-55q0 -213 58 -316.5t207 -103.5q223 0 288 246l56 -8q-16 -69 -45 -122t-77 -97.5t-124 -68t-176 -23.5q-245 0 -368.5 134.5t-123.5 366.5zM356 584h324q3 203 -26.5 282.5t-118.5 79.5
t-132 -83t-47 -279zM371 1309q0 67 40.5 111t123.5 44q77 0 121 -39t44 -116q0 -71 -41 -114.5t-124 -43.5q-88 0 -126 46t-38 112z" />
    <glyph glyph-name="Eogonek" unicode="&#x118;" horiz-adv-x="1269" 
d="M63 1434h1047l20 -396h-47q-27 105 -62.5 171t-90 102.5t-119 49.5t-164.5 13h-135v-612h88q108 0 162.5 61t79.5 201h45v-606h-49q-31 161 -84.5 219.5t-173.5 58.5h-68v-637h145q206 0 318 93t153 284h43l-14 -436h-147q-77 -60 -108.5 -115t-31.5 -151q0 -103 78 -103
q33 0 59.5 20.5t55.5 63.5l31 -20q-17 -29 -32.5 -49t-42.5 -46t-64 -39.5t-83 -13.5q-92 0 -142 42t-50 120q0 38 13.5 72t33.5 60t57 56t68.5 50.5t83.5 52.5h-873v59h142v1315h-142v60z" />
    <glyph glyph-name="eogonek" unicode="&#x119;" horiz-adv-x="1021" 
d="M51 481q0 130 38.5 230t108 161t160 92t199.5 31q211 0 313 -118t93 -349h-607v-55q0 -213 58 -316.5t207 -103.5q223 0 288 246l56 -8q-24 -97 -77 -166.5t-147 -120.5q-87 -46 -123 -106t-36 -164q0 -103 77 -103q33 0 59.5 20.5t55.5 63.5l31 -20q-18 -30 -32.5 -49.5
t-41.5 -45.5t-64 -39.5t-83 -13.5q-92 0 -142.5 42t-50.5 120q0 44 17 82t53 73t72.5 61t93.5 61q-37 -6 -84 -6q-245 0 -368.5 134.5t-123.5 366.5zM356 584h324q3 203 -26.5 282.5t-118.5 79.5t-132 -83t-47 -279z" />
    <glyph glyph-name="Ecaron" unicode="&#x11a;" horiz-adv-x="1269" 
d="M63 1434h1047l20 -396h-47q-27 105 -62.5 171t-90 102.5t-119 49.5t-164.5 13h-135v-612h88q108 0 162.5 61t79.5 201h45v-606h-49q-31 161 -84.5 219.5t-173.5 58.5h-68v-637h145q206 0 318 93t153 284h43l-14 -436h-1094v59h142v1315h-142v60zM952 1812l-252 -278
q-45 -27 -84 -27q-31 0 -53 17.5t-53 56.5l-188 229l22 29l289 -166l295 166z" />
    <glyph glyph-name="ecaron" unicode="&#x11b;" horiz-adv-x="1021" 
d="M51 481q0 130 38.5 230t108 161t160 92t199.5 31q211 0 313 -118t93 -349h-607v-55q0 -213 58 -316.5t207 -103.5q223 0 288 246l56 -8q-16 -69 -45 -122t-77 -97.5t-124 -68t-176 -23.5q-245 0 -368.5 134.5t-123.5 366.5zM356 584h324q3 203 -26.5 282.5t-118.5 79.5
t-132 -83t-47 -279zM446 1145l-198 362l24 21l267 -236l243 234l27 -19l-172 -315q-39 -74 -102 -74q-50 0 -89 27z" />
    <glyph glyph-name="Gcircumflex" unicode="&#x11c;" horiz-adv-x="1464" 
d="M778 43q175 0 211 139v342h-160v60h564v-60h-107v-522h-39q-12 26 -30 38.5t-52 12.5q-28 0 -92 -18.5t-148 -36.5t-161 -18q-324 0 -502 178.5t-178 543.5q0 182 52 326.5t145.5 237.5t219.5 141.5t277 48.5q80 0 157 -16t132 -31.5t80 -15.5q15 0 24 5.5t13 12.5t10 23
h37l14 -435h-47q-61 187 -165.5 290.5t-250.5 103.5q-124 0 -204 -65t-124 -218t-44 -401q0 -666 368 -666zM457 1526l250 278q42 25 84 25q31 0 54.5 -17.5t53.5 -54.5l188 -231l-24 -27l-287 164l-297 -166z" />
    <glyph glyph-name="gcircumflex" unicode="&#x11d;" horiz-adv-x="1044" 
d="M207 1118l207 365q37 26 90 26q35 0 59 -16.5t43 -54.5l119 -262l-35 -25l-209 188l-248 -241zM893 662q0 162 -129 256q-2 18 -2 53q0 97 28 144.5t68 47.5q51 0 57 -51l-49 -57q10 -25 39.5 -44.5t67.5 -19.5q49 0 80.5 35.5t31.5 83.5q0 64 -43 102.5t-110 38.5
q-78 0 -131.5 -44.5t-75 -111.5t-16.5 -147q-87 47 -205 47q-105 0 -186.5 -27.5t-130.5 -76t-74 -110t-25 -132.5q0 -234 203 -305q-109 -77 -154 -129.5t-45 -118.5q0 -72 61 -118t197 -46h232q157 0 217.5 -35t60.5 -122q0 -106 -94 -170t-268 -64q-152 0 -217.5 51
t-65.5 132q0 57 21 108l-91 49q-153 -39 -153 -164q0 -110 115.5 -169.5t349.5 -59.5q152 0 263.5 28.5t176.5 81.5t96 122t31 155q0 77 -23.5 135t-62 92.5t-97 55t-118.5 28t-137 7.5h-244q-59 0 -80.5 7t-21.5 23q0 33 108 105q91 -17 154 -17q180 0 285.5 93.5
t105.5 257.5zM358 649q0 119 18 186t46.5 89t75.5 22q46 0 72.5 -23t41.5 -88.5t15 -183.5q0 -88 -8.5 -144.5t-26 -87t-40 -41.5t-56.5 -11q-48 0 -76.5 22t-45 85t-16.5 175z" />
    <glyph glyph-name="Gbreve" unicode="&#x11e;" horiz-adv-x="1464" 
d="M778 43q175 0 211 139v342h-160v60h564v-60h-107v-522h-39q-12 26 -30 38.5t-52 12.5q-28 0 -92 -18.5t-148 -36.5t-161 -18q-324 0 -502 178.5t-178 543.5q0 182 52 326.5t145.5 237.5t219.5 141.5t277 48.5q80 0 157 -16t132 -31.5t80 -15.5q15 0 24 5.5t13 12.5t10 23
h37l14 -435h-47q-61 187 -165.5 290.5t-250.5 103.5q-124 0 -204 -65t-124 -218t-44 -401q0 -666 368 -666zM483 1784l41 6q31 -66 88.5 -96.5t167.5 -30.5q113 0 167 28.5t81 98.5l41 -6q-6 -59 -24 -107.5t-51.5 -88.5t-90 -62.5t-131.5 -22.5t-130 22t-86.5 63t-48.5 88
t-24 108z" />
    <glyph glyph-name="gbreve" unicode="&#x11f;" horiz-adv-x="1044" 
d="M893 662q0 -164 -105.5 -257.5t-285.5 -93.5q-63 0 -154 17q-108 -72 -108 -105q0 -16 21.5 -23t80.5 -7h244q77 0 137 -7.5t118.5 -28t97 -55t62 -92.5t23.5 -135q0 -86 -31 -155t-96 -122t-176.5 -81.5t-263.5 -28.5q-234 0 -349.5 59.5t-115.5 169.5q0 125 153 164
l91 -49q-21 -51 -21 -108q0 -81 65.5 -132t217.5 -51q174 0 268 64t94 170q0 87 -60.5 122t-217.5 35h-232q-136 0 -197 46t-61 118q0 66 45 118.5t154 129.5q-203 71 -203 305q0 71 25 132.5t74 110t130.5 76t186.5 27.5q118 0 205 -47q-5 80 16.5 147t75 111.5t131.5 44.5
q67 0 110 -38.5t43 -102.5q0 -48 -31.5 -83.5t-80.5 -35.5q-38 0 -67.5 19.5t-39.5 44.5l49 57q-6 51 -57 51q-40 0 -68 -47.5t-28 -144.5q0 -35 2 -53q129 -94 129 -256zM358 649q0 -112 16.5 -175t45 -85t76.5 -22q34 0 56.5 11t40 41.5t26 87t8.5 144.5q0 118 -15 183.5
t-41.5 88.5t-72.5 23q-47 0 -75.5 -22t-46.5 -89t-18 -186zM201 1434l43 6q30 -85 87 -120.5t173 -35.5q119 0 173.5 33.5t80.5 122.5l41 -6q-6 -68 -24.5 -123t-53 -100t-92 -70t-133.5 -25q-62 0 -110.5 17t-80 45t-54 70t-33.5 86.5t-17 99.5z" />
    <glyph glyph-name="Gdotaccent" unicode="&#x120;" horiz-adv-x="1464" 
d="M778 43q175 0 211 139v342h-160v60h564v-60h-107v-522h-39q-12 26 -30 38.5t-52 12.5q-28 0 -92 -18.5t-148 -36.5t-161 -18q-324 0 -502 178.5t-178 543.5q0 182 52 326.5t145.5 237.5t219.5 141.5t277 48.5q80 0 157 -16t132 -31.5t80 -15.5q15 0 24 5.5t13 12.5t10 23
h37l14 -435h-47q-61 187 -165.5 290.5t-250.5 103.5q-124 0 -204 -65t-124 -218t-44 -401q0 -666 368 -666zM592 1692q0 67 40.5 110t123.5 43q77 0 121.5 -38.5t44.5 -114.5q0 -71 -41.5 -114.5t-124.5 -43.5q-88 0 -126 46t-38 112z" />
    <glyph glyph-name="gdotaccent" unicode="&#x121;" horiz-adv-x="1044" 
d="M893 662q0 -164 -105.5 -257.5t-285.5 -93.5q-63 0 -154 17q-108 -72 -108 -105q0 -16 21.5 -23t80.5 -7h244q77 0 137 -7.5t118.5 -28t97 -55t62 -92.5t23.5 -135q0 -86 -31 -155t-96 -122t-176.5 -81.5t-263.5 -28.5q-234 0 -349.5 59.5t-115.5 169.5q0 125 153 164
l91 -49q-21 -51 -21 -108q0 -81 65.5 -132t217.5 -51q174 0 268 64t94 170q0 87 -60.5 122t-217.5 35h-232q-136 0 -197 46t-61 118q0 66 45 118.5t154 129.5q-203 71 -203 305q0 71 25 132.5t74 110t130.5 76t186.5 27.5q118 0 205 -47q-5 80 16.5 147t75 111.5t131.5 44.5
q67 0 110 -38.5t43 -102.5q0 -48 -31.5 -83.5t-80.5 -35.5q-38 0 -67.5 19.5t-39.5 44.5l49 57q-6 51 -57 51q-40 0 -68 -47.5t-28 -144.5q0 -35 2 -53q129 -94 129 -256zM358 649q0 -112 16.5 -175t45 -85t76.5 -22q34 0 56.5 11t40 41.5t26 87t8.5 144.5q0 118 -15 183.5
t-41.5 88.5t-72.5 23q-47 0 -75.5 -22t-46.5 -89t-18 -186zM334 1309q0 67 40.5 111t123.5 44q78 0 122 -39t44 -116q0 -71 -41.5 -114.5t-124.5 -43.5q-88 0 -126 46t-38 112z" />
    <glyph glyph-name="Gcommaaccent" unicode="&#x122;" horiz-adv-x="1464" 
d="M778 43q175 0 211 139v342h-160v60h564v-60h-107v-522h-39q-12 26 -30 38.5t-52 12.5q-28 0 -92 -18.5t-148 -36.5t-161 -18q-324 0 -502 178.5t-178 543.5q0 182 52 326.5t145.5 237.5t219.5 141.5t277 48.5q80 0 157 -16t132 -31.5t80 -15.5q15 0 24 5.5t13 12.5t10 23
h37l14 -435h-47q-61 187 -165.5 290.5t-250.5 103.5q-124 0 -204 -65t-124 -218t-44 -401q0 -666 368 -666zM707 -569l-35 43q116 111 116 186q0 37 -26 43l-47 -47q-34 12 -59 41t-25 72q0 50 34.5 81t86.5 31q68 0 102.5 -44t34.5 -111q0 -157 -182 -295z" />
    <glyph glyph-name="gcommaaccent" unicode="&#x123;" horiz-adv-x="1044" 
d="M893 662q0 162 -129 256q-2 18 -2 53q0 97 28 144.5t68 47.5q51 0 57 -51l-49 -57q10 -25 39.5 -44.5t67.5 -19.5q49 0 80.5 35.5t31.5 83.5q0 64 -43 102.5t-110 38.5q-78 0 -131.5 -44.5t-75 -111.5t-16.5 -147q-87 47 -205 47q-105 0 -186.5 -27.5t-130.5 -76
t-74 -110t-25 -132.5q0 -234 203 -305q-109 -77 -154 -129.5t-45 -118.5q0 -72 61 -118t197 -46h232q157 0 217.5 -35t60.5 -122q0 -106 -94 -170t-268 -64q-152 0 -217.5 51t-65.5 132q0 57 21 108l-91 49q-153 -39 -153 -164q0 -110 115.5 -169.5t349.5 -59.5
q152 0 263.5 28.5t176.5 81.5t96 122t31 155q0 77 -23.5 135t-62 92.5t-97 55t-118.5 28t-137 7.5h-244q-59 0 -80.5 7t-21.5 23q0 33 108 105q91 -17 154 -17q180 0 285.5 93.5t105.5 257.5zM358 649q0 119 18 186t46.5 89t75.5 22q46 0 72.5 -23t41.5 -88.5t15 -183.5
q0 -88 -8.5 -144.5t-26 -87t-40 -41.5t-56.5 -11q-48 0 -76.5 22t-45 85t-16.5 175zM543 1589l35 -43q-117 -112 -117 -186q0 -37 26 -43l48 47q34 -12 58.5 -41t24.5 -72q0 -50 -34 -81t-86 -31q-68 0 -103 44.5t-35 110.5q0 156 183 295z" />
    <glyph glyph-name="Hcircumflex" unicode="&#x124;" horiz-adv-x="1546" 
d="M63 1434h590v-60h-141v-606h522v606h-141v60h590v-60h-142v-1315h142v-59h-590v59h141v635h-522v-635h141v-59h-590v59h142v1315h-142v60zM453 1526l249 278q42 25 84 25q31 0 55 -17.5t54 -54.5l188 -231l-24 -27l-287 164l-297 -166z" />
    <glyph glyph-name="hcircumflex" unicode="&#x125;" horiz-adv-x="1257" 
d="M35 1536h422v-743q87 202 331 202q312 0 312 -342v-600h135v-53h-543v53h119v631q0 126 -26 173.5t-89 47.5q-98 0 -168.5 -90t-70.5 -221v-541h121v-53h-543v53h133v1430h-133v53zM-47 1595l250 279q40 24 84 24q31 0 54.5 -17t53.5 -54l189 -232l-25 -26l-287 164
l-297 -166z" />
    <glyph glyph-name="Hbar" unicode="&#x126;" horiz-adv-x="1546" 
d="M63 1434h590v-60h-141v-272h522v272h-141v60h590v-60h-142v-272h140v-60h-140v-983h142v-59h-590v59h141v635h-522v-635h141v-59h-590v59h142v983h-142v60h142v272h-142v60zM512 768h522v274h-522v-274z" />
    <glyph glyph-name="hbar" unicode="&#x127;" horiz-adv-x="1257" 
d="M35 1536h422v-289h331v-53h-331v-401q87 202 331 202q312 0 312 -342v-600h135v-53h-543v53h119v631q0 126 -26 173.5t-89 47.5q-98 0 -168.5 -90t-70.5 -221v-541h121v-53h-543v53h133v1141h-141v53h141v236h-133v53z" />
    <glyph glyph-name="Itilde" unicode="&#x128;" horiz-adv-x="716" 
d="M72 1434h573v-60h-133v-1315h133v-59h-573v59h133v1315h-133v60zM498 1571q-77 0 -189 49q-83 33 -123 33q-72 0 -108 -86l-39 12q34 120 84 180t141 60q13 0 25 -1t26 -4.5t23.5 -6t25.5 -8.5t23 -9t26 -11t25 -10q82 -32 119 -32q39 0 65.5 18t45.5 70l41 -10
q-33 -129 -85.5 -186.5t-125.5 -57.5z" />
    <glyph glyph-name="itilde" unicode="&#x129;" horiz-adv-x="626" 
d="M35 975h426v-922h135v-53h-557v53h133v869h-137v53zM430 1188q-76 0 -188 49q-83 33 -123 33q-73 0 -109 -86l-39 12q35 119 85 179.5t141 60.5q13 0 25 -1t26 -4.5t23.5 -6t25.5 -8.5t23 -9t26 -11t25 -10q82 -32 118 -32q39 0 65.5 17.5t45.5 68.5l41 -10
q-33 -128 -85.5 -185t-125.5 -57z" />
    <glyph glyph-name="Imacron" unicode="&#x12a;" horiz-adv-x="716" 
d="M72 1434h573v-60h-133v-1315h133v-59h-573v59h133v1315h-133v60zM84 1591v129h557v-129h-557z" />
    <glyph glyph-name="imacron" unicode="&#x12b;" horiz-adv-x="626" 
d="M35 975h426v-922h135v-53h-557v53h133v869h-137v53zM12 1210v138h557v-138h-557z" />
    <glyph glyph-name="Ibreve" unicode="&#x12c;" horiz-adv-x="716" 
d="M72 1434h573v-60h-133v-1315h133v-59h-573v59h133v1315h-133v60zM66 1784l40 6q31 -66 88.5 -96.5t167.5 -30.5q113 0 167 28.5t81 98.5l41 -6q-6 -59 -24 -107.5t-51.5 -88.5t-90 -62.5t-131.5 -22.5t-130 22t-86.5 63t-48 88t-23.5 108z" />
    <glyph glyph-name="ibreve" unicode="&#x12d;" horiz-adv-x="626" 
d="M35 975h426v-922h135v-53h-557v53h133v869h-137v53zM-12 1434l43 6q30 -85 87 -120.5t173 -35.5q119 0 173.5 33.5t80.5 122.5l41 -6q-6 -68 -24.5 -123t-53 -100t-92 -70t-133.5 -25q-62 0 -110.5 17t-80 45t-54 70t-33.5 86.5t-17 99.5z" />
    <glyph glyph-name="Iogonek" unicode="&#x12e;" horiz-adv-x="716" 
d="M72 1434h573v-60h-133v-1315h133v-59h-164q-76 -60 -107.5 -115t-31.5 -151q0 -103 78 -103q33 0 59.5 20.5t55.5 63.5l30 -20q-18 -30 -32.5 -49.5t-41.5 -45.5t-64 -39.5t-83 -13.5q-92 0 -142 42t-50 120q0 38 13.5 72t33.5 60t57 56t68.5 50.5t83.5 52.5h-336v59h133
v1315h-133v60z" />
    <glyph glyph-name="iogonek" unicode="&#x12f;" horiz-adv-x="626" 
d="M35 975h426v-922h135v-53h-160q-76 -60 -107.5 -115t-31.5 -151q0 -103 78 -103q32 0 58.5 20.5t55.5 63.5l31 -20q-18 -30 -32.5 -49.5t-41.5 -45.5t-64 -39.5t-83 -13.5q-92 0 -142.5 42t-50.5 120q0 38 13.5 72t33.5 60t57 56t68.5 50.5t83.5 52.5h-323v53h133v869
h-137v53zM135 1309q0 66 42.5 110.5t125.5 44.5q76 0 119 -39t43 -116q0 -71 -41.5 -114.5t-122.5 -43.5q-62 0 -101 25t-52 58.5t-13 74.5z" />
    <glyph glyph-name="Idotaccent" unicode="&#x130;" horiz-adv-x="716" 
d="M72 1434h573v-60h-133v-1315h133v-59h-573v59h133v1315h-133v60zM195 1692q0 67 40 110t123 43q77 0 121.5 -38.5t44.5 -114.5q0 -71 -41.5 -114.5t-124.5 -43.5q-88 0 -125.5 46t-37.5 112z" />
    <glyph glyph-name="dotlessi" unicode="&#x131;" horiz-adv-x="626" 
d="M35 975h426v-922h135v-53h-557v53h133v869h-137v53z" />
    <glyph glyph-name="IJ" unicode="&#x132;" horiz-adv-x="1697" 
d="M72 1434h573v-60h-133v-1315h133v-59h-573v59h133v1315h-133v60zM1044 1434h617v-60h-133v-893q0 -247 -111 -373t-330 -126q-151 0 -234 62t-83 173q0 83 44 128.5t116 45.5q64 0 100.5 -36.5t36.5 -98.5q0 -48 -16 -100h-64q-10 -23 -10 -39q0 -33 28.5 -53.5
t77.5 -20.5q81 0 108.5 54.5t27.5 209.5v1067h-175v60z" />
    <glyph glyph-name="Jcircumflex" unicode="&#x134;" horiz-adv-x="980" 
d="M328 1434h616v-60h-133v-893q0 -247 -110.5 -373t-329.5 -126q-152 0 -235 62t-83 173q0 83 44 128.5t116 45.5q64 0 100.5 -36.5t36.5 -98.5q0 -48 -16 -100h-64q-10 -23 -10 -39q0 -33 29 -53.5t78 -20.5q81 0 108 54.5t27 209.5v1067h-174v60zM317 1526l250 278
q42 25 84 25q31 0 55 -17.5t54 -54.5l188 -231l-24 -27l-287 164l-297 -166z" />
    <glyph glyph-name="jcircumflex" unicode="&#x135;" horiz-adv-x="608" 
d="M457 975v-850q0 -139 -23.5 -251.5t-72.5 -200.5t-133.5 -136.5t-198.5 -48.5q-72 0 -123.5 18.5t-78.5 50t-38.5 65.5t-11.5 73q0 77 44.5 120.5t110.5 43.5q62 0 95.5 -35t33.5 -96q0 -40 -12 -80h-59q-15 -34 -15 -51q0 -58 72 -58q78 0 100.5 72t22.5 274v1037h-166
v53h453zM-23 1118l207 365q37 26 90 26q68 0 103 -71l153 -320l-26 -18l-252 239l-248 -241z" />
    <glyph glyph-name="Kcommaaccent" unicode="&#x136;" horiz-adv-x="1417" 
d="M72 1434h573v-60h-133v-629l47 13l524 616h-157v60h387v-60h-133l-387 -463l503 -852h119v-59h-594v59h121l-375 621l-55 -12v-609h133v-59h-573v59h133v1315h-133v60zM641 -569l-35 43q117 112 117 186q0 37 -27 43l-47 -47q-34 12 -59 41t-25 72q0 50 34.5 81t86.5 31
q68 0 102.5 -44t34.5 -111q0 -157 -182 -295z" />
    <glyph glyph-name="kcommaaccent" unicode="&#x137;" horiz-adv-x="1212" 
d="M678 0v53h117l-269 455l-69 -14v-441h114v-53h-536v53h133v1430h-137v53h426v-983l53 14l405 355h-170v53h410v-53h-145l-273 -242l375 -627h90v-53h-524zM551 -569l-35 43q117 112 117 186q0 37 -27 43l-47 -47q-34 12 -59 41t-25 72q0 50 34.5 81t86.5 31
q68 0 102.5 -44t34.5 -111q0 -157 -182 -295z" />
    <glyph glyph-name="kgreenlandic" unicode="&#x138;" horiz-adv-x="1212" 
d="M678 0v53h117l-269 455l-69 -14v-441h114v-53h-536v53h133v869h-137v53h426v-422l53 14l405 355h-170v53h410v-53h-145l-273 -242l375 -627h90v-53h-524z" />
    <glyph glyph-name="Lacute" unicode="&#x139;" horiz-adv-x="1210" 
d="M63 1434h666v-60h-217v-1315h115q103 0 178 24.5t129.5 78t92 126.5t69.5 181h51l-29 -469h-1055v59h142v1315h-142v60zM217 1528l279 309l59 -10q80 -17 80 -78q0 -62 -82 -96l-311 -152z" />
    <glyph glyph-name="lacute" unicode="&#x13a;" horiz-adv-x="626" 
d="M33 1536h424v-1483h135v-53h-555v53h133v1430h-137v53zM96 1612l279 309l59 -10q80 -17 80 -78q0 -62 -82 -96l-311 -152z" />
    <glyph glyph-name="Lcommaaccent" unicode="&#x13b;" horiz-adv-x="1210" 
d="M63 1434h666v-60h-217v-1315h115q103 0 178 24.5t129.5 78t92 126.5t69.5 181h51l-29 -469h-1055v59h142v1315h-142v60zM569 -569l-34 43q116 111 116 186q0 37 -26 43l-47 -47q-34 12 -59 41t-25 72q0 50 34 81t86 31q68 0 103 -44.5t35 -110.5q0 -156 -183 -295z" />
    <glyph glyph-name="lcommaaccent" unicode="&#x13c;" horiz-adv-x="626" 
d="M33 1536h424v-1483h135v-53h-555v53h133v1430h-137v53zM260 -569l-35 43q117 112 117 186q0 37 -27 43l-47 -47q-34 12 -59 41t-25 72q0 50 34.5 81t86.5 31q68 0 102.5 -44t34.5 -111q0 -157 -182 -295z" />
    <glyph glyph-name="Lcaron" unicode="&#x13d;" horiz-adv-x="1210" 
d="M63 1434h666v-60h-217v-1315h115q103 0 178 24.5t129.5 78t92 126.5t69.5 181h51l-29 -469h-1055v59h142v1315h-142v60zM825 989l-34 39q100 92 100 184q0 49 -24 82t-74 68l45 55q38 45 86 45q56 0 85 -42t29 -101q0 -161 -213 -330z" />
    <glyph glyph-name="lcaron" unicode="&#x13e;" horiz-adv-x="761" 
d="M33 1536h424v-1483h135v-53h-555v53h133v1430h-137v53zM549 1079l-35 39q100 92 100 185q0 49 -24 81.5t-74 67.5l45 55q38 45 86 45q56 0 85.5 -42t29.5 -101q0 -161 -213 -330z" />
    <glyph glyph-name="Ldot" unicode="&#x13f;" horiz-adv-x="1210" 
d="M63 1434h666v-60h-217v-1315h115q103 0 178 24.5t129.5 78t92 126.5t69.5 181h51l-29 -469h-1055v59h142v1315h-142v60zM784 803q0 -66 38 -112t126 -46q83 0 124.5 43.5t41.5 114.5q0 76 -44.5 114.5t-121.5 38.5q-83 0 -123.5 -43t-40.5 -110z" />
    <glyph glyph-name="ldot" unicode="&#x140;" horiz-adv-x="724" 
d="M33 1536h424v-1483h135v-53h-555v53h133v1430h-137v53zM514 815q0 -66 38 -112t126 -46q83 0 124.5 43.5t41.5 114.5q0 77 -44.5 116.5t-121.5 39.5q-83 0 -123.5 -44.5t-40.5 -111.5z" />
    <glyph glyph-name="Lslash" unicode="&#x141;" horiz-adv-x="1210" 
d="M63 1434h666v-60h-217v-555l326 182l16 -59l-342 -192v-691h115q103 0 178 24.5t129.5 78t92 126.5t69.5 181h51l-29 -469h-1055v59h142v551l-162 -88l-16 62l178 96v694h-142v60z" />
    <glyph glyph-name="lslash" unicode="&#x142;" horiz-adv-x="626" 
d="M33 1536h424v-635l161 100l17 -55l-178 -110v-783h135v-53h-555v53h133v641l-150 -90l-16 58l166 100v721h-137v53z" />
    <glyph glyph-name="Nacute" unicode="&#x143;" horiz-adv-x="1427" 
d="M1231 1374v-1382h-182l-773 1333v-1266h134v-59h-338v59h133v1315h-133v60h495l592 -1033v973h-133v60h338v-60h-133zM551 1528l278 309l60 -10q80 -17 80 -78q0 -62 -82 -96l-312 -152z" />
    <glyph glyph-name="nacute" unicode="&#x144;" horiz-adv-x="1257" 
d="M35 975h422v-184q90 204 334 204q309 0 309 -342v-600h135v-53h-543v53h119v631q0 121 -26.5 168t-92.5 47q-94 0 -164.5 -91t-70.5 -222v-533h121v-53h-543v53h133v869h-133v53zM508 1120l145 383l64 15q10 2 31 2q35 0 55 -19.5t20 -52.5q0 -42 -51 -96l-233 -250z" />
    <glyph glyph-name="Ncommaaccent" unicode="&#x145;" horiz-adv-x="1427" 
d="M1231 1374v-1382h-182l-773 1333v-1266h134v-59h-338v59h133v1315h-133v60h495l592 -1033v973h-133v60h338v-60h-133zM678 -569l-37 43q117 112 117 186q0 37 -25 43l-49 -47q-34 13 -59 41.5t-25 71.5q0 50 35.5 81t87.5 31q67 0 101 -44.5t34 -110.5q0 -158 -180 -295z
" />
    <glyph glyph-name="ncommaaccent" unicode="&#x146;" horiz-adv-x="1257" 
d="M35 975h422v-184q90 204 334 204q309 0 309 -342v-600h135v-53h-543v53h119v631q0 121 -26.5 168t-92.5 47q-94 0 -164.5 -91t-70.5 -222v-533h121v-53h-543v53h133v869h-133v53zM575 -569l-34 43q116 111 116 186q0 37 -26 43l-47 -47q-34 12 -59 41t-25 72
q0 50 34.5 81t86.5 31q68 0 102.5 -44t34.5 -111q0 -156 -183 -295z" />
    <glyph glyph-name="Ncaron" unicode="&#x147;" horiz-adv-x="1427" 
d="M1231 1374v-1382h-182l-773 1333v-1266h134v-59h-338v59h133v1315h-133v60h495l592 -1033v973h-133v60h338v-60h-133zM1038 1812l-252 -278q-45 -27 -84 -27q-31 0 -53 17.5t-53 56.5l-188 229l22 29l289 -166l295 166z" />
    <glyph glyph-name="ncaron" unicode="&#x148;" horiz-adv-x="1257" 
d="M35 975h422v-184q90 204 334 204q309 0 309 -342v-600h135v-53h-543v53h119v631q0 121 -26.5 168t-92.5 47q-94 0 -164.5 -91t-70.5 -222v-533h121v-53h-543v53h133v869h-133v53zM539 1145l-199 362l25 21l266 -236l243 234l27 -19l-172 -315q-39 -74 -102 -74
q-49 0 -88 27z" />
    <glyph glyph-name="napostrophe" unicode="&#x149;" horiz-adv-x="1257" 
d="M35 975h422v-184q90 204 334 204q309 0 309 -342v-600h135v-53h-543v53h119v631q0 121 -26.5 168t-92.5 47q-94 0 -164.5 -91t-70.5 -222v-533h121v-53h-543v53h133v869h-133v53zM-102 928l-37 43q116 111 116 186q0 37 -24 43l-49 -47q-34 13 -59 41.5t-25 71.5
q0 50 35.5 81t87.5 31q67 0 101 -44.5t34 -110.5q0 -158 -180 -295z" />
    <glyph glyph-name="Eng" unicode="&#x14a;" horiz-adv-x="1427" 
d="M1231 1374v-1296q0 -246 -96 -373t-283 -127q-151 0 -234 59.5t-83 165.5q0 83 43.5 128.5t115.5 45.5q64 0 100.5 -36.5t36.5 -98.5q0 -48 -16 -100h-63q-11 -26 -11 -39q0 -33 29 -53.5t78 -20.5q81 0 108 56.5t27 218.5v200l-707 1221v-1266h134v-59h-338v59h133v1315
h-133v60h495l592 -1033v973h-133v60h338v-60h-133z" />
    <glyph glyph-name="eng" unicode="&#x14b;" horiz-adv-x="1257" 
d="M35 975h422v-184q90 204 334 204q309 0 309 -342v-528q0 -139 -23.5 -251.5t-73.5 -200.5t-134.5 -136.5t-198.5 -48.5q-72 0 -123.5 18.5t-78.5 50t-38.5 65.5t-11.5 73q0 77 44.5 120.5t110.5 43.5q62 0 95.5 -35t33.5 -96q0 -40 -12 -80h-59q-15 -34 -15 -51
q0 -58 72 -58q78 0 100.5 72t22.5 274v799q0 121 -26.5 168t-92.5 47q-94 0 -164.5 -91t-70.5 -222v-533h121v-53h-543v53h133v869h-133v53z" />
    <glyph glyph-name="Omacron" unicode="&#x14c;" horiz-adv-x="1495" 
d="M1083 719q0 101 -3 175.5t-11.5 149t-24 125.5t-40 96t-59 71.5t-82.5 41.5t-109 15q-74 0 -129 -19t-92.5 -61t-61.5 -95.5t-37 -136.5t-17.5 -169t-4.5 -207q0 -108 5 -189.5t18.5 -160.5t37.5 -133t61 -96t91.5 -62.5t126.5 -20.5q83 0 141.5 29t95.5 80.5t58 138.5
t28.5 186.5t7.5 241.5zM84 702q0 349 181.5 551.5t498.5 202.5q311 0 480 -192t169 -539q0 -353 -169.5 -549t-500.5 -196q-324 0 -491.5 187t-167.5 535zM477 1591v129h557v-129h-557z" />
    <glyph glyph-name="omacron" unicode="&#x14d;" horiz-adv-x="1093" 
d="M737 496q0 89 -4 153.5t-16 123.5t-32.5 95t-53.5 57t-80 21q-50 0 -85 -21t-56.5 -56.5t-33.5 -95.5t-16 -124.5t-4 -156.5t4.5 -158.5t16.5 -127t33.5 -97.5t56.5 -58.5t84 -21.5q39 0 68.5 12t50 39t33.5 62.5t20.5 91t10.5 116.5t3 146zM51 483q0 246 133.5 379
t370.5 133q487 0 487 -497q0 -249 -126 -383.5t-369 -134.5q-241 0 -368.5 131t-127.5 372zM272 1210v138h557v-138h-557z" />
    <glyph glyph-name="Obreve" unicode="&#x14e;" horiz-adv-x="1495" 
d="M1083 719q0 101 -3 175.5t-11.5 149t-24 125.5t-40 96t-59 71.5t-82.5 41.5t-109 15q-74 0 -129 -19t-92.5 -61t-61.5 -95.5t-37 -136.5t-17.5 -169t-4.5 -207q0 -108 5 -189.5t18.5 -160.5t37.5 -133t61 -96t91.5 -62.5t126.5 -20.5q83 0 141.5 29t95.5 80.5t58 138.5
t28.5 186.5t7.5 241.5zM84 702q0 349 181.5 551.5t498.5 202.5q311 0 480 -192t169 -539q0 -353 -169.5 -549t-500.5 -196q-324 0 -491.5 187t-167.5 535zM461 1784l41 6q31 -66 88.5 -96.5t167.5 -30.5q113 0 167 28.5t81 98.5l41 -6q-6 -59 -24 -107.5t-51.5 -88.5
t-90 -62.5t-131.5 -22.5t-130 22t-86.5 63t-48.5 88t-24 108z" />
    <glyph glyph-name="obreve" unicode="&#x14f;" horiz-adv-x="1093" 
d="M737 496q0 89 -4 153.5t-16 123.5t-32.5 95t-53.5 57t-80 21q-50 0 -85 -21t-56.5 -56.5t-33.5 -95.5t-16 -124.5t-4 -156.5t4.5 -158.5t16.5 -127t33.5 -97.5t56.5 -58.5t84 -21.5q39 0 68.5 12t50 39t33.5 62.5t20.5 91t10.5 116.5t3 146zM51 483q0 246 133.5 379
t370.5 133q487 0 487 -497q0 -249 -126 -383.5t-369 -134.5q-241 0 -368.5 131t-127.5 372zM254 1434l43 6q30 -85 87 -120.5t173 -35.5q119 0 173.5 33.5t80.5 122.5l41 -6q-6 -68 -24.5 -123t-53 -100t-92 -70t-133.5 -25q-62 0 -110.5 17t-80 45t-54 70t-33.5 86.5
t-17 99.5z" />
    <glyph glyph-name="Ohungarumlaut" unicode="&#x150;" horiz-adv-x="1495" 
d="M1083 719q0 101 -3 175.5t-11.5 149t-24 125.5t-40 96t-59 71.5t-82.5 41.5t-109 15q-74 0 -129 -19t-92.5 -61t-61.5 -95.5t-37 -136.5t-17.5 -169t-4.5 -207q0 -108 5 -189.5t18.5 -160.5t37.5 -133t61 -96t91.5 -62.5t126.5 -20.5q83 0 141.5 29t95.5 80.5t58 138.5
t28.5 186.5t7.5 241.5zM84 702q0 349 181.5 551.5t498.5 202.5q311 0 480 -192t169 -539q0 -353 -169.5 -549t-500.5 -196q-324 0 -491.5 187t-167.5 535zM535 1528l206 358l60 2q38 0 65 -18t27 -55q0 -51 -59 -97l-269 -215zM821 1528l217 344h58q36 0 63 -18.5t27 -55.5
q0 -48 -60 -94l-276 -201z" />
    <glyph glyph-name="ohungarumlaut" unicode="&#x151;" horiz-adv-x="1093" 
d="M737 496q0 89 -4 153.5t-16 123.5t-32.5 95t-53.5 57t-80 21q-50 0 -85 -21t-56.5 -56.5t-33.5 -95.5t-16 -124.5t-4 -156.5t4.5 -158.5t16.5 -127t33.5 -97.5t56.5 -58.5t84 -21.5q39 0 68.5 12t50 39t33.5 62.5t20.5 91t10.5 116.5t3 146zM51 483q0 246 133.5 379
t370.5 133q487 0 487 -497q0 -249 -126 -383.5t-369 -134.5q-241 0 -368.5 131t-127.5 372zM633 1126l145 383l64 15q20 4 30 4q36 0 56 -20.5t20 -53.5q0 -36 -49 -92l-233 -252zM340 1126l145 383l64 15q20 4 31 4q36 0 55.5 -20.5t19.5 -53.5q0 -36 -49 -92l-233 -252z
" />
    <glyph glyph-name="OE" unicode="&#x152;" horiz-adv-x="2146" 
d="M1153 1434h834l20 -396h-49q-26 105 -61.5 171t-90 102.5t-119 49.5t-163.5 13h-138v-612h89q108 0 162 61t79 201h47v-606h-51q-31 162 -83.5 220t-174.5 58h-68v-637h148q206 0 318 93t151 284h45l-16 -436h-879v143q-73 -73 -180.5 -118t-241.5 -45
q-316 0 -481.5 187.5t-165.5 534.5q0 348 180.5 551t493.5 203q127 0 228 -43.5t167 -122.5v144zM1083 719q0 101 -3 175.5t-11.5 149t-24 125.5t-40 96t-59 71.5t-82.5 41.5t-109 15q-74 0 -129 -19t-92.5 -61t-61.5 -95.5t-37 -136.5t-17.5 -169t-4.5 -207
q0 -108 5 -189.5t18.5 -160.5t37.5 -133t61 -96t91.5 -62.5t126.5 -20.5q83 0 141.5 29t95.5 80.5t58 138.5t28.5 186.5t7.5 241.5z" />
    <glyph glyph-name="oe" unicode="&#x153;" horiz-adv-x="1689" 
d="M1024 584h324q3 202 -27 282t-119 80q-88 0 -131 -82.5t-47 -279.5zM737 496q0 89 -4 153.5t-16 123.5t-32.5 95t-53.5 57t-80 21q-50 0 -85 -21t-56.5 -56.5t-33.5 -95.5t-16 -124.5t-4 -156.5t4.5 -158.5t16.5 -127t33.5 -97.5t56.5 -58.5t84 -21.5q39 0 68.5 12t50 39
t33.5 62.5t20.5 91t10.5 116.5t3 146zM51 483q0 246 133.5 379t370.5 133q221 0 324 -159q57 74 150 116.5t200 42.5q209 0 309.5 -118t91.5 -349h-606v-55q0 -213 57.5 -316.5t206.5 -103.5q224 0 289 246l55 -8q-74 -311 -403 -311q-119 0 -207.5 43.5t-142.5 109.5
q-126 -153 -342 -153q-234 0 -360 131.5t-126 371.5z" />
    <glyph glyph-name="Racute" unicode="&#x154;" horiz-adv-x="1400" 
d="M635 709h-123v-650h174v-59h-635v59h154v1315h-154v60h553q100 0 174 -5t146 -17.5t120 -37t86 -61.5t56 -92.5t18 -128.5q0 -91 -26 -156t-77.5 -104t-117.5 -59.5t-156 -27.5v-6q181 -22 255.5 -98.5t74.5 -251.5v-139q0 -87 13.5 -121.5t60.5 -34.5q40 0 57.5 35.5
t40.5 149.5l47 -11q-8 -50 -15 -81.5t-19 -68.5t-29.5 -59t-43.5 -42t-63 -28.5t-86 -8.5q-162 0 -222 69t-60 242v211q0 104 -46.5 155.5t-156.5 51.5zM512 1374v-606h55q161 0 234 74t73 250q0 88 -18 144t-58 86t-92 41t-133 11h-61zM451 1528l278 309l59 -10
q80 -17 80 -78q0 -62 -82 -96l-311 -152z" />
    <glyph glyph-name="racute" unicode="&#x155;" horiz-adv-x="946" 
d="M664 911q-83 0 -145 -106.5t-62 -245.5v-506h182v-53h-604v53h133v869h-133v53h422v-191q31 105 100 158t162 53q95 0 153 -57t58 -156q0 -85 -40 -129.5t-108 -44.5q-65 0 -104 38t-39 114q0 29 6 59h64q10 23 10 45q0 47 -55 47zM352 1120l146 383l63 15q10 2 31 2
q35 0 55.5 -19.5t20.5 -52.5q0 -41 -52 -96l-233 -250z" />
    <glyph glyph-name="Rcommaaccent" unicode="&#x156;" horiz-adv-x="1400" 
d="M635 709h-123v-650h174v-59h-635v59h154v1315h-154v60h553q100 0 174 -5t146 -17.5t120 -37t86 -61.5t56 -92.5t18 -128.5q0 -91 -26 -156t-77.5 -104t-117.5 -59.5t-156 -27.5v-6q181 -22 255.5 -98.5t74.5 -251.5v-139q0 -87 13.5 -121.5t60.5 -34.5q40 0 57.5 35.5
t40.5 149.5l47 -11q-8 -50 -15 -81.5t-19 -68.5t-29.5 -59t-43.5 -42t-63 -28.5t-86 -8.5q-162 0 -222 69t-60 242v211q0 104 -46.5 155.5t-156.5 51.5zM512 1374v-606h55q161 0 234 74t73 250q0 88 -18 144t-58 86t-92 41t-133 11h-61zM655 -569l-37 43q117 112 117 186
q0 37 -24 43l-49 -47q-34 13 -59 41.5t-25 71.5q0 50 35 81t87 31q67 0 101.5 -44.5t34.5 -110.5q0 -157 -181 -295z" />
    <glyph glyph-name="rcommaaccent" unicode="&#x157;" horiz-adv-x="946" 
d="M664 911q-83 0 -145 -106.5t-62 -245.5v-506h182v-53h-604v53h133v869h-133v53h422v-191q31 105 100 158t162 53q95 0 153 -57t58 -156q0 -85 -40 -129.5t-108 -44.5q-65 0 -104 38t-39 114q0 29 6 59h64q10 23 10 45q0 47 -55 47zM266 -569l-35 43q117 112 117 186
q0 37 -26 43l-48 -47q-34 12 -59 41t-25 72q0 50 34.5 81t86.5 31q68 0 103 -44.5t35 -110.5q0 -156 -183 -295z" />
    <glyph glyph-name="Rcaron" unicode="&#x158;" horiz-adv-x="1400" 
d="M635 709h-123v-650h174v-59h-635v59h154v1315h-154v60h553q100 0 174 -5t146 -17.5t120 -37t86 -61.5t56 -92.5t18 -128.5q0 -91 -26 -156t-77.5 -104t-117.5 -59.5t-156 -27.5v-6q181 -22 255.5 -98.5t74.5 -251.5v-139q0 -87 13.5 -121.5t60.5 -34.5q40 0 57.5 35.5
t40.5 149.5l47 -11q-8 -50 -15 -81.5t-19 -68.5t-29.5 -59t-43.5 -42t-63 -28.5t-86 -8.5q-162 0 -222 69t-60 242v211q0 104 -46.5 155.5t-156.5 51.5zM512 1374v-606h55q161 0 234 74t73 250q0 88 -18 144t-58 86t-92 41t-133 11h-61zM944 1812l-252 -278q-45 -27 -84 -27
q-31 0 -53 17.5t-53 56.5l-189 229l23 29l289 -166l295 166z" />
    <glyph glyph-name="rcaron" unicode="&#x159;" horiz-adv-x="946" 
d="M664 911q-83 0 -145 -106.5t-62 -245.5v-506h182v-53h-604v53h133v869h-133v53h422v-191q31 105 100 158t162 53q95 0 153 -57t58 -156q0 -85 -40 -129.5t-108 -44.5q-65 0 -104 38t-39 114q0 29 6 59h64q10 23 10 45q0 47 -55 47zM377 1145l-199 362l25 21l266 -236
l244 234l26 -19l-172 -315q-39 -74 -102 -74q-49 0 -88 27z" />
    <glyph glyph-name="Sacute" unicode="&#x15a;" horiz-adv-x="1191" 
d="M623 43q132 0 220.5 67t88.5 181q0 35 -6 63.5t-21 52.5t-30.5 42t-46 35.5t-54.5 29.5t-69.5 27t-78 24.5t-91.5 26.5q-81 22 -137 43t-111 55.5t-87.5 77.5t-52.5 107.5t-20 148.5t29.5 160.5t85 137.5t144 97.5t198.5 36.5q75 0 145.5 -16t120 -31.5t72.5 -15.5
q21 0 31 9t20 32h35l14 -414h-45q-33 89 -68 152.5t-83.5 116t-113.5 78.5t-147 26q-124 0 -197 -62.5t-73 -159.5q0 -46 18 -83t45 -62t75.5 -47.5t92 -36.5t111.5 -33q47 -12 75.5 -20.5t72.5 -23t72 -28t64.5 -35t59.5 -44t48 -54.5t39 -68t23 -82.5t9 -100.5
q0 -212 -131.5 -342.5t-354.5 -130.5q-85 0 -169.5 15t-142.5 30.5t-79 15.5q-19 0 -29 -13.5t-24 -47.5h-39l-20 477h45q31 -90 73 -162.5t99 -130.5t132 -89.5t163 -31.5zM414 1528l278 309l60 -10q79 -17 79 -78q0 -62 -81 -96l-312 -152z" />
    <glyph glyph-name="sacute" unicode="&#x15b;" horiz-adv-x="892" 
d="M82 -20v354h47q61 -289 342 -289q113 0 167 40t54 110q0 50 -35 83t-71.5 45t-125.5 33q-5 2 -8 2.5t-7.5 1.5t-8.5 2q-43 10 -71 17t-68.5 21t-66.5 28.5t-55 38t-46 51t-28 66t-11 84.5q0 144 96.5 235.5t253.5 91.5q102 0 205 -47q36 -16 57 -16q18 0 26.5 15t14.5 52
h41v-309h-45q-80 248 -295 248q-95 0 -147.5 -34.5t-52.5 -96.5q0 -78 91 -117q40 -17 165 -45q43 -10 70.5 -18t67.5 -22.5t65.5 -30.5t54.5 -41t45.5 -55t27.5 -72.5t11 -92.5q0 -156 -98.5 -244.5t-272.5 -88.5q-138 0 -258 63q-24 16 -35 16q-18 0 -29 -16t-24 -63h-43z
M334 1120l145 383l64 15q10 2 30 2q35 0 55.5 -19.5t20.5 -52.5q0 -42 -51 -96l-233 -250z" />
    <glyph glyph-name="Scircumflex" unicode="&#x15c;" horiz-adv-x="1191" 
d="M623 43q132 0 220.5 67t88.5 181q0 35 -6 63.5t-21 52.5t-30.5 42t-46 35.5t-54.5 29.5t-69.5 27t-78 24.5t-91.5 26.5q-81 22 -137 43t-111 55.5t-87.5 77.5t-52.5 107.5t-20 148.5t29.5 160.5t85 137.5t144 97.5t198.5 36.5q75 0 145.5 -16t120 -31.5t72.5 -15.5
q21 0 31 9t20 32h35l14 -414h-45q-33 89 -68 152.5t-83.5 116t-113.5 78.5t-147 26q-124 0 -197 -62.5t-73 -159.5q0 -46 18 -83t45 -62t75.5 -47.5t92 -36.5t111.5 -33q47 -12 75.5 -20.5t72.5 -23t72 -28t64.5 -35t59.5 -44t48 -54.5t39 -68t23 -82.5t9 -100.5
q0 -212 -131.5 -342.5t-354.5 -130.5q-85 0 -169.5 15t-142.5 30.5t-79 15.5q-19 0 -29 -13.5t-24 -47.5h-39l-20 477h45q31 -90 73 -162.5t99 -130.5t132 -89.5t163 -31.5zM270 1526l250 278q42 25 84 25q31 0 55 -17.5t54 -54.5l188 -231l-24 -27l-287 164l-297 -166z" />
    <glyph glyph-name="scircumflex" unicode="&#x15d;" horiz-adv-x="892" 
d="M82 -20v354h47q61 -289 342 -289q113 0 167 40t54 110q0 50 -35 83t-71.5 45t-125.5 33q-5 2 -8 2.5t-7.5 1.5t-8.5 2q-43 10 -71 17t-68.5 21t-66.5 28.5t-55 38t-46 51t-28 66t-11 84.5q0 144 96.5 235.5t253.5 91.5q102 0 205 -47q36 -16 57 -16q18 0 26.5 15t14.5 52
h41v-309h-45q-80 248 -295 248q-95 0 -147.5 -34.5t-52.5 -96.5q0 -78 91 -117q40 -17 165 -45q43 -10 70.5 -18t67.5 -22.5t65.5 -30.5t54.5 -41t45.5 -55t27.5 -72.5t11 -92.5q0 -156 -98.5 -244.5t-272.5 -88.5q-138 0 -258 63q-24 16 -35 16q-18 0 -29 -16t-24 -63h-43z
M176 1118l207 365q37 26 90 26q35 0 59 -16.5t43 -54.5l154 -320l-27 -18l-251 239l-248 -241z" />
    <glyph glyph-name="Scedilla" unicode="&#x15e;" horiz-adv-x="1191" 
d="M623 43q132 0 220.5 67t88.5 181q0 35 -6 63.5t-21 52.5t-30.5 42t-46 35.5t-54.5 29.5t-69.5 27t-78 24.5t-91.5 26.5q-81 22 -137 43t-111 55.5t-87.5 77.5t-52.5 107.5t-20 148.5t29.5 160.5t85 137.5t144 97.5t198.5 36.5q75 0 145.5 -16t120 -31.5t72.5 -15.5
q21 0 31 9t20 32h35l14 -414h-45q-33 89 -68 152.5t-83.5 116t-113.5 78.5t-147 26q-124 0 -197 -62.5t-73 -159.5q0 -46 18 -83t45 -62t75.5 -47.5t92 -36.5t111.5 -33q47 -12 75.5 -20.5t72.5 -23t72 -28t64.5 -35t59.5 -44t48 -54.5t39 -68t23 -82.5t9 -100.5
q0 -212 -131.5 -342.5t-354.5 -130.5h-4l-53 -93q49 7 57 7q88 0 136.5 -47t48.5 -123q0 -80 -61.5 -138.5t-180.5 -58.5q-82 0 -132 35.5t-50 89.5q0 36 18.5 55t48.5 19q58 0 78 -62l-45 -37q0 -27 18.5 -46t55.5 -19q42 0 64 31.5t22 111.5q0 76 -17 110.5t-65 34.5
q-28 0 -61 -8l-7 21l70 119q-94 6 -204 32.5t-128 26.5q-19 0 -29 -13.5t-24 -47.5h-39l-20 477h45q31 -90 73 -162.5t99 -130.5t132 -89.5t163 -31.5z" />
    <glyph glyph-name="scedilla" unicode="&#x15f;" horiz-adv-x="892" 
d="M82 -20v354h47q61 -289 342 -289q113 0 167 40t54 110q0 50 -35 83t-71.5 45t-125.5 33q-5 2 -8 2.5t-7.5 1.5t-8.5 2q-43 10 -71 17t-68.5 21t-66.5 28.5t-55 38t-46 51t-28 66t-11 84.5q0 144 96.5 235.5t253.5 91.5q102 0 205 -47q36 -16 57 -16q18 0 26.5 15t14.5 52
h41v-309h-45q-80 248 -295 248q-95 0 -147.5 -34.5t-52.5 -96.5q0 -78 91 -117q40 -17 165 -45q43 -10 70.5 -18t67.5 -22.5t65.5 -30.5t54.5 -41t45.5 -55t27.5 -72.5t11 -92.5q0 -155 -96 -242.5t-267 -90.5l-53 -93q49 7 57 7q88 0 136.5 -47t48.5 -123
q0 -80 -61.5 -138.5t-180.5 -58.5q-82 0 -132 35.5t-50 89.5q0 36 19 55t48 19q58 0 78 -62l-45 -37q0 -27 18.5 -46t55.5 -19q42 0 64 31.5t22 111.5q0 76 -17 110.5t-65 34.5q-29 0 -62 -8l-6 21l70 119q-113 8 -211 61q-24 16 -35 16q-18 0 -29 -16t-24 -63h-43z" />
    <glyph glyph-name="Scaron" unicode="&#x160;" horiz-adv-x="1191" 
d="M623 43q132 0 220.5 67t88.5 181q0 35 -6 63.5t-21 52.5t-30.5 42t-46 35.5t-54.5 29.5t-69.5 27t-78 24.5t-91.5 26.5q-81 22 -137 43t-111 55.5t-87.5 77.5t-52.5 107.5t-20 148.5t29.5 160.5t85 137.5t144 97.5t198.5 36.5q75 0 145.5 -16t120 -31.5t72.5 -15.5
q21 0 31 9t20 32h35l14 -414h-45q-33 89 -68 152.5t-83.5 116t-113.5 78.5t-147 26q-124 0 -197 -62.5t-73 -159.5q0 -46 18 -83t45 -62t75.5 -47.5t92 -36.5t111.5 -33q47 -12 75.5 -20.5t72.5 -23t72 -28t64.5 -35t59.5 -44t48 -54.5t39 -68t23 -82.5t9 -100.5
q0 -212 -131.5 -342.5t-354.5 -130.5q-85 0 -169.5 15t-142.5 30.5t-79 15.5q-19 0 -29 -13.5t-24 -47.5h-39l-20 477h45q31 -90 73 -162.5t99 -130.5t132 -89.5t163 -31.5zM915 1812l-251 -278q-45 -27 -84 -27q-31 0 -54 17.5t-53 56.5l-188 229l22 29l289 -166l295 166z
" />
    <glyph glyph-name="scaron" unicode="&#x161;" horiz-adv-x="892" 
d="M82 -20v354h47q61 -289 342 -289q113 0 167 40t54 110q0 50 -35 83t-71.5 45t-125.5 33q-5 2 -8 2.5t-7.5 1.5t-8.5 2q-43 10 -71 17t-68.5 21t-66.5 28.5t-55 38t-46 51t-28 66t-11 84.5q0 144 96.5 235.5t253.5 91.5q102 0 205 -47q36 -16 57 -16q18 0 26.5 15t14.5 52
h41v-309h-45q-80 248 -295 248q-95 0 -147.5 -34.5t-52.5 -96.5q0 -78 91 -117q40 -17 165 -45q43 -10 70.5 -18t67.5 -22.5t65.5 -30.5t54.5 -41t45.5 -55t27.5 -72.5t11 -92.5q0 -156 -98.5 -244.5t-272.5 -88.5q-138 0 -258 63q-24 16 -35 16q-18 0 -29 -16t-24 -63h-43z
M365 1145l-199 362l24 21l267 -236l243 234l27 -19l-172 -315q-39 -74 -102 -74q-49 0 -88 27z" />
    <glyph glyph-name="uni0162" unicode="&#x162;" horiz-adv-x="1345" 
d="M1262 1434l20 -463h-51q-30 127 -61 203.5t-77 122t-101 61.5t-140 16h-27v-1315h187v-59h-310l-65 -113q49 7 57 7q88 0 136.5 -47t48.5 -123q0 -80 -61.5 -138.5t-180.5 -58.5q-82 0 -132 35.5t-50 89.5q0 36 18.5 55t48.5 19q58 0 78 -62l-45 -37q0 -27 18.5 -46
t55.5 -19q42 0 64 31.5t22 111.5q0 76 -17 110.5t-65 34.5q-29 0 -62 -8l-6 21l80 137h-311v59h186v1315h-28q-112 0 -179 -33.5t-114 -119.5t-84 -250h-54l21 463h1180z" />
    <glyph glyph-name="uni0163" unicode="&#x163;" horiz-adv-x="796" 
d="M147 258v664h-133v53h133v264l291 74v-338h275v-53h-275v-672q0 -93 24 -134.5t89 -41.5q144 0 172 219l47 -6q-7 -65 -24.5 -115t-51 -95t-92.5 -70.5t-141 -26.5l-53 -93q49 7 57 7q88 0 136 -47t48 -123q0 -80 -61 -138.5t-180 -58.5q-82 0 -132.5 35.5t-50.5 89.5
q0 36 19 55t49 19q58 0 78 -62l-45 -37q0 -28 18 -46.5t55 -18.5q42 0 64 31.5t22 111.5q0 76 -17 110.5t-65 34.5q-28 0 -61 -8l-6 21l70 119q-125 10 -192 72.5t-67 203.5z" />
    <glyph glyph-name="Tcaron" unicode="&#x164;" horiz-adv-x="1345" 
d="M1262 1434l20 -463h-51q-30 127 -61 203.5t-77 122t-101 61.5t-140 16h-27v-1315h187v-59h-678v59h186v1315h-28q-112 0 -179 -33.5t-114 -119.5t-84 -250h-54l21 463h1180zM997 1812l-252 -278q-45 -27 -83 -27q-31 0 -54 17.5t-53 56.5l-188 229l22 29l289 -166
l295 166z" />
    <glyph glyph-name="tcaron" unicode="&#x165;" horiz-adv-x="796" 
d="M147 258v664h-133v53h133v264l291 74v-338h275v-53h-275v-672q0 -93 24 -134.5t89 -41.5q144 0 172 219l47 -6q-6 -52 -17 -94t-34.5 -83t-57 -68.5t-86 -44.5t-120.5 -17q-71 0 -124 13t-96 43.5t-65.5 86t-22.5 135.5zM532 1071l-34 39q100 92 100 184q0 49 -24 82
t-74 68l45 55q38 45 86 45q56 0 85 -42t29 -101q0 -161 -213 -330z" />
    <glyph glyph-name="Tbar" unicode="&#x166;" horiz-adv-x="1345" 
d="M1262 1434l20 -463h-51q-30 127 -61 203.5t-77 122t-101 61.5t-140 16h-27v-590h330v-59h-330v-666h187v-59h-678v59h186v666h-327v59h327v590h-28q-112 0 -179 -33.5t-114 -119.5t-84 -250h-54l21 463h1180z" />
    <glyph glyph-name="tbar" unicode="&#x167;" horiz-adv-x="796" 
d="M147 258v320h-129v53h129v291h-133v53h133v264l291 74v-338h275v-53h-275v-291h273v-53h-273v-328q0 -93 24 -134.5t89 -41.5q144 0 172 219l47 -6q-6 -52 -17 -94t-34.5 -83t-57 -68.5t-86 -44.5t-120.5 -17q-71 0 -124 13t-96 43.5t-65.5 86t-22.5 135.5z" />
    <glyph glyph-name="Utilde" unicode="&#x168;" horiz-adv-x="1427" 
d="M819 59q-94 0 -159 28.5t-99.5 82.5t-48.5 118t-14 150v936h143v60h-584v-60h133v-897q0 -139 38 -237t112 -154t170 -81t223 -25q145 0 246 33.5t158.5 100t82.5 154t25 207.5v899h129v60h-340v-60h137v-917q0 -196 -94 -297t-258 -101zM911 1571q-76 0 -188 49
q-82 33 -123 33q-72 0 -108 -86l-39 12q34 120 84 180t141 60q13 0 25 -1t26 -4.5t23.5 -6t25.5 -8.5t23 -9t26 -11t25 -10q82 -32 119 -32q39 0 65 17.5t45 70.5l41 -10q-33 -129 -85.5 -186.5t-125.5 -57.5z" />
    <glyph glyph-name="utilde" unicode="&#x169;" horiz-adv-x="1239" 
d="M1208 0h-401l-16 166q-85 -186 -318 -186q-313 0 -313 342v600h-135v53h424v-684q0 -124 25.5 -172.5t96.5 -48.5q87 0 150 82t63 198v572h-125v53h414v-922h135v-53zM721 1188q-77 0 -189 49q-83 33 -122 33q-73 0 -109 -86l-39 12q35 119 84.5 179.5t140.5 60.5
q13 0 25 -1t26.5 -4.5t23 -6t26 -9t23 -8.5t26.5 -10.5t25 -10.5q82 -32 118 -32q39 0 65.5 17.5t45.5 68.5l41 -10q-33 -128 -85.5 -185t-125.5 -57z" />
    <glyph glyph-name="Umacron" unicode="&#x16a;" horiz-adv-x="1427" 
d="M819 59q-94 0 -159 28.5t-99.5 82.5t-48.5 118t-14 150v936h143v60h-584v-60h133v-897q0 -139 38 -237t112 -154t170 -81t223 -25q145 0 246 33.5t158.5 100t82.5 154t25 207.5v899h129v60h-340v-60h137v-917q0 -196 -94 -297t-258 -101zM498 1591v129h557v-129h-557z
" />
    <glyph glyph-name="umacron" unicode="&#x16b;" horiz-adv-x="1239" 
d="M1208 0h-401l-16 166q-85 -186 -318 -186q-313 0 -313 342v600h-135v53h424v-684q0 -124 25.5 -172.5t96.5 -48.5q87 0 150 82t63 198v572h-125v53h414v-922h135v-53zM305 1210v138h557v-138h-557z" />
    <glyph glyph-name="Ubreve" unicode="&#x16c;" horiz-adv-x="1427" 
d="M819 59q164 0 258 101t94 297v917h-137v60h340v-60h-129v-899q0 -120 -25 -207.5t-82.5 -154t-158.5 -100t-246 -33.5q-127 0 -223 25t-170 81t-112 154t-38 237v897h-133v60h584v-60h-143v-936q0 -86 14 -150t48.5 -118t99.5 -82.5t159 -28.5zM479 1784l41 6
q31 -66 88.5 -96.5t167.5 -30.5q113 0 167 28.5t81 98.5l41 -6q-6 -59 -24 -107.5t-51.5 -88.5t-90 -62.5t-131.5 -22.5t-130 22t-86.5 63t-48.5 88t-24 108z" />
    <glyph glyph-name="ubreve" unicode="&#x16d;" horiz-adv-x="1239" 
d="M1208 0h-401l-16 166q-85 -186 -318 -186q-313 0 -313 342v600h-135v53h424v-684q0 -124 25.5 -172.5t96.5 -48.5q87 0 150 82t63 198v572h-125v53h414v-922h135v-53zM287 1434l43 6q30 -85 87 -120.5t173 -35.5q119 0 173.5 33.5t80.5 122.5l41 -6q-6 -68 -24.5 -123
t-53 -100t-92 -70t-133.5 -25q-62 0 -110.5 17t-80 45t-54 70t-33.5 86.5t-17 99.5z" />
    <glyph glyph-name="Uring" unicode="&#x16e;" horiz-adv-x="1427" 
d="M819 59q-94 0 -159 28.5t-99.5 82.5t-48.5 118t-14 150v936h143v60h-584v-60h133v-897q0 -139 38 -237t112 -154t170 -81t223 -25q145 0 246 33.5t158.5 100t82.5 154t25 207.5v899h129v60h-340v-60h137v-917q0 -196 -94 -297t-258 -101zM664 1702q0 -50 27.5 -83.5
t84.5 -33.5q53 0 81 33.5t28 83.5q0 49 -29.5 83t-83.5 34q-51 0 -79.5 -34.5t-28.5 -82.5zM588 1702q0 76 49 126t141 50q88 0 135.5 -47t47.5 -125q0 -82 -49 -132t-138 -50q-94 0 -140 48t-46 130z" />
    <glyph glyph-name="uring" unicode="&#x16f;" horiz-adv-x="1239" 
d="M1208 0h-401l-16 166q-85 -186 -318 -186q-313 0 -313 342v600h-135v53h424v-684q0 -124 25.5 -172.5t96.5 -48.5q87 0 150 82t63 198v572h-125v53h414v-922h135v-53zM471 1319q0 -51 28 -85t87 -34q54 0 82 33t28 86q0 51 -29 85t-85 34q-53 0 -82 -35t-29 -84z
M397 1319q0 76 49.5 126t141.5 50q88 0 135 -47t47 -125q0 -82 -48.5 -132t-137.5 -50q-94 0 -140.5 48t-46.5 130z" />
    <glyph glyph-name="Uhungarumlaut" unicode="&#x170;" horiz-adv-x="1427" 
d="M819 59q-94 0 -159 28.5t-99.5 82.5t-48.5 118t-14 150v936h143v60h-584v-60h133v-897q0 -139 38 -237t112 -154t170 -81t223 -25q145 0 246 33.5t158.5 100t82.5 154t25 207.5v899h129v60h-340v-60h137v-917q0 -196 -94 -297t-258 -101zM530 1528l207 358l60 2
q38 0 65 -18t27 -55q0 -51 -60 -97l-268 -215zM817 1528l217 344h58q36 0 63 -18.5t27 -55.5q0 -48 -60 -94l-276 -201z" />
    <glyph glyph-name="uhungarumlaut" unicode="&#x171;" horiz-adv-x="1239" 
d="M1208 0h-401l-16 166q-85 -186 -318 -186q-313 0 -313 342v600h-135v53h424v-684q0 -124 25.5 -172.5t96.5 -48.5q87 0 150 82t63 198v572h-125v53h414v-922h135v-53zM672 1126l145 383l64 15q20 4 30 4q36 0 56 -20.5t20 -53.5q0 -36 -49 -92l-233 -252zM379 1126
l145 383l64 15q20 4 30 4q36 0 56 -20.5t20 -53.5q0 -36 -49 -92l-233 -252z" />
    <glyph glyph-name="Uogonek" unicode="&#x172;" horiz-adv-x="1427" 
d="M819 59q164 0 258 101t94 297v917h-137v60h340v-60h-129v-899q0 -173 -58 -280.5t-194 -180.5q-82 -44 -118.5 -110.5t-36.5 -169.5t77 -103q33 0 59.5 20.5t55.5 63.5l31 -20q-18 -30 -32.5 -49.5t-41.5 -45.5t-64 -39.5t-83 -13.5q-92 0 -142.5 42t-50.5 120
q0 81 57 146.5t166 132.5q-57 -8 -137 -8q-127 0 -223 25t-170 81t-112 154t-38 237v897h-133v60h584v-60h-143v-936q0 -86 14 -150t48.5 -118t99.5 -82.5t159 -28.5z" />
    <glyph glyph-name="uogonek" unicode="&#x173;" horiz-adv-x="1239" 
d="M1208 0h-131q-76 -60 -107.5 -115t-31.5 -151q0 -103 78 -103q32 0 58.5 20.5t55.5 63.5l31 -20q-18 -30 -32.5 -49.5t-41.5 -45.5t-64 -39.5t-83 -13.5q-92 0 -142 42t-50 120q0 38 13.5 72t33.5 60t57 56t68.5 50.5t83.5 52.5h-197l-16 166q-85 -186 -318 -186
q-313 0 -313 342v600h-135v53h424v-684q0 -124 25.5 -172.5t96.5 -48.5q87 0 150 82t63 198v572h-125v53h414v-922h135v-53z" />
    <glyph glyph-name="Wcircumflex" unicode="&#x174;" horiz-adv-x="2066" 
d="M784 367l240 655l-119 352h-131v60h602v-60h-155l338 -983l288 983h-202v60h417v-60h-137l-416 -1382h-116l-330 921l-334 -921h-113l-487 1382h-123v60h619v-60h-166zM756 1526l250 278q42 25 84 25q31 0 54.5 -17.5t53.5 -54.5l188 -231l-24 -27l-287 164l-297 -166z
" />
    <glyph glyph-name="wcircumflex" unicode="&#x175;" horiz-adv-x="1607" 
d="M647 975v-53h92l60 -183l-178 -491l-218 674h117v53h-520v-53h96l338 -928h156l244 655l233 -655h162l282 928h97v53h-310v-53h148l-197 -666l-225 666h104v53h-481zM608 1118l207 365q37 26 90 26q68 0 103 -71l153 -320l-26 -18l-252 239l-248 -241z" />
    <glyph glyph-name="Ycircumflex" unicode="&#x176;" horiz-adv-x="1280" 
d="M754 758l303 616h-197v60h414v-60h-141l-338 -684v-631h149v-59h-606v59h149v611l-358 704h-123v60h615v-60h-158zM346 1526l250 278q42 25 84 25q31 0 54.5 -17.5t53.5 -54.5l189 -231l-25 -27l-286 164l-297 -166z" />
    <glyph glyph-name="ycircumflex" unicode="&#x177;" horiz-adv-x="1062" 
d="M8 975v-53h90l365 -922h82l-43 -127q-61 -174 -112 -250t-128 -76q-36 0 -55 14t-19 38q0 21 13 47h67q13 47 13 73q0 61 -36.5 91t-99.5 30q-64 0 -103.5 -42t-39.5 -117q0 -83 59.5 -138t169.5 -55q120 0 187.5 72.5t142.5 273.5l402 1088h100v53h-318v-53h142
l-242 -676l-242 676h138v53h-533zM283 1118l206 365q37 26 91 26q35 0 59 -16.5t43 -54.5l154 -320l-27 -18l-252 239l-248 -241z" />
    <glyph glyph-name="Ydieresis" unicode="&#x178;" horiz-adv-x="1280" 
d="M754 758l303 616h-197v60h414v-60h-141l-338 -684v-631h149v-59h-606v59h149v611l-358 704h-123v60h615v-60h-158zM748 1669q0 54 35.5 91.5t95.5 37.5t96.5 -32t36.5 -97q0 -60 -34.5 -96.5t-96.5 -36.5q-69 0 -101 38.5t-32 94.5zM344 1669q0 54 34.5 91.5t96.5 37.5
q60 0 96.5 -32t36.5 -97q0 -60 -34.5 -96.5t-96.5 -36.5q-69 0 -101 38.5t-32 94.5z" />
    <glyph glyph-name="Zacute" unicode="&#x179;" horiz-adv-x="1269" 
d="M1135 1434v-58l-678 -1317h196q189 0 303 100.5t166 319.5h49l-24 -479h-1045v51l686 1323h-190q-65 0 -109 -4.5t-87 -19t-73.5 -39.5t-60.5 -67.5t-55 -101t-51 -141.5h-49l26 433h996zM461 1528l278 309l60 -10q80 -17 80 -78q0 -62 -82 -96l-312 -152z" />
    <glyph glyph-name="zacute" unicode="&#x17a;" horiz-adv-x="1003" 
d="M930 975v-51l-533 -871h158q78 0 132 17.5t93.5 59.5t66 99.5t52.5 149.5h41l-27 -379h-839v45l542 877h-143q-70 0 -113 -6.5t-80 -22.5t-62 -51t-47 -85t-46 -132h-41l22 350h824zM387 1120l145 383l64 15q10 2 31 2q35 0 55 -19.5t20 -52.5q0 -42 -51 -96l-233 -250z
" />
    <glyph glyph-name="Zdotaccent" unicode="&#x17b;" horiz-adv-x="1269" 
d="M1135 1434v-58l-678 -1317h196q189 0 303 100.5t166 319.5h49l-24 -479h-1045v51l686 1323h-190q-65 0 -109 -4.5t-87 -19t-73.5 -39.5t-60.5 -67.5t-55 -101t-51 -141.5h-49l26 433h996zM473 1692q0 67 40.5 110t123.5 43q77 0 121.5 -38.5t44.5 -114.5
q0 -71 -41.5 -114.5t-124.5 -43.5q-88 0 -126 46t-38 112z" />
    <glyph glyph-name="zdotaccent" unicode="&#x17c;" horiz-adv-x="1003" 
d="M930 975v-51l-533 -871h158q78 0 132 17.5t93.5 59.5t66 99.5t52.5 149.5h41l-27 -379h-839v45l542 877h-143q-70 0 -113 -6.5t-80 -22.5t-62 -51t-47 -85t-46 -132h-41l22 350h824zM342 1309q0 67 40.5 111t123.5 44q78 0 122 -39t44 -116q0 -71 -41.5 -114.5
t-124.5 -43.5q-88 0 -126 46t-38 112z" />
    <glyph glyph-name="Zcaron" unicode="&#x17d;" horiz-adv-x="1269" 
d="M1135 1434v-58l-678 -1317h196q189 0 303 100.5t166 319.5h49l-24 -479h-1045v51l686 1323h-190q-65 0 -109 -4.5t-87 -19t-73.5 -39.5t-60.5 -67.5t-55 -101t-51 -141.5h-49l26 433h996zM963 1812l-252 -278q-45 -27 -84 -27q-31 0 -54 17.5t-53 56.5l-188 229l22 29
l289 -166l295 166z" />
    <glyph glyph-name="zcaron" unicode="&#x17e;" horiz-adv-x="1003" 
d="M930 975v-51l-533 -871h158q78 0 132 17.5t93.5 59.5t66 99.5t52.5 149.5h41l-27 -379h-839v45l542 877h-143q-70 0 -113 -6.5t-80 -22.5t-62 -51t-47 -85t-46 -132h-41l22 350h824zM418 1145l-199 362l25 21l266 -236l244 234l26 -19l-172 -315q-39 -74 -102 -74
q-49 0 -88 27z" />
    <glyph glyph-name="longs" unicode="&#x17f;" horiz-adv-x="727" 
d="M608 1534q-38 0 -65.5 -13t-44 -34t-26 -55.5t-12.5 -70t-3 -85.5v-1223h250v-53h-670v53h133v985q0 264 103 404.5t333 140.5q144 0 220.5 -64t76.5 -159q0 -76 -39.5 -117t-105.5 -41q-67 0 -103.5 34t-36.5 93q0 39 13 80h65q9 30 9 51q0 36 -26 55t-71 19z" />
    <glyph glyph-name="florin" unicode="&#x192;" horiz-adv-x="1077" 
d="M836 831l-11 -53h-280l-119 -674q-43 -254 -171 -395t-339 -141q-131 0 -198.5 59.5t-67.5 143.5q0 77 44.5 127.5t123.5 50.5q63 0 97 -33t34 -86q0 -38 -21 -78l-82 -6q-20 -33 -20 -63q0 -29 24.5 -46.5t73.5 -17.5q37 0 65 12.5t45.5 31.5t31.5 55.5t22 71.5t18 93
l158 895h-137l8 53h139l13 87q38 250 171 394t349 144q130 0 196 -56.5t66 -144.5q0 -78 -41 -127t-121 -49q-63 0 -97 33.5t-34 85.5q0 38 17 84l77 2q19 40 19 66q0 55 -92 55q-38 0 -66.5 -13t-47.5 -33.5t-34 -57.5t-23.5 -73t-19.5 -93l-53 -304h283z" />
    <glyph glyph-name="Aringacute" unicode="&#x1fa;" horiz-adv-x="1392" 
d="M512 1616q0 76 49 126t141 50q88 0 135.5 -47t47.5 -125q0 -65 -32 -111t-91 -63l500 -1387h122v-59h-612v59h158l-142 418h-432l-149 -418h162v-59h-363v59h121l510 1385q-125 26 -125 172zM582 1104l-205 -567h393zM526 1825l279 309l59 -10q80 -17 80 -78
q0 -62 -82 -96l-311 -152zM586 1616q0 -51 27.5 -85t86.5 -34q55 0 83 33.5t28 85.5q0 51 -29.5 85t-85.5 34q-53 0 -81.5 -35t-28.5 -84z" />
    <glyph glyph-name="aringacute" unicode="&#x1fb;" horiz-adv-x="1091" 
d="M512 489h92v150q0 171 -34 239t-126 68q-57 0 -93 -20.5t-36 -59.5q0 -16 7 -41h55q16 -43 16 -86q0 -63 -41 -100t-106 -37q-71 0 -107.5 40t-36.5 110q0 117 106.5 180t285.5 63q218 0 307.5 -84t89.5 -303v-403q0 -115 63 -115q34 0 53 40.5t29 156.5l47 -4
q-7 -167 -61.5 -235t-175.5 -68q-204 0 -234 145q-68 -145 -262 -145q-293 0 -293 243q0 77 31.5 130t93.5 82.5t141.5 41.5t188.5 12zM455 68q59 0 104 54.5t45 145.5v170h-47q-107 0 -154 -51.5t-47 -157.5q0 -89 23.5 -125t75.5 -36zM381 1264q0 -51 28 -85t87 -34
q54 0 82 33t28 86q0 51 -29 84.5t-85 33.5q-53 0 -82 -34.5t-29 -83.5zM307 1264q0 76 49.5 126t141.5 50q88 0 135 -47t47 -125q0 -82 -49 -132.5t-137 -50.5q-94 0 -140.5 48.5t-46.5 130.5zM311 1511l279 310l59 -11q80 -17 80 -77q0 -63 -82 -97l-311 -151z" />
    <glyph glyph-name="AEacute" unicode="&#x1fc;" horiz-adv-x="1966" 
d="M635 1434h1171l21 -396h-49q-26 105 -61.5 171t-90 102.5t-119.5 49.5t-164 13h-137v-631h62q125 0 182.5 57t85.5 208h47v-607h-51q-31 162 -83.5 219.5t-174.5 57.5h-68v-619h148q206 0 318 93t151 284h45l-17 -436h-1093v59h141v619h-385l-317 -619h161v-59h-352v59
h111l674 1315h-156v60zM899 1374h-31l-321 -631h352v631zM1104 1528l278 309l60 -10q80 -17 80 -78q0 -62 -82 -96l-312 -152z" />
    <glyph glyph-name="aeacute" unicode="&#x1fd;" horiz-adv-x="1556" 
d="M891 563h323q5 208 -25.5 295.5t-119.5 87.5q-90 0 -133.5 -85.5t-44.5 -297.5zM481 68q49 0 102.5 35.5t78.5 93.5q-52 104 -58 252h-53q-103 0 -149 -52t-46 -159q0 -92 29.5 -131t95.5 -39zM481 995q208 0 291 -133q56 67 141 100t181 33q210 0 313.5 -125.5
t89.5 -361.5h-606q0 -90 6 -155t23 -124.5t46 -96t76 -58t113 -21.5q224 0 289 246l55 -8q-16 -69 -45 -122t-77 -97.5t-124 -68t-176 -23.5q-265 0 -383 163q-107 -163 -332 -163q-62 0 -113.5 11.5t-96 38.5t-70 78t-25.5 123q0 77 31.5 130.5t93.5 83.5t141.5 42.5
t188.5 12.5h92v139q0 171 -34 239t-126 68q-57 0 -93 -20.5t-36 -59.5q0 -16 7 -41h55q16 -43 16 -86q0 -63 -41 -100t-106 -37q-71 0 -107.5 40t-36.5 110q0 117 104 180t275 63zM655 1120l146 383l63 15q10 2 31 2q35 0 55.5 -19.5t20.5 -52.5q0 -42 -51 -96l-234 -250z
" />
    <glyph glyph-name="Oslashacute" unicode="&#x1fe;" horiz-adv-x="1495" 
d="M84 702q0 349 181.5 551.5t498.5 202.5q98 0 199 -24l57 149l65 -22l-55 -148q186 -72 284.5 -248t98.5 -438q0 -353 -169.5 -549t-500.5 -196q-126 0 -241 32l-58 -151l-65 20l57 154q-174 75 -263 244.5t-89 422.5zM1083 719q0 226 -20 362.5t-78 212.5l-444 -1177
q80 -74 211 -74q83 0 141.5 29t95.5 80.5t58 138.5t28.5 186.5t7.5 241.5zM412 705q0 -189 17 -316t63 -207l438 1164q-68 47 -176 47q-74 0 -129 -19t-92.5 -61t-61.5 -95.5t-37 -136.5t-17.5 -169t-4.5 -207zM578 1528l278 309l59 -10q80 -17 80 -78q0 -62 -82 -96
l-311 -152z" />
    <glyph glyph-name="oslashacute" unicode="&#x1ff;" horiz-adv-x="1093" 
d="M51 483q0 246 133.5 379t370.5 133q71 0 133 -12l49 129l58 -22l-47 -121q294 -87 294 -471q0 -249 -126 -383.5t-369 -134.5q-97 0 -170 20l-47 -125l-58 21l47 122q-132 52 -200 171t-68 294zM737 496q0 244 -39 342l-282 -738q44 -71 135 -71q39 0 68.5 12t50 39
t33.5 62.5t20.5 91t10.5 116.5t3 146zM356 492q0 -212 25 -310l276 721q-40 43 -106 43q-50 0 -85 -21t-56.5 -56.5t-33.5 -95.5t-16 -124.5t-4 -156.5zM432 1120l146 383l63 15q10 2 31 2q35 0 55.5 -19.5t20.5 -52.5q0 -41 -52 -96l-233 -250z" />
    <glyph glyph-name="Scommaaccent" unicode="&#x218;" horiz-adv-x="1191" 
d="M623 43q132 0 220.5 67t88.5 181q0 35 -6 63.5t-21 52.5t-30.5 42t-46 35.5t-54.5 29.5t-69.5 27t-78 24.5t-91.5 26.5q-81 22 -137 43t-111 55.5t-87.5 77.5t-52.5 107.5t-20 148.5t29.5 160.5t85 137.5t144 97.5t198.5 36.5q75 0 145.5 -16t120 -31.5t72.5 -15.5
q21 0 31 9t20 32h35l14 -414h-45q-33 89 -68 152.5t-83.5 116t-113.5 78.5t-147 26q-124 0 -197 -62.5t-73 -159.5q0 -46 18 -83t45 -62t75.5 -47.5t92 -36.5t111.5 -33q47 -12 75.5 -20.5t72.5 -23t72 -28t64.5 -35t59.5 -44t48 -54.5t39 -68t23 -82.5t9 -100.5
q0 -212 -131.5 -342.5t-354.5 -130.5q-85 0 -169.5 15t-142.5 30.5t-79 15.5q-19 0 -29 -13.5t-24 -47.5h-39l-20 477h45q31 -90 73 -162.5t99 -130.5t132 -89.5t163 -31.5zM551 -569l-37 43q117 112 117 186q0 37 -25 43l-49 -47q-34 13 -59 41.5t-25 71.5q0 50 35.5 81
t87.5 31q67 0 101 -44.5t34 -110.5q0 -158 -180 -295z" />
    <glyph glyph-name="scommaaccent" unicode="&#x219;" horiz-adv-x="892" 
d="M82 -20v354h47q61 -289 342 -289q113 0 167 40t54 110q0 50 -35 83t-71.5 45t-125.5 33q-5 2 -8 2.5t-7.5 1.5t-8.5 2q-43 10 -71 17t-68.5 21t-66.5 28.5t-55 38t-46 51t-28 66t-11 84.5q0 144 96.5 235.5t253.5 91.5q102 0 205 -47q36 -16 57 -16q18 0 26.5 15t14.5 52
h41v-309h-45q-80 248 -295 248q-95 0 -147.5 -34.5t-52.5 -96.5q0 -78 91 -117q40 -17 165 -45q43 -10 70.5 -18t67.5 -22.5t65.5 -30.5t54.5 -41t45.5 -55t27.5 -72.5t11 -92.5q0 -156 -98.5 -244.5t-272.5 -88.5q-138 0 -258 63q-24 16 -35 16q-18 0 -29 -16t-24 -63h-43z
M410 -569l-35 43q117 112 117 186q0 37 -27 43l-47 -47q-34 12 -59 41t-25 72q0 50 34.5 81t86.5 31q68 0 102.5 -44t34.5 -111q0 -157 -182 -295z" />
    <glyph glyph-name="uni021A" unicode="&#x21a;" horiz-adv-x="1345" 
d="M1262 1434l20 -463h-51q-30 127 -61 203.5t-77 122t-101 61.5t-140 16h-27v-1315h187v-59h-678v59h186v1315h-28q-112 0 -179 -33.5t-114 -119.5t-84 -250h-54l21 463h1180zM621 -569l-37 43q116 111 116 186q0 37 -24 43l-49 -47q-34 13 -59 41.5t-25 71.5q0 50 35.5 81
t87.5 31q67 0 101 -44.5t34 -110.5q0 -158 -180 -295z" />
    <glyph glyph-name="uni021B" unicode="&#x21b;" horiz-adv-x="796" 
d="M147 258v664h-133v53h133v264l291 74v-338h275v-53h-275v-672q0 -93 24 -134.5t89 -41.5q144 0 172 219l47 -6q-6 -52 -17 -94t-34.5 -83t-57 -68.5t-86 -44.5t-120.5 -17q-71 0 -124 13t-96 43.5t-65.5 86t-22.5 135.5zM387 -569l-35 43q117 112 117 186q0 37 -27 43
l-47 -47q-34 12 -59 41t-25 72q0 50 34.5 81t86.5 31q68 0 102.5 -44t34.5 -111q0 -157 -182 -295z" />
    <glyph glyph-name="dotlessj" unicode="&#x237;" horiz-adv-x="608" 
d="M457 975v-850q0 -139 -23.5 -251.5t-72.5 -200.5t-133.5 -136.5t-198.5 -48.5q-72 0 -123.5 18.5t-78.5 50t-38.5 65.5t-11.5 73q0 77 44.5 120.5t110.5 43.5q62 0 95.5 -35t33.5 -96q0 -40 -12 -80h-59q-15 -34 -15 -51q0 -58 72 -58q78 0 100.5 72t22.5 274v1037h-166
v53h453z" />
    <glyph glyph-name="apostrophe" unicode="&#x2bc;" horiz-adv-x="432" 
d="M158 1018l-37 43q117 112 117 186q0 37 -25 43l-49 -47q-34 13 -59 41.5t-25 71.5q0 50 35.5 81t87.5 31q67 0 101 -44.5t34 -110.5q0 -158 -180 -295z" />
    <glyph glyph-name="circumflex" unicode="&#x2c6;" horiz-adv-x="1024" 
d="M240 1118l206 365q37 26 91 26q35 0 59 -16.5t43 -54.5l154 -320l-27 -18l-252 239l-248 -241z" />
    <glyph glyph-name="caron" unicode="&#x2c7;" horiz-adv-x="1024" 
d="M430 1145l-199 362l25 21l266 -236l244 234l27 -19l-172 -315q-39 -74 -103 -74q-49 0 -88 27z" />
    <glyph glyph-name="uni02C9" unicode="&#x2c9;" horiz-adv-x="1024" 
d="M233 1210v138h558v-138h-558z" />
    <glyph glyph-name="breve" unicode="&#x2d8;" horiz-adv-x="1024" 
d="M213 1434l43 6q30 -85 87 -120.5t173 -35.5q119 0 173.5 33.5t80.5 122.5l41 -6q-6 -68 -24.5 -123t-53 -100t-92 -70t-133.5 -25q-62 0 -110.5 17t-80 45t-54 70t-33.5 86.5t-17 99.5z" />
    <glyph glyph-name="dotaccent" unicode="&#x2d9;" horiz-adv-x="1024" 
d="M344 1309q0 67 40.5 111t123.5 44q78 0 122 -39t44 -116q0 -71 -41.5 -114.5t-124.5 -43.5q-88 0 -126 46t-38 112z" />
    <glyph glyph-name="ring" unicode="&#x2da;" horiz-adv-x="1024" 
d="M399 1319q0 -51 28 -85t87 -34q55 0 83 33.5t28 85.5q0 51 -29.5 85t-85.5 34q-53 0 -82 -35t-29 -84zM326 1319q0 76 49 126t141 50q88 0 135 -47t47 -125q0 -82 -48.5 -132t-137.5 -50q-94 0 -140 48t-46 130z" />
    <glyph glyph-name="ogonek" unicode="&#x2db;" horiz-adv-x="1024" 
d="M578 23h34l15 -13q-86 -66 -120 -121.5t-34 -154.5q0 -103 78 -103q33 0 59.5 20.5t55.5 63.5l30 -20q-18 -30 -32.5 -49.5t-41.5 -45.5t-64 -39.5t-83 -13.5q-92 0 -142 42t-50 120q0 29 9 56.5t20 49t36.5 46.5t43.5 40.5t57 41t60 38.5t69 42z" />
    <glyph glyph-name="tilde" unicode="&#x2dc;" horiz-adv-x="1024" 
d="M635 1188q-77 0 -189 49q-82 33 -122 33q-73 0 -109 -86l-39 12q35 119 84.5 179.5t140.5 60.5q13 0 25 -1t26 -4.5t23.5 -6t25.5 -8.5t23 -9t26 -11t25 -10q82 -32 119 -32q39 0 65.5 17.5t45.5 68.5l41 -10q-33 -128 -85.5 -185t-125.5 -57z" />
    <glyph glyph-name="hungarumlaut" unicode="&#x2dd;" horiz-adv-x="1024" 
d="M508 1126l145 383l64 15q20 4 31 4q36 0 55.5 -20.5t19.5 -53.5q0 -36 -49 -92l-233 -252zM215 1126l145 383l64 15q20 4 31 4q36 0 55.5 -20.5t19.5 -53.5q0 -36 -49 -92l-233 -252z" />
    <glyph glyph-name="uni0394" unicode="&#x394;" horiz-adv-x="1253" 
d="M1247 0h-1241l576 1466h131zM508 1108l-399 -1016h739z" />
    <glyph glyph-name="uni03A9" unicode="&#x3a9;" horiz-adv-x="1744" 
d="M981 0v188q72 66 110 112t71.5 115.5t46 159.5t12.5 224q0 67 -2.5 121.5t-11 118t-22.5 112t-39 96t-58.5 78t-82.5 49.5t-110 19q-73 0 -129.5 -23t-93 -67t-61.5 -97.5t-37.5 -126t-17.5 -140t-5 -151.5q0 -136 11 -229.5t38 -161t56.5 -109t82.5 -98.5v-190h-616
l-25 502h43q33 -175 112 -233t275 -58h127q-112 54 -191.5 111.5t-138.5 129.5t-87.5 160.5t-28.5 196.5q0 190 82 336t238.5 228.5t365.5 82.5q312 0 486.5 -166.5t174.5 -447.5q0 -73 -18.5 -141.5t-46 -121.5t-71 -104t-83 -86.5t-93 -72.5t-89.5 -58t-84 -47h148
q81 0 136.5 8t99 26.5t71.5 52.5t48 82.5t34 121.5h39l-25 -502h-641z" />
    <glyph glyph-name="uni03BC" unicode="&#x3bc;" horiz-adv-x="1325" 
d="M485 1012v-650q0 -59 4.5 -100.5t16.5 -78t36 -54.5t60 -18q76 0 132.5 76.5t56.5 220.5v585l307 19v-817q0 -54 15 -75.5t46 -21.5q24 0 40 13.5t28.5 57t17.5 120.5q8 0 23.5 -1t23.5 -1q-7 -169 -67 -238t-181 -69q-114 0 -177.5 55t-75.5 153q-34 -96 -106 -153.5
t-159 -57.5q-76 0 -136 35.5t-105 134.5l-9 -6q25 -74 71 -198t70 -196.5t27 -106.5q4 -47 -36.5 -74t-88.5 -17l-155 33v1411z" />
    <glyph glyph-name="pi" unicode="&#x3c0;" horiz-adv-x="1243" 
d="M930 758h-82q-23 -173 -23 -312q0 -44 7 -86.5t23 -86t48.5 -70.5t77.5 -27q55 0 90 31.5t55 105.5l35 -8q-10 -64 -28.5 -119.5t-47.5 -104t-72 -76.5t-95 -28q-72 0 -115.5 37t-58.5 92t-15 134q0 56 5 113.5t11.5 100.5t21.5 138.5t26 169.5l-342 22q0 -460 -31 -628
q-19 -97 -62 -138t-96 -41q-55 0 -86 32t-31 79q0 38 16.5 70t67.5 104q55 78 84.5 136t52.5 155.5t31 234.5q-17 0 -62.5 2.5t-49.5 2.5q-49 0 -74.5 -17t-52.5 -71l-43 14q65 328 223 328q52 0 339.5 -17.5t340.5 -17.5q37 0 59 18t43 70l45 -13q-35 -168 -89.5 -248.5
t-145.5 -80.5z" />
    <glyph glyph-name="Wgrave" unicode="&#x1e80;" horiz-adv-x="2066" 
d="M784 367l240 655l-119 352h-131v60h602v-60h-155l338 -983l288 983h-202v60h417v-60h-137l-416 -1382h-116l-330 921l-334 -921h-113l-487 1382h-123v60h619v-60h-166zM983 1837l279 -309l-25 -27l-311 152q-82 34 -82 96q0 61 80 78z" />
    <glyph glyph-name="wgrave" unicode="&#x1e81;" horiz-adv-x="1607" 
d="M647 975v-53h92l60 -183l-178 -491l-218 674h117v53h-520v-53h96l338 -928h156l244 655l233 -655h162l282 928h97v53h-310v-53h148l-197 -666l-225 666h104v53h-481zM856 1503l145 -383l-30 -16l-236 248q-49 49 -49 96q0 33 21 52.5t57 19.5q19 0 31 -2z" />
    <glyph glyph-name="Wacute" unicode="&#x1e82;" horiz-adv-x="2066" 
d="M784 367l240 655l-119 352h-131v60h602v-60h-155l338 -983l288 983h-202v60h417v-60h-137l-416 -1382h-116l-330 921l-334 -921h-113l-487 1382h-123v60h619v-60h-166zM899 1528l279 309l59 -10q80 -17 80 -78q0 -62 -82 -96l-311 -152z" />
    <glyph glyph-name="wacute" unicode="&#x1e83;" horiz-adv-x="1607" 
d="M647 975v-53h92l60 -183l-178 -491l-218 674h117v53h-520v-53h96l338 -928h156l244 655l233 -655h162l282 928h97v53h-310v-53h148l-197 -666l-225 666h104v53h-481zM766 1120l145 383l64 15q10 2 31 2q35 0 55 -19.5t20 -52.5q0 -42 -51 -96l-233 -250z" />
    <glyph glyph-name="Wdieresis" unicode="&#x1e84;" horiz-adv-x="2066" 
d="M784 367l240 655l-119 352h-131v60h602v-60h-155l338 -983l288 983h-202v60h417v-60h-137l-416 -1382h-116l-330 921l-334 -921h-113l-487 1382h-123v60h619v-60h-166zM1147 1669q0 54 35.5 91.5t95.5 37.5t96.5 -32t36.5 -97q0 -60 -34.5 -96.5t-96.5 -36.5
q-69 0 -101 38.5t-32 94.5zM743 1669q0 54 34.5 91.5t96.5 37.5q60 0 97 -32t37 -97q0 -60 -34.5 -96.5t-96.5 -36.5q-69 0 -101.5 38.5t-32.5 94.5z" />
    <glyph glyph-name="wdieresis" unicode="&#x1e85;" horiz-adv-x="1607" 
d="M647 922v53h481v-53h-104l225 -666l197 666h-148v53h310v-53h-97l-282 -928h-162l-233 655l-244 -655h-156l-338 928h-96v53h520v-53h-117l218 -674l178 491l-60 183h-92zM952 1290q0 55 35 92t96 37q60 0 97 -32t37 -97q0 -60 -35 -96.5t-97 -36.5q-69 0 -101 39t-32 94
zM555 1290q0 55 34.5 92t96.5 37q60 0 96.5 -32t36.5 -97q0 -60 -34 -96.5t-97 -36.5q-68 0 -100.5 39.5t-32.5 93.5z" />
    <glyph glyph-name="Ygrave" unicode="&#x1ef2;" horiz-adv-x="1280" 
d="M754 758l303 616h-197v60h414v-60h-141l-338 -684v-631h149v-59h-606v59h149v611l-358 704h-123v60h615v-60h-158zM559 1837l279 -309l-25 -27l-311 152q-82 34 -82 96q0 61 80 78z" />
    <glyph glyph-name="ygrave" unicode="&#x1ef3;" horiz-adv-x="1062" 
d="M8 975v-53h90l365 -922h82l-43 -127q-61 -174 -112 -250t-128 -76q-36 0 -55 14t-19 38q0 21 13 47h67q13 47 13 73q0 61 -36.5 91t-99.5 30q-64 0 -103.5 -42t-39.5 -117q0 -83 59.5 -138t169.5 -55q120 0 187.5 72.5t142.5 273.5l402 1088h100v53h-318v-53h142
l-242 -676l-242 676h138v53h-533zM506 1503l145 -383l-30 -16l-236 248q-49 49 -49 96q0 33 21 52.5t57 19.5q18 0 30 -2z" />
    <glyph glyph-name="thinspace" unicode="&#x2009;" horiz-adv-x="102" 
 />
    <glyph glyph-name="endash" unicode="&#x2013;" horiz-adv-x="1024" 
d="M0 537v75h1024v-75h-1024z" />
    <glyph glyph-name="emdash" unicode="&#x2014;" horiz-adv-x="2048" 
d="M0 537v75h2048v-75h-2048z" />
    <glyph glyph-name="quoteleft" unicode="&#x2018;" horiz-adv-x="503" 
d="M373 1538l24 -39q-180 -112 -180 -235q0 -52 43 -66l74 68q36 -15 64 -48.5t28 -84.5q0 -56 -39 -95t-100 -39q-76 0 -120 50t-44 133q0 201 250 356z" />
    <glyph glyph-name="quoteright" unicode="&#x2019;" horiz-adv-x="503" 
d="M150 934l-25 39q180 112 180 235q0 52 -43 66l-74 -68q-36 15 -64 48.5t-28 84.5q0 56 39.5 95t100.5 39q76 0 119.5 -50t43.5 -133q0 -202 -249 -356z" />
    <glyph glyph-name="quotesinglbase" unicode="&#x201a;" horiz-adv-x="518" 
d="M160 -293l-25 39q180 112 180 236q0 51 -43 65l-73 -67q-37 15 -65 48.5t-28 84.5q0 56 39.5 94.5t100.5 38.5q76 0 120 -50t44 -133q0 -201 -250 -356z" />
    <glyph glyph-name="quotedblleft" unicode="&#x201c;" horiz-adv-x="856" 
d="M373 1538l24 -39q-180 -112 -180 -235q0 -52 43 -66l74 68q36 -15 64 -48.5t28 -84.5q0 -56 -39 -95t-100 -39q-76 0 -120 50t-44 133q0 201 250 356zM735 1538l25 -39q-180 -112 -180 -235q0 -52 43 -66l73 68q36 -15 64 -48.5t28 -84.5q0 -56 -39 -95t-100 -39
q-76 0 -120 50t-44 133q0 201 250 356z" />
    <glyph glyph-name="quotedblright" unicode="&#x201d;" horiz-adv-x="849" 
d="M137 934l-24 39q180 112 180 235q0 52 -43 66l-74 -68q-36 15 -64 48.5t-28 84.5q0 56 39 95t100 39q76 0 120 -50t44 -133q0 -201 -250 -356zM496 934l-25 39q180 112 180 235q0 52 -43 66l-73 -68q-37 15 -65 48.5t-28 84.5q0 56 39.5 95t100.5 39q76 0 119.5 -50
t43.5 -133q0 -202 -249 -356z" />
    <glyph glyph-name="quotedblbase" unicode="&#x201e;" horiz-adv-x="876" 
d="M160 -293l-25 39q180 112 180 236q0 51 -43 65l-73 -67q-37 15 -65 48.5t-28 84.5q0 56 39.5 94.5t100.5 38.5q76 0 120 -50t44 -133q0 -201 -250 -356zM518 -293l-24 39q180 112 180 236q0 51 -43 65l-74 -67q-36 15 -64 48.5t-28 84.5q0 56 39 94.5t100 38.5
q76 0 120 -50t44 -133q0 -201 -250 -356z" />
    <glyph glyph-name="dagger" unicode="&#x2020;" horiz-adv-x="1056" 
d="M684 727v-12q-55 -106 -75 -163q-41 -124 -44 -286l-10 -512h-53l-8 510q0 53 -4 99t-13.5 87t-15.5 67.5t-22 62t-21.5 48t-24 47t-20.5 38.5v12q42 52 84.5 131.5t52.5 136.5q-52 -3 -155 -46.5t-154 -43.5q-49 0 -79 32.5t-30 82.5q0 48 31 78t82 30q49 0 149 -49
t158 -51q-2 42 -19.5 85.5t-37.5 73t-36 67.5t-16 73q0 56 36 93.5t102 37.5q63 0 93 -36.5t30 -94.5q0 -36 -17 -74t-38 -66.5t-39.5 -71.5t-20.5 -87q56 4 155.5 52t151.5 48q44 0 76.5 -26.5t32.5 -81.5t-32.5 -85t-78.5 -30q-45 0 -148.5 43.5t-156.5 46.5
q7 -53 50.5 -134.5t84.5 -131.5z" />
    <glyph glyph-name="daggerdbl" unicode="&#x2021;" horiz-adv-x="1097" 
d="M705 791v-13q-80 -94 -123 -178q56 -101 123 -170v-12q-39 -43 -60 -68t-46.5 -66t-31.5 -73q52 3 155.5 47.5t151.5 44.5q51 0 81 -32t30 -83q0 -48 -31.5 -78t-83.5 -30q-48 0 -147 49t-158 51q2 -42 19 -85.5t36.5 -73t35.5 -67.5t16 -73q0 -57 -34.5 -94t-102.5 -37
q-61 0 -92 37t-31 94q0 36 17 74t37.5 66.5t39 71.5t20.5 87q-55 -4 -154 -52t-153 -48q-44 0 -75 26.5t-31 81.5q0 56 31 85.5t77 29.5t149 -44.5t156 -47.5q-18 88 -135 205v12q74 74 123 174q-38 81 -121 174v12q121 125 137 205q-52 -3 -155 -46.5t-154 -43.5
q-49 0 -78.5 32.5t-29.5 82.5q0 48 30.5 78t81.5 30q49 0 149 -49t158 -51q-2 42 -19.5 85.5t-37 73t-35.5 67.5t-16 73q0 56 35.5 93.5t101.5 37.5q63 0 93 -36.5t30 -94.5q0 -36 -17 -74t-38 -66.5t-39.5 -71.5t-20.5 -87q56 4 156 52t152 48q44 0 76 -26.5t32 -81.5
t-32.5 -85t-78.5 -30q-45 0 -148.5 43.5t-156.5 46.5q19 -89 136 -202z" />
    <glyph glyph-name="bullet" unicode="&#x2022;" horiz-adv-x="753" 
d="M139 655q0 106 63.5 174t180.5 68q111 0 177.5 -60.5t66.5 -179.5q0 -110 -63 -177.5t-179 -67.5q-66 0 -115.5 20.5t-77 56t-40.5 77t-13 89.5z" />
    <glyph glyph-name="ellipsis" unicode="&#x2026;" horiz-adv-x="1626" 
d="M1200 141q0 70 43.5 117t118.5 47q76 0 121 -40t45 -120q0 -75 -42 -120t-120 -45q-86 0 -126 47.5t-40 113.5zM655 141q0 71 42.5 117.5t119.5 46.5q76 0 121 -40t45 -120q0 -75 -42.5 -120t-119.5 -45q-86 0 -126 47.5t-40 113.5zM113 141q0 71 43 117.5t120 46.5
q75 0 120.5 -40t45.5 -120q0 -75 -42.5 -120t-120.5 -45q-86 0 -126 47.5t-40 113.5z" />
    <glyph glyph-name="perthousand" unicode="&#x2030;" horiz-adv-x="2144" 
d="M1409 291q0 150 96 238.5t242 88.5q145 0 235.5 -77t90.5 -234q0 -105 -48.5 -181t-122.5 -111t-163 -35q-155 0 -242.5 84.5t-87.5 226.5zM670 291q0 151 95 239t243 88q144 0 234.5 -77t90.5 -234q0 -105 -48 -181t-122 -111t-164 -35q-156 0 -242.5 84.5t-86.5 226.5z
M78 1128q0 151 95 239.5t243 88.5q144 0 234.5 -77t90.5 -234q0 -156 -97.5 -242t-235.5 -86q-156 0 -243 84.5t-87 226.5zM276 1130q0 -145 30 -207.5t106 -62.5t102.5 66t26.5 215q0 151 -28 211.5t-99 60.5q-77 0 -107.5 -63t-30.5 -220zM197 0l923 1434h82l-921 -1434
h-84zM1610 293q0 -146 28.5 -208t104.5 -62q78 0 104.5 65t26.5 215q0 151 -28 211.5t-101 60.5q-77 0 -106 -62.5t-29 -219.5zM868 293q0 -145 30 -207.5t106 -62.5t102.5 65.5t26.5 214.5q0 151 -28 211.5t-99 60.5q-77 0 -107.5 -63t-30.5 -219z" />
    <glyph glyph-name="guilsinglleft" unicode="&#x2039;" horiz-adv-x="634" 
d="M117 530l354 293l31 -20l-203 -330l199 -354l-29 -21l-317 275q-31 27 -44.5 45.5t-13.5 40.5q0 34 23 71z" />
    <glyph glyph-name="guilsinglright" unicode="&#x203a;" horiz-adv-x="634" 
d="M518 391l-354 -293l-27 21l201 330l-199 352l27 22l317 -274q31 -27 44.5 -45.5t13.5 -40.5q0 -35 -23 -72z" />
    <glyph glyph-name="fraction" unicode="&#x2044;" horiz-adv-x="409" 
d="M-270 0l862 1434h82l-860 -1434h-84z" />
    <glyph glyph-name="zerosuperior" unicode="&#x2070;" horiz-adv-x="829" 
d="M37 1239q0 117 28.5 203.5t80 138t119 76t151.5 24.5t151 -24.5t118.5 -75.5t79.5 -137.5t28 -204.5q0 -230 -102.5 -337t-274.5 -107q-189 0 -284 120.5t-95 323.5zM283 1235q0 -231 24.5 -306t108.5 -75q82 0 106.5 75t24.5 304q0 238 -24 314.5t-107 76.5
q-82 0 -107.5 -79.5t-25.5 -309.5z" />
    <glyph glyph-name="foursuperior" unicode="&#x2074;" horiz-adv-x="778" 
d="M240 807v53h122v156h-352v49l357 602h223v-592h108v78h56v-217h-56v80h-108v-156h88v-53h-438zM82 1075h280v473z" />
    <glyph glyph-name="fivesuperior" unicode="&#x2075;" horiz-adv-x="702" 
d="M293 1284q-79 0 -166 -49l-31 14v402l23 18q79 -12 222 -27.5t173 -15.5q22 0 32.5 12.5t20.5 42.5l45 -6q-10 -94 -22.5 -142.5t-29 -65.5t-44.5 -17q-34 0 -104 20l-256 68l-6 -235q87 40 188 40q86 0 149.5 -22.5t97.5 -61t50 -83.5t16 -97q0 -131 -94 -207.5
t-248 -76.5q-51 0 -97 9t-89 29t-68.5 58t-25.5 90q0 54 26.5 85.5t79.5 31.5q46 0 75.5 -23.5t29.5 -68.5q0 -26 -11 -52h-41q-8 -16 -8 -36q0 -31 29 -47.5t74 -16.5q82 0 109.5 53t27.5 170t-26 162t-101 45z" />
    <glyph glyph-name="sixsuperior" unicode="&#x2076;" horiz-adv-x="776" 
d="M51 1194q0 231 108.5 359t299.5 128q123 0 188.5 -49.5t65.5 -124.5q0 -46 -27 -75t-78 -29q-43 0 -70.5 20t-27.5 62q0 29 12 59h35q6 12 6 29q0 51 -92 51q-68 0 -108 -30t-63 -110t-26 -222q69 96 207 96q114 0 185 -67.5t71 -192.5q0 -140 -91.5 -221.5t-252.5 -81.5
q-167 0 -254.5 95t-87.5 304zM276 1077q0 -48 2 -78t8.5 -60.5t19.5 -47t35 -27t54 -10.5q69 0 95 55.5t26 163.5q0 116 -22.5 163.5t-77.5 47.5q-69 0 -104.5 -56.5t-35.5 -150.5z" />
    <glyph glyph-name="sevensuperior" unicode="&#x2077;" horiz-adv-x="624" 
d="M150 938q0 70 53 152t239 309l82 100h-278q-92 0 -121.5 -22t-44.5 -103h-51l14 293h571v-133l-114 -211q-84 -156 -112 -235.5t-28 -133.5q0 -46 10 -71t38 -45l-23 -39q-106 -22 -170.5 16t-64.5 123z" />
    <glyph glyph-name="eightsuperior" unicode="&#x2078;" horiz-adv-x="763" 
d="M309 1260q-118 7 -183 60.5t-65 137.5q0 103 82.5 163t241.5 60q161 0 240.5 -56.5t79.5 -160.5q0 -88 -61.5 -141.5t-180.5 -62.5v-5q264 -22 264 -225q0 -235 -342 -235q-350 0 -350 235q0 100 68.5 158t205.5 67v5zM385 1227q-70 0 -98.5 -47t-28.5 -150
q0 -92 28 -135t99 -43t99 43.5t28 136.5q0 102 -29 148.5t-98 46.5zM283 1464q0 -95 22.5 -135.5t83.5 -40.5q55 0 76.5 41t21.5 135q0 79 -22.5 119.5t-79.5 40.5t-79.5 -40.5t-22.5 -119.5z" />
    <glyph glyph-name="ninesuperior" unicode="&#x2079;" horiz-adv-x="784" 
d="M727 1278q0 -233 -106.5 -358t-298.5 -125q-126 0 -192.5 50.5t-66.5 125.5q0 46 27.5 76t81.5 30q44 0 73 -22t29 -64q0 -29 -12 -59h-37q-6 -15 -6 -29q0 -51 90 -51q102 0 147.5 78.5t49.5 283.5q-69 -96 -207 -96q-114 0 -185 68.5t-71 193.5q0 140 92 220.5
t250 80.5q342 0 342 -403zM502 1395q0 48 -2 79t-8.5 62t-19.5 48t-34.5 27.5t-52.5 10.5q-69 0 -95 -55t-26 -162q0 -117 23 -165t78 -48q63 0 100 54.5t37 148.5z" />
    <glyph glyph-name="zeroinferior" unicode="&#x2080;" horiz-adv-x="829" 
d="M37 156q0 117 28.5 203.5t80 138t119 76t151.5 24.5t151 -24.5t118.5 -75.5t79.5 -137.5t28 -204.5q0 -230 -102.5 -337.5t-274.5 -107.5q-189 0 -284 121t-95 324zM283 152q0 -231 24.5 -306t108.5 -75q82 0 106.5 75t24.5 304q0 238 -24 314.5t-107 76.5
q-82 0 -107.5 -79.5t-25.5 -309.5z" />
    <glyph glyph-name="oneinferior" unicode="&#x2081;" horiz-adv-x="573" 
d="M182 522l-141 -16l-8 53l291 39h90v-821h104v-53h-473v53h137v745z" />
    <glyph glyph-name="twoinferior" unicode="&#x2082;" horiz-adv-x="708" 
d="M47 -276v141l139 119q131 111 185.5 201.5t54.5 209.5q0 80 -27.5 113t-99.5 33q-102 0 -102 -58q0 -15 8 -43h41q10 -23 10 -53q0 -44 -28.5 -70t-75.5 -26q-55 0 -84 33t-29 82q0 84 77.5 138t229.5 54q144 0 221.5 -54.5t77.5 -162.5q0 -67 -39 -127t-134 -139
t-296 -221h266q84 0 118.5 36t51.5 115h50l-11 -321h-604z" />
    <glyph glyph-name="threeinferior" unicode="&#x2083;" horiz-adv-x="718" 
d="M344 598q143 0 216 -51t73 -141q0 -84 -62 -138t-174 -78q139 -13 210 -71.5t71 -151.5q0 -115 -101 -185.5t-262 -70.5q-54 0 -102 9t-91.5 29t-69 58t-25.5 91q0 54 27.5 86t82.5 32q47 0 74 -25t27 -67q0 -27 -11 -53h-39q-10 -13 -10 -35q0 -30 28.5 -47.5
t84.5 -17.5q83 0 119 46t36 138q0 89 -28.5 134.5t-81.5 72.5q-73 -13 -119 -17l-6 56q113 13 159 49.5t46 138.5q0 79 -27.5 115.5t-91.5 36.5q-47 0 -73.5 -18t-26.5 -44q0 -21 8 -41h39q8 -16 8 -47q0 -42 -28 -66t-74 -24q-50 0 -76.5 29t-26.5 80q0 84 75.5 136
t221.5 52z" />
    <glyph glyph-name="fourinferior" unicode="&#x2084;" horiz-adv-x="778" 
d="M240 -276v53h122v155h-352v50l357 602h223v-592h108v78h56v-217h-56v79h-108v-155h88v-53h-438zM82 -8h280v473z" />
    <glyph glyph-name="fiveinferior" unicode="&#x2085;" horiz-adv-x="702" 
d="M293 201q-79 0 -166 -49l-31 14v401l23 19q79 -12 222 -27.5t173 -15.5q22 0 32.5 12.5t20.5 42.5l45 -6q-10 -94 -22.5 -142.5t-29 -65.5t-44.5 -17q-34 0 -104 20l-256 68l-6 -236q90 41 188 41q86 0 149.5 -22.5t97.5 -61t50 -83.5t16 -97q0 -131 -94 -208t-248 -77
q-51 0 -97 9.5t-89 29.5t-68.5 58t-25.5 90q0 53 26.5 84.5t79.5 31.5q46 0 75.5 -23.5t29.5 -68.5q0 -25 -11 -51h-41q-8 -16 -8 -37q0 -31 29 -47t74 -16q82 0 109.5 53t27.5 170t-26 162t-101 45z" />
    <glyph glyph-name="sixinferior" unicode="&#x2086;" horiz-adv-x="776" 
d="M51 111q0 231 108.5 359t299.5 128q123 0 188.5 -49.5t65.5 -124.5q0 -46 -27 -75.5t-78 -29.5q-43 0 -70.5 20t-27.5 62q0 30 12 60h35q6 12 6 28q0 52 -92 52q-68 0 -108 -30.5t-63 -110.5t-26 -222q69 96 207 96q114 0 185 -67.5t71 -192.5q0 -140 -91.5 -221.5
t-252.5 -81.5q-167 0 -254.5 95.5t-87.5 304.5zM276 -6q0 -48 2 -78t8.5 -60.5t19.5 -47t35 -27t54 -10.5q69 0 95 55.5t26 163.5q0 116 -22.5 163.5t-77.5 47.5q-69 0 -104.5 -56.5t-35.5 -150.5z" />
    <glyph glyph-name="seveninferior" unicode="&#x2087;" horiz-adv-x="624" 
d="M150 -145q0 69 52.5 150.5t239.5 309.5l82 101h-278q-92 0 -121.5 -22t-44.5 -103h-51l14 293h571v-133l-114 -211q-84 -156 -112 -235.5t-28 -133.5q0 -46 10.5 -71.5t37.5 -45.5l-23 -39q-106 -22 -170.5 16.5t-64.5 123.5z" />
    <glyph glyph-name="eightinferior" unicode="&#x2088;" horiz-adv-x="763" 
d="M309 176q-118 7 -183 60.5t-65 138.5q0 103 82.5 163t241.5 60q161 0 240.5 -56.5t79.5 -160.5q0 -88 -61.5 -142t-180.5 -63v-4q264 -22 264 -225q0 -236 -342 -236q-350 0 -350 236q0 100 68.5 158t205.5 67v4zM385 143q-70 0 -98.5 -46.5t-28.5 -149.5q0 -92 28 -135
t99 -43t99 43.5t28 136.5q0 102 -29 148t-98 46zM283 381q0 -95 22.5 -135.5t83.5 -40.5q55 0 76.5 41t21.5 135q0 79 -22.5 119.5t-79.5 40.5t-79.5 -40.5t-22.5 -119.5z" />
    <glyph glyph-name="nineinferior" unicode="&#x2089;" horiz-adv-x="784" 
d="M727 195q0 -233 -106.5 -358.5t-298.5 -125.5q-126 0 -192.5 50.5t-66.5 125.5q0 46 27.5 76.5t81.5 30.5q44 0 73 -22t29 -64q0 -30 -12 -60h-37q-6 -15 -6 -28q0 -51 90 -51q102 0 147.5 78.5t49.5 283.5q-69 -96 -207 -96q-114 0 -185 68.5t-71 193.5q0 140 92 220.5
t250 80.5q342 0 342 -403zM502 311q0 48 -2 79t-8.5 62t-19.5 48.5t-34.5 28t-52.5 10.5q-69 0 -95 -55t-26 -162q0 -117 23 -165t78 -48q63 0 100 54t37 148z" />
    <glyph glyph-name="Euro" unicode="&#x20ac;" horiz-adv-x="1255" 
d="M788 1397q-97 0 -156 -44t-92 -159t-36 -315h436l-14 -68h-424v-156h393l-14 -67h-377q4 -297 71.5 -423t217.5 -126q81 0 132.5 31t51.5 88q0 24 -8 45h-72q-14 44 -14 78q0 60 42 97.5t109 37.5q72 0 112 -45t40 -117q0 -122 -114 -198t-288 -76q-557 0 -608 608h-158
l17 67h139v41q0 76 4 115h-129l17 68h118q37 286 194 431.5t406 145.5q178 0 286 -77.5t108 -196.5q0 -72 -40 -117t-112 -45q-70 0 -111 35.5t-41 97.5q0 35 13 76h74q8 24 8 49q0 50 -48 84.5t-133 34.5z" />
    <glyph glyph-name="afii61352" unicode="&#x2116;" horiz-adv-x="2181" 
d="M1311 1133v-1147h-170l-678 1214v-889q0 -164 -58 -247.5t-184 -83.5q-96 0 -153.5 51t-57.5 131q0 75 37 116t103 41q56 0 89 -29.5t33 -80.5q0 -28 -16 -78h-74q-14 -28 -14 -49q0 -53 65 -53q85 0 125.5 68t40.5 206v979l-59 102h-125v50h473l557 -1014v704
q0 160 62.5 246t179.5 86q96 0 155.5 -51t59.5 -131q0 -74 -36.5 -116t-98.5 -42q-59 0 -94 30t-35 81q0 38 16 78h72q16 27 16 49q0 53 -67 53q-77 0 -120.5 -70t-43.5 -204zM1438 655q0 167 91.5 260t229.5 93q62 0 116 -19.5t98 -58t69.5 -105t25.5 -153.5
q0 -84 -27.5 -152.5t-73 -110.5t-101.5 -64.5t-117 -22.5q-144 0 -227.5 90.5t-83.5 242.5zM1638 657q0 -168 25 -233.5t92 -65.5q69 0 93 69.5t24 240.5q0 169 -24.5 234t-88.5 65q-70 0 -95.5 -68t-25.5 -242zM1485 180v56h536v-56h-536z" />
    <glyph glyph-name="trademark" unicode="&#x2122;" horiz-adv-x="1912" 
d="M1503 1327h312v-41h-82v-678h82v-39h-357v39h80v672l-217 -711h-96l-252 703v-664h82v-39h-203v39h68v678h-68v41h317l177 -512zM776 1327l12 -244h-30q-31 114 -79.5 162.5t-117.5 48.5h-6v-682h104v-43h-409v43h106v682h-6q-141 0 -194 -211h-35l14 244h641z" />
    <glyph glyph-name="Omega" unicode="&#x2126;" horiz-adv-x="1744" 
d="M981 0v188q72 66 110 112t71.5 115.5t46 159.5t12.5 224q0 67 -2.5 121.5t-11 118t-22.5 112t-39 96t-58.5 78t-82.5 49.5t-110 19q-73 0 -129.5 -23t-93 -67t-61.5 -97.5t-37.5 -126t-17.5 -140t-5 -151.5q0 -136 11 -229.5t38 -161t56.5 -109t82.5 -98.5v-190h-616
l-25 502h43q33 -175 112 -233t275 -58h127q-112 54 -191.5 111.5t-138.5 129.5t-87.5 160.5t-28.5 196.5q0 190 82 336t238.5 228.5t365.5 82.5q312 0 486.5 -166.5t174.5 -447.5q0 -73 -18.5 -141.5t-46 -121.5t-71 -104t-83 -86.5t-93 -72.5t-89.5 -58t-84 -47h148
q81 0 136.5 8t99 26.5t71.5 52.5t48 82.5t34 121.5h39l-25 -502h-641z" />
    <glyph glyph-name="onethird" unicode="&#x2153;" horiz-adv-x="1740" 
d="M246 1360l-142 -17l-8 54l291 39h90v-822h105v-53h-473v53h137v746zM373 0l862 1434h82l-860 -1434h-84zM1337 874q143 0 216 -51t73 -141q0 -165 -235 -215q139 -13 209.5 -71.5t70.5 -151.5q0 -115 -100.5 -185.5t-261.5 -70.5q-43 0 -81.5 5t-77.5 18t-67 33.5
t-45.5 54t-17.5 75.5q0 54 27.5 86.5t82.5 32.5q47 0 74 -25t27 -67q0 -31 -10 -54h-39q-11 -15 -11 -34q0 -30 29 -48t84 -18q83 0 119.5 46.5t36.5 137.5q0 89 -29 134.5t-82 72.5q-63 -12 -119 -16l-6 55q56 7 90.5 16.5t62.5 29.5t40 54.5t12 88.5q0 79 -27.5 115
t-91.5 36q-47 0 -73.5 -17.5t-26.5 -43.5q0 -21 8 -41h39q8 -16 8 -47q0 -42 -28 -66t-74 -24q-50 0 -76.5 29t-26.5 79q0 84 75.5 136t221.5 52z" />
    <glyph glyph-name="twothirds" unicode="&#x2154;" horiz-adv-x="1740" 
d="M72 561v141l139 119q130 111 185 202t55 210q0 80 -27.5 112.5t-99.5 32.5q-103 0 -103 -57q0 -15 8 -43h41q11 -26 11 -53q0 -44 -29 -70.5t-76 -26.5q-55 0 -84 33t-29 82q0 84 78 138.5t230 54.5q144 0 221.5 -54.5t77.5 -162.5q0 -68 -39 -127.5t-134.5 -139
t-295.5 -221.5h266q44 0 74.5 10t49 31.5t28.5 46.5t18 64h49l-10 -322h-604zM426 0l862 1434h82l-860 -1434h-84zM1370 874q143 0 216 -51t73 -141q0 -84 -61.5 -137.5t-174.5 -77.5q139 -13 210 -71.5t71 -151.5q0 -115 -101 -185.5t-262 -70.5q-54 0 -101.5 9t-91.5 28.5
t-69.5 57.5t-25.5 91q0 54 27.5 86.5t82.5 32.5q47 0 74 -25t27 -67q0 -28 -11 -54h-39q-10 -13 -10 -34q0 -30 29 -48t84 -18q83 0 119.5 46.5t36.5 137.5q0 89 -29 134.5t-82 72.5q-63 -12 -119 -16l-6 55q56 7 90.5 16.5t62.5 29.5t40 54.5t12 88.5q0 79 -27.5 115
t-91.5 36q-47 0 -73.5 -17.5t-26.5 -43.5q0 -21 8 -41h39q8 -16 8 -47q0 -42 -28 -66t-74 -24q-50 0 -76.5 29t-26.5 79q0 84 75.5 136t221.5 52z" />
    <glyph glyph-name="oneeighth" unicode="&#x215b;" horiz-adv-x="1740" 
d="M227 1360l-141 -17l-8 54l291 39h90v-822h104v-53h-473v53h137v746zM350 0l862 1434h82l-860 -1434h-84zM1274 453q-118 7 -183 60.5t-65 137.5q0 103 82.5 163t241.5 60q161 0 240 -56.5t79 -160.5q0 -88 -61.5 -141.5t-180.5 -62.5v-4q265 -23 265 -226
q0 -235 -342 -235q-351 0 -351 235q0 100 69 158.5t206 67.5v4zM1350 420q-70 0 -98.5 -47t-28.5 -150q0 -92 28 -135t99 -43t99 43.5t28 136.5q0 102 -29 148.5t-98 46.5zM1247 657q0 -94 23 -135t84 -41q55 0 76.5 41t21.5 135q0 79 -22.5 119.5t-79.5 40.5t-80 -40.5
t-23 -119.5z" />
    <glyph glyph-name="threeeighths" unicode="&#x215c;" horiz-adv-x="1740" 
d="M367 1436q143 0 215.5 -51.5t72.5 -141.5q0 -165 -235 -215q139 -13 209.5 -71.5t70.5 -151.5q0 -115 -100.5 -185.5t-261.5 -70.5q-43 0 -81.5 5t-77.5 18t-67 33.5t-45.5 54t-17.5 75.5q0 54 28 86.5t83 32.5q47 0 73.5 -25t26.5 -67q0 -30 -10 -53h-39
q-10 -13 -10 -35q0 -30 28.5 -48t83.5 -18q83 0 119.5 46.5t36.5 138.5q0 89 -29 134t-82 72q-64 -12 -118 -16l-7 55q56 7 90.5 16.5t62.5 29.5t40 54.5t12 88.5q0 79 -27.5 115t-91.5 36q-47 0 -73.5 -17.5t-26.5 -43.5q0 -21 8 -41h39q8 -16 8 -47q0 -42 -28 -66t-74 -24
q-50 0 -76 28.5t-26 79.5q0 84 75.5 136.5t221.5 52.5zM389 0l862 1434h82l-860 -1434h-84zM1298 453q-118 7 -182.5 60t-64.5 138q0 103 82.5 163t240.5 60q161 0 240.5 -56.5t79.5 -160.5q0 -88 -61.5 -141.5t-180.5 -62.5v-4q264 -22 264 -226q0 -235 -342 -235
q-350 0 -350 235q0 100 68.5 158.5t205.5 67.5v4zM1374 420q-70 0 -98.5 -47t-28.5 -150q0 -92 28 -135t99 -43t99 43.5t28 136.5q0 102 -29 148.5t-98 46.5zM1272 657q0 -95 22.5 -135.5t83.5 -40.5q55 0 77 41t22 135q0 79 -23 119.5t-80 40.5t-79.5 -40.5t-22.5 -119.5z
" />
    <glyph glyph-name="fiveeighths" unicode="&#x215d;" horiz-adv-x="1740" 
d="M324 1038q-79 0 -166 -49l-31 15v401l23 18q79 -12 222 -27.5t173 -15.5q22 0 32.5 12.5t20.5 43.5l45 -6q-10 -94 -22.5 -142.5t-29 -66t-44.5 -17.5q-31 0 -105 21l-256 67l-6 -235q90 41 189 41q86 0 149.5 -22.5t97.5 -61t50 -83.5t16 -97q0 -131 -94 -208t-248 -77
q-51 0 -97.5 9t-89.5 29t-68.5 58t-25.5 90q0 53 27 85t80 32q45 0 74.5 -23.5t29.5 -68.5q0 -28 -10 -51h-41q-8 -16 -8 -37q0 -31 28.5 -47.5t73.5 -16.5q82 0 110 53.5t28 169.5q0 117 -26 162t-101 45zM389 0l862 1434h82l-860 -1434h-84zM1290 453q-118 7 -183 60.5
t-65 137.5q0 103 82.5 163t241.5 60q161 0 240.5 -56.5t79.5 -160.5q0 -88 -61.5 -141.5t-180.5 -62.5v-4q264 -22 264 -226q0 -235 -342 -235q-350 0 -350 235q0 100 68.5 158.5t205.5 67.5v4zM1366 420q-70 0 -98.5 -47t-28.5 -150q0 -92 28 -135t99 -43t99 43.5t28 136.5
q0 102 -29 148.5t-98 46.5zM1264 657q0 -95 22.5 -135.5t83.5 -40.5q55 0 76.5 41t21.5 135q0 79 -22.5 119.5t-79.5 40.5t-79.5 -40.5t-22.5 -119.5z" />
    <glyph glyph-name="seveneighths" unicode="&#x215e;" horiz-adv-x="1740" 
d="M219 692q0 69 53 150.5t240 310.5l82 100h-279q-91 0 -120.5 -22t-44.5 -103h-52l15 293h571v-133l-115 -211q-84 -155 -111.5 -234.5t-27.5 -133.5q0 -47 10 -72t37 -45l-22 -39q-106 -22 -171 16t-65 123zM311 0l863 1434h81l-860 -1434h-84zM1251 453
q-118 7 -182.5 60t-64.5 138q0 103 82.5 163t240.5 60q161 0 240.5 -56.5t79.5 -160.5q0 -88 -61.5 -141.5t-180.5 -62.5v-4q264 -22 264 -226q0 -235 -342 -235q-350 0 -350 235q0 100 68.5 158.5t205.5 67.5v4zM1327 420q-70 0 -98.5 -47t-28.5 -150q0 -92 28 -135t99 -43
t99 43.5t28 136.5q0 102 -29 148.5t-98 46.5zM1225 657q0 -95 22.5 -135.5t83.5 -40.5q55 0 77 41t22 135q0 79 -23 119.5t-80 40.5t-79.5 -40.5t-22.5 -119.5z" />
    <glyph glyph-name="partialdiff" unicode="&#x2202;" horiz-adv-x="1196" 
d="M602 754q-59 0 -104.5 -36t-70.5 -88t-41 -122.5t-21 -128t-5 -115.5q0 -112 31.5 -166.5t106.5 -54.5q79 0 137.5 72t86.5 184.5t28 245.5q0 97 -37.5 153t-110.5 56zM612 1374q104 0 192.5 -35t156.5 -103.5t106.5 -180.5t38.5 -256q0 -118 -21.5 -231.5t-70.5 -221.5
t-120 -189t-179 -130.5t-238 -49.5q-202 0 -306.5 101.5t-104.5 288.5q0 95 28.5 179t83.5 150.5t143 105t199 38.5q109 0 183.5 -46.5t101.5 -136.5q26 159 26 273q0 139 -30 221q-58 168 -217 168q-79 0 -121 -38.5t-14 -104.5l65 -9q20 -81 -18.5 -134.5t-114.5 -53.5
q-64 0 -102.5 41t-38.5 102q0 117 101.5 184.5t270.5 67.5z" />
    <glyph glyph-name="Delta" unicode="&#x2206;" horiz-adv-x="1253" 
d="M1247 0h-1241l576 1466h131zM508 1108l-399 -1016h739z" />
    <glyph glyph-name="product" unicode="&#x220f;" horiz-adv-x="1624" 
d="M72 1434h1480v-60h-161v-1624h161v-59h-632v59h133v1624h-484v-1624h136v-59h-633v59h161v1622h-161v62z" />
    <glyph glyph-name="summation" unicode="&#x2211;" horiz-adv-x="1294" 
d="M1192 -309h-1184l-20 37l604 747l-610 930l20 29h1126l17 -385h-49q-16 80 -36.5 133.5t-49 92t-71.5 59.5t-98 30.5t-134 9.5h-342l477 -723l-588 -712h463q96 0 161.5 11.5t113 34t78 66t49.5 98.5t34 140h53z" />
    <glyph glyph-name="minus" unicode="&#x2212;" 
d="M1028 610h-930v74h930v-74z" />
    <glyph glyph-name="uni2215" unicode="&#x2215;" horiz-adv-x="409" 
d="M-285 -20l889 1476h86l-887 -1476h-88z" />
    <glyph glyph-name="uni2219" unicode="&#x2219;" horiz-adv-x="614" 
d="M133 655q0 71 42.5 117.5t119.5 46.5q76 0 121 -40t45 -120q0 -75 -42.5 -120t-119.5 -45q-86 0 -126 47.5t-40 113.5z" />
    <glyph glyph-name="radical" unicode="&#x221a;" horiz-adv-x="1120" 
d="M1092 1524l-344 -1524h-144l-364 774l-146 -67l-24 59l329 162l326 -731l301 1341z" />
    <glyph glyph-name="infinity" unicode="&#x221e;" horiz-adv-x="1318" 
d="M1217 504q0 -124 -73 -193t-173 -69q-86 0 -166.5 41.5t-173.5 132.5q-139 -174 -295 -174q-106 0 -170 67.5t-64 177.5q0 65 24.5 118t64.5 84.5t87.5 48t96.5 16.5q70 0 142 -36.5t167 -129.5q133 153 297 153q104 0 170 -61.5t66 -175.5zM350 305q124 0 242 154
q-104 97 -154.5 132.5t-103.5 35.5q-66 0 -112 -42t-46 -112q0 -74 49 -121t125 -47zM1135 508q0 70 -42 120t-120 50q-62 0 -129.5 -35t-122.5 -100q95 -102 145 -138t117 -36t109.5 34.5t42.5 104.5z" />
    <glyph glyph-name="integral" unicode="&#x222b;" horiz-adv-x="940" 
d="M500 1206q1 -74 13 -163.5t32.5 -207.5t29.5 -188q5 -37 24.5 -159.5t30.5 -219t11 -176.5q0 -103 -25.5 -194.5t-76.5 -166.5t-138 -119t-200 -44q-110 0 -190.5 60.5t-80.5 158.5q0 77 43 124.5t119 47.5q52 0 86.5 -27t42.5 -71q6 -40 -8 -84l-74 -6
q-38 -57 -15 -105.5t95 -48.5q53 0 92 45.5t55.5 108.5t16.5 133q0 80 -12.5 178.5t-36.5 238t-33 205.5q-3 19 -15.5 98.5t-20 132t-14.5 127t-7 126.5q0 80 17 152.5t53 135t88 108.5t125.5 72.5t162.5 26.5q112 0 193.5 -60.5t81.5 -158.5q0 -76 -39.5 -122t-112.5 -46
q-52 0 -87 27t-44 72q-10 36 2 81l74 7q14 40 14 65q0 80 -102 80q-173 -3 -170 -244z" />
    <glyph glyph-name="approxequal" unicode="&#x2248;" 
d="M807 240q-78 0 -253.5 49t-248.5 49q-47 0 -82.5 -24t-68.5 -81l-50 27q81 170 220 170q77 0 249 -51t242 -51q52 0 87.5 22.5t66.5 81.5l51 -26q-74 -166 -213 -166zM807 594q-78 0 -253.5 50t-248.5 50q-47 0 -82.5 -24t-68.5 -80l-50 26q80 168 220 168q77 0 249 -50
t242 -50q52 0 87.5 22t66.5 80l51 -24q-74 -168 -213 -168z" />
    <glyph glyph-name="notequal" unicode="&#x2260;" 
d="M1028 383h-586l-223 -262l-49 45l182 217h-254v74h318l207 245h-525v74h586l178 211l56 -45l-142 -166h252v-74h-315l-209 -245h524v-74z" />
    <glyph glyph-name="lessequal" unicode="&#x2264;" 
d="M1028 0h-930v74h930v-74zM1026 176l-926 395v58l926 389v-78l-813 -338l813 -344v-82z" />
    <glyph glyph-name="greaterequal" unicode="&#x2265;" 
d="M1028 0h-930v74h930v-74zM1026 571l-926 -395v82l813 344l-813 338v78l926 -389v-58z" />
    <glyph glyph-name="triangle" unicode="&#x25b3;" horiz-adv-x="870" 
d="M307 416v473l379 -234z" />
    <glyph glyph-name="lozenge" unicode="&#x25ca;" 
d="M977 635l-414 -660l-416 660l416 659zM895 633l-332 538l-338 -532l342 -543z" />
    <glyph glyph-name="circle" unicode="&#x25cb;" horiz-adv-x="1249" 
d="M205 602q0 173 123.5 296.5t296.5 123.5t296 -123.5t123 -296.5t-123 -296.5t-296 -123.5t-296.5 123.5t-123.5 296.5z" />
    <glyph glyph-name="s_t" unicode="&#xfb06;" horiz-adv-x="1677" 
d="M1028 258v664h-133v53h133v266q-38 13 -79.5 42.5t-76.5 60.5t-72 61t-81 49t-90 19q-90 0 -138.5 -53.5t-48.5 -143.5q0 -92 65.5 -188t131.5 -134q40 -20 63 -20q18 0 26.5 14t14.5 51h41v-309h-45q-80 248 -295 248q-95 0 -147.5 -34.5t-52.5 -96.5q0 -19 4 -35
t14.5 -29.5t20.5 -23.5t30 -19t33.5 -15t40 -13t42 -11t47.5 -11t48 -11q54 -13 93.5 -26t85 -38.5t73.5 -58.5t47 -85t19 -118q0 -156 -98.5 -244.5t-272.5 -88.5q-138 0 -258 63q-24 16 -35 16q-18 0 -29 -16t-24 -63h-43v354h47q61 -289 342 -289q113 0 167 40t54 110
q0 29 -12.5 52t-29.5 38t-49.5 28.5t-58 20.5t-69.5 18q-147 35 -199 56q-146 60 -176 184q-8 35 -8 76q0 144 96.5 235.5t253.5 91.5q42 0 76 -6q-137 148 -137 287q0 110 69 183t181 73q54 0 104.5 -19t90 -48.5t74 -60t70.5 -60t66 -41.5q23 124 101.5 190t199.5 66
q95 0 148 -38t53 -114q0 -84 -62 -133t-157 -51v-248h276v-53h-276v-672q0 -92 24.5 -134t88.5 -42q144 0 172 219l49 -6q-7 -66 -24.5 -116.5t-52 -96t-95 -70t-144.5 -24.5q-71 0 -124 13t-95.5 43.5t-65 86t-22.5 135.5zM1317 1405v-125q66 2 107.5 36.5t41.5 98.5
q0 42 -21 64t-52 22q-39 0 -57.5 -28t-18.5 -68z" />
    <glyph glyph-name="questiondown.alt" horiz-adv-x="1187" 
d="M416 -70q0 -194 58 -275t177 -81q87 0 136 38.5t49 94.5q0 11 -9 43h-55q-16 43 -16 88q0 62 41.5 99.5t105.5 37.5q71 0 108.5 -44.5t37.5 -114.5q0 -122 -119.5 -203.5t-321.5 -81.5q-219 0 -345 94.5t-126 284.5q0 76 25.5 140t68 106.5t98 72t113.5 43t117 13.5
q80 0 139 -23v348h58v-366q41 -30 41 -72q0 -20 -12.5 -34.5t-34.5 -14.5q-25 0 -40.5 25.5t-9.5 66.5q-50 16 -94 16q-91 0 -140.5 -69.5t-49.5 -231.5zM866 854q0 -61 -37.5 -102t-103.5 -41q-65 0 -104 35t-39 104q0 66 36.5 105.5t104.5 39.5q75 0 109 -40.5t34 -100.5z
" />
    <glyph glyph-name="question.alt" horiz-adv-x="1187" 
d="M764 1044q0 194 -58.5 275.5t-177.5 81.5q-87 0 -135.5 -38.5t-48.5 -94.5q0 -15 8 -43h56q16 -43 16 -88q0 -62 -42 -100t-106 -38q-70 0 -107.5 45t-37.5 115q0 122 119.5 203.5t320.5 81.5q219 0 345 -94.5t126 -284.5q0 -76 -25.5 -140t-67.5 -106.5t-97.5 -72
t-113.5 -43t-117 -13.5q-81 0 -140 23v-348h-57v366q-41 30 -41 72q0 20 12.5 34.5t34.5 14.5q25 0 40 -25.5t9 -66.5q53 -17 94 -17q91 0 141 69.5t50 231.5zM313 121q0 61 37.5 102t104.5 41q65 0 104 -35t39 -104q0 -66 -36.5 -105.5t-104.5 -39.5q-76 0 -110 40.5
t-34 100.5z" />
    <glyph glyph-name="at.case" horiz-adv-x="1769" 
d="M887 1106q110 0 192 -72l31 58h172l-65 -373q-25 -150 -25 -217q0 -84 24.5 -118t79.5 -34q105 0 185 115t80 315q0 288 -169 456.5t-460 168.5q-148 0 -278.5 -51.5t-228.5 -145t-155 -236t-57 -313.5q0 -143 41 -258.5t109.5 -191.5t161.5 -127.5t193 -73.5t208 -22
q271 0 473 164l41 -46q-96 -87 -234 -134.5t-291 -47.5q-125 0 -238 26.5t-213 84t-173 141.5t-115.5 205.5t-42.5 269.5q0 232 97.5 417.5t282 293.5t425.5 108q152 0 279.5 -44.5t220.5 -129t145.5 -215t52.5 -293.5q0 -244 -109.5 -373.5t-289.5 -129.5q-198 0 -242 149
q-76 -145 -237 -145q-139 0 -206 91.5t-67 239.5q0 119 36.5 215t95.5 154t128.5 88.5t141.5 30.5zM997 567l66 416q-70 70 -150 70q-63 0 -110 -48t-71 -125t-35 -155t-11 -156q0 -114 27.5 -165.5t89.5 -51.5q71 0 124.5 64t69.5 151z" />
    <glyph glyph-name="Q.alt" horiz-adv-x="1495" 
d="M84 696q0 353 181 556.5t501 203.5q311 0 479 -192t168 -541q0 -326 -148 -517.5t-442 -217.5v-8l305 -35q92 -92 166 -145.5t140 -53.5q76 0 155 61l29 -38q-193 -170 -348 -170q-89 0 -163.5 43t-172.5 143q-65 67 -101 100.5t-82.5 62.5t-86.5 32q-282 23 -431 207
t-149 509zM1083 721q0 101 -3 175t-11.5 148t-24 125t-40 96t-59.5 71.5t-83 41.5t-110 15q-73 0 -127.5 -19t-92 -61t-61.5 -95.5t-36.5 -136t-17.5 -168.5t-5 -206q0 -93 3.5 -165t13 -143.5t25.5 -123.5t42 -98t61.5 -74t84 -44t110.5 -16q70 0 122 18.5t88.5 59t60 94
t37 134t18.5 167.5t5 205z" />
    <glyph glyph-name="R.alt" horiz-adv-x="1394" 
d="M670 711h-150v-652h174v-59h-635v59h156v1315h-156v60h600q72 0 129.5 -3.5t117 -13t104 -25t84.5 -41.5t65.5 -61.5t40 -84.5t14.5 -111q0 -179 -117.5 -268.5t-359.5 -108.5q46 -181 275 -144l110 -352q21 -68 42 -96.5t63 -28.5q47 0 62 39.5t18 147.5l53 -2
q1 -71 -7.5 -120t-33.5 -93t-77 -66t-132 -22q-55 0 -97.5 10.5t-71 27.5t-50.5 46.5t-35 59.5t-27 73zM520 1374v-606h21q191 0 266.5 72.5t75.5 240.5q0 169 -68.5 231t-243.5 62h-51z" />
    <glyph glyph-name="g.calt" horiz-adv-x="1060" 
d="M893 662q0 -164 -105.5 -257.5t-285.5 -93.5q-63 0 -154 17q-112 -75 -112 -105q0 -16 21.5 -23t80.5 -7h223q77 0 137 -7.5t118.5 -28t97 -55t62 -92.5t23.5 -135q0 -387 -536 -387q-233 0 -335.5 58.5t-102.5 170.5q0 124 155 164l88 -49q-20 -56 -20 -108
q0 -39 11 -69.5t37.5 -57.5t79.5 -41.5t130 -14.5q157 0 243.5 64t86.5 170q0 87 -61 122t-218 35h-211q-136 0 -196 46t-60 118q0 66 45.5 118t155.5 130q-203 71 -203 305q0 71 25 132.5t74 110t130.5 76t186.5 27.5q118 0 205 -47q-5 80 16.5 147t75 111.5t131.5 44.5
q67 0 110 -38.5t43 -102.5q0 -48 -31.5 -83.5t-80.5 -35.5q-38 0 -67.5 19.5t-39.5 44.5l49 57q-6 51 -57 51q-40 0 -68 -47.5t-28 -144.5q0 -35 2 -53q129 -94 129 -256zM358 649q0 -112 16.5 -175t45 -85t76.5 -22q34 0 56.5 11t40 41.5t26 87t8.5 144.5q0 118 -15 183.5
t-41.5 88.5t-72.5 23q-47 0 -75.5 -22t-46.5 -89t-18 -186z" />
    <glyph glyph-name="j.calt" horiz-adv-x="608" 
d="M457 975v-918q0 -134 -22 -231.5t-76 -175.5t-152 -119t-242 -45l-12 47q79 14 124 48t69 107.5t24 198.5v1035h-166v53h453zM117 1307q0 68 42 112.5t126 44.5q76 0 118.5 -39t42.5 -116q0 -71 -41 -114.5t-124 -43.5q-87 0 -125.5 46t-38.5 110z" />
    <glyph glyph-name="y.calt" horiz-adv-x="1062" 
d="M37 922v53h532v-53h-137l213 -676l242 676h-142v53h318v-53h-100l-402 -1088q-75 -201 -141.5 -273.5t-181.5 -72.5q-107 0 -161 53.5t-54 136.5q0 76 40.5 119t108.5 43q58 0 93.5 -30.5t35.5 -90.5q0 -29 -12 -73h-68q-12 -24 -12 -47q0 -26 11.5 -39t41.5 -13
q34 0 62.5 14.5t50 38.5t44.5 68.5t40.5 89t42.5 115.5l43 127h-82l-336 922h-90z" />
    <glyph glyph-name="hyphen.case" horiz-adv-x="688" 
d="M94 659v119h498v-119h-498z" />
    <glyph glyph-name="idotaccent" horiz-adv-x="626" 
d="M135 1309q0 66 42.5 110.5t125.5 44.5q76 0 119 -39t43 -116q0 -71 -41.5 -114.5t-122.5 -43.5q-62 0 -101 25t-52 58.5t-13 74.5zM35 975h426v-922h135v-53h-557v53h133v869h-137v53z" />
    <glyph glyph-name="jcircumflex.calt" horiz-adv-x="608" 
d="M457 975v-918q0 -134 -22 -231.5t-76 -175.5t-152 -119t-242 -45l-12 47q79 14 124 48t69 107.5t24 198.5v1035h-166v53h453zM-8 1118l207 365q37 26 90 26q35 0 59 -16.5t43 -54.5l154 -320l-27 -18l-252 239l-248 -241z" />
    <glyph glyph-name="Racute.alt" horiz-adv-x="1394" 
d="M670 711h-150v-652h174v-59h-635v59h156v1315h-156v60h600q72 0 129.5 -3.5t117 -13t104 -25t84.5 -41.5t65.5 -61.5t40 -84.5t14.5 -111q0 -179 -117.5 -268.5t-359.5 -108.5q46 -181 275 -144l110 -352q21 -68 42 -96.5t63 -28.5q47 0 62 39.5t18 147.5l53 -2
q1 -71 -7.5 -120t-33.5 -93t-77 -66t-132 -22q-55 0 -97.5 10.5t-71 27.5t-50.5 46.5t-35 59.5t-27 73zM520 1374v-606h21q191 0 266.5 72.5t75.5 240.5q0 169 -68.5 231t-243.5 62h-51zM494 1528l278 309l59 -10q80 -17 80 -78q0 -62 -82 -96l-311 -152z" />
    <glyph glyph-name="Rcommaaccent.alt" horiz-adv-x="1394" 
d="M670 711h-150v-652h174v-59h-635v59h156v1315h-156v60h600q72 0 129.5 -3.5t117 -13t104 -25t84.5 -41.5t65.5 -61.5t40 -84.5t14.5 -111q0 -179 -117.5 -268.5t-359.5 -108.5q46 -181 275 -144l110 -352q21 -68 42 -96.5t63 -28.5q47 0 62 39.5t18 147.5l53 -2
q1 -71 -7.5 -120t-33.5 -93t-77 -66t-132 -22q-55 0 -97.5 10.5t-71 27.5t-50.5 46.5t-35 59.5t-27 73zM520 1374v-606h21q191 0 266.5 72.5t75.5 240.5q0 169 -68.5 231t-243.5 62h-51zM684 -569l-37 43q117 112 117 186q0 37 -25 43l-49 -47q-34 13 -59 41.5t-25 71.5
q0 50 35.5 81t87.5 31q67 0 101 -44.5t34 -110.5q0 -158 -180 -295z" />
    <glyph glyph-name="Rcaron.alt" horiz-adv-x="1394" 
d="M670 711h-150v-652h174v-59h-635v59h156v1315h-156v60h600q72 0 129.5 -3.5t117 -13t104 -25t84.5 -41.5t65.5 -61.5t40 -84.5t14.5 -111q0 -179 -117.5 -268.5t-359.5 -108.5q46 -181 275 -144l110 -352q21 -68 42 -96.5t63 -28.5q47 0 62 39.5t18 147.5l53 -2
q1 -71 -7.5 -120t-33.5 -93t-77 -66t-132 -22q-55 0 -97.5 10.5t-71 27.5t-50.5 46.5t-35 59.5t-27 73zM520 1374v-606h21q191 0 266.5 72.5t75.5 240.5q0 169 -68.5 231t-243.5 62h-51zM950 1812l-252 -278q-45 -27 -84 -27q-31 0 -53 17.5t-53 56.5l-189 229l23 29
l289 -166l295 166z" />
    <glyph glyph-name="s_p" horiz-adv-x="2058" 
d="M1311 1223v-404q98 176 307 176q181 0 280 -126.5t99 -376.5q0 -255 -107.5 -383.5t-312.5 -128.5q-103 0 -165 29.5t-99 86.5v-530h264v-53h-698v53h145v1675q-38 13 -79 42.5t-75.5 60.5t-71 61t-80 49t-89.5 19q-90 0 -138.5 -53.5t-48.5 -143.5q0 -92 65.5 -188
t131.5 -134q40 -20 63 -20q18 0 26.5 14t14.5 51h41v-309h-45q-80 248 -295 248q-95 0 -147.5 -34.5t-52.5 -96.5q0 -23 8 -42t18 -32.5t32.5 -26t38.5 -19.5t49.5 -16t51.5 -13t58 -13q59 -13 99 -25t90 -37.5t80.5 -58.5t51.5 -87t21 -124q0 -156 -98.5 -244.5
t-272.5 -88.5q-138 0 -258 63q-24 16 -35 16q-18 0 -29 -16t-24 -63h-43v354h47q61 -289 342 -289q113 0 167 40t54 110q0 50 -35 83t-71.5 45t-125.5 33q-5 2 -8 2.5t-7.5 1.5t-8.5 2q-43 10 -71 17t-68.5 21t-66.5 28.5t-55 38t-46 51t-28 66t-11 84.5q0 144 96.5 235.5
t253.5 91.5q42 0 76 -6q-137 148 -137 287q0 110 69 183t181 73q54 0 103.5 -19t88 -48.5t71.5 -60t68.5 -60t65.5 -41.5q23 124 102 190t201 66q95 0 148 -38t53 -114q0 -84 -62 -133t-157 -51zM1528 907q-84 0 -151.5 -81.5t-67.5 -207.5v-327q0 -97 55.5 -170.5
t151.5 -73.5q101 0 138.5 97t37.5 343q0 237 -33.5 328.5t-130.5 91.5zM1311 1405v-125q66 2 107.5 36.5t41.5 98.5q0 42 -21.5 64t-52.5 22q-39 0 -57 -28t-18 -68z" />
    <glyph glyph-name="s_h" horiz-adv-x="2111" 
d="M82 -20v354h47q61 -289 342 -289q113 0 167 40t54 110q0 50 -35 83t-71.5 45t-125.5 33q-5 2 -8 2.5t-7.5 1.5t-8.5 2q-43 10 -71 17t-68.5 21t-66.5 28.5t-55 38t-46 51t-28 66t-11 84.5q0 144 96.5 235.5t253.5 91.5q42 0 76 -6q-137 148 -137 287q0 110 69 183t181 73
q54 0 103.5 -19t88 -48.5t71.5 -60t68.5 -60t65.5 -41.5q23 124 102 190t201 66q95 0 148 -38t53 -114q0 -84 -62 -133t-157 -51v-430q87 202 331 202q312 0 312 -342v-600h135v-53h-543v53h119v631q0 126 -26 173.5t-89 47.5q-98 0 -168.5 -90t-70.5 -221v-541h121v-53
h-543v53h133v1188q-38 14 -79 43.5t-75.5 60.5t-70.5 60.5t-79.5 48.5t-88.5 19q-90 0 -138.5 -53.5t-48.5 -143.5q0 -92 61.5 -180.5t133.5 -139.5q34 -24 65 -24q18 0 26.5 15t14.5 52h41v-309h-45q-80 248 -295 248q-95 0 -147.5 -34.5t-52.5 -96.5q0 -78 91 -117
q40 -17 165 -45q43 -10 70.5 -18t67.5 -22.5t65.5 -30.5t54.5 -41t45.5 -55t27.5 -72.5t11 -92.5q0 -156 -98.5 -244.5t-272.5 -88.5q-138 0 -258 63q-24 16 -35 16q-18 0 -29 -16t-24 -63h-43zM1311 1405v-125q66 2 107.5 36.5t41.5 98.5q0 42 -21.5 64t-52.5 22
q-39 0 -57 -28t-18 -68z" />
    <glyph glyph-name="c_t" horiz-adv-x="1775" 
d="M584 946q-121 0 -174.5 -104t-53.5 -355q0 -231 56 -330.5t188 -99.5q67 0 118.5 24t82.5 65.5t48.5 83.5t27.5 92l57 -9q-9 -47 -21 -84.5t-42.5 -86.5t-72 -82t-113.5 -56.5t-165 -23.5q-226 0 -347.5 127.5t-121.5 363.5q0 255 138.5 389.5t379.5 134.5q27 0 39 -2
q-131 147 -131 283q0 110 69 183t181 73q54 0 104.5 -19t90 -48.5t74 -60t71 -60t66.5 -41.5q23 124 101.5 190t199.5 66q95 0 147.5 -38t52.5 -114q0 -84 -62 -133t-157 -51v-248h277v-53h-277v-672q0 -92 24.5 -134t88.5 -42q144 0 172 219l49 -6q-6 -52 -17 -94
t-34.5 -83t-57 -68.5t-86 -44.5t-120.5 -17q-71 0 -124 13t-96 43.5t-65.5 86t-22.5 135.5v664h-133v53h133v266q-38 13 -79.5 42.5t-76.5 60.5t-72 61t-81 49t-90 19q-90 0 -138 -53.5t-48 -143.5q0 -78 47.5 -159.5t109.5 -133.5q112 -25 171 -89.5t59 -158.5
q0 -84 -40 -128t-108 -44t-109.5 39t-41.5 111q0 37 10 73h63q11 37 11 60q0 45 -33 72.5t-96 27.5zM1415 1405v-125q66 2 108 37t42 98q0 42 -21.5 64t-52.5 22q-39 0 -57.5 -28t-18.5 -68z" />
    <glyph glyph-name="c_h" horiz-adv-x="2222" 
d="M928 735q0 -84 -40 -128t-108 -44t-109.5 39t-41.5 111q0 37 10 73h63q11 37 11 60q0 45 -33 72.5t-96 27.5q-121 0 -174.5 -104t-53.5 -355q0 -231 56 -330.5t188 -99.5q67 0 118.5 24t82.5 65.5t48.5 83.5t27.5 92l57 -9q-9 -47 -21 -84.5t-42.5 -86.5t-72 -82
t-113.5 -56.5t-165 -23.5q-226 0 -347.5 127.5t-121.5 363.5q0 255 138.5 389.5t379.5 134.5q116 0 207 -51q-20 46 -133 266q-102 -24 -178 -24q-97 0 -160 45t-63 135q0 76 49 120t125 44q87 0 147.5 -65t118.5 -187q177 44 361 121t245 137h133v-743q87 202 332 202
q311 0 311 -342v-600h136v-53h-543v53h119v631q0 126 -26 173.5t-89 47.5q-98 0 -169 -90.5t-71 -220.5v-541h121v-53h-543v53h134v1325q-193 -91 -424 -151q21 -42 80 -155t83 -161q19 -38 28.5 -60t18.5 -54.5t9 -61.5zM614 1264q-17 36 -25.5 53.5t-29.5 52t-39.5 52.5
t-47.5 33t-60 15q-44 0 -72.5 -26.5t-28.5 -69.5q0 -63 44.5 -96t117.5 -33q54 0 141 19z" />
    <glyph glyph-name="c_k" horiz-adv-x="2179" 
d="M1645 0v53h116l-268 455l-72 -14v-441h115v-53h-535v53h134v1325q-191 -90 -426 -151q21 -42 80 -155t83 -161q54 -110 54 -182q0 -80 -39.5 -123t-106.5 -43q-68 0 -109.5 39t-41.5 111q0 37 10 73h63q11 37 11 60q0 45 -33 72.5t-96 27.5q-121 0 -174.5 -104
t-53.5 -355q0 -231 56 -330.5t188 -99.5q67 0 118.5 24t82.5 65.5t48.5 83.5t27.5 92l57 -9q-9 -47 -21 -84.5t-42.5 -86.5t-72 -82t-113.5 -56.5t-165 -23.5q-226 0 -347.5 127.5t-121.5 363.5q0 255 138.5 389.5t379.5 134.5q116 0 207 -51q-20 46 -133 266
q-102 -24 -178 -24q-97 0 -160 45t-63 135q0 76 49 120t125 44q87 0 147.5 -65t118.5 -187q177 44 361 121t245 137h133v-983l54 14l405 355h-170v53h410v-53h-146l-270 -242l373 -627h92v-53h-524zM614 1264q-17 36 -25.5 53.5t-29.5 52t-39.5 52.5t-47.5 33t-60 15
q-44 0 -72.5 -26.5t-28.5 -69.5q0 -63 44.5 -96t117.5 -33q54 0 141 19z" />
    <glyph glyph-name="t_t" horiz-adv-x="1531" 
d="M883 258v664h-445v-672q0 -93 24 -134.5t89 -41.5q144 0 172 219l47 -6q-6 -52 -17 -94t-34.5 -83t-57 -68.5t-86 -44.5t-120.5 -17q-71 0 -124 13t-96 43.5t-65.5 86t-22.5 135.5v664h-133v53h133v262q-96 2 -154.5 46.5t-58.5 127.5q0 75 56 116.5t143 41.5
q112 0 190 -59.5t109 -186.5q43 19 94.5 58t89 70t98.5 56t130 25q146 0 238 -72.5t92 -218.5v-266h274v-53h-274v-672q0 -93 23.5 -134.5t88.5 -41.5q144 0 172 219l47 -6q-6 -52 -17 -94t-34.5 -83t-57 -68.5t-86 -44.5t-120.5 -17q-71 0 -124 13t-95.5 43.5t-65 86
t-22.5 135.5zM438 1262v-287h445v270q0 62 -2.5 97.5t-11.5 66t-27.5 43t-48.5 12.5q-40 0 -83 -23.5t-77.5 -54.5t-88.5 -68t-106 -56zM150 1294v103q0 112 -68 112q-32 0 -55 -24t-23 -66q0 -63 39.5 -93t106.5 -32z" />
    <glyph glyph-name="T_h" horiz-adv-x="2416" 
d="M1851 53h119v631q0 126 -26 173.5t-89 47.5q-98 0 -168.5 -90t-70.5 -221v-541h121v-53h-543v53h133v1321h-502v-1315h185v-59h-676v59h184v1315h-26q-113 0 -180.5 -33.5t-114.5 -119.5t-84 -250h-52l21 463h1253q18 115 101 188.5t202 73.5q91 0 142 -39t51 -115
q0 -83 -58.5 -125.5t-156.5 -44.5v-579q87 202 332 202q311 0 311 -342v-600h135v-53h-543v53zM1616 1516v-86q145 3 145 118q0 43 -19.5 66.5t-49.5 23.5q-76 0 -76 -122z" />
    <glyph glyph-name="g_i" horiz-adv-x="1689" 
d="M893 662q0 -164 -105.5 -257.5t-285.5 -93.5q-63 0 -154 17q-108 -72 -108 -105q0 -16 21.5 -23t80.5 -7h244q77 0 137 -7.5t118.5 -28t97 -55t62 -92.5t23.5 -135q0 -86 -31 -155t-96 -122t-176.5 -81.5t-263.5 -28.5q-234 0 -349.5 59.5t-115.5 169.5q0 125 153 164
l91 -49q-21 -51 -21 -108q0 -81 65.5 -132t217.5 -51q174 0 268 64t94 170q0 87 -60.5 122t-217.5 35h-232q-136 0 -197 46t-61 118q0 66 45 118.5t154 129.5q-203 71 -203 305q0 71 25 132.5t74 110t130.5 76t186.5 27.5q117 0 203 -45q73 131 142 227.5t125.5 151.5
t114 88t101.5 43t94 10q98 0 159.5 -52.5t61.5 -139.5q0 -71 -43.5 -113.5t-109.5 -42.5q-67 0 -108 36.5t-44 88.5l68 58q12 35 -9.5 57t-60.5 22q-32 0 -66 -15t-87.5 -58.5t-127.5 -141.5t-161 -245q137 -95 137 -262zM358 649q0 -112 16.5 -175t45 -85t76.5 -22
q34 0 56.5 11t40 41.5t26 87t8.5 144.5q0 118 -15 183.5t-41.5 88.5t-72.5 23q-47 0 -75.5 -22t-46.5 -89t-18 -186zM1112 975h412v-922h135v-53h-557v53h133v869h-123v53z" />
    <glyph glyph-name="v_i" horiz-adv-x="1675" 
d="M0 922v53h547v-53h-146l248 -662q67 197 230 662q58 166 101 263.5t92 165.5t102 93.5t126 25.5q89 0 148 -49t59 -139q0 -71 -44.5 -115.5t-110.5 -44.5q-67 0 -108 36.5t-44 88.5l68 58q12 35 -2 57t-43 22q-57 0 -121.5 -122.5t-155.5 -374.5q-315 -877 -321 -893
h-150l-383 928h-92zM1083 975h426v-922h136v-53h-558v53h134v869h-138v53z" />
    <glyph glyph-name="w_i" horiz-adv-x="2230" 
d="M1434 907q97 320 187 441.5t234 121.5q89 0 148 -49t59 -139q0 -71 -44.5 -115.5t-110.5 -44.5q-67 0 -108 36.5t-44 88.5l68 58q12 35 -2 57t-43 22q-61 0 -132.5 -130t-144.5 -367q-133 -427 -260 -893h-174l-233 655l-244 -655h-156l-338 928h-96v53h520v-53h-117
l218 -674l178 491l-60 183h-92v53h481v-53h-104l219 -662q111 389 191 647zM1638 975h426v-922h136v-53h-558v53h134v869h-138v53z" />
    <glyph glyph-name="y_i" horiz-adv-x="1689" 
d="M8 922v53h533v-53h-138l242 -676q114 348 234 676q47 130 81.5 213t73 152.5t77 106.5t85 56.5t104.5 19.5q89 0 148 -49t59 -139q0 -71 -44.5 -115.5t-110.5 -44.5q-67 0 -108 36.5t-44 88.5l68 58q12 35 -2 57t-43 22q-57 0 -121 -115t-158 -360
q-55 -142 -188.5 -526.5t-194.5 -548.5q-75 -201 -142.5 -273.5t-187.5 -72.5q-110 0 -169.5 55t-59.5 138q0 75 39.5 117t103.5 42q63 0 99.5 -30t36.5 -91q0 -26 -13 -73h-67q-13 -26 -13 -47q0 -24 19 -38t55 -14q77 0 128 76t112 250l43 127h-82l-365 922h-90zM1098 975
h426v-922h135v-53h-557v53h133v869h-137v53z" />
    <glyph glyph-name="zero.num" horiz-adv-x="829" 
d="M37 993q0 117 28.5 203.5t80 138t119 76.5t151.5 25t151 -24.5t118.5 -76t79.5 -138t28 -204.5q0 -230 -102.5 -337t-274.5 -107q-189 0 -284 120.5t-95 323.5zM283 989q0 -231 24.5 -306t108.5 -75q82 0 106.5 75t24.5 304q0 238 -24 314.5t-107 76.5
q-82 0 -107.5 -79.5t-25.5 -309.5z" />
    <glyph glyph-name="one.num" horiz-adv-x="573" 
d="M182 1360l-141 -17l-8 54l291 39h90v-822h104v-53h-473v53h137v746z" />
    <glyph glyph-name="two.num" horiz-adv-x="708" 
d="M47 561v141l139 119q130 111 185 202t55 210q0 80 -27.5 112.5t-99.5 32.5q-102 0 -102 -57q0 -15 8 -43h41q10 -23 10 -53q0 -44 -28.5 -70.5t-75.5 -26.5q-55 0 -84 33t-29 82q0 84 77.5 138.5t229.5 54.5q144 0 221.5 -54.5t77.5 -162.5q0 -68 -39 -127.5t-134.5 -139
t-295.5 -221.5h266q44 0 74.5 10t49 31.5t28.5 46.5t18 64h50l-11 -322h-604z" />
    <glyph glyph-name="three.num" horiz-adv-x="718" 
d="M344 1436q143 0 216 -51.5t73 -141.5q0 -84 -61.5 -137.5t-174.5 -77.5q139 -13 210 -71.5t71 -151.5q0 -115 -101 -185.5t-262 -70.5q-54 0 -101.5 9t-91.5 28.5t-69.5 57.5t-25.5 91q0 54 27.5 86.5t82.5 32.5q47 0 74 -25t27 -67q0 -27 -11 -53h-39q-10 -13 -10 -35
q0 -30 29 -48t84 -18q83 0 119 46.5t36 138.5q0 89 -28.5 134t-81.5 72q-63 -12 -119 -16l-6 55q56 7 90.5 16.5t62.5 29.5t40 54.5t12 88.5q0 79 -27.5 115t-91.5 36q-47 0 -73.5 -17.5t-26.5 -43.5q0 -21 8 -41h39q8 -16 8 -47q0 -42 -28 -66t-74 -24q-50 0 -76.5 29
t-26.5 79q0 84 75.5 136.5t221.5 52.5z" />
    <glyph glyph-name="four.num" horiz-adv-x="778" 
d="M240 561v53h122v156h-352v49l357 602h223v-592h108v78h56v-217h-56v80h-108v-156h88v-53h-438zM82 829h280v474z" />
    <glyph glyph-name="five.num" horiz-adv-x="702" 
d="M293 1038q-79 0 -166 -49l-31 15v401l23 18q79 -12 222 -27.5t173 -15.5q22 0 32.5 12.5t20.5 43.5l45 -6q-10 -94 -22.5 -142.5t-29 -66t-44.5 -17.5q-30 0 -104 21l-256 67l-6 -235q90 41 188 41q86 0 149.5 -22.5t97.5 -61t50 -83.5t16 -97q0 -131 -94 -208t-248 -77
q-51 0 -97 9t-89 29t-68.5 58t-25.5 90q0 54 26.5 85.5t79.5 31.5q46 0 75.5 -23.5t29.5 -68.5q0 -25 -11 -51h-41q-8 -16 -8 -37q0 -31 29 -47.5t74 -16.5q82 0 109.5 53t27.5 170t-26 162t-101 45z" />
    <glyph glyph-name="six.num" horiz-adv-x="776" 
d="M51 948q0 232 109 360t299 128q123 0 188.5 -49.5t65.5 -124.5q0 -46 -27 -75.5t-78 -29.5q-43 0 -70.5 20t-27.5 62q0 29 12 59h35q6 12 6 29q0 51 -92 51q-68 0 -108 -30t-63 -110t-26 -222q69 96 207 96q114 0 185 -67.5t71 -192.5q0 -140 -91.5 -221.5t-252.5 -81.5
q-167 0 -254.5 95t-87.5 304zM276 831q0 -48 2 -78t8.5 -60.5t19.5 -47t35 -27t54 -10.5q69 0 95 55.5t26 163.5q0 116 -22.5 163.5t-77.5 47.5q-69 0 -104.5 -56.5t-35.5 -150.5z" />
    <glyph glyph-name="seven.num" horiz-adv-x="624" 
d="M150 692q0 70 53 152t239 309l82 100h-278q-92 0 -121.5 -22t-44.5 -103h-51l14 293h571v-133l-114 -211q-84 -156 -112 -235t-28 -133q0 -46 10.5 -71.5t37.5 -45.5l-23 -39q-106 -22 -170.5 16t-64.5 123z" />
    <glyph glyph-name="eight.num" horiz-adv-x="763" 
d="M309 1014q-118 7 -183 60.5t-65 137.5q0 103 83 163.5t241 60.5q161 0 240.5 -56.5t79.5 -160.5q0 -88 -61.5 -142t-180.5 -63v-4q264 -22 264 -226q0 -235 -342 -235q-350 0 -350 235q0 100 68.5 158.5t205.5 67.5v4zM385 981q-70 0 -98.5 -47t-28.5 -150q0 -92 28 -135
t99 -43t99 43.5t28 136.5q0 102 -29 148.5t-98 46.5zM283 1219q0 -95 22.5 -136t83.5 -41q55 0 76.5 41.5t21.5 135.5q0 79 -22.5 119t-79.5 40t-79.5 -40t-22.5 -119z" />
    <glyph glyph-name="nine.num" horiz-adv-x="784" 
d="M727 1032q0 -233 -106.5 -358t-298.5 -125q-126 0 -192.5 50.5t-66.5 125.5q0 46 27.5 76t81.5 30q44 0 73 -22t29 -64q0 -29 -12 -59h-37q-6 -15 -6 -29q0 -51 90 -51q68 0 108.5 32t63 112t25.5 219q-70 -97 -207 -97q-114 0 -185 69t-71 194q0 140 92 220.5t250 80.5
q342 0 342 -404zM502 1149q0 48 -2 79t-8.5 62t-19.5 48t-34.5 27.5t-52.5 10.5q-69 0 -95 -55t-26 -162q0 -117 23 -165t78 -48q63 0 100 54.5t37 148.5z" />
    <glyph glyph-name="zero.denom" horiz-adv-x="829" 
d="M37 432q0 117 28.5 203.5t80 138t119 76t151.5 24.5t151 -24.5t118.5 -75.5t79.5 -137.5t28 -204.5q0 -230 -102.5 -337t-274.5 -107q-189 0 -284 120.5t-95 323.5zM283 428q0 -231 24.5 -306t108.5 -75q82 0 106.5 75t24.5 304q0 238 -24 314.5t-107 76.5
q-82 0 -107.5 -79.5t-25.5 -309.5z" />
    <glyph glyph-name="one.denom" horiz-adv-x="573" 
d="M182 799l-141 -17l-8 54l291 38h90v-821h104v-53h-473v53h137v746z" />
    <glyph glyph-name="two.denom" horiz-adv-x="708" 
d="M47 0v141l139 119q130 111 185 202t55 210q0 80 -27.5 112.5t-99.5 32.5q-102 0 -102 -57q0 -15 8 -43h41q10 -23 10 -53q0 -44 -28.5 -70.5t-75.5 -26.5q-55 0 -84 33t-29 82q0 84 77.5 138t229.5 54q144 0 221.5 -54.5t77.5 -162.5q0 -67 -39 -127t-134 -139t-296 -221
h266q44 0 74.5 10t49 31.5t28.5 46.5t18 64h50l-11 -322h-604z" />
    <glyph glyph-name="three.denom" horiz-adv-x="718" 
d="M344 874q143 0 216 -51t73 -141q0 -84 -61.5 -137.5t-174.5 -77.5q139 -13 210 -71.5t71 -151.5q0 -115 -101 -185.5t-262 -70.5q-54 0 -101.5 9t-91.5 28.5t-69.5 57.5t-25.5 91q0 54 27.5 86.5t82.5 32.5q47 0 74 -25t27 -67q0 -28 -11 -54h-39q-10 -13 -10 -34
q0 -30 29 -48t84 -18q83 0 119 46t36 138q0 89 -28.5 134.5t-81.5 72.5q-63 -12 -119 -16l-6 55q56 7 90.5 16.5t62.5 29.5t40 54.5t12 88.5q0 79 -27.5 115t-91.5 36q-47 0 -73.5 -17.5t-26.5 -43.5q0 -21 8 -41h39q8 -16 8 -47q0 -42 -28 -66t-74 -24q-50 0 -76.5 29
t-26.5 79q0 84 75.5 136t221.5 52z" />
    <glyph glyph-name="four.denom" horiz-adv-x="778" 
d="M240 0v53h122v156h-352v49l357 602h223v-592h108v78h56v-217h-56v80h-108v-156h88v-53h-438zM82 268h280v473z" />
    <glyph glyph-name="five.denom" horiz-adv-x="702" 
d="M293 477q-79 0 -166 -49l-31 14v402l23 18q79 -12 222 -27.5t173 -15.5q22 0 32.5 12.5t20.5 42.5l45 -6q-10 -94 -22.5 -142.5t-29 -65.5t-44.5 -17q-30 0 -104 21l-256 67l-6 -235q90 41 188 41q86 0 149.5 -22.5t97.5 -61.5t50 -84t16 -97q0 -131 -94 -207.5
t-248 -76.5q-51 0 -97 9t-89 29t-68.5 58t-25.5 90q0 54 26.5 85.5t79.5 31.5q46 0 75.5 -23.5t29.5 -68.5q0 -26 -11 -52h-41q-8 -16 -8 -36q0 -31 29 -47.5t74 -16.5q82 0 109.5 53t27.5 170t-26 162t-101 45z" />
    <glyph glyph-name="six.denom" horiz-adv-x="776" 
d="M51 387q0 231 108.5 359t299.5 128q123 0 188.5 -49.5t65.5 -124.5q0 -46 -27 -75t-78 -29q-43 0 -70.5 20t-27.5 62q0 29 12 59h35q6 12 6 29q0 51 -92 51q-68 0 -108 -30t-63 -110t-26 -222q69 96 207 96q114 0 185 -67.5t71 -192.5q0 -140 -91.5 -221.5t-252.5 -81.5
q-167 0 -254.5 95t-87.5 304zM276 270q0 -48 2 -78t8.5 -60.5t19.5 -47t35 -27t54 -10.5q69 0 95 55.5t26 163.5q0 116 -22.5 163.5t-77.5 47.5q-69 0 -104.5 -56.5t-35.5 -150.5z" />
    <glyph glyph-name="seven.denom" horiz-adv-x="624" 
d="M150 131q0 70 53 152t239 309l82 100h-278q-92 0 -121.5 -22t-44.5 -103h-51l14 293h571v-133l-114 -211q-84 -156 -112 -235.5t-28 -133.5q0 -46 10 -71t38 -45l-23 -39q-106 -22 -170.5 16t-64.5 123z" />
    </font>
</defs>
</svg>
