<?xml version="1.0" standalone="no"?>
<!DOCTYPE svg PUBLIC "-//W3C//DTD SVG 1.1//EN" "http://www.w3.org/Graphics/SVG/1.1/DTD/svg11.dtd" >
<svg xmlns="http://www.w3.org/2000/svg" xmlns:xlink="http://www.w3.org/1999/xlink" version="1.1">
<metadata>
Created by FontForge 20170731 at Wed Feb 17 08:57:49 2021
 By Aleksey,,,
Copyright (c) 2011 by TypeTogether. All rights reserved.
</metadata>
<defs>
<font id="AbrilDisplay-BoldItalic" horiz-adv-x="1126" >
  <font-face 
    font-family="Abril Display"
    font-weight="700"
    font-style="italic"
    font-stretch="normal"
    units-per-em="2048"
    panose-1="2 0 8 4 7 0 0 9 0 3"
    ascent="1536"
    descent="-512"
    x-height="991"
    cap-height="1434"
    bbox="-444 -944 2826 2167"
    underline-thickness="102"
    underline-position="-307"
    slope="-6.65999"
    unicode-range="U+0020-FB06"
  />
<missing-glyph horiz-adv-x="409" 
 />
    <glyph glyph-name="ij" unicode="ij" horiz-adv-x="1210" 
d="M393 1151q-81 0 -116 37t-35 94q0 82 56.5 132t147.5 50q150 0 150 -131q0 -82 -57 -132t-146 -50zM551 164l45 -35q-51 -76 -115 -114t-153 -38q-230 0 -230 211q0 72 29 207l115 535h-162l8 53h449q-32 -145 -85.5 -409t-68.5 -343q-12 -82 -12 -104q0 -61 53 -61
q56 0 127 98zM477 -313l-82 -13q-12 -34 -12 -59q0 -70 84 -70q31 0 55 11t43 36t32.5 54t26 77.5t21 91.5t19.5 111l163 1004h-165l8 53h454l-161 -981q-83 -514 -502 -514q-115 0 -197 58t-82 159q0 78 48.5 129t129.5 51q58 0 95 -36t37 -93q0 -32 -15 -69zM987 1151
q-81 0 -117 37.5t-36 93.5q0 81 57.5 131.5t148.5 50.5q70 0 110 -32t40 -99q0 -82 -57 -132t-146 -50z" />
    <glyph glyph-name="ff" unicode="ff" horiz-adv-x="1351" 
d="M59 -98l183 1028h-154l10 53h152l14 82q41 239 178 367.5t353 128.5q183 0 280 -140q151 162 357 162q117 0 199.5 -57.5t82.5 -159.5q0 -78 -46 -127t-120 -49q-66 0 -101.5 34.5t-35.5 90.5q0 35 14 67l80 9q17 35 17 65q0 37 -25 56.5t-65 19.5q-33 0 -59.5 -11.5
t-47 -36t-36 -54t-28.5 -74t-22.5 -88t-19.5 -103.5l-31 -182h266l-8 -53h-266l-166 -897q-44 -237 -175.5 -366.5t-346.5 -129.5q-95 0 -170 38t-111 95q-156 -184 -354 -184q-115 0 -197 55.5t-82 155.5q0 79 48 131.5t128 52.5q62 0 97.5 -35t35.5 -92q0 -36 -14 -71
l-80 -11q-18 -34 -18 -61q0 -32 23.5 -49t64.5 -17q86 0 129 90q28 60 62 242q1 5 3 16q1 6 2 9zM713 -45l176 975h-357l-141 -783q-30 -153 -55 -215q54 -6 83.5 -40t29.5 -85q0 -27 -15 -65l-80 -10q-16 -29 -16 -54q0 -38 35.5 -59.5t89.5 -21.5q103 0 159.5 87t90.5 271
zM541 983h356l10 53q15 72 31 119q-44 10 -69 41.5t-25 73.5q0 35 14 67l80 9q18 38 18 65q0 45 -37.5 71.5t-95.5 26.5q-110 0 -165 -86t-89 -280z" />
    <glyph glyph-name="fi" unicode="fi" horiz-adv-x="1282" 
d="M1204 164l47 -35q-52 -77 -115.5 -114.5t-154.5 -37.5q-110 0 -173 51.5t-63 159.5q0 72 29 207l115 535h-354l-173 -950q-43 -240 -165 -367t-340 -127q-115 0 -197 55.5t-82 155.5q0 79 48 131.5t128 52.5q61 0 97 -35.5t36 -91.5q0 -36 -14 -71l-80 -11
q-20 -36 -20 -61q0 -32 23.5 -49t62.5 -17q25 0 45.5 5.5t37.5 20t29.5 29t24 43t18.5 49.5t16 62.5t14.5 68.5t14.5 79l183 1028h-154l10 53h152l18 107q84 493 602 493q78 0 147 -24.5t115 -76.5t46 -120q0 -78 -47 -127t-121 -49q-61 0 -99.5 35.5t-38.5 89.5q0 25 17 71
l80 9q12 30 12 53q0 42 -34.5 65t-84.5 23q-117 0 -181 -78.5t-97 -251.5l-41 -219h639q-32 -145 -85.5 -409t-68.5 -343q-12 -67 -12 -104q0 -61 61 -61q30 0 60 23t67 75z" />
    <glyph glyph-name="fl" unicode="fl" horiz-adv-x="1310" 
d="M59 -98l183 1028h-154l10 53h152l16 104q36 231 168.5 363.5t349.5 132.5q98 0 173.5 -45.5t101.5 -126.5l203 123l28 -2l-200 -1102q-39 -214 -39 -280q0 -80 61 -80q32 0 60.5 21t68.5 73l45 -33q-59 -82 -122 -118t-150 -36q-117 0 -178.5 56.5t-61.5 165.5
q0 106 70 452l110 545q-67 0 -105 33t-38 88q0 35 14 67l76 7q17 33 17 61q0 38 -32 59t-75 21q-45 0 -80.5 -17.5t-59.5 -46.5t-43 -77.5t-31.5 -100t-25.5 -125.5l-30 -182h229l-10 -53h-228l-172 -950q-43 -241 -164 -367.5t-339 -126.5q-115 0 -197 55.5t-82 155.5
q0 79 48 131.5t128 52.5q62 0 97.5 -35t35.5 -92q0 -36 -14 -71l-80 -11q-18 -34 -18 -61q0 -32 23.5 -49t64.5 -17q86 0 129 90q28 60 62 242q1 5 3 16q1 6 2 9z" />
    <glyph glyph-name="ffi" unicode="ffi" horiz-adv-x="1923" 
d="M59 -98l183 1028h-154l10 53h152l14 82q41 239 178 367.5t353 128.5q180 0 280 -144q69 72 188.5 119t237.5 47q135 0 225.5 -59.5t90.5 -163.5q0 -78 -46 -127t-120 -49q-66 0 -102 34.5t-36 90.5q0 35 15 69l80 13q14 28 14 55q0 41 -33 63.5t-82 22.5q-113 0 -184 -87
t-104 -280l-31 -182h635q-32 -145 -85.5 -409t-68.5 -343q-12 -68 -12 -104q0 -61 61 -61q30 0 60 23t67 75l47 -35q-52 -77 -115.5 -114.5t-154.5 -37.5q-110 0 -173 51.5t-63 159.5q0 72 29 207l115 535h-350l-166 -897q-44 -237 -175.5 -366.5t-346.5 -129.5
q-95 0 -170 38t-111 95q-156 -184 -354 -184q-115 0 -197 55.5t-82 155.5q0 79 48 131.5t128 52.5q62 0 97.5 -35t35.5 -92q0 -36 -14 -71l-80 -11q-18 -34 -18 -61q0 -32 23.5 -49t64.5 -17q86 0 129 90q28 60 62 242q1 5 3 16q1 6 2 9zM713 -45l176 975h-357l-141 -783
q-30 -153 -55 -215q54 -6 83.5 -40t29.5 -85q0 -27 -15 -65l-80 -10q-16 -29 -16 -54q0 -38 35.5 -59.5t89.5 -21.5q103 0 159.5 87t90.5 271zM541 983h356l10 53q15 72 31 119q-44 10 -69 41.5t-25 73.5q0 35 14 67l80 9q18 38 18 65q0 45 -37.5 71.5t-95.5 26.5
q-110 0 -165 -86t-89 -280z" />
    <glyph glyph-name="ffl" unicode="ffl" horiz-adv-x="1959" 
d="M59 -98l183 1028h-154l10 53h152l14 82q41 239 178 367.5t353 128.5q183 0 280 -140q151 162 357 162q99 0 175 -47t105 -127l201 123l29 -2l-201 -1102q-39 -215 -39 -281q0 -79 61 -79q32 0 60.5 21t68.5 73l45 -33q-59 -82 -122 -118t-150 -36q-117 0 -178.5 56.5
t-61.5 165.5q0 106 70 452l111 549q-72 0 -108 33t-36 84q0 33 15 67l75 9q17 35 17 65q0 36 -29.5 56t-73.5 20q-46 0 -82 -16t-61 -44.5t-45 -76t-33.5 -101t-25.5 -129.5l-31 -182h237l-8 -53h-237l-166 -897q-44 -237 -175.5 -366.5t-346.5 -129.5q-95 0 -170 38
t-111 95q-156 -184 -354 -184q-115 0 -197 55.5t-82 155.5q0 79 48 131.5t128 52.5q62 0 97.5 -35t35.5 -92q0 -36 -14 -71l-80 -11q-18 -34 -18 -61q0 -32 23.5 -49t64.5 -17q86 0 129 90q28 60 62 242q1 5 3 16q1 6 2 9zM713 -45l176 975h-357l-141 -783
q-30 -153 -55 -215q54 -6 83.5 -40t29.5 -85q0 -27 -15 -65l-80 -10q-16 -29 -16 -54q0 -38 35.5 -59.5t89.5 -21.5q103 0 159.5 87t90.5 271zM541 983h356l10 53q15 72 31 119q-44 10 -69 41.5t-25 73.5q0 35 14 67l80 9q18 38 18 65q0 45 -37.5 71.5t-95.5 26.5
q-110 0 -165 -86t-89 -280z" />
    <glyph glyph-name="f_k" unicode="fk" horiz-adv-x="1830" 
d="M827 418l127 782q-70 0 -107.5 34t-37.5 83q0 35 14 67l80 7q17 33 17 61q0 38 -31.5 59t-75.5 21q-48 0 -84 -17.5t-60 -45.5t-43 -78.5t-30.5 -100t-24.5 -125.5l-30 -182h229l-10 -53h-228l-172 -950q-43 -241 -164 -367.5t-339 -126.5q-115 0 -197 55.5t-82 155.5
q0 79 48 131.5t128 52.5q62 0 97.5 -35t35.5 -92q0 -36 -14 -71l-80 -11q-18 -34 -18 -61q0 -32 23.5 -49t64.5 -17q32 0 57 10t44 35.5t31.5 49.5t25 73.5t19.5 84.5t19 104l183 1028h-154l10 53h152l16 104q36 231 168.5 363.5t349.5 132.5q98 0 173.5 -45.5t101.5 -126.5
l203 123l28 -2l-180 -1024l150 76q117 60 178.5 117.5t58.5 103.5l-80 31q-10 77 32 129.5t130 52.5q76 0 113 -41t37 -100q0 -117 -156 -197q-17 -9 -151.5 -76.5t-143.5 -71.5l4 -8q98 13 119 13q94 0 149.5 -41t55.5 -127q0 -24 -7 -64l-28 -135q-8 -41 -8 -59
q0 -48 53 -48q36 0 65.5 24t67.5 77l45 -33q-100 -154 -268 -154q-106 0 -175 45.5t-69 137.5q0 26 10 71l27 105q8 31 8 61q0 78 -80 78q-67 0 -145 -35l-68 -432q-56 0 -157.5 -7.5t-143.5 -18.5z" />
    <glyph glyph-name="f_b" unicode="fb" horiz-adv-x="1884" 
d="M854 625l102 571q-67 0 -107 30.5t-40 90.5q0 35 14 67l80 7q17 39 17 61q0 36 -32 58t-75 22q-48 0 -84 -17.5t-60.5 -46t-43.5 -78t-30.5 -100t-23.5 -125.5l-30 -182h229l-10 -53h-228l-172 -950q-43 -241 -164 -367.5t-339 -126.5q-115 0 -197 55.5t-82 155.5
q0 79 48 131.5t128 52.5q62 0 97.5 -35t35.5 -92q0 -36 -14 -71l-80 -11q-18 -34 -18 -61q0 -32 23.5 -49t64.5 -17q32 0 56.5 10t43.5 35t31.5 50t25 73t20 85t19.5 104l183 1028h-154l10 53h152l16 104q36 231 168.5 363.5t349.5 132.5q104 0 176.5 -45t98.5 -127l203 123
l28 -2l-139 -752l10 -4q128 228 359 228q147 0 221 -93t74 -260q0 -99 -21.5 -194t-69 -182.5t-115 -153t-166 -105t-216.5 -39.5q-408 0 -408 361q0 92 35 287zM1243 43q57 0 104.5 40t79 106.5t53.5 155t32 182.5t10 192q0 100 -25 146t-86 46q-54 0 -106 -45.5
t-95 -124.5q-110 -201 -110 -489q0 -100 32 -154.5t111 -54.5z" />
    <glyph glyph-name="f_h" unicode="fh" horiz-adv-x="1898" 
d="M59 -98l183 1028h-154l10 53h152l16 104q36 231 168.5 363.5t349.5 132.5q98 0 173.5 -45.5t101.5 -126.5l203 123l28 -2l-188 -897l12 -4q168 373 434 373q113 0 163 -61t50 -163q0 -63 -16 -135l-98 -418q-17 -70 -17 -102t14 -45.5t42 -13.5q56 0 131 96l45 -35
q-101 -150 -273 -150q-109 0 -170 52.5t-61 156.5q0 48 15 126.5t31.5 139t41.5 146.5t31 107q18 74 18 106q0 78 -63 78q-71 0 -146.5 -90t-126.5 -226q-76 -199 -115 -567q-51 2 -162 -5t-151 -15l86 381l139 829q-71 0 -109 32t-38 87q0 35 14 67l80 9q17 33 17 61
q0 37 -35.5 58.5t-79.5 21.5q-45 0 -79.5 -17.5t-58 -46t-42 -78.5t-30 -99.5t-24.5 -125.5l-30 -182h229l-10 -53h-228l-172 -950q-43 -241 -164 -367.5t-339 -126.5q-115 0 -197 55.5t-82 155.5q0 79 48 131.5t128 52.5q62 0 97.5 -35t35.5 -92q0 -36 -14 -71l-80 -11
q-18 -34 -18 -61q0 -32 23.5 -49t64.5 -17q86 0 129 90q28 60 62 242q1 5 3 16q1 6 2 9z" />
    <glyph glyph-name="f_t" unicode="ft" horiz-adv-x="1409" 
d="M59 -98l183 1028h-154l10 53h152l16 104q36 231 168.5 363.5t349.5 132.5q118 0 195.5 -51t77.5 -150q0 -75 -44.5 -122.5t-115.5 -47.5q-64 0 -98.5 33.5t-34.5 87.5q0 38 14 66l76 8q16 32 16 57q0 31 -21.5 49.5t-64.5 18.5q-33 0 -59.5 -11.5t-47 -36t-36 -54
t-28.5 -74t-22.5 -88t-19.5 -103.5l-30 -182h358l29 147l237 66h64l-39 -213h215l-8 -53h-215l-86 -447q-12 -56 -27.5 -157t-15.5 -142q0 -96 84 -96q50 0 91.5 34t94.5 109l49 -34q-139 -220 -338 -220q-140 0 -204 66t-64 168q0 78 39 276l86 443h-359l-172 -950
q-43 -241 -164 -367.5t-339 -126.5q-115 0 -197 55.5t-82 155.5q0 79 48 131.5t128 52.5q62 0 97.5 -35t35.5 -92q0 -36 -14 -71l-80 -11q-18 -34 -18 -61q0 -32 23.5 -49t64.5 -17q86 0 129 90q28 60 62 242q1 5 3 16q1 6 2 9z" />
    <glyph glyph-name="f_j" unicode="fj" horiz-adv-x="1269" 
d="M432 -512v57q132 19 192 100.5t93 280.5l164 1004h-346l-173 -950q-43 -240 -165.5 -367t-339.5 -127q-115 0 -197 55.5t-82 155.5q0 79 48 131.5t128 52.5q61 0 97 -35.5t36 -91.5q0 -36 -14 -71l-80 -11q-20 -36 -20 -61q0 -32 23.5 -49t62.5 -17q25 0 45.5 5.5
t37.5 20t29.5 29t24 43t18.5 49.5t16 62.5t14.5 68.5t14.5 79l183 1028h-154l10 53h152l18 107q22 127 74.5 222.5t128.5 154t169.5 87.5t203.5 29q92 0 166 -24t121 -77.5t47 -129.5q0 -68 -47.5 -115t-120.5 -47q-66 0 -102 34t-36 87q0 33 15 71l80 9q14 35 14 55
q0 41 -34.5 63.5t-84.5 22.5q-117 0 -181 -78.5t-97 -251.5l-41 -219h637l-168 -1018q-39 -237 -180 -355.5t-400 -121.5z" />
    <glyph glyph-name="f_f_j" unicode="ffj" horiz-adv-x="1904" 
d="M59 -98l183 1028h-154l10 53h152l14 82q41 239 178 367.5t353 128.5q183 0 280 -140q151 162 357 162q117 0 199.5 -57.5t82.5 -159.5q0 -78 -46 -127t-120 -49q-66 0 -101.5 34.5t-35.5 90.5q0 35 14 67l80 9q17 35 17 65q0 37 -25 56.5t-65 19.5q-33 0 -59.5 -11.5
t-47 -36t-36 -54t-28.5 -74t-22.5 -88t-19.5 -103.5l-31 -182h627l-168 -1018q-14 -82 -38 -149.5t-67 -130t-102 -105t-146 -67.5t-196 -25h-31v57q132 19 192 100.5t93 280.5l164 1004h-336l-174 -944q-44 -237 -176 -366.5t-347 -129.5q-95 0 -169.5 38t-110.5 95
q-59 -70 -142 -103.5t-204 -33.5q-115 0 -197 55.5t-82 155.5q0 79 48 131.5t128 52.5q62 0 97.5 -35t35.5 -92q0 -36 -14 -71l-80 -11q-18 -34 -18 -61q0 -32 23.5 -49t64.5 -17q86 0 129 90q28 60 62 242q1 5 3 16q1 6 2 9zM705 -92l184 1022h-357l-141 -783
q-40 -206 -63 -262q54 -6 83 -40t29 -85q0 -30 -14 -65l-80 -10q-16 -29 -16 -54q0 -38 36 -60t89 -22q103 0 159.5 87.5t90.5 271.5zM541 983h356l10 53q15 72 31 119q-44 10 -69 41.5t-25 73.5q0 35 14 67l80 9q18 38 18 65q0 45 -37.5 71.5t-95.5 26.5q-110 0 -165 -86
t-89 -280z" />
    <glyph glyph-name="f_f_k" unicode="ffk" horiz-adv-x="2476" 
d="M1473 418l133 780q-72 0 -108 33t-36 84q0 33 15 67l75 9q17 35 17 65q0 36 -29.5 56t-73.5 20q-46 0 -82 -16t-61 -44.5t-45 -76t-33.5 -101t-25.5 -129.5l-31 -182h237l-8 -53h-237l-166 -897q-44 -237 -175.5 -366.5t-346.5 -129.5q-95 0 -170 38t-111 95
q-156 -184 -354 -184q-115 0 -197 55.5t-82 155.5q0 79 48 131.5t128 52.5q62 0 97.5 -35t35.5 -92q0 -36 -14 -71l-80 -11q-18 -34 -18 -61q0 -32 23.5 -49t64.5 -17q86 0 129 90q28 60 62 242q1 5 3 16q1 6 2 9l183 1028h-154l10 53h152l14 82q41 239 178 367.5t353 128.5
q183 0 280 -140q151 162 357 162q99 0 175 -47t105 -127l201 123l29 -2l-183 -1020l146 74q117 60 178.5 117.5t58.5 103.5l-80 31q-10 77 32 129.5t130 52.5q76 0 113 -41t37 -100q0 -117 -156 -197q-17 -9 -151.5 -76.5t-143.5 -71.5l4 -8q97 13 119 13q94 0 149.5 -41
t55.5 -127q0 -29 -6 -64l-29 -135q-8 -39 -8 -55q0 -52 61 -52q31 0 59 24t66 77l45 -33q-100 -154 -268 -154q-106 0 -175 45.5t-69 137.5q0 26 10 71l27 105q8 31 8 61q0 78 -80 78q-67 0 -145 -35l-68 -432q-56 0 -157.5 -7.5t-143.5 -18.5zM713 -45l176 975h-357
l-141 -783q-30 -153 -55 -215q54 -6 83.5 -40t29.5 -85q0 -27 -15 -65l-80 -10q-16 -29 -16 -54q0 -38 35.5 -59.5t89.5 -21.5q103 0 159.5 87t90.5 271zM541 983h356l10 53q15 72 31 119q-44 10 -69 41.5t-25 73.5q0 35 14 67l80 9q18 38 18 65q0 45 -37.5 71.5t-95.5 26.5
q-110 0 -165 -86t-89 -280z" />
    <glyph glyph-name="f_f_b" unicode="ffb" horiz-adv-x="2535" 
d="M1503 612l103 586q-72 0 -108 33t-36 84q0 33 15 67l75 9q17 35 17 65q0 36 -29.5 56t-73.5 20q-46 0 -82 -16t-61 -44.5t-45 -76t-33.5 -101t-25.5 -129.5l-31 -182h237l-8 -53h-237l-166 -897q-44 -237 -175.5 -366.5t-346.5 -129.5q-95 0 -170 38t-111 95
q-156 -184 -354 -184q-115 0 -197 55.5t-82 155.5q0 79 48 131.5t128 52.5q62 0 97.5 -35t35.5 -92q0 -36 -14 -71l-80 -11q-18 -34 -18 -61q0 -32 23.5 -49t64.5 -17q86 0 129 90q28 60 62 242q1 5 3 16q1 6 2 9l183 1028h-154l10 53h152l14 82q41 239 178 367.5t353 128.5
q183 0 280 -140q151 162 357 162q99 0 175 -47t105 -127l201 123l29 -2l-138 -752l8 -2q128 228 359 228q147 0 221 -93t74 -260q0 -99 -21.5 -194t-69 -182.5t-115 -153t-166 -105t-216.5 -39.5q-408 0 -408 361q0 85 33 274zM713 -45l176 975h-357l-141 -783
q-30 -153 -55 -215q54 -6 83.5 -40t29.5 -85q0 -27 -15 -65l-80 -10q-16 -29 -16 -54q0 -38 35.5 -59.5t89.5 -21.5q103 0 159.5 87t90.5 271zM1894 43q57 0 104.5 40t79 106.5t53.5 155t32 182.5t10 192q0 100 -25 146t-86 46q-54 0 -105.5 -45.5t-94.5 -124.5
q-111 -203 -111 -489q0 -100 32 -154.5t111 -54.5zM541 983h356l10 53q15 72 31 119q-44 10 -69 41.5t-25 73.5q0 35 14 67l80 9q18 38 18 65q0 45 -37.5 71.5t-95.5 26.5q-110 0 -165 -86t-89 -280z" />
    <glyph glyph-name="f_f_h" unicode="ffh" horiz-adv-x="2553" 
d="M1473 367l133 831q-72 0 -108 33t-36 84q0 33 15 67l75 9q17 35 17 65q0 36 -29.5 56t-73.5 20q-46 0 -82 -16t-61 -44.5t-45 -76t-33.5 -101t-25.5 -129.5l-31 -182h237l-8 -53h-237l-166 -897q-44 -237 -175.5 -366.5t-346.5 -129.5q-95 0 -170 38t-111 95
q-156 -184 -354 -184q-115 0 -197 55.5t-82 155.5q0 79 48 131.5t128 52.5q62 0 97.5 -35t35.5 -92q0 -36 -14 -71l-80 -11q-18 -34 -18 -61q0 -32 23.5 -49t64.5 -17q32 0 57 10t44 35.5t31.5 49.5t25 73.5t19.5 84.5t19 104l183 1028h-154l10 53h152l14 82
q41 239 178 367.5t353 128.5q183 0 280 -140q151 162 357 162q99 0 175 -47t105 -127l201 123l29 -2l-183 -897l10 -2q168 373 435 373q113 0 163 -61t50 -163q0 -58 -17 -135l-98 -418q-16 -66 -16 -102q0 -32 13.5 -45.5t41.5 -13.5q56 0 131 96l45 -35
q-101 -150 -272 -150q-109 0 -170.5 52.5t-61.5 156.5q0 48 15 126.5t31.5 139t41.5 146.5t31 107q18 74 18 106q0 78 -63 78q-71 0 -146 -89.5t-126 -226.5q-76 -199 -115 -567q-51 2 -162.5 -5t-151.5 -15zM713 -45l176 975h-357l-141 -783q-30 -153 -55 -215
q54 -6 83.5 -40t29.5 -85q0 -27 -15 -65l-80 -10q-16 -29 -16 -54q0 -38 35.5 -59.5t89.5 -21.5q103 0 159.5 87t90.5 271zM541 983h356l10 53q15 72 31 119q-44 10 -69 41.5t-25 73.5q0 35 14 67l80 9q18 38 18 65q0 45 -37.5 71.5t-95.5 26.5q-110 0 -165 -86t-89 -280z
" />
    <glyph glyph-name="f_f_t" unicode="fft" horiz-adv-x="2056" 
d="M59 -98l183 1028h-154l10 53h152l14 82q41 239 178 367.5t353 128.5q183 0 280 -140q151 162 357 162q118 0 197 -52.5t79 -150.5q0 -73 -44 -120.5t-116 -47.5q-65 0 -101 33t-36 86q0 36 14 68l80 8q17 31 17 57q0 31 -22.5 49.5t-67.5 18.5q-33 0 -59.5 -11.5t-47 -36
t-36 -54t-28.5 -74t-22.5 -88t-19.5 -103.5l-31 -182h358l29 147l237 66h64l-39 -213h215l-8 -53h-215l-86 -447q-12 -56 -27.5 -157t-15.5 -142q0 -96 84 -96q50 0 91.5 34t94.5 109l49 -34q-139 -220 -338 -220q-140 0 -204 66t-64 168q0 78 39 276l86 443h-358l-166 -897
q-44 -237 -175.5 -366.5t-346.5 -129.5q-95 0 -170 38t-111 95q-156 -184 -354 -184q-115 0 -197 55.5t-82 155.5q0 79 48 131.5t128 52.5q62 0 97.5 -35t35.5 -92q0 -36 -14 -71l-80 -11q-18 -34 -18 -61q0 -32 23.5 -49t64.5 -17q86 0 129 90q28 60 62 242q1 5 3 16
q1 6 2 9zM713 -45l176 975h-357l-141 -783q-30 -153 -55 -215q54 -6 83.5 -40t29.5 -85q0 -27 -15 -65l-80 -10q-16 -29 -16 -54q0 -38 35.5 -59.5t89.5 -21.5q103 0 159.5 87t90.5 271zM541 983h356l10 53q15 72 31 119q-44 10 -69 41.5t-25 73.5q0 35 14 67l80 9
q18 38 18 65q0 45 -37.5 71.5t-95.5 26.5q-110 0 -165 -86t-89 -280z" />
    <glyph glyph-name="f_iacute" unicode="f&#xed;" horiz-adv-x="1282" 
d="M1204 164l47 -35q-52 -77 -115.5 -114.5t-154.5 -37.5q-110 0 -173 51.5t-63 159.5q0 62 31 207l113 535h-354l-173 -950q-43 -240 -165 -367t-340 -127q-115 0 -197 55.5t-82 155.5q0 79 48 131.5t128 52.5q61 0 97 -35.5t36 -91.5q0 -36 -14 -71l-80 -11
q-20 -36 -20 -61q0 -32 23.5 -49t62.5 -17q25 0 45.5 5.5t37.5 20t29.5 29t24 43t18.5 49.5t16 62.5t14.5 68.5t14.5 79l183 1028h-154l10 53h152l24 145q17 102 50.5 182.5t86 143t130 96t176.5 33.5q112 0 187 -56t75 -157q0 -75 -44.5 -120.5t-121.5 -45.5q-65 0 -101 34
t-36 87q0 36 14 68l80 8q18 30 18 59q0 32 -22.5 52t-60.5 20q-73 0 -112.5 -56t-39.5 -157q0 -77 20 -164l-30 -172h639q-149 -728 -154 -752q-12 -64 -12 -106q0 -32 15 -45.5t46 -13.5q30 0 60 23t67 75zM1004 1143l180 383l102 22q8 2 23 2q36 0 61 -18.5t25 -54.5
q0 -53 -62 -105l-299 -252z" />
    <glyph glyph-name="t_t.alt" unicode="tt" horiz-adv-x="1394" 
d="M1382 930h-215l-86 -447q-12 -56 -27.5 -157t-15.5 -142q0 -96 84 -96q50 0 92 34t95 109l49 -34q-139 -220 -338 -220q-140 0 -204 66t-64 168q0 78 39 276l86 443h-359l-86 -447q-12 -56 -27.5 -157t-15.5 -142q0 -45 17 -70.5t63 -25.5q92 0 158 105l49 -35
q-103 -181 -326 -181q-126 0 -187 67t-61 167q0 78 39 276l86 443h-147l8 53h148l36 221l238 66h63l-47 -287h359l37 221l237 66h64l-47 -287h215z" />
    <glyph glyph-name=".notdef" horiz-adv-x="409" 
 />
    <glyph glyph-name=".null" horiz-adv-x="0" 
 />
    <glyph glyph-name="nonmarkingreturn" horiz-adv-x="682" 
 />
    <glyph glyph-name="space" unicode=" " horiz-adv-x="409" 
 />
    <glyph glyph-name="exclam" unicode="!" horiz-adv-x="784" 
d="M299 379l20 119q25 143 31 259t-0.5 178.5t-15 141t-8.5 133.5q0 246 200 246q76 0 109 -40.5t33 -98.5q0 -59 -22 -123t-57 -132.5t-72.5 -145t-75 -187.5t-58.5 -233l-21 -117h-63zM313 281q-77 0 -128.5 -50.5t-51.5 -124.5q0 -52 31.5 -89t97.5 -37q79 0 129.5 52.5
t50.5 129.5q0 57 -35 88t-94 31z" />
    <glyph glyph-name="quotedbl" unicode="&#x22;" horiz-adv-x="765" 
d="M242 1077l18 449q69 49 125 49q35 0 57.5 -16.5t22.5 -51.5q0 -47 -37 -127l-137 -303h-49zM545 1077l18 449q69 49 125 49q35 0 57.5 -16.5t22.5 -51.5q0 -47 -37 -127l-137 -303h-49z" />
    <glyph glyph-name="numbersign" unicode="#" horiz-adv-x="1251" 
d="M250 0h-92l94 285h-244l33 86h240l122 362h-245l30 88h240l84 266h94l-86 -266h316l84 266h90l-86 -266h247l-28 -88h-244l-119 -362h244l-29 -86h-239l-94 -285h-93l95 285h-318zM809 733h-313l-123 -362h317z" />
    <glyph glyph-name="dollar" unicode="$" horiz-adv-x="1128" 
d="M479 -152l25 146q-48 -6 -121 4l-27 -150h-63l29 158q-53 10 -126.5 31.5t-91.5 21.5t-29 -13t-32 -52h-37l62 461h45q20 -127 75 -224.5t146 -144.5l92 508q-256 101 -256 340q0 165 105.5 292t289.5 163l33 176h64l-31 -168q68 3 123 -4l28 172h64l-33 -185
q35 -8 90.5 -27.5t75.5 -19.5q19 0 30.5 10.5t26.5 36.5h33l-57 -401h-41q-48 247 -172 321l-84 -475q49 -21 83.5 -39t75 -48t65 -63.5t41.5 -83.5t17 -110q0 -192 -121.5 -321.5t-306.5 -159.5l-26 -152h-64zM803 313q0 71 -35 113.5t-109 79.5l-79 -447q223 55 223 254z
M514 51l88 479l-115 43l-94 -512q52 -10 121 -10zM541 887l114 -41l86 483q-60 16 -120 10zM360 1104q0 -124 121 -191l74 418q-86 -19 -140.5 -76.5t-54.5 -150.5z" />
    <glyph glyph-name="percent" unicode="%" horiz-adv-x="1579" 
d="M764 240q0 188 111.5 310t289.5 122q127 0 201 -66t74 -198q0 -101 -35 -184t-92.5 -135t-128 -80.5t-144.5 -28.5q-136 0 -206 69.5t-70 190.5zM1155 625q-47 0 -84.5 -35.5t-59 -87.5t-35.5 -117.5t-19 -118t-5 -96.5q0 -145 99 -145q57 0 99 51t62 129.5t28.5 147
t8.5 128.5q0 76 -22 110t-72 34zM162 1024q0 189 111.5 310.5t291.5 121.5q126 0 200.5 -66.5t74.5 -197.5q0 -100 -35.5 -183t-93.5 -135.5t-128.5 -81t-144.5 -28.5q-136 0 -206 69.5t-70 190.5zM555 1409q-47 0 -84.5 -35.5t-59 -87.5t-35.5 -117.5t-19 -118t-5 -96.5
q0 -143 97 -143q47 0 84 35.5t58 86.5t35 116.5t18.5 118t4.5 98.5q0 75 -23 109t-71 34zM203 0l1093 1434h80l-1087 -1434h-86z" />
    <glyph glyph-name="ampersand" unicode="&#x26;" horiz-adv-x="1798" 
d="M1585 653l-168 -28q-7 -67 -21.5 -129t-41 -128t-64 -122t-93 -106.5t-124 -86t-162 -56t-202.5 -20.5q-262 0 -414 102t-152 286q0 92 38 165.5t107.5 123.5t155 83t191.5 51v5q-148 16 -240 89.5t-92 200.5q0 121 77 207t201.5 126t282.5 40q81 0 150.5 -15t127.5 -46
t91 -86.5t33 -130.5q0 -92 -51 -140.5t-123 -48.5q-68 0 -102 38t-34 91q0 48 23 86h92q21 46 21 84q0 54 -42.5 84.5t-121.5 30.5q-130 0 -210.5 -85t-80.5 -245q0 -85 20 -152.5t54 -105.5q83 31 129 31q84 0 84 -64q0 -37 -29.5 -53t-69.5 -16q-57 0 -127 45
q-196 -132 -196 -357q0 -73 17 -131t53.5 -103.5t99.5 -70t149 -24.5q118 0 212.5 42.5t156.5 117.5t99.5 170.5t51.5 209.5l-247 -32q-40 -6 -54.5 -24.5t-23.5 -70.5l-43 2q6 164 45 243.5t125 94.5q37 7 242.5 35.5t252.5 38.5q30 6 44 25t20 67l45 -2q0 -308 -162 -336z
" />
    <glyph glyph-name="quotesingle" unicode="'" horiz-adv-x="462" 
d="M238 1077l18 449q69 49 123 49q35 0 57.5 -16.5t22.5 -51.5q0 -43 -35 -127l-139 -303h-47z" />
    <glyph glyph-name="parenleft" unicode="(" horiz-adv-x="729" 
d="M113 676q28 157 102.5 312t175.5 276.5t225 205.5t246 105l2 -45q-54 -13 -99 -41t-79.5 -65t-64.5 -95.5t-51.5 -117t-43 -146t-37.5 -166.5t-36 -194q-68 -389 -68 -599q0 -173 34 -261t124 -130l-17 -39q-130 36 -231.5 149t-154 265.5t-52.5 315.5q0 129 25 270z" />
    <glyph glyph-name="parenright" unicode=")" horiz-adv-x="729" 
d="M637 852q0 -165 -37 -322q-33 -153 -99.5 -291.5t-159 -252t-217 -193.5t-265.5 -110l-2 49q47 13 86.5 35t72.5 57t59 72.5t49.5 95.5t41 110t37 133t33.5 148.5t34 169.5q68 349 68 598q0 175 -33.5 262t-124.5 129l17 39q130 -36 232 -148.5t155 -265t53 -315.5z" />
    <glyph glyph-name="asterisk" unicode="*" horiz-adv-x="1028" 
d="M987 1274l-354 -74l235 -72q27 -8 41.5 -14t28.5 -21t14 -36q0 -86 -137 -142l-199 254l13 -344q-66 -47 -123 -47q-33 0 -52.5 16.5t-19.5 41.5q0 35 31 102l117 233l-289 -256q-37 14 -64.5 42t-27.5 67q0 74 112 104l262 72l-329 74q0 78 29 125t79 47
q27 0 44.5 -11.5t47.5 -43.5l150 -160l-18 332q69 49 122 49q33 0 52.5 -16t19.5 -40q0 -38 -37 -114l-104 -213l190 160q70 57 121 57q66 0 66 -76q0 -38 -21 -96z" />
    <glyph glyph-name="plus" unicode="+" 
d="M1020 612h-430l-74 -424h-82l74 424h-418l14 74h418l70 399h82l-70 -399h430z" />
    <glyph glyph-name="comma" unicode="," horiz-adv-x="573" 
d="M61 -319l-30 45q130 87 182.5 155.5t52.5 136.5q0 49 -39 56l-92 -74q-34 12 -61 48.5t-27 84.5q0 75 54 122.5t128 47.5q79 0 120.5 -52.5t41.5 -129.5q0 -127 -81 -229t-249 -211z" />
    <glyph glyph-name="hyphen" unicode="-" horiz-adv-x="700" 
d="M78 512l20 119h492l-23 -119h-489z" />
    <glyph glyph-name="period" unicode="." horiz-adv-x="550" 
d="M242 305q66 0 103.5 -33.5t37.5 -95.5q0 -88 -54.5 -142t-138.5 -54q-73 0 -107 40t-34 97q0 83 58 135.5t135 52.5z" />
    <glyph glyph-name="slash" unicode="/" horiz-adv-x="837" 
d="M-49 -199l907 1827h82l-905 -1827h-84z" />
    <glyph glyph-name="zero" unicode="0" horiz-adv-x="1224" 
d="M61 512q0 126 22.5 253t75 253t128.5 222t193.5 156t260.5 60q100 0 178.5 -28.5t139 -89t93 -162t32.5 -240.5q0 -104 -16.5 -211t-49.5 -215.5t-89 -203t-129 -168t-176 -116t-224 -42.5q-220 0 -329.5 142.5t-109.5 389.5zM731 1393q-135 0 -210.5 -155.5
t-131.5 -516.5q-43 -261 -43 -402q0 -151 37 -213.5t129 -62.5q59 0 105.5 27t81 76.5t63 134.5t50 185.5t44.5 244.5q39 251 39 403q0 148 -37 213.5t-127 65.5z" />
    <glyph glyph-name="one" unicode="1" horiz-adv-x="923" 
d="M256 59l186 1162q-66 -12 -154.5 -4t-140.5 22l15 49q152 -12 282.5 34.5t200.5 133.5h146l-228 -1397h201l-12 -59h-729l8 59h225z" />
    <glyph glyph-name="two" unicode="2" horiz-adv-x="1069" 
d="M608 1456q110 0 192 -26.5t129.5 -73t70 -103.5t22.5 -125q0 -49 -13 -95.5t-31.5 -86t-58 -86.5t-73 -81.5t-97.5 -88t-110 -89.5t-131 -101l-332 -254h436q93 0 148.5 21t83 57.5t53.5 105.5h45l-76 -430h-891l31 188l287 283q219 216 306 370t87 310q0 127 -41 184.5
t-131 57.5q-65 0 -110.5 -34t-45.5 -93q0 -26 9 -56h77q2 -16 2 -47q-3 -83 -44 -129.5t-123 -46.5q-71 0 -109.5 44t-38.5 114q0 92 65.5 164t173.5 109.5t238 37.5z" />
    <glyph glyph-name="three" unicode="3" horiz-adv-x="1132" 
d="M1030 1186q0 -60 -25.5 -111t-66 -89t-107 -74t-131.5 -62t-157 -57l-2 -9q83 11 123 11q88 -1 155 -26t107 -68t60 -96.5t20 -115.5q0 -97 -38.5 -181t-103.5 -144t-150 -102.5t-178.5 -63.5t-189.5 -21q-172 0 -261 63t-89 179q0 89 53.5 149t143.5 60q69 0 102 -35.5
t33 -91.5q0 -49 -23 -100h-82q-26 -39 -26 -74q0 -39 34 -61.5t95 -22.5q151 0 250.5 113t99.5 315q0 250 -172 250q-96 0 -205 -45l-10 59q207 68 314.5 172t107.5 275q0 99 -44.5 154t-127.5 55q-64 0 -104 -29.5t-40 -85.5q0 -26 8 -53h74q4 -32 4 -47q-2 -78 -45 -123
t-131 -45q-65 0 -101 41.5t-36 101.5q0 142 135.5 223.5t355.5 81.5q186 0 278.5 -72.5t92.5 -197.5z" />
    <glyph glyph-name="four" unicode="4" horiz-adv-x="1175" 
d="M117 434h489l60 359l321 73l-78 -432h183l-11 -67h-182l-55 -308h190l-8 -59h-709l9 59h217l55 308h-575l12 77q322 318 472 537.5t150 329.5q0 57 -24 106l61 49q242 0 242 -168q0 -29 -4.5 -54t-19.5 -54.5t-33.5 -56t-56.5 -67t-77 -78t-106.5 -98t-134.5 -119.5
t-171 -149q-5 -4 -7 -6z" />
    <glyph glyph-name="five" unicode="5" horiz-adv-x="1089" 
d="M479 805q-118 0 -252 -92l-49 22l182 690l31 17q190 -70 400 -70q109 0 171.5 34.5t88.5 115.5l43 -4q-19 -197 -135.5 -296.5t-321.5 -99.5q-59 0 -141 13t-127 32l-111 -372q179 106 377 106q171 0 256.5 -85.5t85.5 -229.5q0 -139 -53 -255t-144 -193t-212 -119
t-257 -42q-155 0 -241 64.5t-86 171.5q0 91 50.5 152t147.5 61q68 0 99.5 -32.5t31.5 -86.5q0 -45 -24 -102h-82q-29 -39 -29 -76q0 -39 34.5 -62.5t92.5 -23.5q108 0 186 70.5t115 184.5t37 257q0 126 -38.5 188t-125.5 62z" />
    <glyph glyph-name="six" unicode="6" horiz-adv-x="1155" 
d="M848 1393q-150 0 -265 -175.5t-173 -480.5q54 72 143 120t195 48q144 0 232.5 -85t88.5 -257q0 -135 -46.5 -246.5t-125.5 -185t-184.5 -114t-223.5 -40.5q-191 0 -301 116.5t-110 361.5q0 108 19 220t57 225t101 212.5t144 176.5t193 122t242 45q136 0 215 -58.5
t79 -166.5q0 -88 -48 -143.5t-132 -55.5q-131 0 -131 115q0 42 27 98l80 6q20 39 20 68q0 35 -26.5 54.5t-69.5 19.5zM442 670q-86 -162 -86 -412q0 -213 146 -213q118 0 198 150.5t80 416.5q0 205 -133 205q-59 0 -114 -40t-91 -107z" />
    <glyph glyph-name="seven" unicode="7" horiz-adv-x="1046" 
d="M264 721l12 63h281q140 183 317 375h-464q-78 0 -116 -14t-61 -48t-55 -118l-53 2l123 477l31 12q67 -36 206 -36h650l12 -39q-77 -76 -221 -272t-226 -339h261l-17 -63h-272q-160 -297 -160 -483q0 -114 51 -197l-47 -61q-140 -11 -218.5 48t-78.5 154q0 101 60.5 207.5
t232.5 331.5h-248z" />
    <glyph glyph-name="eight" unicode="8" horiz-adv-x="1146" 
d="M188 1053q0 180 144 291.5t385 111.5q192 0 300.5 -79.5t108.5 -233.5q0 -151 -121 -259.5t-307 -123.5l-2 -6q182 -20 268.5 -103.5t86.5 -218.5q0 -140 -78.5 -245t-208 -157.5t-289.5 -52.5q-210 0 -330 92.5t-120 262.5q0 169 129 288t352 134v6q-149 12 -233.5 90.5
t-84.5 202.5zM592 715q-79 0 -138.5 -65t-88.5 -165t-29 -215q0 -109 36.5 -167t121.5 -58q115 0 182 123t67 311q0 236 -151 236zM705 1391q-71 0 -121.5 -60t-72.5 -147t-22 -187q0 -105 29.5 -155.5t91.5 -50.5q67 0 117 55.5t74 146.5t24 203q0 99 -29 147t-91 48z" />
    <glyph glyph-name="nine" unicode="9" horiz-adv-x="1157" 
d="M348 -23q-157 0 -234 63t-77 165q0 94 52.5 151.5t139.5 57.5q64 0 95.5 -34.5t31.5 -88.5q0 -51 -26 -98h-78q-35 -38 -35 -76q0 -74 107 -74q150 0 264.5 162.5t171.5 488.5q-49 -70 -134 -112.5t-188 -42.5q-66 0 -124 20t-106 60.5t-76 111.5t-28 164q0 178 76.5 307
t202.5 191.5t285 62.5q422 0 422 -495q0 -100 -17 -206t-52 -218.5t-95 -211.5t-139 -177.5t-192.5 -124.5t-246.5 -46zM530 621q88 0 154 74.5t98.5 194.5t32.5 265q0 122 -33 179t-110 57q-67 0 -122 -50.5t-87.5 -132t-50 -177t-17.5 -193.5q0 -217 135 -217z" />
    <glyph glyph-name="colon" unicode=":" horiz-adv-x="550" 
d="M244 305q66 0 104.5 -33.5t38.5 -95.5q0 -88 -55 -142t-139 -54q-73 0 -106.5 40t-33.5 97q0 83 57 135.5t134 52.5zM371 983q66 0 104.5 -33.5t38.5 -95.5q0 -88 -55.5 -142.5t-139.5 -54.5q-73 0 -106 40.5t-33 97.5q0 83 57 135.5t134 52.5z" />
    <glyph glyph-name="semicolon" unicode=";" horiz-adv-x="573" 
d="M57 -319l-28 45q130 87 182.5 155.5t52.5 136.5q0 49 -39 56l-92 -74q-35 11 -61.5 48t-26.5 85q0 75 54 122.5t126 47.5q79 0 120.5 -52.5t41.5 -129.5q0 -128 -80.5 -229.5t-249.5 -210.5zM360 983q65 0 103.5 -33.5t38.5 -95.5q0 -88 -55.5 -142.5t-139.5 -54.5
q-73 0 -106 40.5t-33 97.5q0 83 57 135.5t135 52.5z" />
    <glyph glyph-name="less" unicode="&#x3c;" 
d="M918 176l-857 395l11 58l993 389l-14 -84l-871 -338l752 -344z" />
    <glyph glyph-name="equal" unicode="=" 
d="M993 383h-930l15 74h930zM133 776h930l-12 -74h-930z" />
    <glyph glyph-name="greater" unicode="&#x3e;" 
d="M1055 571l-996 -395l15 86l870 344l-751 338l14 74l858 -389z" />
    <glyph glyph-name="question" unicode="?" horiz-adv-x="1089" 
d="M487 281q59 0 94 -31t35 -88q0 -77 -50.5 -129.5t-129.5 -52.5q-66 0 -97.5 37t-31.5 89q0 74 51.5 124.5t128.5 50.5zM621 1407q-89 0 -139 -35.5t-50 -95.5q0 -21 6 -45h68q4 -28 4 -45q0 -69 -39.5 -111.5t-116.5 -42.5q-69 0 -104 42t-35 100q0 74 43 131.5
t111.5 88.5t142.5 46.5t147 15.5q195 0 296.5 -85t101.5 -214q0 -78 -26.5 -139.5t-70 -98.5t-99 -67.5t-114 -49.5t-114 -42t-99 -46t-70 -61t-26.5 -88q0 -58 36.5 -95.5t113.5 -37.5q85 0 146 54t91 165l47 -12q-26 -119 -108.5 -193.5t-212.5 -74.5q-151 0 -236.5 72.5
t-85.5 189.5q0 65 20 116.5t54 85.5t77.5 61.5t92 48t97 40t92 42.5t77.5 51t54 70.5t20 96.5q0 77 -51 119.5t-141 42.5z" />
    <glyph glyph-name="at" unicode="@" horiz-adv-x="1773" 
d="M926 819q117 0 186 -76l45 62h170l-133 -383q-38 -108 -54 -167.5t-16 -109.5q0 -53 22 -74.5t71 -21.5q38 0 83.5 22t93.5 69.5t87.5 112.5t64.5 161.5t25 206.5q0 231 -143 361t-420 130q-185 0 -343 -68.5t-266 -186.5t-168.5 -279.5t-60.5 -344.5q0 -116 32.5 -209.5
t88.5 -156t134 -105t166.5 -61t188.5 -18.5q262 0 496 172l35 -48q-106 -85 -252.5 -133.5t-292.5 -48.5q-197 0 -346.5 68.5t-235.5 206.5t-86 329q0 271 118 486t330 335.5t480 120.5q181 0 318.5 -61t217.5 -185.5t80 -297.5q0 -155 -44 -281t-114.5 -202.5t-153.5 -117
t-167 -40.5q-198 0 -219 157q-110 -155 -266 -155q-121 0 -181.5 67.5t-60.5 182.5q0 79 21.5 161t64 157t100 134t137 94t167.5 35zM942 262l145 436q-54 60 -131 60q-63 0 -115 -38t-85.5 -97.5t-57 -134t-33.5 -144t-10 -131.5q0 -137 95 -137q66 0 114 50.5t78 135.5z
" />
    <glyph glyph-name="A" unicode="A" horiz-adv-x="1288" 
d="M774 59l-57 418h-420l-217 -418h162l-9 -59h-358l8 59h121l715 1383h155l222 -1383h127l-9 -59h-587l8 59h139zM629 1126l-303 -589h383z" />
    <glyph glyph-name="B" unicode="B" horiz-adv-x="1280" 
d="M217 1434h506q124 0 216 -16t161 -51.5t104 -97t35 -149.5q0 -133 -109.5 -234.5t-312.5 -129.5v-4q177 -18 276 -92t99 -203q0 -104 -41.5 -185t-108.5 -131t-161.5 -82.5t-192 -45.5t-207.5 -13h-497l10 59h135l219 1315h-141zM537 713l-113 -654h72q168 0 270 104.5
t102 295.5q0 136 -61.5 195t-200.5 59h-69zM643 1374l-96 -600h26q158 0 258.5 93t100.5 280q0 119 -61 173t-189 54h-39z" />
    <glyph glyph-name="C" unicode="C" horiz-adv-x="1269" 
d="M864 1397q-100 0 -182 -59t-134 -151.5t-87.5 -210.5t-50.5 -230.5t-15 -217.5q0 -467 310 -467q67 0 128.5 21t119.5 65t107.5 120t82.5 177l55 -14q-27 -91 -68.5 -164t-91.5 -121t-103.5 -82.5t-110.5 -52.5t-105 -25.5t-96 -7.5q-259 0 -404 141.5t-145 418.5
q0 134 31 264.5t97 249t158 208.5t223.5 143.5t284.5 53.5q66 0 139.5 -15t125 -30.5t65.5 -15.5q18 0 30.5 9.5t26.5 33.5h41l-57 -428h-51q-17 387 -324 387z" />
    <glyph glyph-name="D" unicode="D" horiz-adv-x="1439" 
d="M1389 883q0 -407 -252.5 -645t-696.5 -238h-456l10 59h135l221 1315h-141l8 60h508q121 0 220 -17.5t183 -58.5t141 -104t88.5 -156.5t31.5 -214.5zM424 59h53q97 0 180 29.5t143.5 80.5t108.5 122t79 150.5t51.5 170t29 176t8.5 173.5q0 104 -19 178.5t-51 119.5
t-84.5 71t-108.5 35t-134 9h-35z" />
    <glyph glyph-name="E" unicode="E" horiz-adv-x="1232" 
d="M221 1434h1012l-45 -396h-51q-5 88 -21 147.5t-42 97t-71 57.5t-96.5 27t-130.5 7h-133l-102 -612h77q108 0 171 57.5t112 204.5h45l-100 -606h-49q0 115 -20 174t-63 81.5t-126 22.5h-58l-106 -637h133q150 0 247 40t157.5 118.5t113.5 218.5h51l-88 -436h-1050l10 59
h131l219 1315h-137z" />
    <glyph glyph-name="F" unicode="F" horiz-adv-x="1191" 
d="M221 1434h1012l-45 -398h-51q-5 88 -21 148t-42 97.5t-71.5 58t-97.5 27.5t-131 7h-131l-104 -633h82q107 0 169 57.5t113 205.5h45l-102 -607h-49q0 88 -9.5 140.5t-34.5 84.5t-62.5 43t-100.5 11h-62l-104 -617h215l-12 -59h-639l10 59h131l219 1315h-137z" />
    <glyph glyph-name="G" unicode="G" horiz-adv-x="1349" 
d="M860 1397q-100 0 -181.5 -58.5t-133 -150.5t-86.5 -210t-49.5 -230t-14.5 -218q0 -246 70.5 -361.5t222.5 -115.5q111 0 166 37l70 434h-166l10 60h573l-12 -60h-117l-73 -424q-92 -52 -234.5 -87.5t-277.5 -35.5q-267 0 -411 142t-144 420q0 125 30.5 251.5t96.5 246.5
t157.5 213t225 149.5t288.5 56.5q67 0 138 -15t121 -30.5t67 -15.5q20 0 31.5 10t25.5 33h39l-57 -428h-49q-10 202 -92 294.5t-234 92.5z" />
    <glyph glyph-name="H" unicode="H" horiz-adv-x="1521" 
d="M221 1434h574l-11 -60h-141l-98 -602h499l99 602h-139l10 60h563l-10 -60h-129l-219 -1315h139l-10 -59h-574l10 59h140l108 639h-497l-111 -639h141l-10 -59h-567l10 59h131l219 1315h-137z" />
    <glyph glyph-name="I" unicode="I" horiz-adv-x="741" 
d="M223 1434h568l-11 -60h-131l-223 -1315h137l-10 -59h-563l10 59h127l223 1315h-137z" />
    <glyph glyph-name="J" unicode="J" horiz-adv-x="1015" 
d="M485 1434h592l-10 -60h-125l-156 -934q-40 -235 -165.5 -347.5t-346.5 -112.5q-145 0 -214.5 60t-69.5 157q0 87 51 138.5t131 51.5q67 0 99 -32.5t32 -86.5q0 -53 -29 -116h-69q-19 -28 -19 -54q0 -65 88 -65q81 0 125 61.5t72 229.5l176 1050h-172z" />
    <glyph glyph-name="K" unicode="K" horiz-adv-x="1370" 
d="M225 1434h566l-11 -60h-135l-106 -629l88 27l587 602h-131l9 60h346l-8 -60h-117l-449 -467l326 -848h110l-10 -59h-569l12 59h129l-229 646l-103 -29l-104 -617h133l-12 -59h-557l12 59h129l219 1315h-135z" />
    <glyph glyph-name="L" unicode="L" horiz-adv-x="1179" 
d="M221 1434h631l-10 -60h-199l-219 -1315h108q150 0 245.5 40.5t159.5 126t124 243.5h47l-92 -469h-1028l10 59h131l219 1315h-137z" />
    <glyph glyph-name="M" unicode="M" horiz-adv-x="1685" 
d="M1255 1434h484l-10 -60h-127l-220 -1315h136l-11 -59h-559l8 59h136l215 1309h-9l-626 -1368h-109l-153 1366h-9l-219 -1307h140l-11 -59h-327l10 59h119l223 1315h-121l10 60h459l119 -979h6z" />
    <glyph glyph-name="N" unicode="N" horiz-adv-x="1400" 
d="M1323 1374l-231 -1378h-193l-481 1331h-4l-207 -1268h131l-8 -59h-340l10 59h131l217 1315h-133l10 60h469l385 -1049h6l164 989h-129l10 60h328l-8 -60h-127z" />
    <glyph glyph-name="O" unicode="O" horiz-adv-x="1404" 
d="M72 528q0 113 21.5 224t63.5 215t108.5 192.5t151 155t197 104t240.5 37.5q250 0 378 -141t128 -412q0 -134 -28 -263.5t-89.5 -249.5t-150 -210.5t-218.5 -145t-286 -54.5q-255 0 -385.5 142.5t-130.5 405.5zM608 43q99 0 179.5 67t131 172t85.5 240t49 263.5t14 250.5
q0 187 -52 272t-184 85q-101 0 -182 -63.5t-132 -164.5t-85.5 -234t-48.5 -263t-14 -260q0 -180 53.5 -272.5t185.5 -92.5z" />
    <glyph glyph-name="P" unicode="P" horiz-adv-x="1249" 
d="M217 1434h541q512 0 512 -336q0 -111 -36.5 -199t-99.5 -145.5t-152 -95.5t-188 -54t-214 -16h-66l-90 -529h248l-8 -59h-680l10 59h135l219 1315h-141zM643 1374l-119 -729h60q74 0 136 27.5t104 74t71 108t42 128t13 135.5q0 149 -55.5 202.5t-183.5 53.5h-68z" />
    <glyph glyph-name="Q" unicode="Q" horiz-adv-x="1402" 
d="M72 528q0 113 21.5 224t63.5 215t108.5 192.5t151 155t197 104t240.5 37.5q250 0 378 -141t128 -412q0 -127 -25.5 -249t-81 -235.5t-135 -202t-195.5 -147.5t-255 -73v-12l45 -4q150 -14 216.5 -47.5t123.5 -137.5q10 -17 27.5 -49.5t27.5 -51t26.5 -43t30.5 -37.5
t33 -22.5t39 -9.5q63 0 139 96l43 -28q-56 -79 -116.5 -118.5t-165.5 -39.5q-136 0 -220.5 59t-144.5 181q-60 119 -90 158q-70 89 -182 104q-428 58 -428 534zM608 43q99 0 179.5 67t131 172t85.5 240t49 263.5t14 250.5q0 187 -52 272t-184 85q-101 0 -182 -63.5
t-132 -164.5t-85.5 -234t-48.5 -263t-14 -260q0 -180 53.5 -272.5t185.5 -92.5z" />
    <glyph glyph-name="R" unicode="R" horiz-adv-x="1359" 
d="M735 739v-6q80 -7 133 -23t93.5 -49t61 -88t26.5 -137l14 -178q7 -93 24 -136.5t62 -43.5q31 0 55 16t56 64l45 -29q-20 -34 -38.5 -56.5t-49 -47t-74.5 -36.5t-101 -12q-42 0 -77.5 6t-72 24t-62.5 47t-44.5 78.5t-23.5 115.5l-12 182q-11 155 -49 216t-134 61h-32
l-111 -648h160l-11 -59h-589l10 59h135l221 1315h-141l10 60h473q72 0 133 -4.5t127.5 -15.5t117.5 -32.5t93.5 -53t65 -80t22.5 -109.5q0 -95 -39.5 -168.5t-111 -121t-162.5 -74.5t-203 -36zM645 1374l-100 -610h28q72 0 135.5 23t113.5 67.5t79 117.5t29 167
q0 124 -62 179.5t-192 55.5h-31z" />
    <glyph glyph-name="S" unicode="S" horiz-adv-x="1120" 
d="M508 39q133 0 214 73t81 207q0 28 -6 53t-13.5 44.5t-24.5 38.5t-30 32t-39.5 28t-42.5 24t-49.5 22.5t-50.5 20t-55 20.5q-34 13 -57 22.5t-58.5 29t-59.5 39t-51.5 50.5t-44.5 66t-28 83.5t-11 104.5q0 135 64.5 240.5t174.5 162t245 56.5q75 0 144.5 -21t114.5 -42
t60 -21q19 0 32 15.5t30 50.5h43l-62 -432h-47q-38 391 -305 391q-119 0 -200 -62t-81 -180q0 -57 20 -101.5t57.5 -75t74.5 -49t88 -36.5q53 -19 83 -30.5t77.5 -34t75 -42.5t61.5 -52.5t52 -68t31 -84.5t13 -106q0 -149 -71.5 -264t-187.5 -174.5t-255 -59.5
q-71 0 -141 15t-113 32.5t-81.5 32.5t-55.5 15q-18 0 -30.5 -18.5t-34.5 -66.5q-2 -5 -3 -7h-45l70 481h47q13 -197 106 -309.5t275 -112.5z" />
    <glyph glyph-name="T" unicode="T" horiz-adv-x="1312" 
d="M1382 1434l-55 -463h-53q-2 89 -10.5 153t-27 109t-42 72.5t-62.5 43t-80.5 20.5t-103.5 5h-18l-219 -1315h186l-8 -59h-670l10 59h187l219 1315h-19q-96 0 -157 -15t-115.5 -60t-96 -122t-87.5 -206h-54l99 463h1177z" />
    <glyph glyph-name="U" unicode="U" horiz-adv-x="1406" 
d="M717 57q323 0 389 400l151 917h-149l8 60h359l-11 -60h-125l-151 -911q-20 -121 -57 -207.5t-102 -151t-164 -96t-236 -31.5q-104 0 -183.5 18.5t-141 59.5t-93.5 111.5t-33 169.5q0 61 15 160l149 878h-135l10 60h567l-8 -60h-139l-154 -928q-14 -77 -14 -151
q0 -238 248 -238z" />
    <glyph glyph-name="V" unicode="V" horiz-adv-x="1265" 
d="M678 291l557 1083h-156l8 60h349l-11 -60h-110l-715 -1380h-164l-233 1380h-113l8 60h572l-8 -60h-156z" />
    <glyph glyph-name="W" unicode="W" horiz-adv-x="1986" 
d="M690 313l365 699l-66 362h-131l10 60h594l-10 -60h-156l189 -1046l463 1046h-174l10 60h377l-11 -60h-120l-617 -1380h-170l-166 907l-481 -907h-162l-221 1380h-123l8 60h578l-8 -60h-146z" />
    <glyph glyph-name="X" unicode="X" horiz-adv-x="1294" 
d="M1219 0h-639l10 59h172l-225 564l-420 -564h172l-8 -59h-392l9 59h133l477 641l-272 674h-121l8 60h618l-12 -60h-160l201 -516l393 516h-168l11 60h385l-11 -60h-131l-448 -592l297 -723h131z" />
    <glyph glyph-name="Y" unicode="Y" horiz-adv-x="1183" 
d="M733 745l426 629h-155l8 60h346l-8 -60h-111l-483 -717l-103 -598h166l-10 -59h-625l11 59h163l101 596l-244 719h-127l10 60h609l-11 -60h-159z" />
    <glyph glyph-name="Z" unicode="Z" horiz-adv-x="1187" 
d="M1227 1434l-10 -60l-885 -1315h233q343 0 484 420h53l-101 -479h-1028l9 53l911 1321h-213q-78 0 -130 -7t-104.5 -28.5t-91.5 -63t-77.5 -108.5t-75.5 -166h-49l94 433h981z" />
    <glyph glyph-name="bracketleft" unicode="[" horiz-adv-x="716" 
d="M553 -293l-8 -55h-508l340 1927h508l-8 -57h-113q-76 0 -100.5 -18.5t-36.5 -88.5l-285 -1599q-6 -33 -6 -51.5t3 -31.5t17.5 -18t31 -6.5t50.5 -1.5h115z" />
    <glyph glyph-name="backslash" unicode="\" horiz-adv-x="815" 
d="M317 1628l299 -1827h-86l-297 1827h84z" />
    <glyph glyph-name="bracketright" unicode="]" horiz-adv-x="716" 
d="M201 1526l8 55h508l-340 -1927h-508l8 57h113q76 0 100.5 18.5t36.5 88.5l285 1599q13 76 -3 92.5t-94 16.5h-114z" />
    <glyph glyph-name="asciicircum" unicode="^" horiz-adv-x="1146" 
d="M1047 614l-76 -30l-389 688l-359 -690l-78 32l387 746h101z" />
    <glyph glyph-name="underscore" unicode="_" horiz-adv-x="1036" 
d="M1030 -217h-1024v76h1024v-76z" />
    <glyph glyph-name="grave" unicode="`" horiz-adv-x="1024" 
d="M788 1507l74 -387l-37 -14l-231 270q-33 46 -33 84q0 53 51 77.5t97 4.5z" />
    <glyph glyph-name="a" unicode="a" horiz-adv-x="1196" 
d="M1135 158l43 -33q-44 -69 -109 -108.5t-143 -39.5q-211 0 -211 177q0 40 12 90l-10 2q-48 -122 -138.5 -195.5t-222.5 -73.5q-157 0 -235 96t-78 277q0 96 19.5 188.5t60.5 177t99.5 148.5t143 102t183.5 38q96 0 153 -40t91 -114l32 129q193 0 277 14
q-112 -553 -148 -794q-4 -25 -4 -60q0 -43 14 -59.5t44 -16.5q60 0 127 95zM453 68q77 0 147.5 89.5t113 236.5t42.5 308q0 112 -41.5 170t-112.5 58q-79 0 -140.5 -79.5t-96.5 -226.5t-35 -337q0 -34 2 -59.5t9 -57.5t19.5 -52.5t36.5 -35t56 -14.5z" />
    <glyph glyph-name="b" unicode="b" horiz-adv-x="1144" 
d="M117 575l164 908h-166l8 53h461l-166 -756l10 -4q128 228 354 228q147 0 220 -92.5t73 -260.5q0 -99 -21.5 -194t-68.5 -182.5t-114.5 -153t-166.5 -105t-217 -39.5q-203 0 -299 99t-96 272q0 64 25 227zM672 911q-94 0 -185 -153q-62 -107 -94.5 -242.5t-32.5 -269.5
q0 -98 33 -150.5t113 -52.5q73 0 128.5 60t87 161.5t47 219.5t15.5 249q0 90 -25.5 134t-86.5 44z" />
    <glyph glyph-name="c" unicode="c" horiz-adv-x="974" 
d="M819 348l62 -20q-15 -49 -36 -93.5t-58.5 -93t-84 -83.5t-116 -58t-150.5 -23q-191 0 -292 103.5t-101 288.5q0 133 39.5 248t114 201.5t189.5 136t257 49.5q152 0 227.5 -69t75.5 -173q0 -86 -44.5 -143.5t-131.5 -57.5q-66 0 -100.5 33t-34.5 82q0 46 33 104h77
q17 44 17 78q0 46 -28.5 70t-76.5 24q-81 0 -144 -56.5t-98 -147t-52 -188t-17 -193.5q0 -162 42 -233t138 -71q94 0 170.5 75.5t122.5 209.5z" />
    <glyph glyph-name="d" unicode="d" horiz-adv-x="1204" 
d="M1186 1536l-170 -995q-64 -368 -64 -412q0 -31 15.5 -48.5t44.5 -17.5q61 0 125 95l45 -33q-45 -71 -110 -109.5t-142 -38.5q-107 0 -159 47.5t-52 135.5q0 34 10 82l-10 2q-112 -267 -363 -267q-158 0 -236.5 94t-78.5 269q0 93 17.5 184.5t56.5 179t95.5 153.5
t142 106.5t188.5 40.5q183 0 250 -152l94 631h-154l8 53h447zM457 68q78 0 147 88.5t110.5 237t41.5 315.5q0 99 -38 160t-114 61q-70 0 -123.5 -56.5t-85 -152.5t-47.5 -211.5t-16 -243.5q0 -103 28.5 -150.5t96.5 -47.5z" />
    <glyph glyph-name="e" unicode="e" horiz-adv-x="970" 
d="M627 1004q148 0 227.5 -62.5t79.5 -177.5q0 -60 -24.5 -108.5t-61.5 -80t-91.5 -56.5t-104.5 -38.5t-111 -23.5q-105 -15 -197 -19q-2 -45 -2 -88q0 -153 46 -216.5t144 -63.5q94 0 174.5 65.5t129.5 208.5l55 -18q-58 -178 -172.5 -263.5t-292.5 -85.5
q-184 0 -283.5 100.5t-99.5 282.5q0 284 161.5 464t422.5 180zM688 803q0 141 -92 141q-88 0 -157 -125t-91 -323q59 6 101 14.5t90.5 30t78.5 52.5t50 84.5t20 125.5z" />
    <glyph glyph-name="f" unicode="f" horiz-adv-x="704" 
d="M59 -98l183 1028h-154l10 53h152l16 104q36 231 168.5 363.5t349.5 132.5q118 0 200.5 -57.5t82.5 -159.5q0 -78 -46 -127t-120 -49q-66 0 -101.5 34.5t-35.5 90.5q0 35 14 67l80 9q16 33 16 65q0 37 -25 56.5t-65 19.5q-33 0 -59.5 -11.5t-47 -36t-36 -54t-28.5 -74
t-22.5 -88t-19.5 -103.5l-30 -182h266l-8 -53h-267l-172 -950q-43 -241 -164 -367.5t-339 -126.5q-115 0 -197 55.5t-82 155.5q0 79 48 131.5t128 52.5q62 0 97.5 -35t35.5 -92q0 -36 -14 -71l-80 -11q-18 -34 -18 -61q0 -32 23.5 -49t64.5 -17q86 0 129 90q28 60 62 242
q1 5 3 16q1 6 2 9z" />
    <glyph glyph-name="g" unicode="g" horiz-adv-x="1177" 
d="M297 -311l-102 -25q-7 -24 -7 -39q0 -37 30.5 -57.5t88.5 -20.5q137 0 212 92t138 326q1 4 58 238l-10 4q-47 -93 -132 -154t-206 -61q-158 0 -238 91.5t-80 266.5q0 92 16.5 181t55 175.5t94.5 152t142.5 105.5t191.5 40q181 0 250 -156l32 131h43q153 0 236 14
q-58 -281 -166 -923q-51 -298 -215 -440t-414 -142q-153 0 -243 55t-90 162q0 83 47.5 130.5t124.5 47.5q64 0 105.5 -35.5t41.5 -111.5q0 -15 -4 -47zM467 82q77 0 145.5 83t110 228t41.5 314q0 106 -39 164.5t-113 58.5q-55 0 -99.5 -34.5t-72.5 -93t-48.5 -126
t-30.5 -144.5t-14.5 -138t-4.5 -115q0 -101 29.5 -149t95.5 -48z" />
    <glyph glyph-name="h" unicode="h" horiz-adv-x="1210" 
d="M899 -23q-108 0 -168.5 52.5t-60.5 156.5q0 62 21 157.5t57 220t40 141.5q26 86 17 135t-62 49q-72 0 -146 -89t-126 -227q-79 -217 -117 -567q-51 2 -161 -4.5t-150 -15.5l86 381l172 1116h-154l7 53h446l-188 -899l12 -6q173 373 436 373q107 0 162 -57.5t55 -160.5
q0 -59 -20 -141q-10 -37 -52.5 -212.5t-48.5 -205.5q-16 -82 -16 -102q0 -32 13.5 -45.5t41.5 -13.5q59 0 131 96l45 -35q-101 -150 -272 -150z" />
    <glyph glyph-name="i" unicode="i" horiz-adv-x="632" 
d="M393 1151q-81 0 -116 37t-35 94q0 82 56.5 132t147.5 50q150 0 150 -131q0 -82 -57 -132t-146 -50zM551 164l45 -35q-51 -76 -115 -114t-153 -38q-230 0 -230 211q0 72 29 207l115 535h-162l8 53h449q-32 -145 -85.5 -409t-68.5 -343q-12 -82 -12 -104q0 -61 53 -61
q56 0 127 98z" />
    <glyph glyph-name="j" unicode="j" horiz-adv-x="610" 
d="M-123 -313l-82 -13q-12 -34 -12 -59q0 -70 84 -70q31 0 55 11t43 36.5t32.5 54t25.5 77t20.5 91.5t19.5 111l164 1004h-166l9 53h454l-162 -981q-19 -118 -55.5 -209t-95.5 -161t-147 -107t-203 -37t-197 58t-82 159q0 78 48.5 129t129.5 51q58 0 94.5 -36t36.5 -93
q0 -34 -14 -69zM387 1151q-81 0 -117.5 37.5t-36.5 93.5q0 81 58 131.5t149 50.5q70 0 110 -32t40 -99q0 -82 -57 -132t-146 -50z" />
    <glyph glyph-name="k" unicode="k" horiz-adv-x="1134" 
d="M1053 164l45 -33q-100 -154 -269 -154q-104 0 -169.5 44.5t-65.5 136.5q0 28 10 73l25 105q8 31 8 59q0 80 -86 80q-59 0 -137 -35l-68 -432q-56 0 -158.5 -7.5t-144.5 -18.5l94 436l158 1065h-150l9 53h442l-174 -1028l141 76q244 133 238 221l-80 31q-2 10 -2 26
q0 67 42.5 111.5t121.5 44.5q76 0 112.5 -41t36.5 -100q0 -118 -155 -197q-17 -9 -151.5 -76.5t-143.5 -71.5l4 -8q98 13 119 13q204 0 204 -156q0 -31 -10 -76q-35 -153 -35 -184q0 -58 56 -58q36 0 65.5 24t67.5 77z" />
    <glyph glyph-name="l" unicode="l" horiz-adv-x="645" 
d="M567 164l45 -33q-59 -82 -122 -118t-150 -36q-117 0 -178.5 56.5t-61.5 165.5q0 54 14.5 143t57.5 309l162 830h-156l8 55h445l-242 -1303q-12 -74 -12 -96q0 -35 13 -52t44 -17q32 0 62.5 22t70.5 74z" />
    <glyph glyph-name="m" unicode="m" horiz-adv-x="1746" 
d="M612 -14q112 482 168 721q17 83 17 114q0 70 -58 70q-72 0 -140 -89t-122 -229q-79 -206 -115 -567q-70 0 -170.5 -6t-140.5 -14l84 381l78 563h-152l7 53h436l-86 -346l12 -6q26 58 50 103.5t63.5 99t82.5 88t103.5 58.5t128.5 24q81 0 125.5 -40.5t44.5 -113.5
q0 -83 -35 -186l13 -7q38 81 74 139t83 108t106 75t130 25q104 0 160.5 -55.5t56.5 -145.5q0 -76 -21 -158l-104 -416q-16 -66 -16 -104q0 -59 55 -59q59 0 131 96l45 -35q-101 -150 -270 -150q-110 0 -172 52t-62 157q0 62 21.5 156.5t59.5 222.5t42 142q21 82 21 114
q0 70 -62 70q-112 0 -244 -313q-82 -189 -131 -572q-59 0 -158.5 -6.5t-138.5 -13.5z" />
    <glyph glyph-name="n" unicode="n" horiz-adv-x="1220" 
d="M907 -23q-109 0 -170 51.5t-61 153.5q0 59 22 156t56.5 216t42.5 155q16 72 16 110q0 36 -14 53t-47 17q-74 0 -149.5 -90.5t-127.5 -227.5q-78 -209 -113 -565q-51 2 -161 -4.5t-150 -15.5l84 376l74 568h-148l7 53h436l-88 -346l14 -6q173 373 434 373q109 0 166 -58
t57 -162q0 -57 -20 -135l-102 -411q-19 -74 -19 -113q0 -59 53 -59q60 0 136 96l45 -35q-103 -150 -273 -150z" />
    <glyph glyph-name="o" unicode="o" horiz-adv-x="1075" 
d="M709 465q26 169 26 272q0 108 -33 162.5t-106 54.5q-45 0 -81 -20t-62.5 -55.5t-48.5 -92t-37.5 -119.5t-30.5 -149q-29 -176 -29 -278q0 -211 144 -211q110 0 164.5 100.5t93.5 335.5zM436 -23q-198 0 -298.5 100.5t-100.5 287.5q0 101 23 194.5t71 174.5t115.5 141
t162 94.5t205.5 34.5q197 0 296.5 -97t99.5 -286q0 -184 -68.5 -329.5t-200 -230t-305.5 -84.5z" />
    <glyph glyph-name="p" unicode="p" horiz-adv-x="1200" 
d="M-129 -434h125l225 1364h-164l11 53h434l-66 -270l10 -4q69 142 165 218.5t235 76.5q142 0 215.5 -95t73.5 -264q0 -177 -65.5 -330t-184 -245.5t-262.5 -92.5q-101 0 -165 41.5t-89 110.5l-93 -563h244l-10 -53h-649zM727 901q-51 0 -102 -42t-93 -116
q-60 -103 -89 -230.5t-29 -246.5q0 -101 34 -153t119 -52q67 0 120.5 54t86 145t49.5 203t17 235q0 107 -25.5 155t-87.5 48z" />
    <glyph glyph-name="q" unicode="q" horiz-adv-x="1150" 
d="M1012 -487h-633l8 55h197l125 629l-11 4q-54 -101 -139 -162.5t-201 -61.5q-159 0 -238 96t-79 273q0 102 20 197.5t62 179.5t101 146.5t142.5 98.5t182.5 36q185 0 258 -173l133 152h143l-233 -1415h170zM446 68q82 0 153.5 89t113 238t41.5 318q0 95 -38 156t-112 61
q-66 0 -117.5 -53t-80 -129t-47 -173t-24 -171.5t-5.5 -137.5q0 -101 26.5 -149.5t89.5 -48.5z" />
    <glyph glyph-name="r" unicode="r" horiz-adv-x="1019" 
d="M51 -16l90 419l74 527h-149l8 53h426l-92 -393l12 -6q30 69 55 119t65.5 111t81.5 99t98 64.5t120 26.5q77 0 129.5 -42.5t52.5 -127.5q0 -82 -48 -126t-122 -46q-52 0 -107 22l-8 150q-68 4 -131.5 -62t-108.5 -168.5t-77 -232.5q-35 -135 -55 -361q-158 0 -314 -26z
" />
    <glyph glyph-name="s" unicode="s" horiz-adv-x="942" 
d="M362 41q113 0 171.5 45.5t58.5 124.5q0 38 -15 66.5t-48.5 50.5t-60 34t-77.5 31q-34 12 -53.5 20t-50.5 23t-49.5 28.5t-41 35t-34.5 45.5t-20.5 56.5t-8.5 70.5q0 153 129 242.5t322 89.5q144 0 235.5 -51t91.5 -158q0 -68 -40 -110t-113 -42q-52 0 -88.5 25.5
t-36.5 66.5q0 54 31 90h63q10 27 10 43q0 76 -137 76q-108 0 -170.5 -44.5t-62.5 -117.5q0 -34 14.5 -61t47 -48.5t59 -34t75.5 -32.5q126 -50 174 -82q110 -76 111 -198q0 -161 -134 -255t-343 -94q-170 0 -262.5 61.5t-92.5 164.5q0 73 44 117.5t116 44.5q55 0 89 -31.5
t34 -81.5q-3 -42 -25 -82h-71q-8 -24 -8 -37q0 -41 41 -66.5t126 -25.5z" />
    <glyph glyph-name="t" unicode="t" horiz-adv-x="745" 
d="M733 930h-215l-86 -447q-12 -56 -27.5 -157t-15.5 -142q0 -96 84 -96q50 0 91.5 34t94.5 109l50 -34q-139 -220 -338 -220q-140 0 -204.5 66.5t-64.5 167.5q0 78 39 276l86 443h-147l8 53h148l36 221l238 66h63l-47 -287h215z" />
    <glyph glyph-name="u" unicode="u" horiz-adv-x="1239" 
d="M104 295l125 635h-147l8 53h436q-54 -235 -153 -739q-8 -54 -8 -70q0 -39 18.5 -59.5t65.5 -20.5q94 0 176 139.5t135 354.5q45 182 61 383q62 0 168.5 6t145.5 14q-121 -570 -152 -813q-4 -36 -4 -49q0 -33 12.5 -50.5t44.5 -17.5q59 0 129 97l43 -31q-53 -76 -115 -113
t-147 -37q-217 0 -217 183q0 63 31 170l-12 4q-25 -58 -49.5 -104t-63 -95.5t-80.5 -82t-101.5 -54t-127.5 -21.5q-116 0 -173 63t-57 169q0 45 8 86z" />
    <glyph glyph-name="v" unicode="v" horiz-adv-x="1099" 
d="M848 801l-57 -82q-53 13 -84 50.5t-31 84.5q0 70 45 110t117 40q42 0 76.5 -16t57.5 -41.5t38.5 -60t22.5 -70.5t7 -73q0 -71 -15.5 -152t-45.5 -168t-81 -166t-116 -142t-157 -100.5t-197 -37.5q-134 0 -214.5 66t-80.5 199q0 34 6 77q28 170 94 492q9 45 9 57
q0 45 -35 45q-31 0 -64 -26.5t-86 -100.5l-51 33q67 105 141.5 145t163.5 40q105 0 161 -50t56 -143q0 -27 -6 -61q-92 -473 -92 -474q-10 -62 -10 -96q0 -58 26.5 -84t88.5 -26q81 0 159.5 60t132.5 147.5t87.5 186.5t33.5 179q0 155 -100 158z" />
    <glyph glyph-name="w" unicode="w" horiz-adv-x="1652" 
d="M975 238q-6 -41 -6 -70q0 -54 25 -77t85 -23q78 0 156.5 56.5t135.5 142.5t92.5 191.5t35.5 200.5q0 56 -24.5 98t-69.5 46l-59 -82q-54 13 -85.5 50.5t-31.5 84.5q0 67 40 107.5t117 40.5q54 0 95.5 -24t65 -64t35 -85t11.5 -94q0 -73 -16.5 -155.5t-48 -168
t-82.5 -163.5t-115.5 -139t-152.5 -97.5t-187 -36.5q-206 0 -280 136q-52 -54 -134 -95t-192 -41q-118 0 -187 61.5t-69 188.5q0 39 6 82q13 79 29 161.5t37.5 186.5t31.5 156q9 45 9 57q0 43 -33 43q-32 0 -67.5 -28.5t-84.5 -98.5l-51 33q69 109 142 147t174 38
q95 0 149.5 -49.5t54.5 -141.5q0 -27 -6 -61q-7 -33 -29.5 -145t-41 -204.5t-27.5 -140.5q-10 -58 -10 -90q0 -51 20 -75.5t68 -24.5q54 0 95.5 27.5t94.5 84.5q-3 36 8 84q97 441 140 705q65 0 160 6.5t137 15.5q-103 -421 -160 -757z" />
    <glyph glyph-name="x" unicode="x" horiz-adv-x="1271" 
d="M428 1004q33 0 60.5 -7t47.5 -15.5t39.5 -29.5t30.5 -34.5t27 -46t23 -49.5t24 -58l47 -115l88 133q31 46 46.5 68.5t46 58t56 52t63 30t79.5 13.5q68 0 114 -41.5t46 -108.5q0 -71 -47 -112.5t-115 -43.5q-36 0 -68 11l-16 116q-26 11 -39 11q-45 0 -96 -76l-123 -185
l162 -382q25 -58 45 -80.5t53 -22.5q61 0 115 117l53 -27q-83 -203 -295 -203q-104 0 -162.5 46t-101.5 151l-78 191l-115 -166q-72 -105 -109 -141q-80 -81 -177 -81q-69 0 -115.5 41.5t-46.5 108.5q0 71 46 111.5t114 42.5q32 0 67 -9l16 -116q23 -13 41 -13q42 0 95 76
l153 221l-151 363q-22 51 -37 71.5t-41 20.5q-25 0 -49.5 -24.5t-65.5 -90.5l-51 27q62 108 134.5 152.5t166.5 44.5z" />
    <glyph glyph-name="y" unicode="y" horiz-adv-x="1107" 
d="M125 -307l-94 -12q-23 -33 -23 -64q0 -28 19.5 -45.5t56.5 -17.5q186 0 422 337q-142 537 -238 857q-19 63 -36.5 87.5t-45.5 24.5q-32 0 -56 -31.5t-58 -115.5l-62 24q21 49 37.5 82t42.5 69.5t55 58t71.5 36t94.5 14.5q90 0 145.5 -47.5t86.5 -150.5q93 -319 172 -629
q105 154 171 291t66 219q0 88 -69 94l-64 -86q-53 18 -87 59t-34 93q0 75 48.5 119.5t123.5 44.5q90 0 142.5 -61.5t52.5 -162.5q0 -229 -311 -674q-23 -32 -61.5 -87.5t-62 -89.5t-61 -84.5t-64 -82.5t-64 -73.5t-68.5 -67.5t-70.5 -54t-76.5 -43.5t-80 -25.5t-87 -10
q-118 0 -182.5 59.5t-64.5 165.5q0 83 50.5 134t125.5 51q62 0 103.5 -37.5t41.5 -104.5q0 -32 -8 -63z" />
    <glyph glyph-name="z" unicode="z" horiz-adv-x="1075" 
d="M958 420l52 -8q-50 -234 -133.5 -334.5t-196.5 -100.5q-60 0 -104 17.5t-105 56.5l-190 123q-43 -192 -160 -192q-56 0 -82.5 29t-26.5 71q0 62 64 104.5t155 38.5l469 471l-383 39q-73 7 -104 -20t-63 -117l-54 10q41 152 88 239.5t102.5 122t133.5 34.5q96 0 207 -76
l180 -121q13 93 59 141.5t101 48.5q44 0 73 -23t29 -67q0 -58 -57 -101.5t-158 -49.5q-29 -31 -129.5 -131.5t-216.5 -215.5t-125 -124l414 -19q63 -3 96.5 27t64.5 127z" />
    <glyph glyph-name="braceleft" unicode="{" horiz-adv-x="802" 
d="M131 651q57 2 97.5 16.5t76 52.5t53 111.5t17.5 184.5q0 31 -2 90.5t-2 87.5q0 166 95 267.5t298 101.5q79 0 149 -27l-26 -51q-46 16 -84 16q-70 0 -100 -54.5t-35 -152.5q-2 -41 -2 -219q0 -54 -1.5 -88.5t-6.5 -76t-16 -68t-29 -57t-45 -51t-65.5 -41.5t-90 -37.5
t-117.5 -30.5v-2q60 -13 102 -28.5t81 -40.5t59 -64.5t20 -92.5q0 -101 -70 -297q-2 -7 -12.5 -36.5t-13.5 -38t-11.5 -34t-11.5 -36.5t-8.5 -32t-7.5 -34t-4 -29t-2 -30q0 -115 102 -115q47 0 90 19l8 -56q-72 -30 -208 -30q-134 0 -205.5 58t-71.5 155q0 73 68 260
q27 73 41 114t27.5 99t13.5 100q0 87 -46 122.5t-114 37.5z" />
    <glyph glyph-name="bar" unicode="|" horiz-adv-x="665" 
d="M113 -260l317 1888h80l-317 -1888h-80z" />
    <glyph glyph-name="braceright" unicode="}" horiz-adv-x="802" 
d="M696 559q-57 -2 -97.5 -16.5t-75.5 -52t-52.5 -111t-17.5 -184.5q0 -31 2 -91t2 -88q0 -80 -21.5 -144.5t-67 -116t-123.5 -79.5t-182 -28q-82 0 -149 26l27 52q49 -17 84 -17q70 0 100 54.5t35 152.5q2 41 2 219q0 48 1 79t5 69.5t11.5 63t20.5 54t32 49t46.5 41t64 37
t83.5 30.5t106 28v2q-60 13 -101.5 28t-81 40.5t-59.5 64.5t-20 92q0 101 70 297q4 11 15 41.5t15 43t12.5 38.5t12.5 41t8.5 35.5t6.5 37.5t2 33q0 115 -103 115q-49 0 -90 -18l-8 55q75 31 209 31t205 -58t71 -155q0 -76 -67 -260q-27 -72 -41 -114t-27.5 -100t-13.5 -100
q0 -87 46 -122.5t114 -37.5z" />
    <glyph glyph-name="asciitilde" unicode="~" horiz-adv-x="1171" 
d="M866 541q-33 0 -73 5t-65.5 10t-74 16t-63.5 14q-17 4 -55 13.5t-63 15.5t-56.5 11t-53.5 5q-42 0 -72.5 -18.5t-64.5 -75.5l-35 14q91 264 259 264q13 0 26 -1t23.5 -1.5t25.5 -3t23 -3.5t25 -4.5t22.5 -4.5t24.5 -5.5t22 -5.5t24 -6.5t23 -5.5q164 -41 254 -41
q44 0 70 18.5t55 71.5l41 -12q-45 -146 -104 -208t-138 -62z" />
    <glyph glyph-name="uni00A0" unicode="&#xa0;" horiz-adv-x="409" 
 />
    <glyph glyph-name="exclamdown" unicode="&#xa1;" horiz-adv-x="784" 
d="M451 596l-21 -119q-26 -150 -32 -265t1 -174t16 -138t9 -144q0 -113 -51 -175t-152 -62q-73 0 -107 39t-34 102q0 58 21.5 120.5t56 129.5t72 142.5t75.5 188t60 238.5l20 117h66zM436 694q-59 0 -94 31t-35 88q0 78 50 130t130 52q66 0 97.5 -37.5t31.5 -89.5
q0 -74 -52 -124t-128 -50z" />
    <glyph glyph-name="cent" unicode="&#xa2;" horiz-adv-x="1073" 
d="M383 -37l53 209q-156 17 -239.5 110.5t-83.5 243.5q0 237 147.5 392.5t407.5 164.5l59 228l64 -15l-56 -215q70 -4 123.5 -24.5t85 -51.5t47 -68t15.5 -77q0 -77 -44.5 -128.5t-130.5 -51.5q-120 0 -120 102q0 45 32 95h64q16 36 16 69q0 38 -26.5 61.5t-73.5 26.5
l-199 -778q30 -12 70 -12q94 0 169 67.5t122 186.5l59 -17q-14 -44 -35 -84t-57.5 -83t-83 -74.5t-114.5 -51.5t-148 -20h-4l-56 -219zM412 526q0 -161 55 -231l186 731q-62 -16 -110.5 -69t-76 -126t-41 -151t-13.5 -154z" />
    <glyph glyph-name="sterling" unicode="&#xa3;" horiz-adv-x="1191" 
d="M84 664l14 69h189q-49 153 -49 248q0 211 163 343t418 132q172 0 263.5 -67t91.5 -181q0 -93 -48.5 -146.5t-136.5 -53.5q-64 0 -99.5 31.5t-35.5 82.5t29 107h75q27 47 27 80q0 39 -31.5 61.5t-81.5 22.5q-129 0 -195 -88.5t-104 -272.5l-61 -297h365l-13 -69h-368
q-8 -39 -80 -299q64 -20 178 -63.5t196 -72t115 -28.5q60 0 88.5 39t48.5 147l54 -4q-12 -115 -38.5 -197.5t-63.5 -127t-77 -64t-86 -19.5q-52 0 -126 24.5t-123 48.5t-129 68t-93 50q-40 -85 -95.5 -130.5t-139.5 -45.5q-91 0 -138.5 48.5t-47.5 125.5q0 78 39 134
t94 79.5t116 23.5q80 0 152 -20q5 127 -37 281h-219zM133 238q-48 0 -78 -24.5t-30 -63.5t25.5 -64t82.5 -25q51 0 94 34.5t66 97.5q-4 2 -24.5 10t-33 12.5t-32 10.5t-37 9t-33.5 3z" />
    <glyph glyph-name="currency" unicode="&#xa4;" horiz-adv-x="1048" 
d="M203 696q0 108 59 197l-158 182l39 37l185 -145q92 63 213 63q124 0 200 -61l185 141l35 -33l-154 -174q57 -85 57 -201q0 -110 -61 -204l153 -201l-36 -35l-193 158q-75 -60 -192 -60q-123 0 -203 56l-182 -152l-37 37l147 182q-57 83 -57 213zM283 696
q0 -122 60.5 -197t193.5 -75q118 0 182.5 77.5t64.5 194.5q0 124 -63 199.5t-189 75.5q-123 0 -186 -78.5t-63 -196.5z" />
    <glyph glyph-name="yen" unicode="&#xa5;" horiz-adv-x="1226" 
d="M162 717l14 67h277l-213 596h-111l8 54h592l-8 -54h-160l195 -569l364 569h-182l8 54h410l-8 -54h-140l-385 -596h285l-12 -67h-299l-31 -191h299l-12 -67h-299l-66 -400h170l-10 -59h-678l12 59h170l68 400h-299l12 67h297l31 191h-299z" />
    <glyph glyph-name="brokenbar" unicode="&#xa6;" horiz-adv-x="665" 
d="M299 844l131 784h80l-131 -784h-80zM113 -260l149 895h80l-149 -895h-80z" />
    <glyph glyph-name="section" unicode="&#xa7;" horiz-adv-x="1269" 
d="M410 -150q125 0 215.5 83.5t128.5 222.5q-270 122 -419 317t-149 418q0 120 37.5 218t99 161t142.5 106t164.5 61.5t169.5 18.5q173 0 267.5 -66.5t94.5 -189.5q0 -73 -42.5 -120.5t-119.5 -47.5q-66 0 -106.5 35.5t-40.5 93.5q0 42 14 74l78 14q12 35 12 66q0 46 -35 71
t-98 25q-134 0 -218.5 -71.5t-121.5 -198.5q126 -48 232 -119.5t185.5 -161.5t124 -200.5t44.5 -229.5q0 -121 -39.5 -225t-105 -176.5t-150.5 -124.5t-176 -76.5t-182 -24.5q-157 0 -247.5 67t-90.5 189q0 74 46.5 123t129.5 49q60 0 98.5 -37.5t38.5 -97.5q0 -45 -12 -73
l-80 -15q-16 -37 -16 -69q0 -41 32 -65t95 -24zM471 1094q-14 -66 -14 -156q0 -204 78.5 -399t234.5 -328q23 115 23 225q0 418 -322 658z" />
    <glyph glyph-name="dieresis" unicode="&#xa8;" horiz-adv-x="1024" 
d="M387 1278q0 63 48 104t114 41q117 0 117 -102q0 -71 -45 -116.5t-117 -45.5q-117 0 -117 119zM797 1270q0 69 47.5 111t113.5 42q117 0 117 -102q0 -71 -45.5 -116.5t-116.5 -45.5q-63 0 -89.5 32t-26.5 79z" />
    <glyph glyph-name="copyright" unicode="&#xa9;" horiz-adv-x="1626" 
d="M1493 655q0 -207 -86 -361.5t-239 -235.5t-353 -81q-165 0 -294.5 48.5t-212.5 135.5t-126 205t-43 261q0 155 53 283.5t145.5 214t216.5 132t265 46.5q312 0 493 -176t181 -472zM1425 643q0 191 -79 329t-214.5 206.5t-312.5 68.5q-174 0 -311 -72.5t-217 -214
t-80 -331.5q0 -277 161 -435.5t443 -158.5q280 0 445 163.5t165 444.5zM844 1016q-116 0 -174 -85.5t-58 -279.5q0 -186 58 -275t178 -89q80 0 138 57.5t83 161.5h25l-9 -244h-20q-1 3 -4 8.5t-5 8.5t-5 7t-6.5 5.5t-8.5 1.5q-1 0 -73 -21.5t-134 -21.5q-80 0 -146.5 23.5
t-118 71t-80.5 126t-29 180.5q0 186 112.5 294t270.5 108q54 0 121 -20.5t71 -20.5q5 0 8.5 1.5t6.5 5.5t5 6.5t5 8.5l4 8h18l6 -243h-28q-23 105 -78 161t-133 56z" />
    <glyph glyph-name="ordfeminine" unicode="&#xaa;" horiz-adv-x="993" 
d="M934 748l39 -29q-35 -53 -88.5 -85t-114.5 -32q-93 0 -128 54t-15 149l-9 2q-33 -89 -97.5 -147t-160.5 -58q-229 0 -229 258q0 90 24.5 173.5t70 151t117 108t159.5 40.5q71 0 112.5 -31t53.5 -75l24 88q159 -5 240 10q-90 -389 -117 -557q-16 -82 39 -82q39 0 80 62z
M436 676q44 0 83.5 55.5t63 133.5t37 151.5t13.5 118.5q0 127 -80 127q-45 0 -84 -55t-61.5 -133t-35 -153t-12.5 -126q0 -60 16.5 -89.5t59.5 -29.5z" />
    <glyph glyph-name="guillemotleft" unicode="&#xab;" horiz-adv-x="1021" 
d="M117 557l405 258l29 -29l-264 -333l149 -322l-33 -25l-284 238q-60 54 -60 111q0 48 58 102zM500 557l405 258l29 -29l-266 -333l149 -322l-31 -25l-284 238q-62 53 -62 111q0 50 60 102z" />
    <glyph glyph-name="logicalnot" unicode="&#xac;" horiz-adv-x="1228" 
d="M1001 336v274h-851v74h929v-348h-78z" />
    <glyph glyph-name="uni00AD" unicode="&#xad;" horiz-adv-x="690" 
d="M104 512l21 119h491l-22 -119h-490z" />
    <glyph glyph-name="registered" unicode="&#xae;" horiz-adv-x="966" 
d="M944 983q0 -171 -108.5 -278t-280.5 -107q-186 0 -286.5 103t-100.5 268q0 175 111.5 281t277.5 106q178 0 282.5 -101.5t104.5 -271.5zM883 977q0 153 -92 240.5t-234 87.5q-145 0 -235.5 -90.5t-90.5 -243.5q0 -149 85.5 -234.5t240.5 -85.5q149 0 237.5 88.5
t88.5 237.5zM537 987h-27v-172h57v-22h-182v22h45v348h-45v23h147q40 0 67.5 -3.5t53.5 -12.5t39 -28t13 -48q0 -87 -123 -97v-2q59 -5 82.5 -26t23.5 -70v-47q0 -17 5.5 -25t21.5 -8t23.5 12t11.5 48l22 -2q-2 -20 -5 -33t-11 -28t-24 -22.5t-40 -7.5q-82 0 -82 68v68
q0 65 -73 65zM510 1163v-155h6q57 0 82 20.5t25 61.5q0 40 -22.5 56.5t-80.5 16.5h-10z" />
    <glyph glyph-name="macron" unicode="&#xaf;" horiz-adv-x="1024" 
d="M444 1196l27 152h557l-27 -152h-557z" />
    <glyph glyph-name="degree" unicode="&#xb0;" horiz-adv-x="673" 
d="M238 1284q0 -81 45 -130.5t131 -49.5q78 0 125 50.5t47 129.5q0 83 -47.5 131.5t-130.5 48.5q-78 0 -124 -49.5t-46 -130.5zM156 1284q0 104 69 175t191 71q120 0 185 -66t65 -176q0 -109 -68 -180.5t-188 -71.5q-124 0 -189 68.5t-65 179.5z" />
    <glyph glyph-name="plusminus" unicode="&#xb1;" 
d="M1073 612h-432l-68 -383h-81l67 383h-416l15 74h415l62 358h82l-62 -358h432zM967 0h-930l12 74h930z" />
    <glyph glyph-name="twosuperior" unicode="&#xb2;" horiz-adv-x="692" 
d="M485 1681q146 0 212.5 -56.5t66.5 -145.5q0 -39 -11.5 -74t-38.5 -70.5t-59 -66.5t-84.5 -69t-102.5 -70.5t-126 -79.5l-117 -72h219q54 0 93.5 7t64 17.5t42.5 31t28 39t22 50.5h41l-55 -315h-586l27 141l149 137q131 119 189.5 216.5t58.5 199.5q0 63 -30 94t-80 31
q-42 0 -65.5 -20t-23.5 -50q0 -14 7 -32h53q4 -24 4 -35q0 -51 -30.5 -81t-86.5 -30q-49 0 -73.5 30t-24.5 71q0 88 90.5 145t226.5 57z" />
    <glyph glyph-name="threesuperior" unicode="&#xb3;" horiz-adv-x="739" 
d="M518 1681q140 0 200 -42t60 -121q0 -46 -24.5 -83t-71.5 -64.5t-100.5 -46.5t-126.5 -38l2 -8q40 4 63 4q37 0 70.5 -5.5t66 -18.5t55.5 -33.5t37.5 -53.5t14.5 -75q0 -62 -25.5 -113.5t-67.5 -86t-98.5 -58.5t-117 -34.5t-123.5 -10.5q-119 0 -174.5 48t-55.5 120
q0 55 38.5 96t101.5 41q49 0 71.5 -24t22.5 -62q0 -31 -14 -66h-62q-18 -24 -18 -47q0 -47 75 -47q89 0 144 58.5t55 170.5q0 142 -115 142q-49 0 -104 -19l-8 64q137 43 200.5 95.5t63.5 145.5q0 115 -123 115q-31 0 -54.5 -14t-23.5 -37q0 -18 15 -39h47q2 -10 2 -31
q0 -52 -32.5 -83t-92.5 -31q-47 0 -72.5 28t-25.5 68q0 95 90 145.5t235 50.5z" />
    <glyph glyph-name="acute" unicode="&#xb4;" horiz-adv-x="1024" 
d="M545 1126l180 383l102 23q39 8 74 -10.5t35 -61.5q0 -52 -62 -104l-299 -252z" />
    <glyph glyph-name="mu" unicode="&#xb5;" horiz-adv-x="1247" 
d="M233 993l304 19l-111 -664q-11 -73 -13 -127.5t21.5 -85.5t77.5 -31q73 0 135.5 83.5t85.5 220.5l94 585l291 19l-137 -824q-16 -94 53 -94q67 0 113 152l49 -13q-29 -135 -100 -194t-181 -59q-216 0 -206 208h-4q-39 -88 -116.5 -149.5t-178.5 -61.5q-173 0 -234 226
l-16 -8q1 -8 39 -141.5t39 -139.5q41 -181 41 -252q0 -56 -43.5 -90t-104.5 -21l-129 31z" />
    <glyph glyph-name="paragraph" unicode="&#xb6;" horiz-adv-x="1310" 
d="M1237 1378l-199 -1153q-49 -284 -174.5 -414t-339.5 -130q-94 0 -166 22.5t-113.5 60.5t-62 84t-20.5 97q0 96 53 153.5t145 57.5q86 0 123.5 -63.5t5.5 -160.5l-96 -16q-16 -35 -16 -65t15.5 -53.5t52.5 -37.5t92 -14q340 0 417 453l203 1181h-172l-158 -907h-184
q-194 0 -321 112.5t-127 307.5q0 178 84 301.5t226.5 181.5t332.5 58h540l-8 -56h-133z" />
    <glyph glyph-name="periodcentered" unicode="&#xb7;" horiz-adv-x="575" 
d="M319 815q65 0 103.5 -33t38.5 -94q0 -89 -55 -142.5t-140 -53.5q-73 0 -106 39.5t-33 97.5q0 83 57 134.5t135 51.5z" />
    <glyph glyph-name="cedilla" unicode="&#xb8;" horiz-adv-x="1024" 
d="M485 27h70l-119 -148q58 19 103 19q76 0 117.5 -40.5t41.5 -113.5q0 -92 -74.5 -154.5t-209.5 -62.5q-91 0 -136 37t-45 86q0 38 23 63t63 25q31 0 53 -17.5t23 -58.5l-51 -31q-6 -29 9 -47t53 -18q46 0 80 39.5t34 118.5q0 118 -80 118q-33 0 -73 -12l-11 33z" />
    <glyph glyph-name="onesuperior" unicode="&#xb9;" horiz-adv-x="610" 
d="M256 860l115 660q-38 -8 -98 -3.5t-91 13.5l13 47q96 -7 187 22.5t136 81.5h123l-143 -821h127l-13 -53h-506l11 53h139z" />
    <glyph glyph-name="ordmasculine" unicode="&#xba;" horiz-adv-x="960" 
d="M670 969q20 117 20 176q0 66 -21 98.5t-71 32.5q-35 0 -61.5 -14t-44 -36t-31.5 -64.5t-23 -85t-20 -111.5q-23 -138 -23 -181q0 -67 22.5 -100t76.5 -33q79 0 111.5 66.5t64.5 251.5zM178 961q32 175 146.5 268.5t287.5 93.5q301 0 301 -262q0 -213 -118.5 -336
t-315.5 -123q-151 0 -229 71t-78 204q0 37 6 84z" />
    <glyph glyph-name="guillemotright" unicode="&#xbb;" horiz-adv-x="1024" 
d="M494 367l-406 -261l-29 29l267 338l-150 313l33 25l283 -233q61 -49 61 -111q0 -52 -59 -100zM877 367l-406 -261l-29 29l267 338l-150 313l33 25l282 -233q60 -51 60 -111q0 -51 -57 -100z" />
    <glyph glyph-name="onequarter" unicode="&#xbc;" horiz-adv-x="1843" 
d="M313 639l115 659q-39 -8 -98 -3t-90 14l12 47q96 -7 187 22.5t136 81.5h123l-143 -821h127l-12 -53h-506l10 53h139zM385 -23l1135 1479h86l-1133 -1479h-88zM1520 41h122l-10 -53h-504l9 53h145l31 156h-352l14 69q190 171 284.5 305.5t94.5 200.5q0 41 -15 68l35 28
q85 2 132.5 -23.5t47.5 -88.5q0 -73 -58 -139.5t-236 -192.5l-236 -168h297l33 178l248 43l-43 -221h112l-10 -59h-113z" />
    <glyph glyph-name="onehalf" unicode="&#xbd;" horiz-adv-x="1843" 
d="M260 639l115 659q-39 -8 -98.5 -3t-90.5 14l13 47q96 -7 187 22.5t136 81.5h123l-143 -821h127l-13 -53h-505l10 53h139zM326 -23l1134 1479h86l-1132 -1479h-88zM1454 862q146 0 212.5 -57t66.5 -146q0 -39 -11.5 -74t-38.5 -70.5t-59 -66.5t-84.5 -69t-102.5 -70.5
t-126 -79.5l-117 -71h219q54 0 93.5 7t64 17.5t42.5 31t28 39t22 50.5h41l-55 -315h-586l27 141l149 137q131 119 189.5 216.5t58.5 199.5q0 63 -30.5 94t-80.5 31q-42 0 -65 -20t-23 -50q0 -17 6 -32h54q4 -24 4 -35q0 -51 -30.5 -81t-86.5 -30q-49 0 -73.5 29.5
t-24.5 70.5q0 89 90.5 146t226.5 57z" />
    <glyph glyph-name="threequarters" unicode="&#xbe;" horiz-adv-x="1843" 
d="M596 1460q140 0 200 -42t60 -122q0 -46 -24.5 -83t-72 -64t-100.5 -46t-127 -38l3 -8q40 4 63 4q47 0 88 -9t77.5 -29.5t57.5 -58.5t21 -90q0 -62 -25.5 -113.5t-67.5 -86t-98.5 -58.5t-117 -34.5t-123.5 -10.5q-119 0 -174.5 48t-55.5 120q0 56 38 97t101 41
q49 0 72 -24.5t23 -61.5q0 -29 -15 -66h-61q-19 -25 -19 -47q0 -47 76 -47q89 0 144 58.5t55 170.5q0 141 -115 141q-51 0 -104 -18l-8 64q137 43 200.5 95.5t63.5 145.5q0 115 -123 115q-31 0 -54.5 -13.5t-23.5 -37.5q0 -19 14 -39h48q2 -10 2 -31q0 -52 -32.5 -83.5
t-92.5 -31.5q-47 0 -73 28.5t-26 68.5q0 95 90.5 145.5t235.5 50.5zM426 -23l1135 1479h86l-1133 -1479h-88zM1540 41h123l-10 -53h-504l8 53h146l30 156h-352l14 69q190 171 284.5 305.5t94.5 200.5q0 43 -14 68l35 28q85 2 132.5 -23.5t47.5 -88.5q0 -73 -58.5 -139.5
t-236.5 -192.5l-236 -168h297l33 178l248 43l-43 -221h113l-11 -59h-112z" />
    <glyph glyph-name="questiondown" unicode="&#xbf;" horiz-adv-x="1085" 
d="M586 696q-58 0 -93.5 30.5t-35.5 86.5q0 78 50 131t130 53q66 0 97.5 -37.5t31.5 -89.5q0 -75 -51.5 -124.5t-128.5 -49.5zM453 -430q89 0 138.5 34t49.5 95q0 23 -6 47h-68q-4 28 -4 45q0 69 39.5 111.5t114.5 42.5q69 0 105 -42.5t36 -101.5q0 -74 -43 -130.5
t-112 -87.5t-143 -46.5t-148 -15.5q-194 0 -295 85t-101 212q0 70 21 126.5t57 94t82.5 66.5t97.5 49.5t102.5 38.5t98 37.5t82.5 42.5t57 58t21 79q0 57 -37.5 96t-112.5 39q-85 0 -146 -54t-91 -165l-49 12q28 118 110.5 193t210.5 75q152 0 238 -72.5t86 -189.5
q0 -83 -32.5 -144t-84 -97t-114 -64t-125 -53.5t-114 -56t-84 -80.5t-32.5 -119q0 -77 51.5 -118.5t143.5 -41.5z" />
    <glyph glyph-name="Agrave" unicode="&#xc0;" horiz-adv-x="1288" 
d="M774 59l-57 418h-420l-217 -418h162l-9 -59h-358l8 59h121l715 1383h155l222 -1383h127l-9 -59h-587l8 59h139zM629 1126l-303 -589h383zM756 1878l239 -344l-26 -27l-314 162q-44 24 -63 45.5t-19 57.5t31 61t76 33z" />
    <glyph glyph-name="Aacute" unicode="&#xc1;" horiz-adv-x="1288" 
d="M774 59l-57 418h-420l-217 -418h162l-9 -59h-358l8 59h121l715 1383h155l222 -1383h127l-9 -59h-587l8 59h139zM629 1126l-303 -589h383zM637 1528l283 340l77 -21q48 -12 66 -30.5t18 -51.5q0 -65 -94 -110l-325 -156z" />
    <glyph glyph-name="Acircumflex" unicode="&#xc2;" horiz-adv-x="1288" 
d="M774 59l-57 418h-420l-217 -418h162l-9 -59h-358l8 59h121l715 1383h155l222 -1383h127l-9 -59h-587l8 59h139zM629 1126l-303 -589h383zM494 1526l282 278q56 27 101 27q43 0 67.5 -17.5t44.5 -56.5l129 -235l-26 -23l-244 150l-334 -152z" />
    <glyph glyph-name="Atilde" unicode="&#xc3;" horiz-adv-x="1288" 
d="M774 59l-57 418h-420l-217 -418h162l-9 -59h-358l8 59h121l715 1383h155l222 -1383h127l-9 -59h-587l8 59h139zM629 1126l-303 -589h383zM956 1573q-76 0 -180 49q-75 33 -117 33q-67 0 -118 -88l-37 14q56 124 112.5 182t145.5 58q11 0 21 -0.5t21 -3t18 -3.5t19.5 -5.5
t17 -5.5t19 -7.5t16 -7t18.5 -8.5t18 -8q76 -31 112 -31q39 0 67.5 17.5t55.5 68.5l41 -10q-56 -131 -117 -187.5t-133 -56.5z" />
    <glyph glyph-name="Adieresis" unicode="&#xc4;" horiz-adv-x="1288" 
d="M774 59l-57 418h-420l-217 -418h162l-9 -59h-358l8 59h121l715 1383h155l222 -1383h127l-9 -59h-587l8 59h139zM629 1126l-303 -589h383zM664 1802q54 0 86 -25.5t32 -74.5q0 -70 -46 -117t-118 -47q-61 0 -88.5 32t-27.5 79q0 69 49.5 111t112.5 42zM1073 1802
q53 0 85 -25.5t32 -74.5q0 -70 -45 -117t-117 -47q-61 0 -90 31t-29 76q0 72 48.5 114.5t115.5 42.5z" />
    <glyph glyph-name="Aring" unicode="&#xc5;" horiz-adv-x="1288" 
d="M774 59l-57 418h-420l-217 -418h162l-9 -59h-358l8 59h121l715 1383h155l222 -1383h127l-9 -59h-587l8 59h139zM629 1126l-303 -589h383zM848 1786q-57 0 -96 -39.5t-39 -97.5q0 -42 23.5 -71.5t72.5 -29.5q60 0 97.5 38.5t37.5 96.5q0 44 -24 73.5t-72 29.5zM639 1634
q0 91 63 150t162 59q75 0 115.5 -39t40.5 -102q0 -95 -61.5 -154t-161.5 -59q-80 0 -119 40t-39 105z" />
    <glyph glyph-name="AE" unicode="&#xc6;" horiz-adv-x="1927" 
d="M735 1374l8 60h1182l-47 -396h-47q-7 85 -24 143t-43 96.5t-70 59.5t-97 29t-131 8h-133l-104 -629h80q107 0 171 62t111 201h45l-100 -607h-49q-2 159 -45.5 219t-161.5 60h-61l-99 -621h137q200 0 319.5 92t192.5 285h50l-88 -436h-1061l10 59h139l103 619h-418
l-420 -619h162l-10 -59h-359l10 59h113l899 1315h-164zM1038 1374h-59l-430 -631h383z" />
    <glyph glyph-name="Ccedilla" unicode="&#xc7;" horiz-adv-x="1269" 
d="M864 1397q-100 0 -182 -59t-134 -151.5t-87.5 -210.5t-50.5 -230.5t-15 -217.5q0 -467 310 -467q67 0 128.5 21t119.5 65t107.5 120t82.5 177l55 -14q-29 -100 -78 -179t-102.5 -127t-118 -80.5t-120 -46t-113.5 -17.5l-80 -101q58 19 102 19q76 0 118 -41t42 -113
q0 -91 -75 -154t-210 -63q-91 0 -135.5 37t-44.5 86q0 38 23 63t63 25q31 0 53 -17.5t23 -58.5l-51 -31q-6 -29 8.5 -47t52.5 -18q47 0 81 39.5t34 118.5q0 118 -80 118q-34 0 -74 -12l-10 33l90 114q-248 8 -385 149t-137 411q0 134 31 264.5t97 249t158 208.5t223.5 143.5
t284.5 53.5q66 0 139.5 -15t125 -30.5t65.5 -15.5q18 0 30.5 9.5t26.5 33.5h41l-57 -428h-51q-17 387 -324 387z" />
    <glyph glyph-name="Egrave" unicode="&#xc8;" horiz-adv-x="1234" 
d="M221 1434h1012l-45 -396h-51q-5 88 -21 147.5t-42 97t-71 57.5t-96.5 27t-130.5 7h-133l-102 -612h77q108 0 171 57.5t112 204.5h45l-100 -606h-49q0 115 -20 174t-63 81.5t-126 22.5h-58l-106 -637h133q150 0 247 40t157.5 118.5t113.5 218.5h51l-88 -436h-1050l10 59
h131l219 1315h-137zM725 1878l240 -344l-27 -27l-313 162q-44 24 -63 45.5t-19 57.5t30.5 61t75.5 33z" />
    <glyph glyph-name="Eacute" unicode="&#xc9;" horiz-adv-x="1234" 
d="M221 1434h1012l-45 -396h-51q-5 88 -21 147.5t-42 97t-71 57.5t-96.5 27t-130.5 7h-133l-102 -612h77q108 0 171 57.5t112 204.5h45l-100 -606h-49q0 115 -20 174t-63 81.5t-126 22.5h-58l-106 -637h133q150 0 247 40t157.5 118.5t113.5 218.5h51l-88 -436h-1050l10 59
h131l219 1315h-137zM590 1528l282 340l78 -21q48 -12 66 -30.5t18 -51.5q0 -65 -94 -110l-326 -156z" />
    <glyph glyph-name="Ecircumflex" unicode="&#xca;" horiz-adv-x="1234" 
d="M221 1434h1012l-45 -396h-51q-5 88 -21 147.5t-42 97t-71 57.5t-96.5 27t-130.5 7h-133l-102 -612h77q108 0 171 57.5t112 204.5h45l-100 -606h-49q0 115 -20 174t-63 81.5t-126 22.5h-58l-106 -637h133q150 0 247 40t157.5 118.5t113.5 218.5h51l-88 -436h-1050l10 59
h131l219 1315h-137zM455 1526l282 278q56 27 101 27q43 0 67.5 -17.5t44.5 -56.5l129 -235l-26 -23l-244 150l-334 -152z" />
    <glyph glyph-name="Edieresis" unicode="&#xcb;" horiz-adv-x="1234" 
d="M221 1434h1012l-45 -396h-51q-5 88 -21 147.5t-42 97t-71 57.5t-96.5 27t-130.5 7h-133l-102 -612h77q108 0 171 57.5t112 204.5h45l-100 -606h-49q0 115 -20 174t-63 81.5t-126 22.5h-58l-106 -637h133q150 0 247 40t157.5 118.5t113.5 218.5h51l-88 -436h-1050l10 59
h131l219 1315h-137zM621 1802q54 0 86 -25.5t32 -74.5q0 -70 -46 -117t-118 -47q-61 0 -88.5 32t-27.5 79q0 69 49.5 111t112.5 42zM1030 1802q53 0 85 -25.5t32 -74.5q0 -70 -45 -117t-117 -47q-61 0 -90 31t-29 76q0 72 48.5 114.5t115.5 42.5z" />
    <glyph glyph-name="Igrave" unicode="&#xcc;" horiz-adv-x="741" 
d="M223 1434h568l-11 -60h-131l-223 -1315h137l-10 -59h-563l10 59h127l223 1315h-137zM471 1878l240 -344l-27 -27l-313 162q-44 24 -63 45.5t-19 57.5t30.5 61t75.5 33z" />
    <glyph glyph-name="Iacute" unicode="&#xcd;" horiz-adv-x="741" 
d="M223 1434h568l-11 -60h-131l-223 -1315h137l-10 -59h-563l10 59h127l223 1315h-137zM336 1528l282 340l78 -21q48 -12 66 -30.5t18 -51.5q0 -65 -94 -110l-326 -156z" />
    <glyph glyph-name="Icircumflex" unicode="&#xce;" horiz-adv-x="741" 
d="M223 1434h568l-11 -60h-131l-223 -1315h137l-10 -59h-563l10 59h127l223 1315h-137zM199 1526l282 278q56 27 101 27q43 0 67.5 -17.5t44.5 -56.5l129 -235l-26 -23l-244 150l-334 -152z" />
    <glyph glyph-name="Idieresis" unicode="&#xcf;" horiz-adv-x="741" 
d="M223 1434h568l-11 -60h-131l-223 -1315h137l-10 -59h-563l10 59h127l223 1315h-137zM369 1802q54 0 86 -25.5t32 -74.5q0 -70 -45.5 -117t-117.5 -47q-61 0 -89 32t-28 79q0 69 49.5 111t112.5 42zM778 1802q53 0 85 -25.5t32 -74.5q0 -70 -45 -117t-117 -47
q-61 0 -90 31t-29 76q0 72 48.5 114.5t115.5 42.5z" />
    <glyph glyph-name="Eth" unicode="&#xd0;" horiz-adv-x="1439" 
d="M1389 883q0 -407 -252.5 -645t-696.5 -238h-456l10 59h135l113 670h-160l8 59h162l98 586h-141l8 60h508q121 0 220 -17.5t183 -58.5t141 -104t88.5 -156.5t31.5 -214.5zM424 59h53q97 0 180 29.5t143.5 80.5t108.5 122t79 150.5t51.5 170t29 176t8.5 173.5
q0 104 -19 178.5t-51 119.5t-84.5 71t-108.5 35t-134 9h-35l-98 -586h327l-8 -59h-329z" />
    <glyph glyph-name="Ntilde" unicode="&#xd1;" horiz-adv-x="1400" 
d="M1323 1374l-231 -1378h-193l-481 1331h-4l-207 -1268h131l-8 -59h-340l10 59h131l217 1315h-133l10 60h469l385 -1049h6l164 989h-129l10 60h328l-8 -60h-127zM1016 1573q-76 0 -180 49q-75 33 -117 33q-68 0 -119 -88l-37 14q56 124 112.5 182t145.5 58q11 0 21 -0.5
t21 -3t18 -3.5t19.5 -5.5t17 -5.5t19 -7.5t16 -7t18.5 -8.5t18 -8q76 -31 113 -31q39 0 67.5 17.5t55.5 68.5l41 -10q-56 -131 -117 -187.5t-133 -56.5z" />
    <glyph glyph-name="Ograve" unicode="&#xd2;" horiz-adv-x="1404" 
d="M72 528q0 113 21.5 224t63.5 215t108.5 192.5t151 155t197 104t240.5 37.5q250 0 378 -141t128 -412q0 -134 -28 -263.5t-89.5 -249.5t-150 -210.5t-218.5 -145t-286 -54.5q-255 0 -385.5 142.5t-130.5 405.5zM608 43q99 0 179.5 67t131 172t85.5 240t49 263.5t14 250.5
q0 187 -52 272t-184 85q-101 0 -182 -63.5t-132 -164.5t-85.5 -234t-48.5 -263t-14 -260q0 -180 53.5 -272.5t185.5 -92.5zM805 1878l239 -344l-26 -27l-313 162q-44 24 -63 45.5t-19 57.5t30.5 61t75.5 33z" />
    <glyph glyph-name="Oacute" unicode="&#xd3;" horiz-adv-x="1404" 
d="M72 528q0 113 21.5 224t63.5 215t108.5 192.5t151 155t197 104t240.5 37.5q250 0 378 -141t128 -412q0 -134 -28 -263.5t-89.5 -249.5t-150 -210.5t-218.5 -145t-286 -54.5q-255 0 -385.5 142.5t-130.5 405.5zM608 43q99 0 179.5 67t131 172t85.5 240t49 263.5t14 250.5
q0 187 -52 272t-184 85q-101 0 -182 -63.5t-132 -164.5t-85.5 -234t-48.5 -263t-14 -260q0 -180 53.5 -272.5t185.5 -92.5zM692 1528l283 340l78 -21q48 -12 66 -30.5t18 -51.5q0 -65 -95 -110l-325 -156z" />
    <glyph glyph-name="Ocircumflex" unicode="&#xd4;" horiz-adv-x="1404" 
d="M72 528q0 113 21.5 224t63.5 215t108.5 192.5t151 155t197 104t240.5 37.5q250 0 378 -141t128 -412q0 -134 -28 -263.5t-89.5 -249.5t-150 -210.5t-218.5 -145t-286 -54.5q-255 0 -385.5 142.5t-130.5 405.5zM608 43q99 0 179.5 67t131 172t85.5 240t49 263.5t14 250.5
q0 187 -52 272t-184 85q-101 0 -182 -63.5t-132 -164.5t-85.5 -234t-48.5 -263t-14 -260q0 -180 53.5 -272.5t185.5 -92.5zM535 1526l282 278q56 27 101 27q43 0 67.5 -17.5t44.5 -56.5l129 -235l-26 -23l-244 150l-334 -152z" />
    <glyph glyph-name="Otilde" unicode="&#xd5;" horiz-adv-x="1404" 
d="M72 528q0 113 21.5 224t63.5 215t108.5 192.5t151 155t197 104t240.5 37.5q250 0 378 -141t128 -412q0 -134 -28 -263.5t-89.5 -249.5t-150 -210.5t-218.5 -145t-286 -54.5q-255 0 -385.5 142.5t-130.5 405.5zM608 43q99 0 179.5 67t131 172t85.5 240t49 263.5t14 250.5
q0 187 -52 272t-184 85q-101 0 -182 -63.5t-132 -164.5t-85.5 -234t-48.5 -263t-14 -260q0 -180 53.5 -272.5t185.5 -92.5zM997 1573q-76 0 -180 49q-75 33 -117 33q-67 0 -118 -88l-37 14q56 124 112.5 182t145.5 58q11 0 21 -0.5t21 -3t18 -3.5t19.5 -5.5t17 -5.5t19 -7.5
t16 -7t18.5 -8.5t18 -8q76 -31 112 -31q39 0 67.5 17.5t55.5 68.5l41 -10q-56 -131 -117 -187.5t-133 -56.5z" />
    <glyph glyph-name="Odieresis" unicode="&#xd6;" horiz-adv-x="1404" 
d="M72 528q0 113 21.5 224t63.5 215t108.5 192.5t151 155t197 104t240.5 37.5q250 0 378 -141t128 -412q0 -134 -28 -263.5t-89.5 -249.5t-150 -210.5t-218.5 -145t-286 -54.5q-255 0 -385.5 142.5t-130.5 405.5zM608 43q99 0 179.5 67t131 172t85.5 240t49 263.5t14 250.5
q0 187 -52 272t-184 85q-101 0 -182 -63.5t-132 -164.5t-85.5 -234t-48.5 -263t-14 -260q0 -180 53.5 -272.5t185.5 -92.5zM707 1802q54 0 86 -25.5t32 -74.5q0 -70 -45.5 -117t-117.5 -47q-61 0 -89 32t-28 79q0 69 49.5 111t112.5 42zM1116 1802q53 0 85 -25.5t32 -74.5
q0 -70 -45 -117t-117 -47q-61 0 -90 31t-29 76q0 72 48.5 114.5t115.5 42.5z" />
    <glyph glyph-name="multiply" unicode="&#xd7;" 
d="M971 946l-359 -303l246 -301l-61 -49l-246 297l-352 -299l-43 51l352 301l-246 303l62 53l245 -303l359 303z" />
    <glyph glyph-name="Oslash" unicode="&#xd8;" horiz-adv-x="1404" 
d="M72 528q0 113 21.5 224t63.5 215t108.5 192.5t151 155t197 104t240.5 37.5q96 0 182 -22l82 161l66 -32l-80 -156q256 -119 256 -504q0 -134 -28 -263.5t-89.5 -249.5t-150 -210.5t-218.5 -145t-286 -54.5q-110 0 -193 24l-88 -174l-67 33l86 170q-254 120 -254 495z
M608 43q99 0 179.5 67t131 172t85.5 240t49 263.5t14 250.5q0 150 -33 232l-590 -1164q55 -61 164 -61zM369 408q0 -151 30 -228l590 1159q-57 54 -158 54t-182 -63.5t-132 -164.5t-85.5 -234t-48.5 -263t-14 -260z" />
    <glyph glyph-name="Ugrave" unicode="&#xd9;" horiz-adv-x="1406" 
d="M717 57q323 0 389 400l151 917h-149l8 60h359l-11 -60h-125l-151 -911q-20 -121 -57 -207.5t-102 -151t-164 -96t-236 -31.5q-104 0 -183.5 18.5t-141 59.5t-93.5 111.5t-33 169.5q0 61 15 160l149 878h-135l10 60h567l-8 -60h-139l-154 -928q-14 -77 -14 -151
q0 -238 248 -238zM854 1878l240 -344l-27 -27l-313 162q-44 24 -63 45.5t-19 57.5t30.5 61t75.5 33z" />
    <glyph glyph-name="Uacute" unicode="&#xda;" horiz-adv-x="1406" 
d="M717 57q-248 0 -248 238q0 74 14 151l154 928h139l8 60h-567l-10 -60h135l-149 -878q-15 -99 -15 -160q1 -99 33 -169.5t93.5 -111.5t141 -59.5t183.5 -18.5q137 0 236 31.5t164 96t102 151t57 207.5l151 911h125l11 60h-359l-8 -60h149l-151 -917q-66 -400 -389 -400z
M741 1528l283 340l78 -21q48 -12 66 -30.5t18 -51.5q0 -65 -94 -110l-326 -156z" />
    <glyph glyph-name="Ucircumflex" unicode="&#xdb;" horiz-adv-x="1406" 
d="M717 57q-248 0 -248 238q0 74 14 151l154 928h139l8 60h-567l-10 -60h135l-149 -878q-15 -99 -15 -160q1 -99 33 -169.5t93.5 -111.5t141 -59.5t183.5 -18.5q137 0 236 31.5t164 96t102 151t57 207.5l151 911h125l11 60h-359l-8 -60h149l-151 -917q-66 -400 -389 -400z
M588 1526l282 278q56 27 101 27q43 0 67.5 -17.5t44.5 -56.5l129 -235l-26 -23l-244 150l-334 -152z" />
    <glyph glyph-name="Udieresis" unicode="&#xdc;" horiz-adv-x="1406" 
d="M717 57q323 0 389 400l151 917h-149l8 60h359l-11 -60h-125l-151 -911q-20 -121 -57 -207.5t-102 -151t-164 -96t-236 -31.5q-104 0 -183.5 18.5t-141 59.5t-93.5 111.5t-33 169.5q0 61 15 160l149 878h-135l10 60h567l-8 -60h-139l-154 -928q-14 -77 -14 -151
q0 -238 248 -238zM756 1802q54 0 86 -25.5t32 -74.5q0 -70 -45.5 -117t-117.5 -47q-61 0 -89 32t-28 79q0 69 49.5 111t112.5 42zM1165 1802q53 0 85 -25.5t32 -74.5q0 -70 -45 -117t-117 -47q-61 0 -90 31t-29 76q0 72 48.5 114.5t115.5 42.5z" />
    <glyph glyph-name="Yacute" unicode="&#xdd;" horiz-adv-x="1183" 
d="M733 745l426 629h-155l8 60h346l-8 -60h-111l-483 -717l-103 -598h166l-10 -59h-625l11 59h163l101 596l-244 719h-127l10 60h609l-11 -60h-159zM612 1528l283 340l78 -21q48 -12 66 -30.5t18 -51.5q0 -65 -94 -110l-326 -156z" />
    <glyph glyph-name="Thorn" unicode="&#xde;" horiz-adv-x="1249" 
d="M209 1434h698l-10 -60h-254l-35 -215h99q126 0 220 -16.5t168.5 -54.5t113 -106t38.5 -165q0 -114 -41 -202.5t-108.5 -144t-164 -91.5t-197.5 -50t-218 -14h-51l-43 -256h252l-10 -59h-697l11 59h149l219 1315h-149zM598 1100l-121 -727h51q85 0 154.5 27.5t116.5 74.5
t79.5 111t47 134.5t14.5 147.5q0 128 -64.5 180t-191.5 52h-86z" />
    <glyph glyph-name="germandbls" unicode="&#xdf;" horiz-adv-x="1404" 
d="M68 -92l211 1171q44 243 195.5 373.5t414.5 130.5q168 0 265 -52.5t97 -164.5q0 -48 -21 -90.5t-55 -75t-74.5 -62.5t-81.5 -58.5t-75 -57.5t-55 -66t-21 -77q0 -54 42 -94t122 -85q120 -67 165 -104q122 -98 122 -238q0 -169 -125 -275t-317 -106q-163 0 -245.5 62
t-82.5 170q0 79 44 126.5t118 47.5q52 0 87.5 -29.5t39 -74.5t-28.5 -99h-70q-23 -57 8.5 -99t133.5 -42t161.5 52t59.5 136q0 74 -45 120t-133 93q-109 58 -146 87q-97 79 -98 194q0 62 21 115.5t54.5 92.5t74 75.5t81.5 73t74.5 76t54.5 93.5t21 117q0 81 -41.5 125.5
t-126.5 44.5q-129 0 -199.5 -86.5t-101.5 -253.5l-219 -1208q-91 -498 -518 -498q-71 0 -132.5 24t-102 74.5t-40.5 118.5q0 79 48.5 132.5t129.5 53.5q79 0 113.5 -58.5t3.5 -137.5l-82 -10q-18 -37 -18 -66q0 -34 24 -53t62 -19q33 0 59 11t46 36.5t34 52.5t27 74.5
t21 85.5t20 101z" />
    <glyph glyph-name="agrave" unicode="&#xe0;" horiz-adv-x="1196" 
d="M1135 158l43 -33q-44 -69 -109 -108.5t-143 -39.5q-211 0 -211 177q0 40 12 90l-10 2q-48 -122 -138.5 -195.5t-222.5 -73.5q-157 0 -235 96t-78 277q0 96 19.5 188.5t60.5 177t99.5 148.5t143 102t183.5 38q96 0 153 -40t91 -114l32 129q193 0 277 14
q-112 -553 -148 -794q-4 -25 -4 -60q0 -43 14 -59.5t44 -16.5q60 0 127 95zM453 68q77 0 147.5 89.5t113 236.5t42.5 308q0 112 -41.5 170t-112.5 58q-79 0 -140.5 -79.5t-96.5 -226.5t-35 -337q0 -34 2 -59.5t9 -57.5t19.5 -52.5t36.5 -35t56 -14.5zM733 1507l74 -387
l-37 -14l-231 270q-33 46 -33 84q0 53 50.5 77.5t96.5 4.5z" />
    <glyph glyph-name="aacute" unicode="&#xe1;" horiz-adv-x="1196" 
d="M1135 158l43 -33q-44 -69 -109 -108.5t-143 -39.5q-211 0 -211 177q0 40 12 90l-10 2q-48 -122 -138.5 -195.5t-222.5 -73.5q-157 0 -235 96t-78 277q0 96 19.5 188.5t60.5 177t99.5 148.5t143 102t183.5 38q96 0 153 -40t91 -114l32 129q193 0 277 14
q-112 -553 -148 -794q-4 -25 -4 -60q0 -43 14 -59.5t44 -16.5q60 0 127 95zM453 68q77 0 147.5 89.5t113 236.5t42.5 308q0 112 -41.5 170t-112.5 58q-79 0 -140.5 -79.5t-96.5 -226.5t-35 -337q0 -34 2 -59.5t9 -57.5t19.5 -52.5t36.5 -35t56 -14.5zM518 1126l180 383
l103 23q39 8 73.5 -10.5t34.5 -61.5q0 -52 -61 -104l-299 -252z" />
    <glyph glyph-name="acircumflex" unicode="&#xe2;" horiz-adv-x="1196" 
d="M1135 158l43 -33q-44 -69 -109 -108.5t-143 -39.5q-211 0 -211 177q0 40 12 90l-10 2q-48 -122 -138.5 -195.5t-222.5 -73.5q-157 0 -235 96t-78 277q0 96 19.5 188.5t60.5 177t99.5 148.5t143 102t183.5 38q96 0 153 -40t91 -114l32 129q193 0 277 14
q-112 -553 -148 -794q-4 -25 -4 -60q0 -43 14 -59.5t44 -16.5q60 0 127 95zM453 68q77 0 147.5 89.5t113 236.5t42.5 308q0 112 -41.5 170t-112.5 58q-79 0 -140.5 -79.5t-96.5 -226.5t-35 -337q0 -34 2 -59.5t9 -57.5t19.5 -52.5t36.5 -35t56 -14.5zM385 1130l231 347
q16 10 51.5 21t65.5 11q45 0 69 -17.5t36 -61.5l86 -306l-33 -16l-189 213l-288 -217z" />
    <glyph glyph-name="atilde" unicode="&#xe3;" horiz-adv-x="1196" 
d="M1135 158l43 -33q-44 -69 -109 -108.5t-143 -39.5q-211 0 -211 177q0 40 12 90l-10 2q-48 -122 -138.5 -195.5t-222.5 -73.5q-157 0 -235 96t-78 277q0 96 19.5 188.5t60.5 177t99.5 148.5t143 102t183.5 38q96 0 153 -40t91 -114l32 129q193 0 277 14
q-112 -553 -148 -794q-4 -25 -4 -60q0 -43 14 -59.5t44 -16.5q60 0 127 95zM453 68q77 0 147.5 89.5t113 236.5t42.5 308q0 112 -41.5 170t-112.5 58q-79 0 -140.5 -79.5t-96.5 -226.5t-35 -337q0 -34 2 -59.5t9 -57.5t19.5 -52.5t36.5 -35t56 -14.5zM801 1188
q-74 0 -178 49q-79 33 -117 33q-70 0 -121 -88l-37 12q59 126 114 184t144 58q16 0 33 -2.5t28 -4.5t29 -8.5t25 -10t28 -12.5t27 -12q73 -30 113 -30q38 0 67 17t56 69l41 -10q-56 -132 -117 -188t-135 -56z" />
    <glyph glyph-name="adieresis" unicode="&#xe4;" horiz-adv-x="1196" 
d="M1135 158l43 -33q-44 -69 -109 -108.5t-143 -39.5q-211 0 -211 177q0 40 12 90l-10 2q-48 -122 -138.5 -195.5t-222.5 -73.5q-157 0 -235 96t-78 277q0 96 19.5 188.5t60.5 177t99.5 148.5t143 102t183.5 38q96 0 153 -40t91 -114l32 129q193 0 277 14
q-112 -553 -148 -794q-4 -25 -4 -60q0 -43 14 -59.5t44 -16.5q60 0 127 95zM453 68q77 0 147.5 89.5t113 236.5t42.5 308q0 112 -41.5 170t-112.5 58q-79 0 -140.5 -79.5t-96.5 -226.5t-35 -337q0 -34 2 -59.5t9 -57.5t19.5 -52.5t36.5 -35t56 -14.5zM344 1278q0 63 48 104
t114 41q117 0 117 -102q0 -71 -45 -116.5t-117 -45.5q-117 0 -117 119zM754 1270q0 69 47.5 111t113.5 42q117 0 117 -102q0 -71 -46 -116.5t-116 -45.5q-63 0 -89.5 32t-26.5 79z" />
    <glyph glyph-name="aring" unicode="&#xe5;" horiz-adv-x="1196" 
d="M1135 158l43 -33q-44 -69 -109 -108.5t-143 -39.5q-211 0 -211 177q0 40 12 90l-10 2q-48 -122 -138.5 -195.5t-222.5 -73.5q-157 0 -235 96t-78 277q0 96 19.5 188.5t60.5 177t99.5 148.5t143 102t183.5 38q96 0 153 -40t91 -114l32 129q193 0 277 14
q-112 -553 -148 -794q-4 -25 -4 -60q0 -43 14 -59.5t44 -16.5q60 0 127 95zM453 68q77 0 147.5 89.5t113 236.5t42.5 308q0 112 -41.5 170t-112.5 58q-79 0 -140.5 -79.5t-96.5 -226.5t-35 -337q0 -34 2 -59.5t9 -57.5t19.5 -52.5t36.5 -35t56 -14.5zM713 1438
q-57 0 -96 -40t-39 -98q0 -41 23.5 -70.5t72.5 -29.5q60 0 97.5 38.5t37.5 96.5q0 44 -24 73.5t-72 29.5zM504 1286q0 91 63 150t162 59q75 0 115.5 -39t40.5 -102q0 -95 -61.5 -154t-161.5 -59q-80 0 -119 40t-39 105z" />
    <glyph glyph-name="ae" unicode="&#xe6;" horiz-adv-x="1646" 
d="M1497 344l55 -18q-57 -178 -170.5 -263.5t-291.5 -85.5q-156 0 -244 73t-109 210q-51 -122 -151 -202.5t-230 -80.5q-157 0 -235 96t-78 277q0 96 19.5 188.5t60.5 177t99.5 148.5t143 102t183.5 38q96 0 153 -40t91 -114l32 125q54 0 211 16l-18 -86q127 99 297 99
q132 0 209.5 -61.5t77.5 -172.5q0 -61 -24 -110.5t-61 -82t-91 -57.5t-104.5 -39t-111.5 -24q-106 -16 -200 -19q-2 -25 -2 -82q0 -156 44 -221t142 -65q95 0 174 65t129 209zM457 68q78 0 147 82.5t110.5 225.5t41.5 310q0 123 -41 183.5t-113 60.5q-65 0 -118.5 -59.5
t-86 -155.5t-50 -208.5t-17.5 -225.5q0 -110 29 -161.5t98 -51.5zM1356 797q0 147 -96 147q-88 0 -156 -125t-90 -323q72 9 104 16q112 26 175 91.5t63 193.5z" />
    <glyph glyph-name="ccedilla" unicode="&#xe7;" horiz-adv-x="974" 
d="M819 348l62 -20q-15 -48 -35.5 -91t-56 -90.5t-79.5 -82.5t-109.5 -59.5t-141.5 -27.5l-78 -98q58 19 102 19q76 0 118 -41t42 -113q0 -91 -75 -154t-210 -63q-91 0 -135.5 37t-44.5 86q0 38 23 63t63 25q31 0 53 -17.5t23 -58.5l-51 -31q-6 -29 8.5 -47t52.5 -18
q47 0 81 39.5t34 118.5q0 118 -80 118q-34 0 -74 -12l-10 33l90 117q-170 12 -259 113.5t-89 275.5q0 133 39.5 248t114 201.5t189.5 136t257 49.5q152 0 227.5 -69t75.5 -173q0 -86 -44.5 -143.5t-131.5 -57.5q-66 0 -100.5 33t-34.5 82q0 46 33 104h77q17 44 17 78
q0 46 -28.5 70t-76.5 24q-81 0 -144 -56.5t-98 -147t-52 -188t-17 -193.5q0 -162 42 -233t138 -71q94 0 170.5 75.5t122.5 209.5z" />
    <glyph glyph-name="egrave" unicode="&#xe8;" horiz-adv-x="970" 
d="M627 1004q148 0 227.5 -62.5t79.5 -177.5q0 -60 -24.5 -108.5t-61.5 -80t-91.5 -56.5t-104.5 -38.5t-111 -23.5q-105 -15 -197 -19q-2 -45 -2 -88q0 -153 46 -216.5t144 -63.5q94 0 174.5 65.5t129.5 208.5l55 -18q-58 -178 -172.5 -263.5t-292.5 -85.5
q-184 0 -283.5 100.5t-99.5 282.5q0 284 161.5 464t422.5 180zM688 803q0 141 -92 141q-88 0 -157 -125t-91 -323q59 6 101 14.5t90.5 30t78.5 52.5t50 84.5t20 125.5zM696 1507l74 -387l-37 -14l-231 270q-33 46 -33 84q0 53 50.5 77.5t96.5 4.5z" />
    <glyph glyph-name="eacute" unicode="&#xe9;" horiz-adv-x="970" 
d="M627 1004q148 0 227.5 -62.5t79.5 -177.5q0 -60 -24.5 -108.5t-61.5 -80t-91.5 -56.5t-104.5 -38.5t-111 -23.5q-105 -15 -197 -19q-2 -45 -2 -88q0 -153 46 -216.5t144 -63.5q94 0 174.5 65.5t129.5 208.5l55 -18q-58 -178 -172.5 -263.5t-292.5 -85.5
q-184 0 -283.5 100.5t-99.5 282.5q0 284 161.5 464t422.5 180zM688 803q0 141 -92 141q-88 0 -157 -125t-91 -323q59 6 101 14.5t90.5 30t78.5 52.5t50 84.5t20 125.5zM461 1126l180 383l102 23q39 8 74 -10.5t35 -61.5q0 -52 -61 -104l-299 -252z" />
    <glyph glyph-name="ecircumflex" unicode="&#xea;" horiz-adv-x="970" 
d="M627 1004q148 0 227.5 -62.5t79.5 -177.5q0 -60 -24.5 -108.5t-61.5 -80t-91.5 -56.5t-104.5 -38.5t-111 -23.5q-105 -15 -197 -19q-2 -45 -2 -88q0 -153 46 -216.5t144 -63.5q94 0 174.5 65.5t129.5 208.5l55 -18q-58 -178 -172.5 -263.5t-292.5 -85.5
q-184 0 -283.5 100.5t-99.5 282.5q0 284 161.5 464t422.5 180zM688 803q0 141 -92 141q-88 0 -157 -125t-91 -323q59 6 101 14.5t90.5 30t78.5 52.5t50 84.5t20 125.5zM354 1130l232 347q16 10 51 21t65 11q45 0 69 -17.5t36 -61.5l86 -306l-33 -16l-188 213l-289 -217z" />
    <glyph glyph-name="edieresis" unicode="&#xeb;" horiz-adv-x="970" 
d="M627 1004q148 0 227.5 -62.5t79.5 -177.5q0 -60 -24.5 -108.5t-61.5 -80t-91.5 -56.5t-104.5 -38.5t-111 -23.5q-105 -15 -197 -19q-2 -45 -2 -88q0 -153 46 -216.5t144 -63.5q94 0 174.5 65.5t129.5 208.5l55 -18q-58 -178 -172.5 -263.5t-292.5 -85.5
q-184 0 -283.5 100.5t-99.5 282.5q0 284 161.5 464t422.5 180zM688 803q0 141 -92 141q-88 0 -157 -125t-91 -323q59 6 101 14.5t90.5 30t78.5 52.5t50 84.5t20 125.5zM317 1278q0 63 48 104t114 41q117 0 117 -102q0 -71 -45 -116.5t-117 -45.5q-117 0 -117 119zM727 1270
q0 69 48 111t114 42q117 0 117 -102q0 -71 -46 -116.5t-116 -45.5q-63 0 -90 32t-27 79z" />
    <glyph glyph-name="igrave" unicode="&#xec;" horiz-adv-x="632" 
d="M551 164l45 -35q-51 -76 -115 -114t-153 -38q-230 0 -230 211q0 72 29 207l115 535h-162l8 53h449q-32 -145 -85.5 -409t-68.5 -343q-12 -82 -12 -104q0 -61 53 -61q56 0 127 98zM430 1507l74 -387l-37 -14l-231 270q-33 46 -33 84q0 53 50.5 77.5t96.5 4.5z" />
    <glyph glyph-name="iacute" unicode="&#xed;" horiz-adv-x="632" 
d="M551 164l45 -35q-51 -76 -115 -114t-153 -38q-230 0 -230 211q0 72 29 207l115 535h-162l8 53h449q-32 -145 -85.5 -409t-68.5 -343q-12 -82 -12 -104q0 -61 53 -61q56 0 127 98zM221 1126l180 383l103 23q39 8 73.5 -10.5t34.5 -61.5q0 -52 -61 -104l-299 -252z" />
    <glyph glyph-name="icircumflex" unicode="&#xee;" horiz-adv-x="632" 
d="M551 164l45 -35q-51 -76 -115 -114t-153 -38q-230 0 -230 211q0 72 29 207l115 535h-162l8 53h449q-32 -145 -85.5 -409t-68.5 -343q-12 -82 -12 -104q0 -61 53 -61q56 0 127 98zM98 1130l232 347q16 10 51 21t65 11q45 0 69 -17.5t36 -61.5l86 -306l-33 -16l-188 213
l-289 -217z" />
    <glyph glyph-name="idieresis" unicode="&#xef;" horiz-adv-x="632" 
d="M551 164l45 -35q-51 -76 -115 -114t-153 -38q-230 0 -230 211q0 72 29 207l115 535h-162l8 53h449q-32 -145 -85.5 -409t-68.5 -343q-12 -82 -12 -104q0 -61 53 -61q56 0 127 98zM49 1278q0 63 48 104t114 41q117 0 117 -102q0 -71 -45 -116.5t-117 -45.5
q-117 0 -117 119zM459 1270q0 69 48 111t114 42q116 0 116 -102q0 -71 -45.5 -116.5t-116.5 -45.5q-63 0 -89.5 32t-26.5 79z" />
    <glyph glyph-name="eth" unicode="&#xf0;" horiz-adv-x="1132" 
d="M563 1163l-14 56l190 129q-99 140 -325 186l12 37q298 0 465 -121l196 131l17 -53l-170 -115q74 -77 112.5 -194t38.5 -297q0 -92 -10 -183t-33 -185.5t-57 -177.5t-86.5 -156t-117 -126t-151.5 -83.5t-188 -30.5q-195 0 -296 105t-101 294q0 146 42 264.5t113.5 194.5
t165 116.5t199.5 40.5q102 0 162.5 -48t81.5 -124q10 102 10 185q0 177 -51 292zM606 944q-85 0 -153.5 -105.5t-103 -259.5t-34.5 -315q0 -116 33 -175.5t109 -59.5q73 0 132 60.5t94.5 157t54 207.5t18.5 222q0 268 -150 268z" />
    <glyph glyph-name="ntilde" unicode="&#xf1;" horiz-adv-x="1220" 
d="M856 -23q-109 0 -170 51.5t-61 153.5q0 59 21.5 156t56 216.5t42.5 154.5q17 77 17 110q0 36 -14.5 53t-47.5 17q-74 0 -149 -90t-127 -228q-78 -209 -113 -565q-51 2 -161 -4.5t-150 -15.5l84 376l74 568h-148l6 53h437l-88 -346l14 -6q173 373 434 373q109 0 166 -58
t57 -162q0 -57 -20 -135l-103 -411q-18 -70 -18 -113q0 -59 53 -59q59 0 135 96l45 -35q-103 -150 -272 -150zM811 1188q-74 0 -178 49q-79 33 -117 33q-70 0 -121 -88l-37 12q59 126 114 184t144 58q16 0 33 -2.5t28 -4.5t29 -8.5t25 -10t28 -12.5t27 -12q73 -30 113 -30
q38 0 67 17t56 69l41 -10q-56 -132 -117 -188t-135 -56z" />
    <glyph glyph-name="ograve" unicode="&#xf2;" horiz-adv-x="1075" 
d="M709 465q26 169 26 272q0 108 -33 162.5t-106 54.5q-45 0 -81 -20t-62.5 -55.5t-48.5 -92t-37.5 -119.5t-30.5 -149q-29 -176 -29 -278q0 -211 144 -211q110 0 164.5 100.5t93.5 335.5zM436 -23q-198 0 -298.5 100.5t-100.5 287.5q0 101 23 194.5t71 174.5t115.5 141
t162 94.5t205.5 34.5q197 0 296.5 -97t99.5 -286q0 -184 -68.5 -329.5t-200 -230t-305.5 -84.5zM709 1507l73 -387l-37 -14l-231 270q-33 46 -33 84q0 53 51 77.5t97 4.5z" />
    <glyph glyph-name="oacute" unicode="&#xf3;" horiz-adv-x="1075" 
d="M709 465q26 169 26 272q0 108 -33 162.5t-106 54.5q-45 0 -81 -20t-62.5 -55.5t-48.5 -92t-37.5 -119.5t-30.5 -149q-29 -176 -29 -278q0 -211 144 -211q110 0 164.5 100.5t93.5 335.5zM436 -23q-198 0 -298.5 100.5t-100.5 287.5q0 101 23 194.5t71 174.5t115.5 141
t162 94.5t205.5 34.5q197 0 296.5 -97t99.5 -286q0 -184 -68.5 -329.5t-200 -230t-305.5 -84.5zM467 1126l180 383l103 23q39 8 73.5 -10.5t34.5 -61.5q0 -52 -61 -104l-299 -252z" />
    <glyph glyph-name="ocircumflex" unicode="&#xf4;" horiz-adv-x="1075" 
d="M709 465q26 169 26 272q0 108 -33 162.5t-106 54.5q-45 0 -81 -20t-62.5 -55.5t-48.5 -92t-37.5 -119.5t-30.5 -149q-29 -176 -29 -278q0 -211 144 -211q110 0 164.5 100.5t93.5 335.5zM436 -23q-198 0 -298.5 100.5t-100.5 287.5q0 101 23 194.5t71 174.5t115.5 141
t162 94.5t205.5 34.5q197 0 296.5 -97t99.5 -286q0 -184 -68.5 -329.5t-200 -230t-305.5 -84.5zM354 1130l232 347q16 10 51 21t65 11q45 0 69 -17.5t36 -61.5l86 -306l-33 -16l-188 213l-289 -217z" />
    <glyph glyph-name="otilde" unicode="&#xf5;" horiz-adv-x="1075" 
d="M709 465q26 169 26 272q0 108 -33 162.5t-106 54.5q-45 0 -81 -20t-62.5 -55.5t-48.5 -92t-37.5 -119.5t-30.5 -149q-29 -176 -29 -278q0 -211 144 -211q110 0 164.5 100.5t93.5 335.5zM436 -23q-198 0 -298.5 100.5t-100.5 287.5q0 101 23 194.5t71 174.5t115.5 141
t162 94.5t205.5 34.5q197 0 296.5 -97t99.5 -286q0 -184 -68.5 -329.5t-200 -230t-305.5 -84.5zM768 1188q-74 0 -178 49q-79 33 -117 33q-70 0 -121 -88l-37 12q59 126 114 184t144 58q16 0 33 -2.5t28 -4.5t29 -8.5t25 -10t28 -12.5t27 -12q73 -30 113 -30q38 0 67 17
t56 69l41 -10q-56 -132 -117 -188t-135 -56z" />
    <glyph glyph-name="odieresis" unicode="&#xf6;" horiz-adv-x="1075" 
d="M709 465q26 169 26 272q0 108 -33 162.5t-106 54.5q-45 0 -81 -20t-62.5 -55.5t-48.5 -92t-37.5 -119.5t-30.5 -149q-29 -176 -29 -278q0 -211 144 -211q110 0 164.5 100.5t93.5 335.5zM436 -23q-198 0 -298.5 100.5t-100.5 287.5q0 101 23 194.5t71 174.5t115.5 141
t162 94.5t205.5 34.5q197 0 296.5 -97t99.5 -286q0 -184 -68.5 -329.5t-200 -230t-305.5 -84.5zM326 1278q0 63 47.5 104t113.5 41q117 0 117 -102q0 -71 -45 -116.5t-117 -45.5q-116 0 -116 119zM735 1270q0 69 48 111t114 42q117 0 117 -102q0 -71 -46 -116.5t-116 -45.5
q-63 0 -90 32t-27 79z" />
    <glyph glyph-name="divide" unicode="&#xf7;" 
d="M643 1063q46 0 72 -21t26 -63q0 -63 -37.5 -103t-97.5 -40q-98 0 -98 88q0 60 40 99.5t95 39.5zM537 463q46 0 73 -21.5t27 -64.5q0 -62 -37.5 -101.5t-97.5 -39.5q-52 0 -75.5 24.5t-23.5 63.5q0 60 39.5 99.5t94.5 39.5zM1022 610h-930l12 74h930z" />
    <glyph glyph-name="oslash" unicode="&#xf8;" horiz-adv-x="1075" 
d="M436 -23q-67 0 -127 13l-80 -162l-57 29l74 151q-103 39 -156 130.5t-53 226.5q0 101 23 194.5t71 174.5t115.5 141t162 94.5t205.5 34.5q61 0 121 -13l86 174l56 -24l-82 -166q215 -77 215 -354q0 -184 -68.5 -329.5t-200 -230t-305.5 -84.5zM709 465q26 169 26 272
q0 51 -10 99l-377 -766q35 -41 103 -41q110 0 164.5 100.5t93.5 335.5zM307 240q0 -59 8 -95l379 764q-36 45 -98 45q-45 0 -81 -20t-62.5 -55.5t-48.5 -92t-37.5 -119.5t-30.5 -149q-29 -176 -29 -278z" />
    <glyph glyph-name="ugrave" unicode="&#xf9;" horiz-adv-x="1239" 
d="M104 295l125 635h-147l8 53h436q-54 -235 -153 -739q-8 -54 -8 -70q0 -39 18.5 -59.5t65.5 -20.5q94 0 176 139.5t135 354.5q45 182 61 383q62 0 168.5 6t145.5 14q-121 -570 -152 -813q-4 -36 -4 -49q0 -33 12.5 -50.5t44.5 -17.5q59 0 129 97l43 -31q-53 -76 -115 -113
t-147 -37q-217 0 -217 183q0 63 31 170l-12 4q-25 -58 -49.5 -104t-63 -95.5t-80.5 -82t-101.5 -54t-127.5 -21.5q-116 0 -173 63t-57 169q0 45 8 86zM737 1507l74 -387l-37 -14l-231 270q-33 46 -33 84q0 53 50.5 77.5t96.5 4.5z" />
    <glyph glyph-name="uacute" unicode="&#xfa;" horiz-adv-x="1239" 
d="M104 295l125 635h-147l8 53h436q-54 -235 -153 -739q-8 -54 -8 -70q0 -39 18.5 -59.5t65.5 -20.5q94 0 176 139.5t135 354.5q45 182 61 383q62 0 168.5 6t145.5 14q-121 -570 -152 -813q-4 -36 -4 -49q0 -33 12.5 -50.5t44.5 -17.5q59 0 129 97l43 -31q-53 -76 -115 -113
t-147 -37q-217 0 -217 183q0 63 31 170l-12 4q-25 -58 -49.5 -104t-63 -95.5t-80.5 -82t-101.5 -54t-127.5 -21.5q-116 0 -173 63t-57 169q0 45 8 86zM541 1126l180 383l102 23q39 8 74 -10.5t35 -61.5q0 -52 -62 -104l-299 -252z" />
    <glyph glyph-name="ucircumflex" unicode="&#xfb;" horiz-adv-x="1239" 
d="M104 295l125 635h-147l8 53h436q-54 -235 -153 -739q-8 -54 -8 -70q0 -39 18.5 -59.5t65.5 -20.5q94 0 176 139.5t135 354.5q45 182 61 383q62 0 168.5 6t145.5 14q-121 -570 -152 -813q-4 -36 -4 -49q0 -33 12.5 -50.5t44.5 -17.5q59 0 129 97l43 -31q-53 -76 -115 -113
t-147 -37q-217 0 -217 183q0 63 31 170l-12 4q-25 -58 -49.5 -104t-63 -95.5t-80.5 -82t-101.5 -54t-127.5 -21.5q-116 0 -173 63t-57 169q0 45 8 86zM401 1130l232 347q16 10 51.5 21t65.5 11q45 0 68.5 -17.5t35.5 -61.5l86 -306l-33 -16l-188 213l-289 -217z" />
    <glyph glyph-name="udieresis" unicode="&#xfc;" horiz-adv-x="1239" 
d="M104 295l125 635h-147l8 53h436q-54 -235 -153 -739q-8 -54 -8 -70q0 -39 18.5 -59.5t65.5 -20.5q94 0 176 139.5t135 354.5q45 182 61 383q62 0 168.5 6t145.5 14q-121 -570 -152 -813q-4 -36 -4 -49q0 -33 12.5 -50.5t44.5 -17.5q59 0 129 97l43 -31q-53 -76 -115 -113
t-147 -37q-217 0 -217 183q0 63 31 170l-12 4q-25 -58 -49.5 -104t-63 -95.5t-80.5 -82t-101.5 -54t-127.5 -21.5q-116 0 -173 63t-57 169q0 45 8 86zM360 1278q0 63 48 104t114 41q117 0 117 -102q0 -71 -45 -116.5t-117 -45.5q-117 0 -117 119zM770 1270q0 69 48 111
t114 42q117 0 117 -102q0 -71 -45.5 -116.5t-116.5 -45.5q-63 0 -90 32t-27 79z" />
    <glyph glyph-name="yacute" unicode="&#xfd;" horiz-adv-x="1107" 
d="M125 -307l-94 -12q-23 -33 -23 -64q0 -28 19.5 -45.5t56.5 -17.5q186 0 422 337q-142 537 -238 857q-19 63 -36.5 87.5t-45.5 24.5q-32 0 -56 -31.5t-58 -115.5l-62 24q21 49 37.5 82t42.5 69.5t55 58t71.5 36t94.5 14.5q90 0 145.5 -47.5t86.5 -150.5q93 -319 172 -629
q105 154 171 291t66 219q0 88 -69 94l-64 -86q-53 18 -87 59t-34 93q0 75 48.5 119.5t123.5 44.5q90 0 142.5 -61.5t52.5 -162.5q0 -229 -311 -674q-23 -32 -61.5 -87.5t-62 -89.5t-61 -84.5t-64 -82.5t-64 -73.5t-68.5 -67.5t-70.5 -54t-76.5 -43.5t-80 -25.5t-87 -10
q-118 0 -182.5 59.5t-64.5 165.5q0 83 50.5 134t125.5 51q62 0 103.5 -37.5t41.5 -104.5q0 -32 -8 -63zM487 1126l181 383l102 23q39 8 74 -10.5t35 -61.5q0 -52 -62 -104l-299 -252z" />
    <glyph glyph-name="thorn" unicode="&#xfe;" horiz-adv-x="1200" 
d="M1133 645q0 -177 -65 -330t-183 -245.5t-262 -92.5q-101 0 -166 42t-88 110l-93 -563h242l-10 -53h-649l10 53h127l315 1915h-164l11 53h436l-158 -821l10 -4q72 145 166.5 220t233.5 75q143 0 215 -94.5t72 -264.5zM727 901q-55 0 -107.5 -46.5t-95.5 -127.5
q-110 -203 -110 -463q0 -98 34.5 -150.5t118.5 -52.5q62 0 111.5 44.5t79 112.5t48.5 159t26.5 176t7.5 170q0 92 -27 135t-86 43z" />
    <glyph glyph-name="ydieresis" unicode="&#xff;" horiz-adv-x="1107" 
d="M125 -307l-94 -12q-23 -33 -23 -64q0 -28 19.5 -45.5t56.5 -17.5q186 0 422 337q-142 537 -238 857q-19 63 -36.5 87.5t-45.5 24.5q-32 0 -56 -31.5t-58 -115.5l-62 24q21 49 37.5 82t42.5 69.5t55 58t71.5 36t94.5 14.5q90 0 145.5 -47.5t86.5 -150.5q93 -319 172 -629
q105 154 171 291t66 219q0 88 -69 94l-64 -86q-53 18 -87 59t-34 93q0 75 48.5 119.5t123.5 44.5q90 0 142.5 -61.5t52.5 -162.5q0 -229 -311 -674q-23 -32 -61.5 -87.5t-62 -89.5t-61 -84.5t-64 -82.5t-64 -73.5t-68.5 -67.5t-70.5 -54t-76.5 -43.5t-80 -25.5t-87 -10
q-118 0 -182.5 59.5t-64.5 165.5q0 83 50.5 134t125.5 51q62 0 103.5 -37.5t41.5 -104.5q0 -32 -8 -63zM315 1278q0 63 48 104t114 41q117 0 117 -102q0 -71 -45 -116.5t-117 -45.5q-117 0 -117 119zM725 1270q0 69 48 111t114 42q117 0 117 -102q0 -71 -46 -116.5
t-116 -45.5q-63 0 -90 32t-27 79z" />
    <glyph glyph-name="Amacron" unicode="&#x100;" horiz-adv-x="1288" 
d="M774 59l-57 418h-420l-217 -418h162l-9 -59h-358l8 59h121l715 1383h155l222 -1383h127l-9 -59h-587l8 59h139zM629 1126l-303 -589h383zM545 1591l26 150h557l-26 -150h-557z" />
    <glyph glyph-name="amacron" unicode="&#x101;" horiz-adv-x="1196" 
d="M1135 158l43 -33q-44 -69 -109 -108.5t-143 -39.5q-211 0 -211 177q0 40 12 90l-10 2q-48 -122 -138.5 -195.5t-222.5 -73.5q-157 0 -235 96t-78 277q0 96 19.5 188.5t60.5 177t99.5 148.5t143 102t183.5 38q96 0 153 -40t91 -114l32 129q193 0 277 14
q-112 -553 -148 -794q-4 -25 -4 -60q0 -43 14 -59.5t44 -16.5q60 0 127 95zM453 68q77 0 147.5 89.5t113 236.5t42.5 308q0 112 -41.5 170t-112.5 58q-79 0 -140.5 -79.5t-96.5 -226.5t-35 -337q0 -34 2 -59.5t9 -57.5t19.5 -52.5t36.5 -35t56 -14.5zM391 1196l27 152h557
l-27 -152h-557z" />
    <glyph glyph-name="Abreve" unicode="&#x102;" horiz-adv-x="1288" 
d="M774 59l-57 418h-420l-217 -418h162l-9 -59h-358l8 59h121l715 1383h155l222 -1383h127l-9 -59h-587l8 59h139zM629 1126l-303 -589h383zM582 1784l41 8q18 -68 66.5 -98.5t158.5 -30.5q106 0 166 31.5t96 103.5l43 -6q-12 -45 -29.5 -84.5t-46 -78t-64 -65.5t-86.5 -44
t-110 -17q-57 0 -100 16t-69 41.5t-42 63t-21 76.5t-3 84z" />
    <glyph glyph-name="abreve" unicode="&#x103;" horiz-adv-x="1196" 
d="M1135 158l43 -33q-44 -69 -109 -108.5t-143 -39.5q-211 0 -211 177q0 40 12 90l-10 2q-48 -122 -138.5 -195.5t-222.5 -73.5q-157 0 -235 96t-78 277q0 96 19.5 188.5t60.5 177t99.5 148.5t143 102t183.5 38q96 0 153 -40t91 -114l32 129q193 0 277 14
q-112 -553 -148 -794q-4 -25 -4 -60q0 -43 14 -59.5t44 -16.5q60 0 127 95zM453 68q77 0 147.5 89.5t113 236.5t42.5 308q0 112 -41.5 170t-112.5 58q-79 0 -140.5 -79.5t-96.5 -226.5t-35 -337q0 -34 2 -59.5t9 -57.5t19.5 -52.5t36.5 -35t56 -14.5zM424 1442l43 8
q14 -81 66 -122.5t159 -41.5q188 0 264 162l45 -8q-16 -66 -43 -121t-68 -103t-101 -75t-134 -27q-72 0 -122 27t-74.5 74.5t-32.5 103.5t-2 123z" />
    <glyph glyph-name="Aogonek" unicode="&#x104;" horiz-adv-x="1288" 
d="M774 59l-57 418h-420l-217 -418h162l-9 -59h-358l8 59h121l715 1383h155l222 -1383h127l-9 -59h-167q-82 -65 -135.5 -144t-53.5 -155q0 -80 68 -80q57 0 118 86l41 -24q-87 -170 -266 -170q-89 0 -137.5 40.5t-48.5 114.5q0 45 18 86t46 73.5t72.5 65t85.5 56t97 51.5
h-325l8 59h139zM629 1128l-303 -591h383z" />
    <glyph glyph-name="aogonek" unicode="&#x105;" horiz-adv-x="1196" 
d="M1135 158l43 -33q-45 -71 -146 -129q-82 -46 -137 -130.5t-55 -164.5t67 -80q34 0 61.5 21.5t59.5 64.5l39 -24q-83 -170 -264 -170q-90 0 -138.5 40.5t-48.5 114.5q0 50 21.5 95.5t62.5 84t86.5 69.5t106.5 63q-223 17 -166 264l-10 2q-48 -122 -138.5 -195.5
t-222.5 -73.5q-157 0 -235 96t-78 277q0 96 19.5 188.5t60.5 177t99.5 148.5t143 102t183.5 38q96 0 153 -40t91 -114l32 129q193 0 277 14q-6 -30 -30 -146.5t-34 -169t-28.5 -147t-31.5 -174t-24 -157.5q-10 -79 3 -107.5t51 -28.5q60 0 127 95zM455 68q73 0 144 89
t115 233.5t44 295.5q0 119 -40.5 181.5t-115.5 62.5q-83 0 -143.5 -82t-92 -223t-36.5 -328q-2 -50 2 -87t16.5 -71.5t39 -52.5t67.5 -18z" />
    <glyph glyph-name="Cacute" unicode="&#x106;" horiz-adv-x="1269" 
d="M864 1397q-100 0 -182 -59t-134 -151.5t-87.5 -210.5t-50.5 -230.5t-15 -217.5q0 -467 310 -467q67 0 128.5 21t119.5 65t107.5 120t82.5 177l55 -14q-27 -91 -68.5 -164t-91.5 -121t-103.5 -82.5t-110.5 -52.5t-105 -25.5t-96 -7.5q-259 0 -404 141.5t-145 418.5
q0 134 31 264.5t97 249t158 208.5t223.5 143.5t284.5 53.5q66 0 139.5 -15t125 -30.5t65.5 -15.5q18 0 30.5 9.5t26.5 33.5h41l-57 -428h-51q-17 387 -324 387zM690 1528l283 340l78 -21q48 -12 66 -30.5t18 -51.5q0 -65 -95 -110l-325 -156z" />
    <glyph glyph-name="cacute" unicode="&#x107;" horiz-adv-x="974" 
d="M819 348l62 -20q-15 -49 -36 -93.5t-58.5 -93t-84 -83.5t-116 -58t-150.5 -23q-191 0 -292 103.5t-101 288.5q0 133 39.5 248t114 201.5t189.5 136t257 49.5q152 0 227.5 -69t75.5 -173q0 -86 -44.5 -143.5t-131.5 -57.5q-66 0 -100.5 33t-34.5 82q0 46 33 104h77
q17 44 17 78q0 46 -28.5 70t-76.5 24q-81 0 -144 -56.5t-98 -147t-52 -188t-17 -193.5q0 -162 42 -233t138 -71q94 0 170.5 75.5t122.5 209.5zM481 1126l181 383l102 23q39 8 73.5 -10.5t34.5 -61.5q0 -52 -61 -104l-299 -252z" />
    <glyph glyph-name="Ccircumflex" unicode="&#x108;" horiz-adv-x="1269" 
d="M864 1397q-100 0 -182 -59t-134 -151.5t-87.5 -210.5t-50.5 -230.5t-15 -217.5q0 -467 310 -467q67 0 128.5 21t119.5 65t107.5 120t82.5 177l55 -14q-27 -91 -68.5 -164t-91.5 -121t-103.5 -82.5t-110.5 -52.5t-105 -25.5t-96 -7.5q-259 0 -404 141.5t-145 418.5
q0 134 31 264.5t97 249t158 208.5t223.5 143.5t284.5 53.5q66 0 139.5 -15t125 -30.5t65.5 -15.5q18 0 30.5 9.5t26.5 33.5h41l-57 -428h-51q-17 387 -324 387zM557 1526l283 278q56 27 100 27q43 0 68 -18t45 -56l129 -235l-27 -23l-244 150l-333 -152z" />
    <glyph glyph-name="ccircumflex" unicode="&#x109;" horiz-adv-x="974" 
d="M819 348l62 -20q-15 -49 -36 -93.5t-58.5 -93t-84 -83.5t-116 -58t-150.5 -23q-191 0 -292 103.5t-101 288.5q0 133 39.5 248t114 201.5t189.5 136t257 49.5q152 0 227.5 -69t75.5 -173q0 -86 -44.5 -143.5t-131.5 -57.5q-66 0 -100.5 33t-34.5 82q0 46 33 104h77
q17 44 17 78q0 46 -28.5 70t-76.5 24q-81 0 -144 -56.5t-98 -147t-52 -188t-17 -193.5q0 -162 42 -233t138 -71q94 0 170.5 75.5t122.5 209.5zM328 1130l231 347q16 10 51.5 21t65.5 11q45 0 68.5 -17.5t35.5 -61.5l86 -306l-32 -16l-189 213l-289 -217z" />
    <glyph glyph-name="Cdotaccent" unicode="&#x10a;" horiz-adv-x="1269" 
d="M864 1397q-100 0 -182 -59t-134 -151.5t-87.5 -210.5t-50.5 -230.5t-15 -217.5q0 -467 310 -467q67 0 128.5 21t119.5 65t107.5 120t82.5 177l55 -14q-27 -91 -68.5 -164t-91.5 -121t-103.5 -82.5t-110.5 -52.5t-105 -25.5t-96 -7.5q-259 0 -404 141.5t-145 418.5
q0 134 31 264.5t97 249t158 208.5t223.5 143.5t284.5 53.5q66 0 139.5 -15t125 -30.5t65.5 -15.5q18 0 30.5 9.5t26.5 33.5h41l-57 -428h-51q-17 387 -324 387zM872 1534q-81 0 -117 37.5t-36 93.5q0 81 57.5 132.5t147.5 51.5q71 0 111 -33t40 -100q0 -82 -57 -132
t-146 -50z" />
    <glyph glyph-name="cdotaccent" unicode="&#x10b;" horiz-adv-x="974" 
d="M819 348l62 -20q-15 -49 -36 -93.5t-58.5 -93t-84 -83.5t-116 -58t-150.5 -23q-191 0 -292 103.5t-101 288.5q0 133 39.5 248t114 201.5t189.5 136t257 49.5q152 0 227.5 -69t75.5 -173q0 -86 -44.5 -143.5t-131.5 -57.5q-66 0 -100.5 33t-34.5 82q0 46 33 104h77
q17 44 17 78q0 46 -28.5 70t-76.5 24q-81 0 -144 -56.5t-98 -147t-52 -188t-17 -193.5q0 -162 42 -233t138 -71q94 0 170.5 75.5t122.5 209.5zM621 1151q-81 0 -117.5 37.5t-36.5 93.5q0 81 57.5 131.5t147.5 50.5q151 0 151 -131q0 -82 -56.5 -132t-145.5 -50z" />
    <glyph glyph-name="Ccaron" unicode="&#x10c;" horiz-adv-x="1269" 
d="M864 1397q-100 0 -182 -59t-134 -151.5t-87.5 -210.5t-50.5 -230.5t-15 -217.5q0 -467 310 -467q67 0 128.5 21t119.5 65t107.5 120t82.5 177l55 -14q-27 -91 -68.5 -164t-91.5 -121t-103.5 -82.5t-110.5 -52.5t-105 -25.5t-96 -7.5q-259 0 -404 141.5t-145 418.5
q0 134 31 264.5t97 249t158 208.5t223.5 143.5t284.5 53.5q66 0 139.5 -15t125 -30.5t65.5 -15.5q18 0 30.5 9.5t26.5 33.5h41l-57 -428h-51q-17 387 -324 387zM1260 1827l-285 -281q-50 -26 -98 -26q-44 0 -68.5 17t-44.5 56l-131 236l24 24l256 -157l326 157z" />
    <glyph glyph-name="ccaron" unicode="&#x10d;" horiz-adv-x="974" 
d="M819 348l62 -20q-15 -49 -36 -93.5t-58.5 -93t-84 -83.5t-116 -58t-150.5 -23q-191 0 -292 103.5t-101 288.5q0 133 39.5 248t114 201.5t189.5 136t257 49.5q152 0 227.5 -69t75.5 -173q0 -86 -44.5 -143.5t-131.5 -57.5q-66 0 -100.5 33t-34.5 82q0 46 33 104h77
q17 44 17 78q0 46 -28.5 70t-76.5 24q-81 0 -144 -56.5t-98 -147t-52 -188t-17 -193.5q0 -162 42 -233t138 -71q94 0 170.5 75.5t122.5 209.5zM516 1149l-127 348l29 19l219 -220l281 224l26 -25l-188 -297q-50 -80 -142 -80q-30 0 -58 10.5t-40 20.5z" />
    <glyph glyph-name="Dcaron" unicode="&#x10e;" horiz-adv-x="1439" 
d="M1389 883q0 -407 -252.5 -645t-696.5 -238h-456l10 59h135l221 1315h-141l8 60h508q121 0 220 -17.5t183 -58.5t141 -104t88.5 -156.5t31.5 -214.5zM424 59h53q97 0 180 29.5t143.5 80.5t108.5 122t79 150.5t51.5 170t29 176t8.5 173.5q0 104 -19 178.5t-51 119.5
t-84.5 71t-108.5 35t-134 9h-35zM1169 1827l-284 -281q-50 -26 -99 -26q-44 0 -67.5 17t-44.5 56l-131 236l24 24l256 -157l326 157z" />
    <glyph glyph-name="dcaron" unicode="&#x10f;" horiz-adv-x="1345" 
d="M1186 1536l-170 -995q-64 -368 -64 -412q0 -31 15.5 -48.5t44.5 -17.5q61 0 125 95l45 -33q-45 -71 -110 -109.5t-142 -38.5q-107 0 -159 47.5t-52 135.5q0 34 10 82l-10 2q-112 -267 -363 -267q-158 0 -236.5 94t-78.5 269q0 93 17.5 184.5t56.5 179t95.5 153.5
t142 106.5t188.5 40.5q183 0 250 -152l94 631h-154l8 53h447zM457 68q78 0 147 88.5t110.5 237t41.5 315.5q0 99 -38 160t-114 61q-70 0 -123.5 -56.5t-85 -152.5t-47.5 -211.5t-16 -243.5q0 -103 28.5 -150.5t96.5 -47.5zM1196 1053l-29 41q144 104 144 225q0 79 -64 129
l37 41q57 53 113 53q50 0 76 -32.5t26 -88.5q0 -55 -26 -108t-75 -101t-94 -82.5t-108 -76.5z" />
    <glyph glyph-name="Dcroat" unicode="&#x110;" horiz-adv-x="1439" 
d="M1389 883q0 -407 -252.5 -645t-696.5 -238h-456l10 59h135l113 670h-160l8 59h162l98 586h-141l8 60h508q121 0 220 -17.5t183 -58.5t141 -104t88.5 -156.5t31.5 -214.5zM424 59h53q97 0 180 29.5t143.5 80.5t108.5 122t79 150.5t51.5 170t29 176t8.5 173.5
q0 104 -19 178.5t-51 119.5t-84.5 71t-108.5 35t-134 9h-35l-98 -586h327l-8 -59h-329z" />
    <glyph glyph-name="dcroat" unicode="&#x111;" horiz-adv-x="1212" 
d="M1186 1536l-49 -289h149l-8 -53h-152l-102 -600q-53 -311 -68 -416q-9 -63 5.5 -89t50.5 -26q61 0 125 95l45 -33q-45 -71 -110 -109.5t-142 -38.5q-132 0 -179.5 69.5t-21.5 195.5l-10 2q-112 -267 -363 -267q-158 0 -236.5 94t-78.5 269q0 93 17.5 184.5t56.5 179
t95.5 153.5t142 106.5t188.5 40.5q183 0 250 -152l51 342h-381l8 53h381l35 236h-154l8 53h447zM457 68q77 0 142 80.5t105 215.5t52 300q7 127 -32.5 196.5t-119.5 69.5q-213 0 -264 -518q-8 -63 -8 -146q0 -103 28.5 -150.5t96.5 -47.5z" />
    <glyph glyph-name="Emacron" unicode="&#x112;" horiz-adv-x="1234" 
d="M221 1434h1012l-45 -396h-51q-5 88 -21 147.5t-42 97t-71 57.5t-96.5 27t-130.5 7h-133l-102 -612h77q108 0 171 57.5t112 204.5h45l-100 -606h-49q0 115 -20 174t-63 81.5t-126 22.5h-58l-106 -637h133q150 0 247 40t157.5 118.5t113.5 218.5h51l-88 -436h-1050l10 59
h131l219 1315h-137zM502 1591l26 150h557l-26 -150h-557z" />
    <glyph glyph-name="emacron" unicode="&#x113;" horiz-adv-x="970" 
d="M627 1004q148 0 227.5 -62.5t79.5 -177.5q0 -60 -24.5 -108.5t-61.5 -80t-91.5 -56.5t-104.5 -38.5t-111 -23.5q-105 -15 -197 -19q-2 -45 -2 -88q0 -153 46 -216.5t144 -63.5q94 0 174.5 65.5t129.5 208.5l55 -18q-58 -178 -172.5 -263.5t-292.5 -85.5
q-184 0 -283.5 100.5t-99.5 282.5q0 284 161.5 464t422.5 180zM688 803q0 141 -92 141q-88 0 -157 -125t-91 -323q59 6 101 14.5t90.5 30t78.5 52.5t50 84.5t20 125.5zM369 1196l26 152h557l-26 -152h-557z" />
    <glyph glyph-name="Ebreve" unicode="&#x114;" horiz-adv-x="1234" 
d="M221 1434h1012l-45 -396h-51q-5 88 -21 147.5t-42 97t-71 57.5t-96.5 27t-130.5 7h-133l-102 -612h77q108 0 171 57.5t112 204.5h45l-100 -606h-49q0 115 -20 174t-63 81.5t-126 22.5h-58l-106 -637h133q150 0 247 40t157.5 118.5t113.5 218.5h51l-88 -436h-1050l10 59
h131l219 1315h-137zM539 1784l41 8q18 -68 66.5 -98.5t158.5 -30.5q106 0 166 31.5t96 103.5l43 -6q-12 -45 -29.5 -84.5t-46 -78t-64 -65.5t-86.5 -44t-110 -17q-57 0 -100 16t-69 41.5t-42 63t-21 76.5t-3 84z" />
    <glyph glyph-name="ebreve" unicode="&#x115;" horiz-adv-x="970" 
d="M627 1004q148 0 227.5 -62.5t79.5 -177.5q0 -60 -24.5 -108.5t-61.5 -80t-91.5 -56.5t-104.5 -38.5t-111 -23.5q-105 -15 -197 -19q-2 -45 -2 -88q0 -153 46 -216.5t144 -63.5q94 0 174.5 65.5t129.5 208.5l55 -18q-58 -178 -172.5 -263.5t-292.5 -85.5
q-184 0 -283.5 100.5t-99.5 282.5q0 284 161.5 464t422.5 180zM688 803q0 141 -92 141q-88 0 -157 -125t-91 -323q59 6 101 14.5t90.5 30t78.5 52.5t50 84.5t20 125.5zM393 1442l43 8q14 -81 66 -122.5t160 -41.5q188 0 264 162l45 -8q-16 -66 -43 -121t-68 -103t-101 -75
t-134 -27q-72 0 -122 27t-75 74.5t-33 103.5t-2 123z" />
    <glyph glyph-name="Edotaccent" unicode="&#x116;" horiz-adv-x="1234" 
d="M221 1434h1012l-45 -396h-51q-5 88 -21 147.5t-42 97t-71 57.5t-96.5 27t-130.5 7h-133l-102 -612h77q108 0 171 57.5t112 204.5h45l-100 -606h-49q0 115 -20 174t-63 81.5t-126 22.5h-58l-106 -637h133q150 0 247 40t157.5 118.5t113.5 218.5h51l-88 -436h-1050l10 59
h131l219 1315h-137zM778 1534q-81 0 -117 37.5t-36 93.5q0 81 57 132.5t147 51.5q72 0 112 -33t40 -100q0 -82 -57 -132t-146 -50z" />
    <glyph glyph-name="edotaccent" unicode="&#x117;" horiz-adv-x="970" 
d="M627 1004q148 0 227.5 -62.5t79.5 -177.5q0 -60 -24.5 -108.5t-61.5 -80t-91.5 -56.5t-104.5 -38.5t-111 -23.5q-105 -15 -197 -19q-2 -45 -2 -88q0 -153 46 -216.5t144 -63.5q94 0 174.5 65.5t129.5 208.5l55 -18q-58 -178 -172.5 -263.5t-292.5 -85.5
q-184 0 -283.5 100.5t-99.5 282.5q0 284 161.5 464t422.5 180zM688 803q0 141 -92 141q-88 0 -157 -125t-91 -323q59 6 101 14.5t90.5 30t78.5 52.5t50 84.5t20 125.5zM635 1151q-81 0 -117.5 37.5t-36.5 93.5q0 81 57.5 131.5t147.5 50.5q152 0 152 -131q0 -82 -57 -132
t-146 -50z" />
    <glyph glyph-name="Eogonek" unicode="&#x118;" horiz-adv-x="1234" 
d="M221 1434h1012l-45 -396h-51q-5 88 -21 147.5t-42 97t-71 57.5t-96.5 27t-130.5 7h-133l-102 -612h77q108 0 171 57.5t112 204.5h45l-100 -606h-49q1 114 -19 173.5t-63.5 82t-126.5 22.5h-58l-106 -637h133q150 0 247 40t157.5 118.5t113.5 218.5h51l-88 -436h-129
q-82 -65 -136 -144t-54 -155q0 -80 69 -80q58 0 119 86l41 -24q-88 -170 -266 -170q-89 0 -137.5 40.5t-48.5 114.5q0 45 18 86t46 73.5t72.5 65t85.5 56t97 51.5h-827l10 59h131l219 1315h-137z" />
    <glyph glyph-name="eogonek" unicode="&#x119;" horiz-adv-x="972" 
d="M627 1004q148 0 227.5 -62.5t79.5 -177.5q0 -56 -21.5 -102.5t-55 -77.5t-83 -56t-96 -39t-103.5 -26q-103 -21 -231 -25l-2 -37q-9 -176 37.5 -253.5t152.5 -77.5q94 0 174.5 65.5t129.5 208.5l55 -18q-40 -125 -98 -191.5t-154 -122.5q-87 -51 -149 -139.5t-62 -171.5
q0 -80 70 -80q57 0 118 86l41 -24q-87 -170 -266 -170q-89 0 -137.5 40.5t-48.5 114.5q0 51 22.5 96.5t65.5 84t90.5 69t112.5 62.5q-10 0 -35 -1.5t-35 -1.5q-184 0 -283.5 100.5t-99.5 282.5q0 284 161.5 464t422.5 180zM688 803q0 141 -92 141q-88 0 -157 -125t-91 -323
q78 9 109 16q73 19 121 50t79 92t31 149z" />
    <glyph glyph-name="Ecaron" unicode="&#x11a;" horiz-adv-x="1234" 
d="M221 1434h1012l-45 -396h-51q-5 88 -21 147.5t-42 97t-71 57.5t-96.5 27t-130.5 7h-133l-102 -612h77q108 0 171 57.5t112 204.5h45l-100 -606h-49q0 115 -20 174t-63 81.5t-126 22.5h-58l-106 -637h133q150 0 247 40t157.5 118.5t113.5 218.5h51l-88 -436h-1050l10 59
h131l219 1315h-137zM1153 1827l-285 -281q-50 -26 -98 -26q-44 0 -68.5 17t-44.5 56l-131 236l25 24l256 -157l326 157z" />
    <glyph glyph-name="ecaron" unicode="&#x11b;" horiz-adv-x="970" 
d="M627 1004q148 0 227.5 -62.5t79.5 -177.5q0 -60 -24.5 -108.5t-61.5 -80t-91.5 -56.5t-104.5 -38.5t-111 -23.5q-105 -15 -197 -19q-2 -45 -2 -88q0 -153 46 -216.5t144 -63.5q94 0 174.5 65.5t129.5 208.5l55 -18q-58 -178 -172.5 -263.5t-292.5 -85.5
q-184 0 -283.5 100.5t-99.5 282.5q0 284 161.5 464t422.5 180zM688 803q0 141 -92 141q-88 0 -157 -125t-91 -323q59 6 101 14.5t90.5 30t78.5 52.5t50 84.5t20 125.5zM532 1149l-126 348l28 19l219 -220l281 224l27 -25l-189 -297q-50 -80 -141 -80q-30 0 -58.5 10.5
t-40.5 20.5z" />
    <glyph glyph-name="Gcircumflex" unicode="&#x11c;" horiz-adv-x="1349" 
d="M860 1397q-100 0 -181.5 -58.5t-133 -150.5t-86.5 -210t-49.5 -230t-14.5 -218q0 -246 70.5 -361.5t222.5 -115.5q111 0 166 37l70 434h-166l10 60h573l-12 -60h-117l-73 -424q-92 -52 -234.5 -87.5t-277.5 -35.5q-267 0 -411 142t-144 420q0 125 30.5 251.5t96.5 246.5
t157.5 213t225 149.5t288.5 56.5q67 0 138 -15t121 -30.5t67 -15.5q20 0 31.5 10t25.5 33h39l-57 -428h-49q-10 202 -92 294.5t-234 92.5zM539 1526l282 278q56 27 101 27q43 0 67.5 -17.5t44.5 -56.5l129 -235l-26 -23l-244 150l-334 -152z" />
    <glyph glyph-name="gcircumflex" unicode="&#x11d;" horiz-adv-x="1177" 
d="M297 -311l-102 -25q-7 -24 -7 -39q0 -37 30.5 -57.5t88.5 -20.5q137 0 212 92t138 326q1 4 58 238l-10 4q-47 -93 -132 -154t-206 -61q-158 0 -238 91.5t-80 266.5q0 92 16.5 181t55 175.5t94.5 152t142.5 105.5t191.5 40q181 0 250 -156l32 131h43q153 0 236 14
q-58 -281 -166 -923q-51 -298 -215 -440t-414 -142q-153 0 -243 55t-90 162q0 83 47.5 130.5t124.5 47.5q64 0 105.5 -35.5t41.5 -111.5q0 -15 -4 -47zM467 82q77 0 145.5 83t110 228t41.5 314q0 106 -39 164.5t-113 58.5q-55 0 -99.5 -34.5t-72.5 -93t-48.5 -126
t-30.5 -144.5t-14.5 -138t-4.5 -115q0 -101 29.5 -149t95.5 -48zM371 1130l231 347q16 10 51.5 21t65.5 11q45 0 68.5 -17.5t35.5 -61.5l86 -306l-32 -16l-189 213l-289 -217z" />
    <glyph glyph-name="Gbreve" unicode="&#x11e;" horiz-adv-x="1349" 
d="M860 1397q-100 0 -181.5 -58.5t-133 -150.5t-86.5 -210t-49.5 -230t-14.5 -218q0 -246 70.5 -361.5t222.5 -115.5q111 0 166 37l70 434h-166l10 60h573l-12 -60h-117l-73 -424q-92 -52 -234.5 -87.5t-277.5 -35.5q-267 0 -411 142t-144 420q0 125 30.5 251.5t96.5 246.5
t157.5 213t225 149.5t288.5 56.5q67 0 138 -15t121 -30.5t67 -15.5q20 0 31.5 10t25.5 33h39l-57 -428h-49q-10 202 -92 294.5t-234 92.5zM625 1784l41 8q18 -68 66.5 -98.5t158.5 -30.5q106 0 166 31.5t96 103.5l43 -6q-12 -45 -29.5 -84.5t-46 -78t-64 -65.5t-86.5 -44
t-110 -17q-57 0 -100 16t-69 41.5t-42 63t-21 76.5t-3 84z" />
    <glyph glyph-name="gbreve" unicode="&#x11f;" horiz-adv-x="1177" 
d="M297 -311l-102 -25q-7 -24 -7 -39q0 -37 30.5 -57.5t88.5 -20.5q137 0 212 92t138 326q1 4 58 238l-10 4q-47 -93 -132 -154t-206 -61q-158 0 -238 91.5t-80 266.5q0 92 16.5 181t55 175.5t94.5 152t142.5 105.5t191.5 40q181 0 250 -156l32 131h43q153 0 236 14
q-58 -281 -166 -923q-51 -298 -215 -440t-414 -142q-153 0 -243 55t-90 162q0 83 47.5 130.5t124.5 47.5q64 0 105.5 -35.5t41.5 -111.5q0 -15 -4 -47zM467 82q77 0 145.5 83t110 228t41.5 314q0 106 -39 164.5t-113 58.5q-55 0 -99.5 -34.5t-72.5 -93t-48.5 -126
t-30.5 -144.5t-14.5 -138t-4.5 -115q0 -101 29.5 -149t95.5 -48zM412 1442l43 8q14 -81 66 -122.5t159 -41.5q188 0 264 162l45 -8q-16 -66 -43 -121t-68 -103t-101 -75t-134 -27q-72 0 -122 27t-74.5 74.5t-32.5 103.5t-2 123z" />
    <glyph glyph-name="Gdotaccent" unicode="&#x120;" horiz-adv-x="1349" 
d="M860 1397q-100 0 -181.5 -58.5t-133 -150.5t-86.5 -210t-49.5 -230t-14.5 -218q0 -246 70.5 -361.5t222.5 -115.5q111 0 166 37l70 434h-166l10 60h573l-12 -60h-117l-73 -424q-92 -52 -234.5 -87.5t-277.5 -35.5q-267 0 -411 142t-144 420q0 125 30.5 251.5t96.5 246.5
t157.5 213t225 149.5t288.5 56.5q67 0 138 -15t121 -30.5t67 -15.5q20 0 31.5 10t25.5 33h39l-57 -428h-49q-10 202 -92 294.5t-234 92.5zM864 1534q-81 0 -117 37.5t-36 93.5q0 81 57 132.5t147 51.5q72 0 112 -33t40 -100q0 -82 -57 -132t-146 -50z" />
    <glyph glyph-name="gdotaccent" unicode="&#x121;" horiz-adv-x="1177" 
d="M297 -311l-102 -25q-7 -24 -7 -39q0 -37 30.5 -57.5t88.5 -20.5q137 0 212 92t138 326q1 4 58 238l-10 4q-47 -93 -132 -154t-206 -61q-158 0 -238 91.5t-80 266.5q0 92 16.5 181t55 175.5t94.5 152t142.5 105.5t191.5 40q181 0 250 -156l32 131h43q153 0 236 14
q-58 -281 -166 -923q-51 -298 -215 -440t-414 -142q-153 0 -243 55t-90 162q0 83 47.5 130.5t124.5 47.5q64 0 105.5 -35.5t41.5 -111.5q0 -15 -4 -47zM467 82q77 0 145.5 83t110 228t41.5 314q0 106 -39 164.5t-113 58.5q-55 0 -99.5 -34.5t-72.5 -93t-48.5 -126
t-30.5 -144.5t-14.5 -138t-4.5 -115q0 -101 29.5 -149t95.5 -48zM662 1151q-81 0 -117.5 37.5t-36.5 93.5q0 81 57.5 131.5t147.5 50.5q151 0 151 -131q0 -82 -56.5 -132t-145.5 -50z" />
    <glyph glyph-name="Gcommaaccent" unicode="&#x122;" horiz-adv-x="1349" 
d="M860 1397q-100 0 -181.5 -58.5t-133 -150.5t-86.5 -210t-49.5 -230t-14.5 -218q0 -246 70.5 -361.5t222.5 -115.5q111 0 166 37l70 434h-166l10 60h573l-12 -60h-117l-73 -424q-92 -52 -234.5 -87.5t-277.5 -35.5q-267 0 -411 142t-144 420q0 125 30.5 251.5t96.5 246.5
t157.5 213t225 149.5t288.5 56.5q67 0 138 -15t121 -30.5t67 -15.5q20 0 31.5 10t25.5 33h39l-57 -428h-49q-10 202 -92 294.5t-234 92.5zM551 -582l-29 43q68 39 113 88.5t45 92.5q0 45 -37 57l-61 -61q-28 12 -50 41.5t-22 66.5q0 60 40 96.5t103 36.5q69 0 105.5 -43
t36.5 -104q0 -95 -63 -170.5t-181 -143.5z" />
    <glyph glyph-name="gcommaaccent" unicode="&#x123;" horiz-adv-x="1177" 
d="M297 -311l-102 -25q-7 -24 -7 -39q0 -37 30.5 -57.5t88.5 -20.5q137 0 212 92t138 326q1 4 58 238l-10 4q-47 -93 -132 -154t-206 -61q-158 0 -238 91.5t-80 266.5q0 92 16.5 181t55 175.5t94.5 152t142.5 105.5t191.5 40q181 0 250 -156l32 131h43q153 0 236 14
q-58 -281 -166 -923q-51 -298 -215 -440t-414 -142q-153 0 -243 55t-90 162q0 83 47.5 130.5t124.5 47.5q64 0 105.5 -35.5t41.5 -111.5q0 -15 -4 -47zM467 82q77 0 145.5 83t110 228t41.5 314q0 106 -39 164.5t-113 58.5q-55 0 -99.5 -34.5t-72.5 -93t-48.5 -126
t-30.5 -144.5t-14.5 -138t-4.5 -115q0 -101 29.5 -149t95.5 -48zM809 1630l27 -47q-78 -40 -133.5 -92.5t-55.5 -95.5q0 -44 39 -64l68 60q29 -12 49 -40.5t20 -68.5q0 -64 -46.5 -102.5t-110.5 -38.5q-73 0 -110.5 44t-37.5 105q0 103 75.5 185t215.5 155z" />
    <glyph glyph-name="Hcircumflex" unicode="&#x124;" horiz-adv-x="1521" 
d="M221 1434h574l-11 -60h-141l-98 -602h499l99 602h-139l10 60h563l-10 -60h-129l-219 -1315h139l-10 -59h-574l10 59h140l108 639h-497l-111 -639h141l-10 -59h-567l10 59h131l219 1315h-137zM584 1526l282 278q56 27 101 27q43 0 67.5 -17.5t44.5 -56.5l129 -235l-26 -23
l-244 150l-334 -152z" />
    <glyph glyph-name="hcircumflex" unicode="&#x125;" horiz-adv-x="1210" 
d="M899 -23q-108 0 -168.5 52.5t-60.5 156.5q0 62 21 157.5t57 220t40 141.5q26 86 17 135t-62 49q-72 0 -146 -89t-126 -227q-79 -217 -117 -567q-51 2 -161 -4.5t-150 -15.5l86 381l172 1116h-154l7 53h446l-188 -899l12 -6q173 373 436 373q107 0 162 -57.5t55 -160.5
q0 -59 -20 -141q-10 -37 -52.5 -212.5t-48.5 -205.5q-16 -82 -16 -102q0 -32 13.5 -45.5t41.5 -13.5q59 0 131 96l45 -35q-101 -150 -272 -150zM90 1614l283 278q56 27 100 27q43 0 68 -18t45 -56l129 -235l-27 -23l-244 150l-333 -152z" />
    <glyph glyph-name="Hbar" unicode="&#x126;" horiz-adv-x="1521" 
d="M221 1434h574l-11 -60h-141l-45 -272h500l45 272h-139l10 60h563l-10 -60h-129l-45 -272h145l-10 -60h-146l-163 -983h139l-10 -59h-574l10 59h140l108 639h-497l-111 -639h141l-10 -59h-567l10 59h131l164 983h-146l11 60h145l45 272h-137zM545 772h499l43 270h-499z
" />
    <glyph glyph-name="hbar" unicode="&#x127;" horiz-adv-x="1210" 
d="M899 -23q-108 0 -168.5 52.5t-60.5 156.5q0 62 21 157.5t57 220t40 141.5q26 86 17 135t-62 49q-72 0 -146 -89t-126 -227q-79 -217 -117 -567q-51 2 -161 -4.5t-150 -15.5l86 381l127 827h-158l8 53h158l37 236h-154l7 53h446l-61 -289h348l-8 -53h-351l-116 -557l12 -6
q173 373 436 373q107 0 162 -57.5t55 -160.5q0 -59 -20 -141q-10 -37 -52.5 -212.5t-48.5 -205.5q-16 -82 -16 -102q0 -32 13.5 -45.5t41.5 -13.5q59 0 131 96l45 -35q-101 -150 -272 -150z" />
    <glyph glyph-name="Itilde" unicode="&#x128;" horiz-adv-x="741" 
d="M223 1434h568l-11 -60h-131l-223 -1315h137l-10 -59h-563l10 59h127l223 1315h-137zM659 1573q-76 0 -180 49q-75 33 -117 33q-67 0 -118 -88l-37 14q56 124 112.5 182t145.5 58q11 0 21 -0.5t21 -3t18 -3.5t19.5 -5.5t17 -5.5t19 -7.5t16 -7t18.5 -8.5t18 -8
q76 -31 112 -31q39 0 67.5 17.5t55.5 68.5l41 -10q-56 -131 -117 -187.5t-133 -56.5z" />
    <glyph glyph-name="itilde" unicode="&#x129;" horiz-adv-x="632" 
d="M551 164l45 -35q-51 -76 -115 -114t-153 -38q-230 0 -230 211q0 72 29 207l115 535h-162l8 53h449q-32 -145 -85.5 -409t-68.5 -343q-12 -82 -12 -104q0 -61 53 -61q56 0 127 98zM500 1188q-74 0 -178 49q-79 33 -117 33q-70 0 -121 -88l-37 12q59 126 114 184t144 58
q16 0 33 -2.5t28 -4.5t29 -8.5t25 -10t28 -12.5t27 -12q73 -30 113 -30q38 0 67 17t56 69l41 -10q-56 -132 -117 -188t-135 -56z" />
    <glyph glyph-name="Imacron" unicode="&#x12a;" horiz-adv-x="741" 
d="M223 1434h568l-11 -60h-131l-223 -1315h137l-10 -59h-563l10 59h127l223 1315h-137zM250 1591l26 150h558l-27 -150h-557z" />
    <glyph glyph-name="imacron" unicode="&#x12b;" horiz-adv-x="632" 
d="M551 164l45 -35q-51 -76 -115 -114t-153 -38q-230 0 -230 211q0 72 29 207l115 535h-162l8 53h449q-32 -145 -85.5 -409t-68.5 -343q-12 -82 -12 -104q0 -61 53 -61q56 0 127 98zM88 1196l27 152h557l-27 -152h-557z" />
    <glyph glyph-name="Ibreve" unicode="&#x12c;" horiz-adv-x="741" 
d="M223 1434h568l-11 -60h-131l-223 -1315h137l-10 -59h-563l10 59h127l223 1315h-137zM287 1784l41 8q18 -68 66.5 -98.5t158.5 -30.5q106 0 166 31.5t96 103.5l43 -6q-12 -45 -29.5 -84.5t-46 -78t-64 -65.5t-86.5 -44t-110 -17q-57 0 -100 16t-69 41.5t-42 63t-21 76.5
t-3 84z" />
    <glyph glyph-name="ibreve" unicode="&#x12d;" horiz-adv-x="632" 
d="M551 164l45 -35q-51 -76 -115 -114t-153 -38q-230 0 -230 211q0 72 29 207l115 535h-162l8 53h449q-32 -145 -85.5 -409t-68.5 -343q-12 -82 -12 -104q0 -61 53 -61q56 0 127 98zM127 1442l43 8q14 -81 66 -122.5t159 -41.5q188 0 264 162l46 -8q-13 -52 -32 -97t-49 -88
t-67 -73.5t-88 -49t-111 -18.5q-72 0 -122 27t-74.5 74.5t-32.5 103.5t-2 123z" />
    <glyph glyph-name="Iogonek" unicode="&#x12e;" horiz-adv-x="741" 
d="M223 1434h568l-11 -60h-131l-223 -1315h137l-10 -59h-172q-81 -65 -134.5 -144t-53.5 -155q0 -80 67 -80q34 0 61.5 21.5t59.5 64.5l39 -24q-82 -170 -264 -170q-90 0 -138.5 40.5t-48.5 114.5q0 55 25.5 104t74.5 90.5t98 71.5t120 66h-297l10 59h127l223 1315h-137z
" />
    <glyph glyph-name="iogonek" unicode="&#x12f;" horiz-adv-x="632" 
d="M551 164l45 -35q-54 -81 -141 -131q-84 -47 -139.5 -128.5t-55.5 -168.5q0 -80 68 -80q57 0 118 86l41 -24q-87 -170 -266 -170q-89 0 -137.5 40.5t-48.5 114.5q0 50 21.5 95.5t62 83.5t86 68.5t106.5 61.5q-213 10 -213 211q0 55 29 207q5 26 58 270t57 265h-162l8 53
h449q-32 -145 -85.5 -409t-68.5 -343q-12 -64 -12 -106q0 -59 53 -59q56 0 127 98zM393 1151q-81 0 -116 37t-35 94q0 82 56.5 132t147.5 50q150 0 150 -131q0 -82 -57 -132t-146 -50z" />
    <glyph glyph-name="Idotaccent" unicode="&#x130;" horiz-adv-x="741" 
d="M223 1434h568l-11 -60h-131l-223 -1315h137l-10 -59h-563l10 59h127l223 1315h-137zM524 1534q-81 0 -117 37.5t-36 93.5q0 81 57 132.5t147 51.5q72 0 112 -33t40 -100q0 -82 -57 -132t-146 -50z" />
    <glyph glyph-name="dotlessi" unicode="&#x131;" horiz-adv-x="632" 
d="M551 164l45 -35q-51 -76 -115 -114t-153 -38q-230 0 -230 211q0 72 29 207l115 535h-162l8 53h449q-32 -145 -85.5 -409t-68.5 -343q-12 -82 -12 -104q0 -61 53 -61q56 0 127 98z" />
    <glyph glyph-name="IJ" unicode="&#x132;" horiz-adv-x="1705" 
d="M223 1434h568l-11 -60h-131l-223 -1315h137l-10 -59h-563l10 59h127l223 1315h-137zM1208 1434h592l-10 -60h-125l-156 -934q-40 -235 -165.5 -347.5t-346.5 -112.5q-145 0 -214.5 60t-69.5 157q0 87 51 138.5t131 51.5q67 0 99 -32.5t32 -86.5q0 -53 -29 -116h-69
q-19 -28 -19 -54q0 -65 88 -65q81 0 125 61.5t72 229.5l176 1050h-172z" />
    <glyph glyph-name="Jcircumflex" unicode="&#x134;" horiz-adv-x="1015" 
d="M485 1434h592l-10 -60h-125l-156 -934q-40 -235 -165.5 -347.5t-346.5 -112.5q-145 0 -214.5 60t-69.5 157q0 87 51 138.5t131 51.5q67 0 99 -32.5t32 -86.5q0 -53 -29 -116h-69q-19 -28 -19 -54q0 -65 88 -65q81 0 125 61.5t72 229.5l176 1050h-172zM473 1526l283 278
q56 27 100 27q43 0 68 -18t45 -56l129 -235l-27 -23l-244 150l-333 -152z" />
    <glyph glyph-name="jcircumflex" unicode="&#x135;" horiz-adv-x="610" 
d="M-123 -313l-82 -13q-12 -34 -12 -59q0 -70 84 -70q31 0 55 11t43 36.5t32.5 54t25.5 77t20.5 91.5t19.5 111l164 1004h-166l9 53h454l-162 -981q-19 -118 -55.5 -209t-95.5 -161t-147 -107t-203 -37t-197 58t-82 159q0 78 48.5 129t129.5 51q58 0 94.5 -36t36.5 -93
q0 -34 -14 -69zM53 1130l232 347q16 10 51 21t65 11q45 0 69 -17.5t36 -61.5l86 -306l-33 -16l-188 213l-289 -217z" />
    <glyph glyph-name="Kcommaaccent" unicode="&#x136;" horiz-adv-x="1370" 
d="M225 1434h566l-11 -60h-135l-106 -629l88 27l587 602h-131l9 60h346l-8 -60h-117l-449 -467l326 -848h110l-10 -59h-569l12 59h129l-229 646l-103 -29l-104 -617h133l-12 -59h-557l12 59h129l219 1315h-135zM475 -582l-29 43q68 39 113 88.5t45 92.5q0 45 -37 57l-61 -61
q-28 12 -50 41.5t-22 66.5q0 60 40.5 96.5t103.5 36.5q69 0 105 -43t36 -104q0 -95 -63 -170.5t-181 -143.5z" />
    <glyph glyph-name="kcommaaccent" unicode="&#x137;" horiz-adv-x="1134" 
d="M1053 164l45 -33q-100 -154 -269 -154q-104 0 -169.5 44.5t-65.5 136.5q0 28 10 73l25 105q8 31 8 59q0 80 -86 80q-59 0 -137 -35l-68 -432q-56 0 -158.5 -7.5t-144.5 -18.5l94 436l158 1065h-150l9 53h442l-174 -1028l141 76q244 133 238 221l-80 31q-2 10 -2 26
q0 67 42.5 111.5t121.5 44.5q76 0 112.5 -41t36.5 -100q0 -118 -155 -197q-17 -9 -151.5 -76.5t-143.5 -71.5l4 -8q98 13 119 13q204 0 204 -156q0 -31 -10 -76q-35 -153 -35 -184q0 -58 56 -58q36 0 65.5 24t67.5 77zM342 -582l-29 43q68 39 113 88.5t45 92.5q0 45 -37 57
l-61 -61q-28 12 -50 41.5t-22 66.5q0 60 40 96.5t103 36.5q69 0 105.5 -43t36.5 -104q0 -95 -63 -170.5t-181 -143.5z" />
    <glyph glyph-name="kgreenlandic" unicode="&#x138;" horiz-adv-x="1134" 
d="M1053 164l45 -33q-100 -154 -269 -154q-104 0 -169.5 44.5t-65.5 136.5q0 28 10 73l25 105q8 31 8 59q0 80 -86 80q-59 0 -137 -35l-68 -432q-56 0 -158.5 -7.5t-144.5 -18.5l94 436l74 512h-150l9 53h436l-84 -475l141 76q244 133 238 221l-80 31q-2 10 -2 26
q0 67 42.5 111.5t121.5 44.5q76 0 112.5 -41t36.5 -100q0 -118 -155 -197q-17 -9 -151.5 -76.5t-143.5 -71.5l4 -8q98 13 119 13q204 0 204 -156q0 -31 -10 -76q-35 -153 -35 -184q0 -58 56 -58q36 0 65.5 24t67.5 77z" />
    <glyph glyph-name="Lacute" unicode="&#x139;" horiz-adv-x="1179" 
d="M221 1434h631l-10 -60h-199l-219 -1315h108q150 0 245.5 40.5t159.5 126t124 243.5h47l-92 -469h-1028l10 59h131l219 1315h-137zM342 1528l283 340l77 -21q48 -12 66 -30.5t18 -51.5q0 -65 -94 -110l-325 -156z" />
    <glyph glyph-name="lacute" unicode="&#x13a;" horiz-adv-x="645" 
d="M567 164l45 -33q-59 -82 -122 -118t-150 -36q-117 0 -178.5 56.5t-61.5 165.5q0 54 14.5 143t57.5 309l162 830h-156l8 55h445l-242 -1303q-12 -74 -12 -96q0 -35 13 -52t44 -17q32 0 62.5 22t70.5 74zM240 1616l282 340l78 -21q48 -12 66 -30.5t18 -51.5q0 -65 -94 -110
l-326 -156z" />
    <glyph glyph-name="Lcommaaccent" unicode="&#x13b;" horiz-adv-x="1179" 
d="M221 1434h631l-10 -60h-199l-219 -1315h108q150 0 245.5 40.5t159.5 126t124 243.5h47l-92 -469h-1028l10 59h131l219 1315h-137zM434 -582l-28 43q67 39 112 88t45 93q0 45 -37 57l-61 -61q-28 12 -50 41.5t-22 66.5q0 60 40.5 96.5t103.5 36.5q69 0 105 -43t36 -104
q0 -95 -63 -170.5t-181 -143.5z" />
    <glyph glyph-name="lcommaaccent" unicode="&#x13c;" horiz-adv-x="645" 
d="M567 164l45 -33q-59 -82 -122 -118t-150 -36q-117 0 -178.5 56.5t-61.5 165.5q0 54 14.5 143t57.5 309l162 830h-156l8 55h445l-242 -1303q-12 -74 -12 -96q0 -35 13 -52t44 -17q32 0 62.5 22t70.5 74zM178 -582l-28 43q67 39 112 88t45 93q0 45 -37 57l-61 -61
q-28 12 -50 41.5t-22 66.5q0 60 40.5 96.5t103.5 36.5q69 0 105 -43t36 -104q0 -95 -63 -170.5t-181 -143.5z" />
    <glyph glyph-name="Lcaron" unicode="&#x13d;" horiz-adv-x="1179" 
d="M221 1434h631l-10 -60h-199l-219 -1315h108q150 0 245.5 40.5t159.5 126t124 243.5h47l-92 -469h-1028l10 59h131l219 1315h-137zM901 971l-29 41q144 104 144 225q0 79 -64 129l37 41q57 53 113 53q50 0 76 -32.5t26 -88.5q0 -55 -26 -108t-75 -101t-94 -82.5
t-108 -76.5z" />
    <glyph glyph-name="lcaron" unicode="&#x13e;" horiz-adv-x="786" 
d="M567 164l45 -33q-59 -82 -122 -118t-150 -36q-117 0 -178.5 56.5t-61.5 165.5q0 54 14.5 143t57.5 309l162 830h-156l8 55h445l-242 -1303q-12 -74 -12 -96q0 -35 13 -52t44 -17q32 0 62.5 22t70.5 74zM637 1053l-29 41q144 104 144 225q0 79 -64 129l37 41q57 53 113 53
q50 0 76 -32.5t26 -88.5q0 -55 -26 -108t-75 -101t-94 -82.5t-108 -76.5z" />
    <glyph glyph-name="Ldot" unicode="&#x13f;" horiz-adv-x="1179" 
d="M221 1434h631l-10 -60h-199l-219 -1315h108q150 0 245.5 40.5t159.5 126t124 243.5h47l-92 -469h-1028l10 59h131l219 1315h-137zM936 662q-81 0 -117.5 37.5t-36.5 93.5q0 81 57.5 132.5t147.5 51.5q72 0 112 -33t40 -100q0 -82 -57 -132t-146 -50z" />
    <glyph glyph-name="ldot" unicode="&#x140;" horiz-adv-x="794" 
d="M567 164l45 -33q-59 -82 -122 -118t-150 -36q-117 0 -178.5 56.5t-61.5 165.5q0 54 14.5 143t57.5 309l162 830h-156l8 55h445l-242 -1303q-12 -74 -12 -96q0 -35 13 -52t44 -17q32 0 62.5 22t70.5 74zM725 676q-81 0 -117.5 37.5t-36.5 93.5q0 81 57.5 131.5t147.5 50.5
q152 0 152 -131q0 -82 -57 -132t-146 -50z" />
    <glyph glyph-name="Lslash" unicode="&#x141;" horiz-adv-x="1179" 
d="M221 1434h631l-10 -60h-199l-94 -567l409 188l19 -65l-442 -203l-111 -668h108q150 0 245.5 40.5t159.5 126t124 243.5h47l-92 -469h-1028l10 59h131l90 543l-190 -88l-17 68l221 100l115 692h-137z" />
    <glyph glyph-name="lslash" unicode="&#x142;" horiz-adv-x="696" 
d="M8 641l-18 66l211 96l131 678h-154l8 55h445l-115 -610l182 86l23 -66l-221 -100l-113 -613q-18 -75 -9.5 -120t56.5 -45q61 0 131 96l47 -33q-59 -82 -122 -118t-150 -36q-117 0 -178.5 56.5t-61.5 165.5q0 54 14.5 143t57.5 309l12 70z" />
    <glyph glyph-name="Nacute" unicode="&#x143;" horiz-adv-x="1400" 
d="M1323 1374l-231 -1378h-193l-481 1331h-4l-207 -1268h131l-8 -59h-340l10 59h131l217 1315h-133l10 60h469l385 -1049h6l164 989h-129l10 60h328l-8 -60h-127zM745 1528l283 340l78 -21q48 -12 66 -30.5t18 -51.5q0 -65 -94 -110l-326 -156z" />
    <glyph glyph-name="nacute" unicode="&#x144;" horiz-adv-x="1220" 
d="M856 -23q-109 0 -170 51.5t-61 153.5q0 59 21.5 156t56 216.5t42.5 154.5q17 77 17 110q0 36 -14.5 53t-47.5 17q-74 0 -149 -90t-127 -228q-78 -209 -113 -565q-51 2 -161 -4.5t-150 -15.5l84 376l74 568h-148l6 53h437l-88 -346l14 -6q173 373 434 373q109 0 166 -58
t57 -162q0 -57 -20 -135l-103 -411q-18 -70 -18 -113q0 -59 53 -59q59 0 135 96l45 -35q-103 -150 -272 -150zM524 1126l181 383l102 23q39 8 73.5 -10.5t34.5 -61.5q0 -52 -61 -104l-299 -252z" />
    <glyph glyph-name="Ncommaaccent" unicode="&#x145;" horiz-adv-x="1400" 
d="M1323 1374l-231 -1378h-193l-481 1331h-4l-207 -1268h131l-8 -59h-340l10 59h131l217 1315h-133l10 60h469l385 -1049h6l164 989h-129l10 60h328l-8 -60h-127zM457 -582l-29 43q68 39 113 88.5t45 92.5q0 45 -37 57l-62 -61q-28 12 -49.5 41.5t-21.5 66.5q0 60 40 96.5
t103 36.5q69 0 105 -43t36 -104q0 -96 -62.5 -171t-180.5 -143z" />
    <glyph glyph-name="ncommaaccent" unicode="&#x146;" horiz-adv-x="1220" 
d="M856 -23q-109 0 -170 51.5t-61 153.5q0 59 21.5 156t56 216.5t42.5 154.5q17 77 17 110q0 36 -14.5 53t-47.5 17q-74 0 -149 -90t-127 -228q-78 -209 -113 -565q-51 2 -161 -4.5t-150 -15.5l84 376l74 568h-148l6 53h437l-88 -346l14 -6q173 373 434 373q109 0 166 -58
t57 -162q0 -57 -20 -135l-103 -411q-18 -70 -18 -113q0 -59 53 -59q59 0 135 96l45 -35q-103 -150 -272 -150zM410 -582l-29 43q68 39 113 88.5t45 92.5q0 45 -37 57l-62 -61q-28 12 -49.5 41.5t-21.5 66.5q0 60 40 96.5t103 36.5q69 0 105 -43t36 -104q0 -96 -62.5 -171
t-180.5 -143z" />
    <glyph glyph-name="Ncaron" unicode="&#x147;" horiz-adv-x="1400" 
d="M1323 1374l-231 -1378h-193l-481 1331h-4l-207 -1268h131l-8 -59h-340l10 59h131l217 1315h-133l10 60h469l385 -1049h6l164 989h-129l10 60h328l-8 -60h-127zM1290 1819l-284 -281q-52 -27 -99 -27q-44 0 -67.5 17.5t-44.5 56.5l-131 236l24 24l256 -157l326 157z" />
    <glyph glyph-name="ncaron" unicode="&#x148;" horiz-adv-x="1220" 
d="M856 -23q-109 0 -170 51.5t-61 153.5q0 59 21.5 156t56 216.5t42.5 154.5q17 77 17 110q0 36 -14.5 53t-47.5 17q-74 0 -149 -90t-127 -228q-78 -209 -113 -565q-51 2 -161 -4.5t-150 -15.5l84 376l74 568h-148l6 53h437l-88 -346l14 -6q173 373 434 373q109 0 166 -58
t57 -162q0 -57 -20 -135l-103 -411q-18 -70 -18 -113q0 -59 53 -59q59 0 135 96l45 -35q-103 -150 -272 -150zM571 1149l-127 348l29 19l219 -220l281 224l26 -25l-188 -297q-50 -80 -141 -80q-30 0 -58.5 10.5t-40.5 20.5z" />
    <glyph glyph-name="napostrophe" unicode="&#x149;" horiz-adv-x="1320" 
d="M956 -23q-109 0 -170 51.5t-61 153.5q0 59 22 156t56.5 216t42.5 155q16 72 16 110q0 36 -14 53t-47 17q-74 0 -149.5 -90.5t-127.5 -227.5q-76 -206 -112 -565q-51 2 -161.5 -4.5t-150.5 -15.5l84 376l74 568h-147l6 53h436l-88 -346l14 -6q173 373 434 373
q109 0 166.5 -58t57.5 -162q0 -53 -21 -135l-102 -411q-19 -74 -19 -113q0 -59 54 -59q59 0 135 96l45 -35q-103 -150 -273 -150zM14 944l-28 45q67 38 112 86t45 92q0 46 -37 58l-61 -60q-28 12 -50 41t-22 66q0 61 41 98t103 37q69 0 105 -43.5t36 -103.5q0 -97 -63 -172
t-181 -144z" />
    <glyph glyph-name="Eng" unicode="&#x14a;" horiz-adv-x="1400" 
d="M1458 1434l-8 -60h-127l-225 -1349q-38 -230 -160.5 -339.5t-335.5 -109.5q-142 0 -208 56.5t-66 152.5q0 89 50 139.5t130 50.5q70 0 103 -36t30.5 -87t-29.5 -110h-71q-17 -31 -17 -53q0 -62 78 -62q194 0 242 287l24 152l-450 1261h-4l-207 -1268h131l-8 -59h-340
l10 59h131l217 1315h-133l10 60h469l385 -1049h6l164 989h-129l10 60h328z" />
    <glyph glyph-name="eng" unicode="&#x14b;" horiz-adv-x="1210" 
d="M655 -74l142 791q18 85 10.5 128.5t-55.5 43.5q-74 0 -149.5 -90.5t-127.5 -227.5q-78 -209 -113 -565q-51 2 -161 -4.5t-150 -15.5l84 376l74 568h-148l7 53h436l-88 -346l14 -6q173 373 434 373q75 0 124.5 -27.5t69 -73.5t24 -106.5t-10.5 -126.5l-121 -668
q-22 -118 -59 -208t-96 -161t-147 -108t-202 -37q-115 0 -196.5 58t-81.5 159q0 78 49 129t129 51q77 0 113.5 -59t3.5 -139l-80 -13q-23 -68 -3.5 -98.5t73.5 -30.5q31 0 56 11t44 37t33 54.5t27 77t21.5 91.5t20.5 110z" />
    <glyph glyph-name="Omacron" unicode="&#x14c;" horiz-adv-x="1404" 
d="M72 528q0 113 21.5 224t63.5 215t108.5 192.5t151 155t197 104t240.5 37.5q250 0 378 -141t128 -412q0 -134 -28 -263.5t-89.5 -249.5t-150 -210.5t-218.5 -145t-286 -54.5q-255 0 -385.5 142.5t-130.5 405.5zM608 43q99 0 179.5 67t131 172t85.5 240t49 263.5t14 250.5
q0 187 -52 272t-184 85q-101 0 -182 -63.5t-132 -164.5t-85.5 -234t-48.5 -263t-14 -260q0 -180 53.5 -272.5t185.5 -92.5zM606 1591l27 150h557l-27 -150h-557z" />
    <glyph glyph-name="omacron" unicode="&#x14d;" horiz-adv-x="1075" 
d="M709 465q26 169 26 272q0 108 -33 162.5t-106 54.5q-45 0 -81 -20t-62.5 -55.5t-48.5 -92t-37.5 -119.5t-30.5 -149q-29 -176 -29 -278q0 -211 144 -211q110 0 164.5 100.5t93.5 335.5zM436 -23q-198 0 -298.5 100.5t-100.5 287.5q0 101 23 194.5t71 174.5t115.5 141
t162 94.5t205.5 34.5q197 0 296.5 -97t99.5 -286q0 -184 -68.5 -329.5t-200 -230t-305.5 -84.5zM371 1196l26 152h557l-26 -152h-557z" />
    <glyph glyph-name="Obreve" unicode="&#x14e;" horiz-adv-x="1404" 
d="M72 528q0 113 21.5 224t63.5 215t108.5 192.5t151 155t197 104t240.5 37.5q250 0 378 -141t128 -412q0 -134 -28 -263.5t-89.5 -249.5t-150 -210.5t-218.5 -145t-286 -54.5q-255 0 -385.5 142.5t-130.5 405.5zM608 43q99 0 179.5 67t131 172t85.5 240t49 263.5t14 250.5
q0 187 -52 272t-184 85q-101 0 -182 -63.5t-132 -164.5t-85.5 -234t-48.5 -263t-14 -260q0 -180 53.5 -272.5t185.5 -92.5zM631 1784l41 8q18 -68 66.5 -98.5t158.5 -30.5q106 0 166 31.5t96 103.5l43 -6q-12 -45 -29.5 -84.5t-46 -78t-64 -65.5t-86.5 -44t-110 -17
q-57 0 -100 16t-69 41.5t-42 63t-21 76.5t-3 84z" />
    <glyph glyph-name="obreve" unicode="&#x14f;" horiz-adv-x="1075" 
d="M709 465q26 169 26 272q0 108 -33 162.5t-106 54.5q-45 0 -81 -20t-62.5 -55.5t-48.5 -92t-37.5 -119.5t-30.5 -149q-29 -176 -29 -278q0 -211 144 -211q110 0 164.5 100.5t93.5 335.5zM436 -23q-198 0 -298.5 100.5t-100.5 287.5q0 101 23 194.5t71 174.5t115.5 141
t162 94.5t205.5 34.5q197 0 296.5 -97t99.5 -286q0 -184 -68.5 -329.5t-200 -230t-305.5 -84.5zM399 1442l43 8q14 -81 66 -122.5t160 -41.5q188 0 264 162l45 -8q-16 -66 -43 -121t-68 -103t-101 -75t-134 -27q-72 0 -122 27t-75 74.5t-33 103.5t-2 123z" />
    <glyph glyph-name="Ohungarumlaut" unicode="&#x150;" horiz-adv-x="1404" 
d="M72 528q0 113 21.5 224t63.5 215t108.5 192.5t151 155t197 104t240.5 37.5q250 0 378 -141t128 -412q0 -134 -28 -263.5t-89.5 -249.5t-150 -210.5t-218.5 -145t-286 -54.5q-255 0 -385.5 142.5t-130.5 405.5zM608 43q99 0 179.5 67t131 172t85.5 240t49 263.5t14 250.5
q0 187 -52 272t-184 85q-101 0 -182 -63.5t-132 -164.5t-85.5 -234t-48.5 -263t-14 -260q0 -180 53.5 -272.5t185.5 -92.5zM965 1534l206 360h84q101 0 101 -73q0 -34 -18 -59.5t-56 -51.5l-293 -199zM647 1530l178 373l84 12q48 6 78.5 -14.5t30.5 -59.5q0 -34 -16 -57.5
t-48 -50.5l-276 -226z" />
    <glyph glyph-name="ohungarumlaut" unicode="&#x151;" horiz-adv-x="1075" 
d="M709 465q26 169 26 272q0 108 -33 162.5t-106 54.5q-45 0 -81 -20t-62.5 -55.5t-48.5 -92t-37.5 -119.5t-30.5 -149q-29 -176 -29 -278q0 -211 144 -211q110 0 164.5 100.5t93.5 335.5zM436 -23q-198 0 -298.5 100.5t-100.5 287.5q0 101 23 194.5t71 174.5t115.5 141
t162 94.5t205.5 34.5q197 0 296.5 -97t99.5 -286q0 -184 -68.5 -329.5t-200 -230t-305.5 -84.5zM729 1147l172 389l98 25q40 11 74.5 -7t34.5 -61q0 -50 -66 -113l-280 -252zM406 1145l163 391l101 25q39 10 72.5 -7.5t33.5 -60.5q0 -51 -65 -113l-271 -256z" />
    <glyph glyph-name="OE" unicode="&#x152;" horiz-adv-x="2064" 
d="M74 555q0 148 34 283t102 247.5t164 195.5t225.5 129t279.5 46q53 0 125 -6t106 -16h952l-45 -396h-51q-5 88 -21 147.5t-41.5 97t-70.5 57.5t-96.5 27t-130.5 7h-133l-103 -612h78q108 0 171 57.5t112 204.5h45l-101 -606h-49q0 115 -20 174t-63 81.5t-126 22.5h-57
l-107 -637h133q150 0 247 40t158 118.5t114 218.5h51l-88 -436h-953q-153 -23 -276 -23q-274 0 -419.5 142t-145.5 436zM897 1393q-90 0 -166 -34t-129.5 -90t-95 -133.5t-67 -159t-42 -172.5t-22.5 -168t-6 -151q0 -70 8 -130.5t30 -119.5t56.5 -100t91.5 -66.5t131 -25.5
q73 0 152.5 16t126.5 37l206 1241q-112 56 -274 56z" />
    <glyph glyph-name="oe" unicode="&#x153;" horiz-adv-x="1634" 
d="M1487 344l55 -18q-111 -349 -440 -349q-115 0 -192 44.5t-115 117.5q-149 -162 -359 -162q-198 0 -298.5 100.5t-100.5 287.5q0 127 37.5 241t107.5 203.5t180 142t246 52.5q217 0 305 -158q158 158 367 158q149 0 229 -62t80 -176q0 -236 -370 -305q-102 -19 -220 -23
q-2 -25 -2 -82q0 -156 44.5 -221t142.5 -65q95 0 174 65t129 209zM735 713q0 125 -32.5 183t-106.5 58q-61 0 -111 -42.5t-82.5 -111.5t-54.5 -160t-31.5 -185t-9.5 -191q0 -121 33.5 -178t110.5 -57q75 0 132 63t89 166t47.5 218.5t15.5 236.5zM1004 496q84 11 124 22
q109 34 162 101.5t53 187.5q0 137 -94 137q-87 0 -155 -124.5t-90 -323.5z" />
    <glyph glyph-name="Racute" unicode="&#x154;" horiz-adv-x="1359" 
d="M735 739v-6q80 -7 133 -23t93.5 -49t61 -88t26.5 -137l14 -178q7 -93 24 -136.5t62 -43.5q31 0 55 16t56 64l45 -29q-20 -34 -38.5 -56.5t-49 -47t-74.5 -36.5t-101 -12q-42 0 -77.5 6t-72 24t-62.5 47t-44.5 78.5t-23.5 115.5l-12 182q-11 155 -49 216t-134 61h-32
l-111 -648h160l-11 -59h-589l10 59h135l221 1315h-141l10 60h473q72 0 133 -4.5t127.5 -15.5t117.5 -32.5t93.5 -53t65 -80t22.5 -109.5q0 -95 -39.5 -168.5t-111 -121t-162.5 -74.5t-203 -36zM645 1374l-100 -610h28q72 0 135.5 23t113.5 67.5t79 117.5t29 167
q0 124 -62 179.5t-192 55.5h-31zM567 1528l283 340l78 -21q48 -12 66 -30.5t18 -51.5q0 -65 -94 -110l-326 -156z" />
    <glyph glyph-name="racute" unicode="&#x155;" horiz-adv-x="1019" 
d="M51 -16l90 419l74 527h-149l8 53h426l-92 -393l12 -6q30 69 55 119t65.5 111t81.5 99t98 64.5t120 26.5q77 0 129.5 -42.5t52.5 -127.5q0 -82 -48 -126t-122 -46q-52 0 -107 22l-8 150q-68 4 -131.5 -62t-108.5 -168.5t-77 -232.5q-35 -135 -55 -361q-158 0 -314 -26z
M477 1126l180 383l103 23q39 8 73.5 -10.5t34.5 -61.5q0 -52 -61 -104l-299 -252z" />
    <glyph glyph-name="Rcommaaccent" unicode="&#x156;" horiz-adv-x="1359" 
d="M735 739v-6q80 -7 133 -23t93.5 -49t61 -88t26.5 -137l14 -178q7 -93 24 -136.5t62 -43.5q31 0 55 16t56 64l45 -29q-20 -34 -38.5 -56.5t-49 -47t-74.5 -36.5t-101 -12q-42 0 -77.5 6t-72 24t-62.5 47t-44.5 78.5t-23.5 115.5l-12 182q-11 155 -49 216t-134 61h-32
l-111 -648h160l-11 -59h-589l10 59h135l221 1315h-141l10 60h473q72 0 133 -4.5t127.5 -15.5t117.5 -32.5t93.5 -53t65 -80t22.5 -109.5q0 -95 -39.5 -168.5t-111 -121t-162.5 -74.5t-203 -36zM645 1374l-100 -610h28q72 0 135.5 23t113.5 67.5t79 117.5t29 167
q0 124 -62 179.5t-192 55.5h-31zM487 -582l-28 43q67 39 112 88t45 93q0 45 -36 57l-62 -61q-28 12 -50 41.5t-22 66.5q0 60 40.5 96.5t103.5 36.5q69 0 105 -43t36 -104q0 -95 -63 -170.5t-181 -143.5z" />
    <glyph glyph-name="rcommaaccent" unicode="&#x157;" horiz-adv-x="1019" 
d="M51 -16l90 419l74 527h-149l8 53h426l-92 -393l12 -6q30 69 55 119t65.5 111t81.5 99t98 64.5t120 26.5q77 0 129.5 -42.5t52.5 -127.5q0 -82 -48 -126t-122 -46q-52 0 -107 22l-8 150q-68 4 -131.5 -62t-108.5 -168.5t-77 -232.5q-35 -135 -55 -361q-158 0 -314 -26z
M80 -582l-29 43q68 39 113 88.5t45 92.5q0 45 -37 57l-61 -61q-28 12 -50 41.5t-22 66.5q0 60 40 96.5t103 36.5q69 0 105.5 -43t36.5 -104q0 -95 -63 -170.5t-181 -143.5z" />
    <glyph glyph-name="Rcaron" unicode="&#x158;" horiz-adv-x="1359" 
d="M735 739v-6q80 -7 133 -23t93.5 -49t61 -88t26.5 -137l14 -178q7 -93 24 -136.5t62 -43.5q31 0 55 16t56 64l45 -29q-20 -34 -38.5 -56.5t-49 -47t-74.5 -36.5t-101 -12q-42 0 -77.5 6t-72 24t-62.5 47t-44.5 78.5t-23.5 115.5l-12 182q-11 155 -49 216t-134 61h-32
l-111 -648h160l-11 -59h-589l10 59h135l221 1315h-141l10 60h473q72 0 133 -4.5t127.5 -15.5t117.5 -32.5t93.5 -53t65 -80t22.5 -109.5q0 -95 -39.5 -168.5t-111 -121t-162.5 -74.5t-203 -36zM645 1374l-100 -610h28q72 0 135.5 23t113.5 67.5t79 117.5t29 167
q0 124 -62 179.5t-192 55.5h-31zM1126 1827l-284 -281q-50 -26 -99 -26q-44 0 -67.5 17t-44.5 56l-131 236l24 24l256 -157l326 157z" />
    <glyph glyph-name="rcaron" unicode="&#x159;" horiz-adv-x="1019" 
d="M51 -16l90 419l74 527h-149l8 53h426l-92 -393l12 -6q30 69 55 119t65.5 111t81.5 99t98 64.5t120 26.5q77 0 129.5 -42.5t52.5 -127.5q0 -82 -48 -126t-122 -46q-52 0 -107 22l-8 150q-68 4 -131.5 -62t-108.5 -168.5t-77 -232.5q-35 -135 -55 -361q-158 0 -314 -26z
M483 1149l-127 348l29 19l219 -220l281 224l26 -25l-188 -297q-50 -80 -141 -80q-30 0 -58.5 10.5t-40.5 20.5z" />
    <glyph glyph-name="Sacute" unicode="&#x15a;" horiz-adv-x="1120" 
d="M508 39q133 0 214 73t81 207q0 28 -6 53t-13.5 44.5t-24.5 38.5t-30 32t-39.5 28t-42.5 24t-49.5 22.5t-50.5 20t-55 20.5q-34 13 -57 22.5t-58.5 29t-59.5 39t-51.5 50.5t-44.5 66t-28 83.5t-11 104.5q0 135 64.5 240.5t174.5 162t245 56.5q75 0 144.5 -21t114.5 -42
t60 -21q19 0 32 15.5t30 50.5h43l-62 -432h-47q-38 391 -305 391q-119 0 -200 -62t-81 -180q0 -57 20 -101.5t57.5 -75t74.5 -49t88 -36.5q53 -19 83 -30.5t77.5 -34t75 -42.5t61.5 -52.5t52 -68t31 -84.5t13 -106q0 -149 -71.5 -264t-187.5 -174.5t-255 -59.5
q-71 0 -141 15t-113 32.5t-81.5 32.5t-55.5 15q-18 0 -30.5 -18.5t-34.5 -66.5q-2 -5 -3 -7h-45l70 481h47q13 -197 106 -309.5t275 -112.5zM524 1528l283 340l78 -21q48 -12 66 -30.5t18 -51.5q0 -65 -95 -110l-325 -156z" />
    <glyph glyph-name="sacute" unicode="&#x15b;" horiz-adv-x="942" 
d="M362 41q113 0 171.5 45.5t58.5 124.5q0 38 -15 66.5t-48.5 50.5t-60 34t-77.5 31q-34 12 -53.5 20t-50.5 23t-49.5 28.5t-41 35t-34.5 45.5t-20.5 56.5t-8.5 70.5q0 153 129 242.5t322 89.5q144 0 235.5 -51t91.5 -158q0 -68 -40 -110t-113 -42q-52 0 -88.5 25.5
t-36.5 66.5q0 54 31 90h63q10 27 10 43q0 76 -137 76q-108 0 -170.5 -44.5t-62.5 -117.5q0 -34 14.5 -61t47 -48.5t59 -34t75.5 -32.5q126 -50 174 -82q110 -76 111 -198q0 -161 -134 -255t-343 -94q-170 0 -262.5 61.5t-92.5 164.5q0 73 44 117.5t116 44.5q55 0 89 -31.5
t34 -81.5q-3 -42 -25 -82h-71q-8 -24 -8 -37q0 -41 41 -66.5t126 -25.5zM442 1126l181 383l102 23q39 8 74 -10.5t35 -61.5q0 -52 -62 -104l-299 -252z" />
    <glyph glyph-name="Scircumflex" unicode="&#x15c;" horiz-adv-x="1120" 
d="M508 39q133 0 214 73t81 207q0 28 -6 53t-13.5 44.5t-24.5 38.5t-30 32t-39.5 28t-42.5 24t-49.5 22.5t-50.5 20t-55 20.5q-34 13 -57 22.5t-58.5 29t-59.5 39t-51.5 50.5t-44.5 66t-28 83.5t-11 104.5q0 135 64.5 240.5t174.5 162t245 56.5q75 0 144.5 -21t114.5 -42
t60 -21q19 0 32 15.5t30 50.5h43l-62 -432h-47q-38 391 -305 391q-119 0 -200 -62t-81 -180q0 -57 20 -101.5t57.5 -75t74.5 -49t88 -36.5q53 -19 83 -30.5t77.5 -34t75 -42.5t61.5 -52.5t52 -68t31 -84.5t13 -106q0 -149 -71.5 -264t-187.5 -174.5t-255 -59.5
q-71 0 -141 15t-113 32.5t-81.5 32.5t-55.5 15q-18 0 -30.5 -18.5t-34.5 -66.5q-2 -5 -3 -7h-45l70 481h47q13 -197 106 -309.5t275 -112.5zM362 1526l283 278q56 27 100 27q43 0 68 -18t45 -56l129 -235l-26 -23l-244 150l-334 -152z" />
    <glyph glyph-name="scircumflex" unicode="&#x15d;" horiz-adv-x="942" 
d="M362 41q113 0 171.5 45.5t58.5 124.5q0 38 -15 66.5t-48.5 50.5t-60 34t-77.5 31q-34 12 -53.5 20t-50.5 23t-49.5 28.5t-41 35t-34.5 45.5t-20.5 56.5t-8.5 70.5q0 153 129 242.5t322 89.5q144 0 235.5 -51t91.5 -158q0 -68 -40 -110t-113 -42q-52 0 -88.5 25.5
t-36.5 66.5q0 54 31 90h63q10 27 10 43q0 76 -137 76q-108 0 -170.5 -44.5t-62.5 -117.5q0 -34 14.5 -61t47 -48.5t59 -34t75.5 -32.5q126 -50 174 -82q110 -76 111 -198q0 -161 -134 -255t-343 -94q-170 0 -262.5 61.5t-92.5 164.5q0 73 44 117.5t116 44.5q55 0 89 -31.5
t34 -81.5q-3 -42 -25 -82h-71q-8 -24 -8 -37q0 -41 41 -66.5t126 -25.5zM315 1130l232 347q16 10 51.5 21t65.5 11q45 0 68.5 -17.5t35.5 -61.5l86 -306l-33 -16l-188 213l-289 -217z" />
    <glyph glyph-name="Scedilla" unicode="&#x15e;" horiz-adv-x="1120" 
d="M508 39q133 0 214 73t81 207q0 28 -6 53t-13.5 44.5t-24.5 38.5t-30 32t-39.5 28t-42.5 24t-49.5 22.5t-50.5 20t-55 20.5q-34 13 -57 22.5t-58.5 29t-59.5 39t-51.5 50.5t-44.5 66t-28 83.5t-11 104.5q0 135 64.5 240.5t174.5 162t245 56.5q75 0 144.5 -21t114.5 -42
t60 -21q19 0 32 15.5t30 50.5h43l-62 -432h-47q-38 391 -305 391q-119 0 -200 -62t-81 -180q0 -57 20 -101.5t57.5 -75t74.5 -49t88 -36.5q53 -19 83 -30.5t77.5 -34t75 -42.5t61.5 -52.5t52 -68t31 -84.5t13 -106q0 -149 -71.5 -264t-187.5 -174.5t-255 -59.5h-20l-78 -98
q58 19 102 19q76 0 118 -41t42 -113q0 -91 -75 -154t-210 -63q-91 0 -135.5 37t-44.5 86q0 38 23 63t63 25q31 0 53 -17.5t23 -58.5l-51 -31q-6 -29 8.5 -47t52.5 -18q47 0 81 39.5t34 118.5q0 118 -80 118q-34 0 -74 -12l-10 33l94 121q-69 8 -136 30t-110 40t-61 18
t-30.5 -18.5t-34.5 -66.5q-2 -5 -3 -7h-45l70 481h47q13 -197 106 -309.5t275 -112.5z" />
    <glyph glyph-name="scedilla" unicode="&#x15f;" horiz-adv-x="942" 
d="M362 41q113 0 171.5 45.5t58.5 124.5q0 38 -15 66.5t-48.5 50.5t-60 34t-77.5 31q-34 12 -53.5 20t-50.5 23t-49.5 28.5t-41 35t-34.5 45.5t-20.5 56.5t-8.5 70.5q0 153 129 242.5t322 89.5q144 0 235.5 -51t91.5 -158q0 -68 -40 -110t-113 -42q-52 0 -88.5 25.5
t-36.5 66.5q0 54 31 90h63q10 27 10 43q0 76 -137 76q-108 0 -170.5 -44.5t-62.5 -117.5q0 -34 14.5 -61t47 -48.5t59 -34t75.5 -32.5q126 -50 174 -82q110 -76 111 -198q0 -150 -118 -242t-308 -104l-80 -101q58 19 102 19q76 0 118 -41t42 -113q0 -91 -75 -154t-210 -63
q-91 0 -135.5 37t-44.5 86q0 38 23 63t63 25q31 0 53 -17.5t23 -58.5l-51 -31q-6 -29 8.5 -47t52.5 -18q47 0 81 39.5t34 118.5q0 118 -80 118q-34 0 -74 -12l-10 33l90 114q-163 4 -249.5 65t-86.5 161q0 73 44 117.5t116 44.5q55 0 89 -31.5t34 -81.5q-3 -42 -25 -82h-71
q-8 -24 -8 -37q0 -41 41 -66.5t126 -25.5z" />
    <glyph glyph-name="Scaron" unicode="&#x160;" horiz-adv-x="1120" 
d="M508 39q133 0 214 73t81 207q0 28 -6 53t-13.5 44.5t-24.5 38.5t-30 32t-39.5 28t-42.5 24t-49.5 22.5t-50.5 20t-55 20.5q-34 13 -57 22.5t-58.5 29t-59.5 39t-51.5 50.5t-44.5 66t-28 83.5t-11 104.5q0 135 64.5 240.5t174.5 162t245 56.5q75 0 144.5 -21t114.5 -42
t60 -21q19 0 32 15.5t30 50.5h43l-62 -432h-47q-38 391 -305 391q-119 0 -200 -62t-81 -180q0 -57 20 -101.5t57.5 -75t74.5 -49t88 -36.5q53 -19 83 -30.5t77.5 -34t75 -42.5t61.5 -52.5t52 -68t31 -84.5t13 -106q0 -149 -71.5 -264t-187.5 -174.5t-255 -59.5
q-71 0 -141 15t-113 32.5t-81.5 32.5t-55.5 15q-18 0 -30.5 -18.5t-34.5 -66.5q-2 -5 -3 -7h-45l70 481h47q13 -197 106 -309.5t275 -112.5zM1071 1819l-285 -281q-52 -27 -98 -27q-44 0 -68 17.5t-45 56.5l-131 236l25 24l256 -157l326 157z" />
    <glyph glyph-name="scaron" unicode="&#x161;" horiz-adv-x="942" 
d="M362 41q113 0 171.5 45.5t58.5 124.5q0 38 -15 66.5t-48.5 50.5t-60 34t-77.5 31q-34 12 -53.5 20t-50.5 23t-49.5 28.5t-41 35t-34.5 45.5t-20.5 56.5t-8.5 70.5q0 153 129 242.5t322 89.5q144 0 235.5 -51t91.5 -158q0 -68 -40 -110t-113 -42q-52 0 -88.5 25.5
t-36.5 66.5q0 54 31 90h63q10 27 10 43q0 76 -137 76q-108 0 -170.5 -44.5t-62.5 -117.5q0 -34 14.5 -61t47 -48.5t59 -34t75.5 -32.5q126 -50 174 -82q110 -76 111 -198q0 -161 -134 -255t-343 -94q-170 0 -262.5 61.5t-92.5 164.5q0 73 44 117.5t116 44.5q55 0 89 -31.5
t34 -81.5q-3 -42 -25 -82h-71q-8 -24 -8 -37q0 -41 41 -66.5t126 -25.5zM494 1149l-127 348l28 19l219 -220l281 224l27 -25l-189 -297q-50 -80 -141 -80q-30 0 -58 10.5t-40 20.5z" />
    <glyph glyph-name="uni0162" unicode="&#x162;" horiz-adv-x="1312" 
d="M1382 1434l-55 -463h-53q-2 89 -10.5 153t-27 109t-42 72.5t-62.5 43t-80.5 20.5t-103.5 5h-18l-219 -1315h186l-8 -59h-299l-96 -121q58 19 102 19q76 0 118 -41t42 -113q0 -91 -75 -154t-210 -63q-91 0 -135.5 37t-44.5 86q0 38 23 63t63 25q31 0 53 -17.5t23 -58.5
l-52 -31q-6 -29 9 -47t53 -18q47 0 81 39.5t34 118.5q0 118 -80 118q-34 0 -74 -12l-10 33l108 137h-303l10 59h187l219 1315h-19q-96 0 -157 -15t-115.5 -60t-96 -122t-87.5 -206h-54l99 463h1177z" />
    <glyph glyph-name="uni0163" unicode="&#x163;" horiz-adv-x="745" 
d="M733 930h-215l-86 -447q-12 -56 -27.5 -157t-15.5 -142q0 -96 84 -96q50 0 91.5 34t94.5 109l50 -34q-139 -220 -338 -220q-4 0 -12.5 1.5t-12.5 1.5l-80 -101q58 19 103 19q76 0 117.5 -40.5t41.5 -113.5q0 -92 -74.5 -154.5t-209.5 -62.5q-91 0 -136 37t-45 86
q0 38 23.5 63t63.5 25q31 0 52.5 -17.5t22.5 -58.5l-51 -31q-6 -29 9 -47t53 -18q46 0 80 39.5t34 118.5q0 118 -80 118q-33 0 -73 -12l-11 33l97 123q-94 19 -137.5 80t-43.5 145q0 78 39 276l86 443h-147l8 53h148l36 221l238 66h63l-47 -287h215z" />
    <glyph glyph-name="Tcaron" unicode="&#x164;" horiz-adv-x="1312" 
d="M1382 1434l-55 -463h-53q-2 89 -10.5 153t-27 109t-42 72.5t-62.5 43t-80.5 20.5t-103.5 5h-18l-219 -1315h186l-8 -59h-670l10 59h187l219 1315h-19q-96 0 -157 -15t-115.5 -60t-96 -122t-87.5 -206h-54l99 463h1177zM1184 1827l-285 -281q-50 -26 -98 -26
q-44 0 -68.5 17t-44.5 56l-131 236l25 24l256 -157l325 157z" />
    <glyph glyph-name="tcaron" unicode="&#x165;" horiz-adv-x="745" 
d="M733 930h-215l-86 -447q-12 -56 -27.5 -157t-15.5 -142q0 -96 84 -96q50 0 91.5 34t94.5 109l50 -34q-139 -220 -338 -220q-140 0 -204.5 66.5t-64.5 167.5q0 78 39 276l86 443h-147l8 53h148l36 221l238 66h63l-47 -287h215zM633 1063l-29 41q144 104 144 225
q0 79 -64 129l37 41q57 53 113 53q50 0 76 -32t26 -88q0 -55 -26 -108t-75 -101.5t-94 -83.5t-108 -76z" />
    <glyph glyph-name="Tbar" unicode="&#x166;" horiz-adv-x="1312" 
d="M1382 1434l-55 -463h-53q-2 89 -10.5 153t-27 109t-42 72.5t-62.5 43t-80.5 20.5t-103.5 5h-18l-99 -590h336l-10 -59h-336l-110 -666h186l-8 -59h-670l10 59h187l110 666h-333l10 59h334l98 590h-19q-96 0 -157 -15t-115.5 -60t-96 -122t-87.5 -206h-54l99 463h1177z
" />
    <glyph glyph-name="tbar" unicode="&#x167;" horiz-adv-x="745" 
d="M733 930h-215l-57 -299h221l-8 -53h-223l-19 -95q-12 -56 -27.5 -157t-15.5 -142q0 -96 84 -96q50 0 91.5 34t94.5 109l50 -34q-139 -220 -338 -220q-140 0 -204.5 66.5t-64.5 167.5q0 78 39 276l17 91h-140l9 53h141l59 299h-147l8 53h148l36 221l238 66h63l-47 -287
h215z" />
    <glyph glyph-name="Utilde" unicode="&#x168;" horiz-adv-x="1406" 
d="M717 57q-248 0 -248 238q0 74 14 151l154 928h139l8 60h-567l-10 -60h135l-149 -878q-15 -99 -15 -160q1 -99 33 -169.5t93.5 -111.5t141 -59.5t183.5 -18.5q137 0 236 31.5t164 96t102 151t57 207.5l151 911h125l11 60h-359l-8 -60h149l-151 -917q-66 -400 -389 -400z
M1047 1573q-77 0 -181 49q-75 33 -116 33q-68 0 -119 -88l-37 14q56 124 112.5 182t145.5 58q11 0 21 -0.5t21 -3t18 -3.5t19.5 -5.5t17 -5.5t19 -7.5t16 -7t18.5 -8.5t18 -8q76 -31 113 -31q38 0 66.5 17.5t55.5 68.5l41 -10q-56 -132 -116.5 -188t-132.5 -56z" />
    <glyph glyph-name="utilde" unicode="&#x169;" horiz-adv-x="1239" 
d="M104 295l125 635h-147l8 53h436q-54 -235 -153 -739q-8 -54 -8 -70q0 -39 18.5 -59.5t65.5 -20.5q94 0 176 139.5t135 354.5q45 182 61 383q62 0 168.5 6t145.5 14q-121 -570 -152 -813q-4 -36 -4 -49q0 -33 12.5 -50.5t44.5 -17.5q59 0 129 97l43 -31q-53 -76 -115 -113
t-147 -37q-217 0 -217 183q0 63 31 170l-12 4q-25 -58 -49.5 -104t-63 -95.5t-80.5 -82t-101.5 -54t-127.5 -21.5q-116 0 -173 63t-57 169q0 45 8 86zM813 1188q-74 0 -178 49q-79 33 -117 33q-70 0 -121 -88l-37 12q59 126 114 184t144 58q16 0 33 -2.5t28 -4.5t29 -8.5
t25 -10t28 -12.5t27 -12q73 -30 113 -30q38 0 67 17t56 69l41 -10q-56 -132 -117 -188t-135 -56z" />
    <glyph glyph-name="Umacron" unicode="&#x16a;" horiz-adv-x="1406" 
d="M717 57q-248 0 -248 238q0 74 14 151l154 928h139l8 60h-567l-10 -60h135l-149 -878q-15 -99 -15 -160q1 -99 33 -169.5t93.5 -111.5t141 -59.5t183.5 -18.5q137 0 236 31.5t164 96t102 151t57 207.5l151 911h125l11 60h-359l-8 -60h149l-151 -917q-66 -400 -389 -400z
M653 1591l27 150h557l-27 -150h-557z" />
    <glyph glyph-name="umacron" unicode="&#x16b;" horiz-adv-x="1239" 
d="M104 295l125 635h-147l8 53h436q-54 -235 -153 -739q-8 -54 -8 -70q0 -39 18.5 -59.5t65.5 -20.5q94 0 176 139.5t135 354.5q45 182 61 383q62 0 168.5 6t145.5 14q-121 -570 -152 -813q-4 -36 -4 -49q0 -33 12.5 -50.5t44.5 -17.5q59 0 129 97l43 -31q-53 -76 -115 -113
t-147 -37q-217 0 -217 183q0 63 31 170l-12 4q-25 -58 -49.5 -104t-63 -95.5t-80.5 -82t-101.5 -54t-127.5 -21.5q-116 0 -173 63t-57 169q0 45 8 86zM408 1196l26 152h557l-26 -152h-557z" />
    <glyph glyph-name="Ubreve" unicode="&#x16c;" horiz-adv-x="1406" 
d="M717 57q323 0 389 400l151 917h-149l8 60h359l-11 -60h-125l-151 -911q-20 -121 -57 -207.5t-102 -151t-164 -96t-236 -31.5q-104 0 -183.5 18.5t-141 59.5t-93.5 111.5t-33 169.5q0 61 15 160l149 878h-135l10 60h567l-8 -60h-139l-154 -928q-14 -77 -14 -151
q0 -238 248 -238zM680 1784l41 8q18 -68 66.5 -98.5t158.5 -30.5q106 0 166 31.5t96 103.5l43 -6q-12 -45 -29.5 -84.5t-46 -78t-64 -65.5t-86.5 -44t-110 -17q-57 0 -100 16t-69 41.5t-42 63t-21 76.5t-3 84z" />
    <glyph glyph-name="ubreve" unicode="&#x16d;" horiz-adv-x="1239" 
d="M104 295l125 635h-147l8 53h436q-54 -235 -153 -739q-8 -54 -8 -70q0 -39 18.5 -59.5t65.5 -20.5q94 0 176 139.5t135 354.5q45 182 61 383q62 0 168.5 6t145.5 14q-121 -570 -152 -813q-4 -36 -4 -49q0 -33 12.5 -50.5t44.5 -17.5q59 0 129 97l43 -31q-53 -76 -115 -113
t-147 -37q-217 0 -217 183q0 63 31 170l-12 4q-25 -58 -49.5 -104t-63 -95.5t-80.5 -82t-101.5 -54t-127.5 -21.5q-116 0 -173 63t-57 169q0 45 8 86zM436 1442l43 8q14 -81 66 -122.5t160 -41.5q188 0 264 162l45 -8q-16 -66 -43 -121t-68 -103t-101 -75t-134 -27
q-72 0 -122 27t-75 74.5t-33 103.5t-2 123z" />
    <glyph glyph-name="Uring" unicode="&#x16e;" horiz-adv-x="1406" 
d="M717 57q-248 0 -248 238q0 74 14 151l154 928h139l8 60h-567l-10 -60h135l-149 -878q-15 -99 -15 -160q1 -99 33 -169.5t93.5 -111.5t141 -59.5t183.5 -18.5q137 0 236 31.5t164 96t102 151t57 207.5l151 911h125l11 60h-359l-8 -60h149l-151 -917q-66 -400 -389 -400z
M969 1823q-57 0 -96 -39.5t-39 -97.5q0 -42 23.5 -71.5t72.5 -29.5q60 0 97.5 38.5t37.5 96.5q0 44 -24 73.5t-72 29.5zM760 1671q0 91 63 150t162 59q75 0 115.5 -39t40.5 -102q0 -95 -61.5 -154t-161.5 -59q-80 0 -119 40t-39 105z" />
    <glyph glyph-name="uring" unicode="&#x16f;" horiz-adv-x="1239" 
d="M104 295l125 635h-147l8 53h436q-54 -235 -153 -739q-8 -54 -8 -70q0 -39 18.5 -59.5t65.5 -20.5q94 0 176 139.5t135 354.5q45 182 61 383q62 0 168.5 6t145.5 14q-121 -570 -152 -813q-4 -36 -4 -49q0 -33 12.5 -50.5t44.5 -17.5q59 0 129 97l43 -31q-53 -76 -115 -113
t-147 -37q-217 0 -217 183q0 63 31 170l-12 4q-25 -58 -49.5 -104t-63 -95.5t-80.5 -82t-101.5 -54t-127.5 -21.5q-116 0 -173 63t-57 169q0 45 8 86zM725 1438q-57 0 -96 -40t-39 -98q0 -41 23.5 -70.5t72.5 -29.5q60 0 97.5 38.5t37.5 96.5q0 44 -24 73.5t-72 29.5z
M516 1286q0 91 63 150t162 59q75 0 115.5 -39t40.5 -102q0 -95 -61.5 -154t-161.5 -59q-80 0 -119 40t-39 105z" />
    <glyph glyph-name="Uhungarumlaut" unicode="&#x170;" horiz-adv-x="1406" 
d="M717 57q-248 0 -248 238q0 74 14 151l154 928h139l8 60h-567l-10 -60h135l-149 -878q-15 -99 -15 -160q1 -99 33 -169.5t93.5 -111.5t141 -59.5t183.5 -18.5q137 0 236 31.5t164 96t102 151t57 207.5l151 911h125l11 60h-359l-8 -60h149l-151 -917q-66 -400 -389 -400z
M1014 1534l207 360h84q100 0 100 -73q0 -34 -18 -59.5t-56 -51.5l-293 -199zM696 1530l178 373l84 12q48 6 78.5 -14.5t30.5 -59.5q0 -34 -15.5 -57.5t-47.5 -50.5l-277 -226z" />
    <glyph glyph-name="uhungarumlaut" unicode="&#x171;" horiz-adv-x="1239" 
d="M104 295l125 635h-147l8 53h436q-54 -235 -153 -739q-8 -54 -8 -70q0 -39 18.5 -59.5t65.5 -20.5q94 0 176 139.5t135 354.5q45 182 61 383q62 0 168.5 6t145.5 14q-121 -570 -152 -813q-4 -36 -4 -49q0 -33 12.5 -50.5t44.5 -17.5q59 0 129 97l43 -31q-53 -76 -115 -113
t-147 -37q-217 0 -217 183q0 63 31 170l-12 4q-25 -58 -49.5 -104t-63 -95.5t-80.5 -82t-101.5 -54t-127.5 -21.5q-116 0 -173 63t-57 169q0 45 8 86zM774 1147l172 389l98 25q40 11 74.5 -7t34.5 -61q0 -50 -66 -113l-280 -252zM451 1145l163 391l101 25q39 10 72.5 -7.5
t33.5 -60.5q0 -51 -65 -113l-271 -256z" />
    <glyph glyph-name="Uogonek" unicode="&#x172;" horiz-adv-x="1406" 
d="M717 57q323 0 389 400l151 917h-149l8 60h359l-11 -60h-125l-151 -911q-60 -361 -299 -449q-80 -35 -151.5 -132.5t-71.5 -180.5q0 -80 69 -80q58 0 119 86l41 -24q-87 -170 -266 -170q-89 0 -138 40.5t-49 114.5q0 51 22.5 97.5t65 85.5t88.5 69.5t109 63.5
q-54 -7 -98 -7q-104 0 -183.5 18.5t-141 59.5t-93.5 111.5t-33 169.5q0 61 15 160l149 878h-135l10 60h567l-8 -60h-139l-154 -928q-14 -77 -14 -151q0 -238 248 -238z" />
    <glyph glyph-name="uogonek" unicode="&#x173;" horiz-adv-x="1241" 
d="M1167 158l43 -31q-54 -80 -145 -135q-80 -46 -134 -129t-54 -162q0 -80 69 -80q58 0 119 86l41 -24q-87 -170 -266 -170q-89 0 -138 40.5t-49 114.5q0 50 21.5 95.5t62.5 83.5t86.5 68.5t106.5 61.5q-266 12 -176 320l8 33l-12 4q-25 -58 -49.5 -104t-63 -95.5t-80.5 -82
t-101.5 -54t-127.5 -21.5q-139 0 -193.5 89.5t-28.5 228.5q25 137 125 635h-147l8 53h436q-54 -235 -153 -739q-7 -43 -8 -76.5t19 -53.5t65 -20q90 0 170 129.5t135 333.5q51 197 67 414q51 -2 162.5 5t151.5 15q-121 -570 -152 -813q-3 -34 -3 -60t13.5 -41.5t42.5 -15.5
q59 0 129 97z" />
    <glyph glyph-name="Wcircumflex" unicode="&#x174;" horiz-adv-x="1986" 
d="M690 313l365 699l-66 362h-131l10 60h594l-10 -60h-156l189 -1046l463 1046h-174l10 60h377l-11 -60h-120l-617 -1380h-170l-166 907l-481 -907h-162l-221 1380h-123l8 60h578l-8 -60h-146zM844 1526l282 278q56 27 101 27q43 0 67.5 -17.5t44.5 -56.5l129 -235l-26 -23
l-244 150l-334 -152z" />
    <glyph glyph-name="wcircumflex" unicode="&#x175;" horiz-adv-x="1652" 
d="M975 238q-6 -41 -6 -70q0 -54 25 -77t85 -23q78 0 156.5 56.5t135.5 142.5t92.5 191.5t35.5 200.5q0 56 -24.5 98t-69.5 46l-59 -82q-54 13 -85.5 50.5t-31.5 84.5q0 67 40 107.5t117 40.5q54 0 95.5 -24t65 -64t35 -85t11.5 -94q0 -73 -16.5 -155.5t-48 -168
t-82.5 -163.5t-115.5 -139t-152.5 -97.5t-187 -36.5q-206 0 -280 136q-52 -54 -134 -95t-192 -41q-118 0 -187 61.5t-69 188.5q0 39 6 82q13 79 29 161.5t37.5 186.5t31.5 156q9 45 9 57q0 43 -33 43q-32 0 -67.5 -28.5t-84.5 -98.5l-51 33q69 109 142 147t174 38
q95 0 149.5 -49.5t54.5 -141.5q0 -27 -6 -61q-7 -33 -29.5 -145t-41 -204.5t-27.5 -140.5q-10 -58 -10 -90q0 -51 20 -75.5t68 -24.5q54 0 95.5 27.5t94.5 84.5q-3 36 8 84q97 441 140 705q65 0 160 6.5t137 15.5q-103 -421 -160 -757zM729 1130l232 347q16 10 51 21t65 11
q45 0 69 -17.5t36 -61.5l86 -306l-33 -16l-188 213l-289 -217z" />
    <glyph glyph-name="Ycircumflex" unicode="&#x176;" horiz-adv-x="1183" 
d="M733 745l426 629h-155l8 60h346l-8 -60h-111l-483 -717l-103 -598h166l-10 -59h-625l11 59h163l101 596l-244 719h-127l10 60h609l-11 -60h-159zM457 1526l282 278q56 27 101 27q43 0 67.5 -17.5t44.5 -56.5l129 -235l-26 -23l-244 150l-334 -152z" />
    <glyph glyph-name="ycircumflex" unicode="&#x177;" horiz-adv-x="1107" 
d="M125 -307l-94 -12q-23 -33 -23 -64q0 -28 19.5 -45.5t56.5 -17.5q186 0 422 337q-142 537 -238 857q-19 63 -36.5 87.5t-45.5 24.5q-32 0 -56 -31.5t-58 -115.5l-62 24q21 49 37.5 82t42.5 69.5t55 58t71.5 36t94.5 14.5q90 0 145.5 -47.5t86.5 -150.5q93 -319 172 -629
q105 154 171 291t66 219q0 88 -69 94l-64 -86q-53 18 -87 59t-34 93q0 75 48.5 119.5t123.5 44.5q90 0 142.5 -61.5t52.5 -162.5q0 -229 -311 -674q-23 -32 -61.5 -87.5t-62 -89.5t-61 -84.5t-64 -82.5t-64 -73.5t-68.5 -67.5t-70.5 -54t-76.5 -43.5t-80 -25.5t-87 -10
q-118 0 -182.5 59.5t-64.5 165.5q0 83 50.5 134t125.5 51q62 0 103.5 -37.5t41.5 -104.5q0 -32 -8 -63zM350 1130l232 347q16 10 51 21t65 11q45 0 69 -17.5t36 -61.5l86 -306l-33 -16l-188 213l-289 -217z" />
    <glyph glyph-name="Ydieresis" unicode="&#x178;" horiz-adv-x="1183" 
d="M733 745l426 629h-155l8 60h346l-8 -60h-111l-483 -717l-103 -598h166l-10 -59h-625l11 59h163l101 596l-244 719h-127l10 60h609l-11 -60h-159zM633 1802q55 0 87 -25.5t32 -74.5q0 -70 -46 -117t-118 -47q-61 0 -89 32t-28 79q0 69 49.5 111t112.5 42zM1042 1802
q53 0 85 -25.5t32 -74.5q0 -70 -45 -117t-117 -47q-61 0 -89.5 31t-28.5 76q0 72 48 114.5t115 42.5z" />
    <glyph glyph-name="Zacute" unicode="&#x179;" horiz-adv-x="1187" 
d="M1227 1434l-10 -60l-885 -1315h233q343 0 484 420h53l-101 -479h-1028l9 53l911 1321h-213q-78 0 -130 -7t-104.5 -28.5t-91.5 -63t-77.5 -108.5t-75.5 -166h-49l94 433h981zM543 1528l282 340l78 -21q48 -12 66 -30.5t18 -51.5q0 -65 -94 -110l-326 -156z" />
    <glyph glyph-name="zacute" unicode="&#x17a;" horiz-adv-x="1075" 
d="M958 420l52 -8q-50 -234 -133.5 -334.5t-196.5 -100.5q-60 0 -104 17.5t-105 56.5l-190 123q-43 -192 -160 -192q-56 0 -82.5 29t-26.5 71q0 62 64 104.5t155 38.5l469 471l-383 39q-73 7 -104 -20t-63 -117l-54 10q41 152 88 239.5t102.5 122t133.5 34.5q96 0 207 -76
l180 -121q13 93 59 141.5t101 48.5q44 0 73 -23t29 -67q0 -58 -57 -101.5t-158 -49.5q-29 -31 -129.5 -131.5t-216.5 -215.5t-125 -124l414 -19q63 -3 96.5 27t64.5 127zM492 1126l180 383l102 23q39 8 74 -10.5t35 -61.5q0 -52 -62 -104l-299 -252z" />
    <glyph glyph-name="Zdotaccent" unicode="&#x17b;" horiz-adv-x="1187" 
d="M1227 1434l-10 -60l-885 -1315h233q343 0 484 420h53l-101 -479h-1028l9 53l911 1321h-213q-78 0 -130 -7t-104.5 -28.5t-91.5 -63t-77.5 -108.5t-75.5 -166h-49l94 433h981zM731 1534q-81 0 -117 37.5t-36 93.5q0 81 57 132.5t147 51.5q72 0 112 -33t40 -100
q0 -82 -57 -132t-146 -50z" />
    <glyph glyph-name="zdotaccent" unicode="&#x17c;" horiz-adv-x="1075" 
d="M958 420l52 -8q-50 -234 -133.5 -334.5t-196.5 -100.5q-60 0 -104 17.5t-105 56.5l-190 123q-43 -192 -160 -192q-56 0 -82.5 29t-26.5 71q0 62 64 104.5t155 38.5l469 471l-383 39q-73 7 -104 -20t-63 -117l-54 10q41 152 88 239.5t102.5 122t133.5 34.5q96 0 207 -76
l180 -121q13 93 59 141.5t101 48.5q44 0 73 -23t29 -67q0 -58 -57 -101.5t-158 -49.5q-29 -31 -129.5 -131.5t-216.5 -215.5t-125 -124l414 -19q63 -3 96.5 27t64.5 127zM649 1151q-81 0 -117 37.5t-36 93.5q0 81 57 131.5t147 50.5q152 0 152 -131q0 -82 -57 -132t-146 -50
z" />
    <glyph glyph-name="Zcaron" unicode="&#x17d;" horiz-adv-x="1187" 
d="M1227 1434l-10 -60l-885 -1315h233q343 0 484 420h53l-101 -479h-1028l9 53l911 1321h-213q-78 0 -130 -7t-104.5 -28.5t-91.5 -63t-77.5 -108.5t-75.5 -166h-49l94 433h981zM1108 1827l-285 -281q-50 -26 -98 -26q-44 0 -68.5 17t-44.5 56l-131 236l25 24l256 -157
l325 157z" />
    <glyph glyph-name="zcaron" unicode="&#x17e;" horiz-adv-x="1075" 
d="M958 420l52 -8q-50 -234 -133.5 -334.5t-196.5 -100.5q-60 0 -104 17.5t-105 56.5l-190 123q-43 -192 -160 -192q-56 0 -82.5 29t-26.5 71q0 62 64 104.5t155 38.5l469 471l-383 39q-73 7 -104 -20t-63 -117l-54 10q41 152 88 239.5t102.5 122t133.5 34.5q96 0 207 -76
l180 -121q13 93 59 141.5t101 48.5q44 0 73 -23t29 -67q0 -58 -57 -101.5t-158 -49.5q-29 -31 -129.5 -131.5t-216.5 -215.5t-125 -124l414 -19q63 -3 96.5 27t64.5 127zM524 1149l-127 348l29 19l219 -220l281 224l26 -25l-188 -297q-50 -80 -141 -80q-30 0 -58.5 10.5
t-40.5 20.5z" />
    <glyph glyph-name="longs" unicode="&#x17f;" horiz-adv-x="716" 
d="M59 -98l207 1185q41 234 171.5 365t346.5 131q118 0 200.5 -57.5t82.5 -159.5q0 -78 -46 -127t-120 -49q-63 0 -99 34t-38 87q-3 30 14 71l80 9q28 71 5.5 106t-79.5 35q-39 0 -69.5 -18.5t-51.5 -47.5t-38.5 -79t-29 -99.5t-24.5 -122.5l-211 -1185q-43 -240 -164 -367
t-339 -127q-115 0 -197 55.5t-82 155.5q0 79 48 131.5t128 52.5q82 0 116.5 -58t2.5 -140l-80 -11q-31 -60 -10 -93.5t80 -33.5q86 0 129 90q28 60 62 242q1 5 3 16q1 6 2 9z" />
    <glyph glyph-name="florin" unicode="&#x192;" horiz-adv-x="1087" 
d="M891 831l-17 -65h-262l-129 -729q-41 -232 -170 -350.5t-342 -118.5q-130 0 -208 62t-78 159q0 80 43 130t127 50q63 0 96 -35.5t35 -97.5q0 -18 -13 -72l-71 -2q-19 -43 -19 -67q0 -35 24 -54.5t66 -19.5q83 0 121 68.5t68 240.5l147 836h-157l14 65h156l24 154
q17 102 55 185.5t97.5 148.5t148.5 101t199 36q140 0 221.5 -59t81.5 -160q0 -71 -41 -119.5t-115 -48.5q-72 0 -106.5 36.5t-34.5 98.5q0 35 8 66l72 2q10 30 10 51q0 38 -24.5 59t-65.5 21q-36 0 -63 -14.5t-44 -36t-31.5 -66.5t-22.5 -83.5t-21 -110.5l-43 -261h264z" />
    <glyph glyph-name="Aringacute" unicode="&#x1fa;" horiz-adv-x="1288" 
d="M631 1573q0 91 63 150t162 59q75 0 115.5 -39.5t40.5 -102.5q0 -73 -37 -125.5t-101 -74.5l222 -1381h127l-9 -59h-587l8 59h139l-57 418h-420l-217 -418h162l-9 -59h-358l8 59h121l713 1379q-86 32 -86 135zM629 1126l-303 -589h383zM666 1827l282 340l78 -21
q48 -12 66 -30.5t18 -51.5q0 -65 -94 -110l-326 -156zM840 1724q-57 0 -96 -39.5t-39 -97.5q0 -41 23.5 -70.5t72.5 -29.5q60 0 97.5 38.5t37.5 96.5q0 43 -24 72.5t-72 29.5z" />
    <glyph glyph-name="aringacute" unicode="&#x1fb;" horiz-adv-x="1196" 
d="M1135 158l43 -33q-44 -69 -109 -108.5t-143 -39.5q-211 0 -211 177q0 40 12 90l-10 2q-48 -122 -138.5 -195.5t-222.5 -73.5q-157 0 -235 96t-78 277q0 96 19.5 188.5t60.5 177t99.5 148.5t143 102t183.5 38q96 0 153 -40t91 -114l32 129q193 0 277 14
q-112 -553 -148 -794q-4 -25 -4 -60q0 -43 14 -59.5t44 -16.5q60 0 127 95zM453 68q77 0 147.5 89.5t113 236.5t42.5 308q0 112 -41.5 170t-112.5 58q-79 0 -140.5 -79.5t-96.5 -226.5t-35 -337q0 -34 2 -59.5t9 -57.5t19.5 -52.5t36.5 -35t56 -14.5zM702 1382
q-57 0 -96 -39.5t-39 -97.5q0 -41 24 -70.5t73 -29.5q60 0 97.5 38.5t37.5 96.5q0 43 -24.5 72.5t-72.5 29.5zM494 1231q0 91 63 150t162 59q75 0 115 -39.5t40 -102.5q0 -95 -61.5 -154t-161.5 -59q-80 0 -118.5 40.5t-38.5 105.5zM551 1528l283 340l77 -21
q48 -12 66 -30.5t18 -51.5q0 -65 -94 -110l-326 -156z" />
    <glyph glyph-name="AEacute" unicode="&#x1fc;" horiz-adv-x="1927" 
d="M735 1374l8 60h1182l-47 -396h-47q-7 85 -24 143t-43 96.5t-70 59.5t-97 29t-131 8h-133l-104 -629h80q107 0 171 62t111 201h45l-100 -607h-49q-2 159 -45.5 219t-161.5 60h-61l-99 -621h137q200 0 319.5 92t192.5 285h50l-88 -436h-1061l10 59h139l103 619h-418
l-420 -619h162l-10 -59h-359l10 59h113l899 1315h-164zM1038 1374h-59l-430 -631h383zM1229 1528l282 340l78 -21q48 -12 66 -30.5t18 -51.5q0 -65 -94 -110l-326 -156z" />
    <glyph glyph-name="aeacute" unicode="&#x1fd;" horiz-adv-x="1646" 
d="M1497 344q-50 -144 -129 -209t-174 -65q-98 0 -142 65t-44 221q0 57 2 82q94 3 200 19q61 10 111.5 24t104.5 39t91 57.5t61 82t24 110.5q0 111 -77.5 172.5t-209.5 61.5q-170 0 -297 -99l18 86q-157 -16 -211 -16l-32 -125q-34 74 -91 114t-153 40q-99 0 -183.5 -38
t-143 -102t-99.5 -148.5t-60.5 -177t-19.5 -188.5q0 -181 78 -277t235 -96q130 0 230 80.5t151 202.5q21 -137 109 -210t244 -73q178 0 291.5 85.5t170.5 263.5zM457 68q-69 0 -98 51.5t-29 161.5q0 113 17.5 225.5t50 208.5t86 155.5t118.5 59.5q72 0 113 -60.5t41 -183.5
q0 -167 -41.5 -310t-110.5 -225.5t-147 -82.5zM1356 797q0 -128 -63 -193.5t-175 -91.5q-32 -7 -104 -16q22 198 90 323t156 125q96 0 96 -147zM795 1126l180 383l102 23q39 8 74 -10.5t35 -61.5q0 -52 -62 -104l-299 -252z" />
    <glyph glyph-name="Oslashacute" unicode="&#x1fe;" horiz-adv-x="1404" 
d="M72 528q0 113 21.5 224t63.5 215t108.5 192.5t151 155t197 104t240.5 37.5q96 0 182 -22l82 161l66 -32l-80 -156q256 -119 256 -504q0 -134 -28 -263.5t-89.5 -249.5t-150 -210.5t-218.5 -145t-286 -54.5q-110 0 -193 24l-88 -174l-67 33l86 170q-254 120 -254 495z
M608 43q99 0 179.5 67t131 172t85.5 240t49 263.5t14 250.5q0 150 -33 232l-590 -1164q55 -61 164 -61zM369 408q0 -151 30 -228l590 1159q-57 54 -158 54t-182 -63.5t-132 -164.5t-85.5 -234t-48.5 -263t-14 -260zM707 1528l282 340l78 -21q48 -12 66 -30.5t18 -51.5
q0 -65 -94 -110l-326 -156z" />
    <glyph glyph-name="oslashacute" unicode="&#x1ff;" horiz-adv-x="1075" 
d="M436 -23q-67 0 -127 13l-80 -162l-57 29l74 151q-103 39 -156 130.5t-53 226.5q0 101 23 194.5t71 174.5t115.5 141t162 94.5t205.5 34.5q61 0 121 -13l86 174l56 -24l-82 -166q215 -77 215 -354q0 -184 -68.5 -329.5t-200 -230t-305.5 -84.5zM709 465q26 169 26 272
q0 51 -10 99l-377 -766q35 -41 103 -41q110 0 164.5 100.5t93.5 335.5zM307 240q0 -59 8 -95l379 764q-36 45 -98 45q-45 0 -81 -20t-62.5 -55.5t-48.5 -92t-37.5 -119.5t-30.5 -149q-29 -176 -29 -278zM516 1126l180 383l103 23q39 8 73.5 -10.5t34.5 -61.5q0 -52 -61 -104
l-299 -252z" />
    <glyph glyph-name="Scommaaccent" unicode="&#x218;" horiz-adv-x="1120" 
d="M508 39q133 0 214 73t81 207q0 28 -6 53t-13.5 44.5t-24.5 38.5t-30 32t-39.5 28t-42.5 24t-49.5 22.5t-50.5 20t-55 20.5q-34 13 -57 22.5t-58.5 29t-59.5 39t-51.5 50.5t-44.5 66t-28 83.5t-11 104.5q0 135 64.5 240.5t174.5 162t245 56.5q75 0 144.5 -21t114.5 -42
t60 -21q19 0 32 15.5t30 50.5h43l-62 -432h-47q-38 391 -305 391q-119 0 -200 -62t-81 -180q0 -57 20 -101.5t57.5 -75t74.5 -49t88 -36.5q53 -19 83 -30.5t77.5 -34t75 -42.5t61.5 -52.5t52 -68t31 -84.5t13 -106q0 -149 -71.5 -264t-187.5 -174.5t-255 -59.5
q-71 0 -141 15t-113 32.5t-81.5 32.5t-55.5 15q-18 0 -30.5 -18.5t-34.5 -66.5q-2 -5 -3 -7h-45l70 481h47q13 -197 106 -309.5t275 -112.5zM371 -582l-29 43q68 39 113 88.5t45 92.5q0 45 -37 57l-62 -61q-28 12 -49.5 41.5t-21.5 66.5q0 60 40 96.5t103 36.5q69 0 105 -43
t36 -104q0 -96 -62.5 -171t-180.5 -143z" />
    <glyph glyph-name="scommaaccent" unicode="&#x219;" horiz-adv-x="942" 
d="M362 41q113 0 171.5 45.5t58.5 124.5q0 38 -15 66.5t-48.5 50.5t-60 34t-77.5 31q-34 12 -53.5 20t-50.5 23t-49.5 28.5t-41 35t-34.5 45.5t-20.5 56.5t-8.5 70.5q0 153 129 242.5t322 89.5q144 0 235.5 -51t91.5 -158q0 -68 -40 -110t-113 -42q-52 0 -88.5 25.5
t-36.5 66.5q0 54 31 90h63q10 27 10 43q0 76 -137 76q-108 0 -170.5 -44.5t-62.5 -117.5q0 -34 14.5 -61t47 -48.5t59 -34t75.5 -32.5q126 -50 174 -82q110 -76 111 -198q0 -161 -134 -255t-343 -94q-170 0 -262.5 61.5t-92.5 164.5q0 73 44 117.5t116 44.5q55 0 89 -31.5
t34 -81.5q-3 -42 -25 -82h-71q-8 -24 -8 -37q0 -41 41 -66.5t126 -25.5zM274 -582l-28 43q67 39 112 88t45 93q0 45 -36 57l-62 -61q-28 12 -50 41.5t-22 66.5q0 60 40.5 96.5t103.5 36.5q69 0 105 -43t36 -104q0 -95 -63 -170.5t-181 -143.5z" />
    <glyph glyph-name="uni021A" unicode="&#x21a;" horiz-adv-x="1312" 
d="M1382 1434l-55 -463h-53q-2 89 -10.5 153t-27 109t-42 72.5t-62.5 43t-80.5 20.5t-103.5 5h-18l-219 -1315h186l-8 -59h-670l10 59h187l219 1315h-19q-96 0 -157 -15t-115.5 -60t-96 -122t-87.5 -206h-54l99 463h1177zM422 -582l-29 43q68 39 113 88.5t45 92.5
q0 45 -37 57l-61 -61q-28 12 -50 41.5t-22 66.5q0 60 40 96.5t103 36.5q69 0 105.5 -43t36.5 -104q0 -95 -63 -170.5t-181 -143.5z" />
    <glyph glyph-name="uni021B" unicode="&#x21b;" horiz-adv-x="745" 
d="M733 930h-215l-86 -447q-12 -56 -27.5 -157t-15.5 -142q0 -96 84 -96q50 0 91.5 34t94.5 109l50 -34q-139 -220 -338 -220q-140 0 -204.5 66.5t-64.5 167.5q0 78 39 276l86 443h-147l8 53h148l36 221l238 66h63l-47 -287h215zM201 -582l-29 43q68 39 113 88.5t45 92.5
q0 45 -37 57l-62 -61q-28 12 -49.5 41.5t-21.5 66.5q0 60 40 96.5t103 36.5q69 0 105 -43t36 -104q0 -96 -62.5 -171t-180.5 -143z" />
    <glyph glyph-name="dotlessj" unicode="&#x237;" horiz-adv-x="610" 
d="M-123 -313l-82 -13q-12 -34 -12 -59q0 -70 84 -70q31 0 55 11t43 36.5t32.5 54t25.5 77t20.5 91.5t19.5 111l164 1004h-166l9 53h454l-162 -981q-19 -118 -55.5 -209t-95.5 -161t-147 -107t-203 -37t-197 58t-82 159q0 78 48.5 129t129.5 51q58 0 94.5 -36t36.5 -93
q0 -34 -14 -69z" />
    <glyph glyph-name="apostrophe" unicode="&#x2bc;" horiz-adv-x="432" 
d="M131 1006l-29 45q67 38 112.5 86.5t45.5 91.5q0 45 -37 57l-61 -59q-28 12 -50 40.5t-22 65.5q0 61 40.5 98t102.5 37q69 0 105.5 -43.5t36.5 -103.5q0 -97 -62.5 -171.5t-181.5 -143.5z" />
    <glyph glyph-name="circumflex" unicode="&#x2c6;" horiz-adv-x="1024" 
d="M442 1130l232 347q16 10 51.5 21t65.5 11q45 0 68.5 -17.5t35.5 -61.5l86 -306l-33 -16l-188 213l-289 -217z" />
    <glyph glyph-name="caron" unicode="&#x2c7;" horiz-adv-x="1024" 
d="M616 1149l-127 348l29 19l219 -220l281 224l26 -25l-188 -297q-50 -80 -141 -80q-30 0 -58.5 10.5t-40.5 20.5z" />
    <glyph glyph-name="uni02C9" unicode="&#x2c9;" horiz-adv-x="1024" 
d="M444 1196l29 152h557l-29 -152h-557z" />
    <glyph glyph-name="breve" unicode="&#x2d8;" horiz-adv-x="1024" 
d="M477 1442l43 8q14 -81 66 -122.5t159 -41.5q189 0 265 162l45 -8q-16 -66 -43 -121t-68 -103t-101 -75t-134 -27q-72 0 -122 27t-75 74.5t-33 103.5t-2 123z" />
    <glyph glyph-name="dotaccent" unicode="&#x2d9;" horiz-adv-x="1024" 
d="M705 1151q-81 0 -117.5 37.5t-36.5 93.5q0 81 57.5 131.5t147.5 50.5q151 0 151 -131q0 -82 -56.5 -132t-145.5 -50z" />
    <glyph glyph-name="ring" unicode="&#x2da;" horiz-adv-x="1024" 
d="M756 1438q-57 0 -96 -40t-39 -98q0 -41 23.5 -70.5t72.5 -29.5q60 0 97.5 38.5t37.5 96.5q0 44 -24 73.5t-72 29.5zM547 1286q0 91 63 150t162 59q75 0 115.5 -39t40.5 -102q0 -95 -61.5 -154t-161.5 -59q-80 0 -119 40t-39 105z" />
    <glyph glyph-name="ogonek" unicode="&#x2db;" horiz-adv-x="1024" 
d="M571 27l39 -4l13 -13q-86 -66 -144.5 -148t-58.5 -161q0 -80 69 -80q58 0 119 86l41 -24q-87 -170 -266 -170q-89 0 -137.5 40.5t-48.5 114.5q0 49 23 95t55 79t88 70t98 59.5t110 55.5z" />
    <glyph glyph-name="tilde" unicode="&#x2dc;" horiz-adv-x="1024" 
d="M842 1188q-74 0 -178 49q-79 33 -117 33q-70 0 -121 -88l-37 12q59 126 114 184t144 58q16 0 33 -2.5t28 -4.5t29 -8.5t25 -10t28 -12.5t27 -12q73 -30 113 -30q38 0 67 17t56 69l41 -10q-56 -132 -117 -188t-135 -56z" />
    <glyph glyph-name="hungarumlaut" unicode="&#x2dd;" horiz-adv-x="1024" 
d="M737 1147l172 389l99 25q40 11 74 -7t34 -61q0 -51 -65 -113l-281 -252zM414 1145l164 391l100 25q39 10 72.5 -7.5t33.5 -60.5q0 -51 -65 -113l-270 -256z" />
    <glyph glyph-name="uni0394" unicode="&#x394;" horiz-adv-x="1333" 
d="M1124 0h-1218l819 1466h129zM588 1108l-568 -1016h725z" />
    <glyph glyph-name="uni03A9" unicode="&#x3a9;" horiz-adv-x="1710" 
d="M842 0l30 188q87 41 158 139.5t114 223t66 258.5t23 260q0 324 -240 324q-89 0 -162 -42.5t-121.5 -115t-83.5 -160t-53.5 -187.5t-27 -186t-8.5 -167q0 -114 26.5 -192.5t81.5 -152.5l-33 -190h-583l59 502h39q2 -91 17.5 -145.5t54 -88t96.5 -45.5t154 -12h124
q-337 188 -337 508q0 162 58 300t159.5 234t243.5 149.5t307 53.5q259 0 397.5 -137.5t138.5 -364.5q0 -91 -21 -174t-53 -145.5t-81.5 -120.5t-96 -98.5t-108 -81t-105 -64.5t-98.5 -53l-12 -6h139q96 0 158 12t111 45.5t82 88t65 145.5h36l-104 -502h-610z" />
    <glyph glyph-name="uni03BC" unicode="&#x3bc;" horiz-adv-x="1247" 
d="M233 993l304 19l-111 -664q-11 -73 -13 -127.5t21.5 -85.5t77.5 -31q73 0 135.5 83.5t85.5 220.5l94 585l291 19l-137 -824q-16 -94 53 -94q67 0 113 152l49 -13q-29 -135 -100 -194t-181 -59q-216 0 -206 208h-4q-39 -88 -116.5 -149.5t-178.5 -61.5q-173 0 -234 226
l-16 -8q1 -8 39 -141.5t39 -139.5q41 -181 41 -252q0 -56 -43.5 -90t-104.5 -21l-129 31z" />
    <glyph glyph-name="pi" unicode="&#x3c0;" horiz-adv-x="1239" 
d="M922 770h-84q-28 -109 -52 -243.5t-24 -198.5q0 -76 25.5 -114t86.5 -38q56 0 91 26.5t69 104.5l39 -10q-94 -320 -285 -320q-157 0 -157 179q0 56 16.5 139t33 141t54 178t49.5 162q-25 1 -86.5 5t-133 9.5t-87.5 6.5q-89 -490 -141 -641q-33 -96 -81 -137.5t-95 -41.5
q-94 0 -94 97q0 25 11 50t22.5 40.5t38 46t40.5 47.5q91 113 150.5 237t99.5 306q-19 0 -70.5 3t-56.5 3q-46 0 -75.5 -17t-61.5 -71l-41 12q69 180 132.5 255t154.5 75q49 0 310.5 -16.5t311.5 -16.5q36 0 61.5 18t53.5 68l41 -10q-64 -187 -119.5 -260.5t-146.5 -73.5z
" />
    <glyph glyph-name="Wgrave" unicode="&#x1e80;" horiz-adv-x="1986" 
d="M690 313l365 699l-66 362h-131l10 60h594l-10 -60h-156l189 -1046l463 1046h-174l10 60h377l-11 -60h-120l-617 -1380h-170l-166 907l-481 -907h-162l-221 1380h-123l8 60h578l-8 -60h-146zM1122 1878l240 -344l-27 -27l-313 162q-44 24 -63 45.5t-19 57.5t31 61t76 33z
" />
    <glyph glyph-name="wgrave" unicode="&#x1e81;" horiz-adv-x="1652" 
d="M975 238q-6 -41 -6 -70q0 -54 25 -77t85 -23q78 0 156.5 56.5t135.5 142.5t92.5 191.5t35.5 200.5q0 56 -24.5 98t-69.5 46l-59 -82q-54 13 -85.5 50.5t-31.5 84.5q0 67 40 107.5t117 40.5q54 0 95.5 -24t65 -64t35 -85t11.5 -94q0 -73 -16.5 -155.5t-48 -168
t-82.5 -163.5t-115.5 -139t-152.5 -97.5t-187 -36.5q-206 0 -280 136q-52 -54 -134 -95t-192 -41q-118 0 -187 61.5t-69 188.5q0 39 6 82q13 79 29 161.5t37.5 186.5t31.5 156q9 45 9 57q0 43 -33 43q-32 0 -67.5 -28.5t-84.5 -98.5l-51 33q69 109 142 147t174 38
q95 0 149.5 -49.5t54.5 -141.5q0 -27 -6 -61q-7 -33 -29.5 -145t-41 -204.5t-27.5 -140.5q-10 -58 -10 -90q0 -51 20 -75.5t68 -24.5q54 0 95.5 27.5t94.5 84.5q-3 36 8 84q97 441 140 705q65 0 160 6.5t137 15.5q-103 -421 -160 -757zM1016 1507l74 -387l-37 -14l-232 270
q-33 46 -33 84q0 53 51 77.5t97 4.5z" />
    <glyph glyph-name="Wacute" unicode="&#x1e82;" horiz-adv-x="1986" 
d="M690 313l365 699l-66 362h-131l10 60h594l-10 -60h-156l189 -1046l463 1046h-174l10 60h377l-11 -60h-120l-617 -1380h-170l-166 907l-481 -907h-162l-221 1380h-123l8 60h578l-8 -60h-146zM985 1528l283 340l78 -21q48 -12 66 -30.5t18 -51.5q0 -65 -95 -110l-325 -156z
" />
    <glyph glyph-name="wacute" unicode="&#x1e83;" horiz-adv-x="1652" 
d="M975 238q-6 -41 -6 -70q0 -54 25 -77t85 -23q78 0 156.5 56.5t135.5 142.5t92.5 191.5t35.5 200.5q0 56 -24.5 98t-69.5 46l-59 -82q-54 13 -85.5 50.5t-31.5 84.5q0 67 40 107.5t117 40.5q54 0 95.5 -24t65 -64t35 -85t11.5 -94q0 -73 -16.5 -155.5t-48 -168
t-82.5 -163.5t-115.5 -139t-152.5 -97.5t-187 -36.5q-206 0 -280 136q-52 -54 -134 -95t-192 -41q-118 0 -187 61.5t-69 188.5q0 39 6 82q13 79 29 161.5t37.5 186.5t31.5 156q9 45 9 57q0 43 -33 43q-32 0 -67.5 -28.5t-84.5 -98.5l-51 33q69 109 142 147t174 38
q95 0 149.5 -49.5t54.5 -141.5q0 -27 -6 -61q-7 -33 -29.5 -145t-41 -204.5t-27.5 -140.5q-10 -58 -10 -90q0 -51 20 -75.5t68 -24.5q54 0 95.5 27.5t94.5 84.5q-3 36 8 84q97 441 140 705q65 0 160 6.5t137 15.5q-103 -421 -160 -757zM854 1126l180 383l103 23
q39 8 73.5 -10.5t34.5 -61.5q0 -52 -61 -104l-299 -252z" />
    <glyph glyph-name="Wdieresis" unicode="&#x1e84;" horiz-adv-x="1986" 
d="M690 313l365 699l-66 362h-131l10 60h594l-10 -60h-156l189 -1046l463 1046h-174l10 60h377l-11 -60h-120l-617 -1380h-170l-166 907l-481 -907h-162l-221 1380h-123l8 60h578l-8 -60h-146zM1014 1802q55 0 87 -25.5t32 -74.5q0 -70 -46 -117t-118 -47q-61 0 -89 32
t-28 79q0 69 49.5 111t112.5 42zM1423 1802q53 0 85 -25.5t32 -74.5q0 -70 -45 -117t-117 -47q-61 0 -89.5 31t-28.5 76q0 72 48 114.5t115 42.5z" />
    <glyph glyph-name="wdieresis" unicode="&#x1e85;" horiz-adv-x="1652" 
d="M975 238q-6 -41 -6 -70q0 -54 25 -77t85 -23q78 0 156.5 56.5t135.5 142.5t92.5 191.5t35.5 200.5q0 56 -24.5 98t-69.5 46l-59 -82q-54 13 -85.5 50.5t-31.5 84.5q0 67 40 107.5t117 40.5q54 0 95.5 -24t65 -64t35 -85t11.5 -94q0 -73 -16.5 -155.5t-48 -168
t-82.5 -163.5t-115.5 -139t-152.5 -97.5t-187 -36.5q-206 0 -280 136q-52 -54 -134 -95t-192 -41q-118 0 -187 61.5t-69 188.5q0 39 6 82q13 79 29 161.5t37.5 186.5t31.5 156q9 45 9 57q0 43 -33 43q-32 0 -67.5 -28.5t-84.5 -98.5l-51 33q69 109 142 147t174 38
q95 0 149.5 -49.5t54.5 -141.5q0 -27 -6 -61q-7 -33 -29.5 -145t-41 -204.5t-27.5 -140.5q-10 -58 -10 -90q0 -51 20 -75.5t68 -24.5q54 0 95.5 27.5t94.5 84.5q-3 36 8 84q97 441 140 705q65 0 160 6.5t137 15.5q-103 -421 -160 -757zM664 1278q0 63 47.5 104t113.5 41
q117 0 117 -102q0 -71 -45 -116.5t-117 -45.5q-116 0 -116 119zM1073 1270q0 69 48 111t114 42q117 0 117 -102q0 -71 -46 -116.5t-116 -45.5q-63 0 -90 32t-27 79z" />
    <glyph glyph-name="Ygrave" unicode="&#x1ef2;" horiz-adv-x="1183" 
d="M733 745l426 629h-155l8 60h346l-8 -60h-111l-483 -717l-103 -598h166l-10 -59h-625l11 59h163l101 596l-244 719h-127l10 60h609l-11 -60h-159zM672 1878l239 -344l-26 -27l-314 162q-44 24 -63 45.5t-19 57.5t31 61t76 33z" />
    <glyph glyph-name="ygrave" unicode="&#x1ef3;" horiz-adv-x="1107" 
d="M125 -307l-94 -12q-23 -33 -23 -64q0 -28 19.5 -45.5t56.5 -17.5q186 0 422 337q-142 537 -238 857q-19 63 -36.5 87.5t-45.5 24.5q-32 0 -56 -31.5t-58 -115.5l-62 24q21 49 37.5 82t42.5 69.5t55 58t71.5 36t94.5 14.5q90 0 145.5 -47.5t86.5 -150.5q93 -319 172 -629
q105 154 171 291t66 219q0 88 -69 94l-64 -86q-53 18 -87 59t-34 93q0 75 48.5 119.5t123.5 44.5q90 0 142.5 -61.5t52.5 -162.5q0 -229 -311 -674q-23 -32 -61.5 -87.5t-62 -89.5t-61 -84.5t-64 -82.5t-64 -73.5t-68.5 -67.5t-70.5 -54t-76.5 -43.5t-80 -25.5t-87 -10
q-118 0 -182.5 59.5t-64.5 165.5q0 83 50.5 134t125.5 51q62 0 103.5 -37.5t41.5 -104.5q0 -32 -8 -63zM684 1507l74 -387l-37 -14l-232 270q-32 44 -32 84q0 53 50.5 77.5t96.5 4.5z" />
    <glyph glyph-name="thinspace" unicode="&#x2009;" horiz-adv-x="102" 
 />
    <glyph glyph-name="endash" unicode="&#x2013;" horiz-adv-x="1024" 
d="M-2 537l12 75h998l-13 -75h-997z" />
    <glyph glyph-name="emdash" unicode="&#x2014;" horiz-adv-x="2048" 
d="M-2 537l12 75h2022l-15 -75h-2019z" />
    <glyph glyph-name="quoteleft" unicode="&#x2018;" horiz-adv-x="493" 
d="M524 1554l23 -47q-91 -47 -154 -107t-63 -114q0 -36 37 -65l75 65q30 -14 53 -46.5t23 -78.5q0 -70 -50 -112.5t-124 -42.5q-72 0 -110.5 48t-38.5 115q0 62 24 117t70.5 102.5t102.5 86.5t132 79z" />
    <glyph glyph-name="quoteright" unicode="&#x2019;" horiz-adv-x="481" 
d="M211 918l-25 47q91 47 154 107t63 114q0 39 -36 65l-76 -65q-30 14 -53 46.5t-23 78.5q0 70 50.5 112.5t123.5 42.5q72 0 112 -48t40 -115q0 -62 -24.5 -117t-71.5 -102.5t-103 -86.5t-131 -79z" />
    <glyph glyph-name="quotesinglbase" unicode="&#x201a;" horiz-adv-x="524" 
d="M59 -303l-24 47q91 47 154 107t63 114q0 39 -37 66l-76 -66q-30 14 -53 46.5t-23 78.5q0 70 51 113t124 43q72 0 111.5 -48.5t39.5 -115.5q0 -62 -24.5 -117t-71.5 -102.5t-103 -86.5t-131 -79z" />
    <glyph glyph-name="quotedblleft" unicode="&#x201c;" horiz-adv-x="882" 
d="M524 1554l23 -47q-91 -47 -154 -107t-63 -114q0 -36 37 -65l75 65q30 -14 53 -46.5t23 -78.5q0 -70 -50 -112.5t-124 -42.5q-72 0 -110.5 48t-38.5 115q0 62 24 117t70.5 102.5t102.5 86.5t132 79zM913 1554l23 -47q-91 -47 -154 -107t-63 -114q0 -36 37 -65l75 65
q30 -14 53 -46.5t23 -78.5q0 -70 -50 -112.5t-124 -42.5q-72 0 -110.5 48t-38.5 115q0 62 24 117t70.5 102.5t102.5 86.5t132 79z" />
    <glyph glyph-name="quotedblright" unicode="&#x201d;" horiz-adv-x="866" 
d="M211 918l-25 47q91 47 154 107t63 114q0 39 -36 65l-76 -65q-30 14 -53 46.5t-23 78.5q0 70 50.5 112.5t123.5 42.5q72 0 112 -48t40 -115q0 -62 -24.5 -117t-71.5 -102.5t-103 -86.5t-131 -79zM596 918l-23 47q90 47 152.5 107.5t62.5 113.5q0 38 -34 65l-78 -65
q-30 14 -53 46.5t-23 78.5q0 70 50.5 112.5t123.5 42.5q72 0 112 -48t40 -115q0 -62 -24.5 -117t-71.5 -102.5t-103 -86.5t-131 -79z" />
    <glyph glyph-name="quotedblbase" unicode="&#x201e;" horiz-adv-x="907" 
d="M59 -303l-24 47q91 47 154 107t63 114q0 39 -37 66l-76 -66q-30 14 -53 46.5t-23 78.5q0 70 51 113t124 43q72 0 111.5 -48.5t39.5 -115.5q0 -62 -24.5 -117t-71.5 -102.5t-103 -86.5t-131 -79zM442 -303l-24 47q91 47 154 107t63 114q0 39 -37 66l-76 -66
q-30 14 -53 46.5t-23 78.5q0 70 51 113t124 43q72 0 111.5 -48.5t39.5 -115.5q0 -62 -24.5 -117t-71.5 -102.5t-103 -86.5t-131 -79z" />
    <glyph glyph-name="dagger" unicode="&#x2020;" horiz-adv-x="1058" 
d="M715 713l-2 -13q-34 -43 -51.5 -67t-50.5 -79t-56.5 -123.5t-40.5 -151.5l-102 -525h-58l86 520q9 50 13 121q0 59 -12 121.5t-22.5 95.5t-31.5 90l2 13q50 51 107.5 135t76.5 141q-51 -3 -148 -48.5t-140 -45.5q-45 0 -78 26.5t-33 75.5q0 65 41 100.5t92 35.5
q42 0 87.5 -26t93.5 -52.5t94 -28.5q2 14 2 41q0 47 -22.5 129.5t-22.5 118.5q0 65 41.5 108t117.5 43q49 0 73 -31t24 -77q0 -43 -22 -86t-50 -74.5t-57 -78t-39 -93.5q56 4 163.5 55.5t151.5 51.5q41 0 67.5 -26.5t26.5 -80.5q0 -62 -41.5 -96.5t-95.5 -34.5
q-45 0 -132 45t-142 49v-6q0 -57 26.5 -132t63.5 -140z" />
    <glyph glyph-name="daggerdbl" unicode="&#x2021;" horiz-adv-x="1136" 
d="M936 211q0 -62 -42 -95.5t-93 -33.5q-33 0 -69.5 15.5t-64 35t-66 36t-75.5 17.5q-2 -14 -2 -41q0 -45 22.5 -127t22.5 -120q0 -62 -41 -106t-114 -44q-51 0 -76 31t-25 76q0 43 22 86t50 74t57 78t39 95q-55 -4 -161 -55t-152 -51q-42 0 -69 25.5t-27 78.5
q0 62 42.5 97.5t94.5 35.5q44 0 132 -46t144 -50q-5 54 -30 101.5t-68 105.5l2 12q86 71 150 166q-16 62 -88 166l2 12q60 50 109 105t67 100q-52 -3 -149 -48.5t-138 -45.5q-46 0 -79.5 26.5t-33.5 75.5q0 65 42 99.5t94 34.5q42 0 86.5 -25.5t92 -51.5t93.5 -28q2 14 2 41
q0 49 -21.5 129.5t-21.5 116.5q0 65 41 109t117 44q49 0 73.5 -31t24.5 -77q0 -43 -22 -86t-50 -74.5t-57 -78t-39 -93.5q55 4 162 54.5t153 50.5q41 0 68 -26t27 -81q0 -62 -42.5 -95.5t-97.5 -33.5q-44 0 -131 45t-143 49q4 -54 28.5 -100.5t69.5 -106.5l-2 -12
q-68 -54 -151 -168q28 -74 90 -160l-2 -12q-144 -125 -178 -209q52 3 150.5 49.5t139.5 46.5q45 0 78 -28t33 -80z" />
    <glyph glyph-name="bullet" unicode="&#x2022;" horiz-adv-x="753" 
d="M158 655q18 106 92.5 174t191.5 68q96 0 151.5 -45.5t55.5 -136.5q0 -130 -80.5 -216.5t-208.5 -86.5q-109 0 -158.5 51.5t-49.5 134.5q0 27 6 57z" />
    <glyph glyph-name="ellipsis" unicode="&#x2026;" horiz-adv-x="1597" 
d="M242 305q66 0 103.5 -33.5t37.5 -95.5q0 -88 -54.5 -142t-138.5 -54q-73 0 -107 40t-34 97q0 83 58 135.5t135 52.5zM762 305q64 0 102.5 -33.5t38.5 -95.5q0 -88 -55 -142t-139 -54q-73 0 -106.5 40t-33.5 97q0 83 57.5 135.5t135.5 52.5zM1288 305q65 0 103.5 -33.5
t38.5 -95.5q0 -88 -55 -142t-140 -54q-73 0 -106 40t-33 97q0 83 57 135.5t135 52.5z" />
    <glyph glyph-name="perthousand" unicode="&#x2030;" horiz-adv-x="2222" 
d="M1425 221q0 176 106.5 286.5t283.5 110.5q121 0 194.5 -62t73.5 -183q0 -93 -33 -170.5t-87.5 -126t-123 -75t-141.5 -26.5q-133 0 -203 67t-70 179zM1804 571q-55 0 -95 -46.5t-59 -117.5t-27.5 -134.5t-8.5 -118.5q0 -131 92 -131q49 0 87 40.5t59 105t31.5 135.5
t10.5 142q0 65 -21.5 95t-68.5 30zM694 221q0 177 106.5 287t284.5 110q121 0 195 -62t74 -183q0 -124 -57 -216.5t-143.5 -137t-186.5 -44.5q-133 0 -203 67t-70 179zM1075 571q-45 0 -80.5 -32t-55.5 -79t-33.5 -106.5t-18 -108.5t-4.5 -91q0 -131 94 -131q48 0 85.5 40.5
t58.5 105t31.5 135.5t10.5 142q0 65 -21 95t-67 30zM176 1059q0 178 106 287.5t285 109.5q122 0 195.5 -62t73.5 -184q0 -123 -57 -215t-143.5 -136t-186.5 -44q-133 0 -203 66.5t-70 177.5zM557 1411q-45 0 -80.5 -32.5t-55.5 -79.5t-33.5 -107.5t-18 -109.5t-4.5 -91
q0 -131 94 -131q48 0 85.5 40.5t58.5 105.5t31.5 136t10.5 142q0 127 -88 127zM162 0l1112 1434h82l-1110 -1434h-84z" />
    <glyph glyph-name="guilsinglleft" unicode="&#x2039;" horiz-adv-x="641" 
d="M117 557l405 258l29 -29l-264 -333l149 -322l-33 -25l-284 238q-60 54 -60 111q0 48 58 102z" />
    <glyph glyph-name="guilsinglright" unicode="&#x203a;" horiz-adv-x="641" 
d="M494 367l-406 -261l-29 29l267 338l-150 313l33 25l283 -233q61 -49 61 -111q0 -52 -59 -100z" />
    <glyph glyph-name="fraction" unicode="&#x2044;" horiz-adv-x="395" 
d="M-367 -23l1135 1479h86l-1133 -1479h-88z" />
    <glyph glyph-name="zerosuperior" unicode="&#x2070;" horiz-adv-x="800" 
d="M135 1114q0 79 16 157t51 152.5t85.5 131.5t125.5 91.5t165 34.5q292 0 292 -315q0 -262 -125 -416.5t-317 -154.5q-147 0 -220 85.5t-73 233.5zM567 1624q-30 0 -53.5 -10.5t-41.5 -35t-31.5 -54.5t-26 -80t-21.5 -98.5t-20 -122.5q-25 -177 -25 -234q0 -135 90 -135
q34 0 60.5 16t46 45t35 79t27 108t24.5 143q22 158 22 240q0 70 -17 104.5t-69 34.5z" />
    <glyph glyph-name="foursuperior" unicode="&#x2074;" horiz-adv-x="763" 
d="M662 860h122l-10 -53h-504l9 53h145l31 156h-353l15 69q190 171 284.5 305.5t94.5 200.5q0 41 -15 68l35 29q180 3 180 -113q0 -73 -58.5 -139.5t-236.5 -192.5l-235 -168h297l33 178l247 43l-43 -221h113l-10 -59h-113z" />
    <glyph glyph-name="fivesuperior" unicode="&#x2075;" horiz-adv-x="704" 
d="M297 852q68 0 113.5 42.5t63.5 102t18 131.5q0 73 -25 107.5t-78 34.5q-63 0 -143 -41l-41 18l123 416l26 10q138 -49 273 -49q78 0 118 24t56 70h28q-9 -132 -90 -199t-221 -67q-35 0 -92 9t-86 20l-68 -191q121 66 250 66q106 0 162.5 -53.5t56.5 -151.5
q0 -159 -125 -258.5t-313 -99.5q-110 0 -159.5 47t-49.5 112q0 58 36 102t108 44q47 0 69.5 -21.5t22.5 -56.5q0 -32 -19 -68h-57q-27 -34 -27 -57q0 -43 70 -43z" />
    <glyph glyph-name="sixsuperior" unicode="&#x2076;" horiz-adv-x="768" 
d="M655 1624q-91 0 -162.5 -104.5t-101.5 -268.5q79 99 209 99q90 0 147.5 -53t57.5 -158q0 -109 -54 -189.5t-139.5 -118.5t-189.5 -38q-266 0 -266 301q0 80 17 159.5t56.5 157.5t95.5 137.5t141.5 96t188.5 36.5q90 0 139.5 -41t49.5 -112q0 -58 -34.5 -91.5t-86.5 -33.5
q-40 0 -67 20.5t-27 57.5q0 31 20 67l47 -2q15 24 15 41q0 37 -56 37zM520 1276q-44 0 -77.5 -31t-52 -80t-27.5 -99.5t-9 -98.5q0 -115 80 -115q37 0 66 23t45 57t26.5 80t13.5 84.5t3 77.5q0 102 -68 102z" />
    <glyph glyph-name="sevensuperior" unicode="&#x2077;" horiz-adv-x="704" 
d="M719 1219h-180q-76 -122 -76 -250q0 -85 35 -142l-27 -36q-109 -10 -163 30t-54 99q0 69 34 124.5t136 174.5h-148l15 51h172q19 20 62 66.5t80 85.5t75 77h-266q-65 0 -95.5 -9.5t-48 -32t-39.5 -77.5h-51l78 301l29 11q45 -25 137 -25h436l10 -27
q-53 -46 -159.5 -172.5t-149.5 -197.5h174z" />
    <glyph glyph-name="eightsuperior" unicode="&#x2078;" horiz-adv-x="745" 
d="M211 1440q0 110 93.5 175.5t260.5 65.5q131 0 204 -49t73 -145q0 -87 -81.5 -150.5t-205.5 -70.5v-4q123 -14 180.5 -67.5t57.5 -129.5q0 -126 -109.5 -199t-271.5 -73q-139 0 -220 59t-81 164q0 98 82.5 170.5t234.5 75.5v4q-101 4 -159 52.5t-58 121.5zM416 852
q147 0 147 258q0 117 -82 117q-46 0 -77.5 -25t-46.5 -68t-21 -84.5t-6 -88.5q0 -109 86 -109zM547 1624q-121 0 -121 -240q0 -96 68 -96q37 0 63 24.5t37.5 65.5t15.5 76.5t4 75.5q0 94 -67 94z" />
    <glyph glyph-name="ninesuperior" unicode="&#x2079;" horiz-adv-x="765" 
d="M328 850q100 0 166 100.5t92 270.5q-73 -97 -201 -97q-93 0 -153 58t-60 168q0 81 31 146t83 104.5t117 60t136 20.5q282 0 282 -325q0 -71 -16.5 -145.5t-55 -150.5t-94 -134.5t-141 -95.5t-188.5 -37q-95 0 -144 42.5t-49 112.5q0 64 36.5 96.5t88.5 32.5
q41 0 67.5 -22t26.5 -58q0 -28 -20 -67l-47 2q-19 -29 -19 -45q0 -37 62 -37zM459 1198q44 0 78 31.5t51.5 81t26 99.5t8.5 97q0 115 -80 115q-38 0 -67.5 -23.5t-45.5 -57.5t-25.5 -78.5t-12.5 -78.5t-3 -67q0 -62 15.5 -90.5t54.5 -28.5z" />
    <glyph glyph-name="Euro" unicode="&#x20ac;" horiz-adv-x="1269" 
d="M971 1397q-153 0 -259 -135.5t-165 -382.5h414l-15 -68h-414q-13 -76 -20 -162h385l-16 -67h-373q0 -67 3.5 -123t13 -122t30 -116t50.5 -93t78 -66t110 -23q69 0 111 30.5t42 84.5q0 26 -12 61h-70q-10 33 -10 61q0 61 37 101.5t106 40.5q65 0 101.5 -40.5t36.5 -109.5
q0 -79 -37 -138t-96.5 -91t-122 -47t-125.5 -15q-271 0 -409 159.5t-146 445.5h-144l17 67h131q8 95 22 162h-123l15 68h123q71 261 258 419t436 158q167 0 251.5 -72.5t84.5 -179.5q0 -76 -41 -125t-121 -49q-58 0 -89.5 29.5t-31.5 77.5q3 51 29 92h65q19 46 19 74
q0 46 -35.5 70t-93.5 24z" />
    <glyph glyph-name="afii61352" unicode="&#x2116;" horiz-adv-x="2316" 
d="M1456 1092l-196 -1106h-187l-432 1233l-158 -889q-62 -350 -315 -350q-85 0 -142 38t-57 115q0 94 49.5 144.5t114.5 50.5q51 0 81 -25.5t30 -71.5q0 -34 -23 -88h-84q-18 -35 -18 -61q0 -43 71 -43q49 0 87 21.5t64 64t43 95t30 124.5l168 952l-37 78h-123l10 60h475
l353 -1047l126 719q10 55 22.5 100t37 93.5t56.5 81t81.5 54t110.5 21.5q87 0 148 -42.5t61 -129.5q0 -83 -50.5 -129.5t-115.5 -46.5q-51 0 -81 24.5t-30 69.5q0 36 23 90h84q18 32 18 60q0 45 -72 45q-96 0 -146.5 -78t-76.5 -227zM1489 578q0 66 16 127.5t50 116t82.5 95
t118 64t151.5 23.5q135 0 213 -62.5t78 -191.5q0 -109 -48 -202.5t-146.5 -154.5t-229.5 -61q-143 0 -214 65.5t-71 180.5zM1890 950q-53 0 -92 -58.5t-59 -151.5t-27 -220q-4 -79 15 -113t67 -34q150 0 176 446q6 131 -80 131zM1491 180l12 66h565l-12 -66h-565z" />
    <glyph glyph-name="trademark" unicode="&#x2122;" horiz-adv-x="1935" 
d="M842 1327l10 -233h-33q-12 64 -28.5 103.5t-44 60t-59 27.5t-83.5 7h-14v-680h104v-43h-348v43h107v680h-15q-51 0 -83.5 -7t-59.5 -28t-43.5 -60t-28.5 -103h-35l13 233h641zM1583 1327h262v-41h-82v-678h82v-39h-301v39h80v676l-235 -715h-56l-286 701v-662h73v-39
h-202v39h69v678h-69v41h262l217 -557z" />
    <glyph glyph-name="Omega" unicode="&#x2126;" horiz-adv-x="1710" 
d="M842 0l30 188q87 41 158 139.5t114 223t66 258.5t23 260q0 324 -240 324q-89 0 -162 -42.5t-121.5 -115t-83.5 -160t-53.5 -187.5t-27 -186t-8.5 -167q0 -114 26.5 -192.5t81.5 -152.5l-33 -190h-583l59 502h39q2 -91 17.5 -145.5t54 -88t96.5 -45.5t154 -12h124
q-337 188 -337 508q0 162 58 300t159.5 234t243.5 149.5t307 53.5q259 0 397.5 -137.5t138.5 -364.5q0 -91 -21 -174t-53 -145.5t-81.5 -120.5t-96 -98.5t-108 -81t-105 -64.5t-98.5 -53l-12 -6h139q96 0 158 12t111 45.5t82 88t65 145.5h36l-104 -502h-610z" />
    <glyph glyph-name="onethird" unicode="&#x2153;" horiz-adv-x="1843" 
d="M252 639l115 659q-39 -8 -98.5 -3t-90.5 14l12 47q96 -7 187.5 22.5t136.5 81.5h123l-143 -821h127l-13 -53h-506l11 53h139zM301 -23l1135 1479h86l-1133 -1479h-88zM1458 862q140 0 200 -42t60 -122q0 -46 -24.5 -83t-71.5 -64t-100 -46t-127 -38l2 -8q40 4 63 4
q47 0 88 -9t77.5 -29.5t57.5 -58.5t21 -90q0 -62 -25.5 -113.5t-67.5 -86t-98.5 -58.5t-117 -34.5t-123.5 -10.5q-119 0 -174.5 48t-55.5 120q0 56 38.5 97t101.5 41q49 0 71.5 -24t22.5 -62q0 -31 -14 -66h-62q-18 -24 -18 -47q0 -47 75 -47q89 0 144 58.5t55 170.5
q0 141 -115 141q-51 0 -104 -18l-8 64q137 43 200.5 95.5t63.5 145.5q0 115 -123 115q-31 0 -54.5 -13.5t-23.5 -37.5q0 -18 15 -39h47q2 -10 2 -31q0 -52 -32.5 -83.5t-92.5 -31.5q-47 0 -72.5 28.5t-25.5 68.5q0 95 90 145.5t235 50.5z" />
    <glyph glyph-name="twothirds" unicode="&#x2154;" horiz-adv-x="1843" 
d="M473 1460q146 0 212.5 -57t66.5 -146q0 -39 -11.5 -74t-38.5 -70.5t-59 -66.5t-84.5 -69t-102.5 -70.5t-126 -79.5l-117 -71h219q54 0 93.5 7t64 17.5t42.5 31t28 39t22 50.5h41l-55 -315h-586l27 141l149 137q131 119 189.5 216.5t58.5 199.5q0 63 -30.5 94t-80.5 31
q-42 0 -65 -20t-23 -50q0 -17 6 -32h54q4 -24 4 -35q0 -51 -30.5 -81t-86.5 -30q-49 0 -73.5 29.5t-24.5 70.5q0 89 90.5 146t226.5 57zM342 -23l1135 1479h86l-1133 -1479h-88zM1497 862q140 0 200 -42t60 -122q0 -46 -24.5 -83t-71.5 -64t-100 -46t-127 -38l2 -8
q40 4 63 4q47 0 88 -9t77.5 -29.5t57.5 -58.5t21 -90q0 -62 -25.5 -113.5t-67.5 -86t-98.5 -58.5t-117 -34.5t-123.5 -10.5q-119 0 -174.5 48t-55.5 120q0 56 38.5 97t101.5 41q49 0 71.5 -24t22.5 -62q0 -28 -15 -66h-61q-18 -24 -18 -47q0 -47 75 -47q89 0 144 58.5
t55 170.5q0 141 -115 141q-52 0 -104 -18l-8 64q137 43 200.5 95.5t63.5 145.5q0 115 -123 115q-31 0 -54.5 -13.5t-23.5 -37.5q0 -18 15 -39h47q2 -10 2 -31q0 -52 -32.5 -83.5t-92.5 -31.5q-47 0 -73 28.5t-26 68.5q0 95 90.5 145.5t235.5 50.5z" />
    <glyph glyph-name="oneeighth" unicode="&#x215b;" horiz-adv-x="1843" 
d="M262 639l115 659q-39 -8 -98.5 -3t-90.5 14l13 47q96 -7 187 22.5t136 81.5h123l-143 -821h127l-13 -53h-505l10 53h139zM295 -23l1135 1479h86l-1133 -1479h-88zM1100 621q0 110 93.5 175.5t260.5 65.5q131 0 204 -49t73 -145q0 -87 -81.5 -151t-205.5 -71v-4
q123 -14 180 -67t57 -129q0 -126 -109.5 -199.5t-271.5 -73.5q-139 0 -220 59.5t-81 164.5q0 97 83 169.5t235 75.5v4q-101 4 -159 52.5t-58 122.5zM1305 33q147 0 147 258q0 117 -82 117q-46 0 -77.5 -25.5t-46.5 -68.5t-21 -84.5t-6 -88.5q0 -108 86 -108zM1436 805
q-121 0 -121 -240q0 -47 15 -71.5t52 -24.5t63 24.5t37.5 65.5t16 77t4.5 75q0 94 -67 94z" />
    <glyph glyph-name="threeeighths" unicode="&#x215c;" horiz-adv-x="1843" 
d="M518 1460q140 0 200 -42t60 -122q0 -46 -24.5 -83t-71.5 -64t-100 -46t-127 -38l2 -8q40 4 63 4q47 0 88 -9t77.5 -29.5t57.5 -58.5t21 -90q0 -62 -25.5 -113.5t-67.5 -86t-98.5 -58.5t-117 -34.5t-123.5 -10.5q-119 0 -174.5 48t-55.5 120q0 56 38.5 97t101.5 41
q49 0 71.5 -24t22.5 -62q0 -31 -14 -66h-62q-18 -24 -18 -47q0 -47 75 -47q89 0 144 58.5t55 170.5q0 141 -115 141q-51 0 -104 -18l-8 64q137 43 200.5 95.5t63.5 145.5q0 115 -123 115q-31 0 -54.5 -13.5t-23.5 -37.5q0 -18 15 -39h47q2 -10 2 -31q0 -52 -32.5 -83.5
t-92.5 -31.5q-47 0 -72.5 28.5t-25.5 68.5q0 95 90 145.5t235 50.5zM322 -23l1134 1479h86l-1132 -1479h-88zM1137 621q0 110 93.5 175.5t260.5 65.5q131 0 203.5 -49t72.5 -145q0 -87 -81 -151t-205 -71v-4q123 -14 180 -67t57 -129q0 -126 -109.5 -199.5t-271.5 -73.5
q-139 0 -220 59.5t-81 164.5q0 97 83 169.5t235 75.5v4q-101 4 -159 52.5t-58 122.5zM1341 33q45 0 76.5 24.5t46 66t20 81.5t5.5 86q0 117 -82 117q-46 0 -78 -25.5t-47 -68.5t-21 -84.5t-6 -88.5q0 -108 86 -108zM1473 805q-121 0 -121 -240q0 -47 15 -71.5t52 -24.5
t63 24.5t37.5 65.5t16 77t4.5 75q0 94 -67 94z" />
    <glyph glyph-name="fiveeighths" unicode="&#x215d;" horiz-adv-x="1843" 
d="M276 631q68 0 113.5 42.5t63.5 102t18 131.5q0 73 -24.5 107.5t-77.5 34.5q-64 0 -144 -41l-41 18l123 416l27 10q138 -49 272 -49q78 0 118 24t56 70h29q-9 -132 -90 -199t-221 -67q-35 0 -92.5 9t-86.5 20l-67 -191q121 66 250 66q106 0 162.5 -53.5t56.5 -151.5
q0 -159 -125.5 -259t-312.5 -100q-110 0 -159.5 47.5t-49.5 112.5q0 59 35.5 102.5t107.5 43.5q47 0 69.5 -21.5t22.5 -56.5q0 -33 -18 -68h-58q-26 -33 -26 -57q0 -43 69 -43zM281 -23l1134 1479h86l-1132 -1479h-88zM1104 621q0 110 93.5 175.5t260.5 65.5q131 0 204 -49
t73 -145q0 -87 -81.5 -151t-205.5 -71v-4q123 -14 180.5 -67t57.5 -129q0 -126 -109.5 -199.5t-271.5 -73.5q-139 0 -220 59.5t-81 164.5q0 97 82.5 169.5t234.5 75.5v4q-101 4 -159 52.5t-58 122.5zM1309 33q147 0 147 258q0 117 -82 117q-46 0 -77.5 -25.5t-46.5 -68.5
t-21 -84.5t-6 -88.5q0 -108 86 -108zM1440 805q-121 0 -121 -240q0 -47 15 -71.5t52 -24.5t63 24.5t37.5 65.5t16 77t4.5 75q0 94 -67 94z" />
    <glyph glyph-name="seveneighths" unicode="&#x215e;" horiz-adv-x="1843" 
d="M741 997h-180q-76 -122 -76 -249q0 -85 35 -142l-26 -37q-109 -10 -163.5 30t-54.5 99q0 69 34 124.5t136 174.5h-147l14 52h172q19 20 62 66.5t80 85.5t75 77h-266q-64 0 -95 -9.5t-48 -31.5t-39 -78h-51l78 301l28 10q43 -24 137 -24h437l10 -27q-53 -46 -159.5 -172.5
t-149.5 -197.5h174zM252 -23l1134 1479h87l-1133 -1479h-88zM1108 621q0 110 93.5 175.5t260.5 65.5q131 0 204 -49t73 -145q0 -87 -81.5 -151t-205.5 -71v-4q123 -14 180.5 -67t57.5 -129q0 -126 -109.5 -199.5t-271.5 -73.5q-139 0 -220 59.5t-81 164.5q0 97 82.5 169.5
t234.5 75.5v4q-101 4 -159 52.5t-58 122.5zM1313 33q147 0 147 258q0 117 -82 117q-46 0 -77.5 -25.5t-46.5 -68.5t-21 -84.5t-6 -88.5q0 -108 86 -108zM1444 805q-121 0 -121 -240q0 -96 68 -96q37 0 63 24.5t37.5 65.5t15.5 77t4 75q0 94 -67 94z" />
    <glyph glyph-name="partialdiff" unicode="&#x2202;" horiz-adv-x="1187" 
d="M586 754q-59 0 -104.5 -36t-70.5 -88t-41 -122.5t-21 -128t-5 -115.5q0 -112 31 -166.5t106 -54.5q79 0 137.5 72t86.5 184.5t28 245.5q0 97 -37 153t-110 56zM596 1374q104 0 192.5 -35t156.5 -103.5t106.5 -180.5t38.5 -256q0 -118 -21.5 -231.5t-70.5 -221.5
t-120 -189t-179 -130.5t-238 -49.5q-202 0 -307 101.5t-105 288.5q0 75 17.5 144.5t55 129.5t90.5 104t128 69.5t164 25.5q109 0 183 -46.5t101 -136.5q27 165 27 273q0 58 -6 108.5t-22.5 104t-43.5 91t-72 61.5t-104 24q-62 0 -103.5 -26t-41.5 -70q0 -27 10 -47l66 -9
q6 -27 6 -51q0 -62 -38 -99.5t-101 -37.5q-64 0 -103 41.5t-39 101.5q0 117 102 184.5t271 67.5z" />
    <glyph glyph-name="Delta" unicode="&#x2206;" horiz-adv-x="1343" 
d="M1171 0h-1218l819 1466h129zM635 1108l-565 -1016h723z" />
    <glyph glyph-name="product" unicode="&#x220f;" horiz-adv-x="1533" 
d="M215 1434h1409l-12 -60h-154l-274 -1624h153l-12 -59h-602l10 59h129l275 1624h-459l-277 -1624h129l-12 -59h-600l12 59h152l274 1622h-153z" />
    <glyph glyph-name="summation" unicode="&#x2211;" horiz-adv-x="1239" 
d="M969 -309h-1123l-10 37l713 755l-436 922l24 29h1071l-51 -385h-49q-2 100 -16.5 160t-51 98.5t-94 52.5t-151.5 14h-332l334 -729l-674 -708h438q114 0 187.5 16.5t127.5 60t88 106.5t70 169h51z" />
    <glyph glyph-name="minus" unicode="&#x2212;" 
d="M1022 610h-930l12 74h930z" />
    <glyph glyph-name="uni2215" unicode="&#x2215;" horiz-adv-x="395" 
d="M-360 -23l1052 1479h86l-1050 -1479h-88z" />
    <glyph glyph-name="uni2219" unicode="&#x2219;" horiz-adv-x="575" 
d="M319 815q65 0 103.5 -33t38.5 -94q0 -89 -55 -142.5t-140 -53.5q-73 0 -106 39.5t-33 97.5q0 83 57 134.5t135 51.5z" />
    <glyph glyph-name="radical" unicode="&#x221a;" horiz-adv-x="1120" 
d="M1223 1524l-602 -1524h-144l-231 760l-158 -68l-16 74l356 162l197 -713l518 1325z" />
    <glyph glyph-name="infinity" unicode="&#x221e;" horiz-adv-x="1353" 
d="M1217 504q0 -124 -73 -193t-173 -69q-86 0 -166.5 41.5t-173.5 132.5q-139 -174 -295 -174q-106 0 -170 67.5t-64 177.5q0 65 24.5 118t64.5 84.5t87.5 48t96.5 16.5q70 0 142 -36.5t167 -129.5q133 153 297 153q104 0 170 -61.5t66 -175.5zM350 305q124 0 242 154
q-104 97 -154.5 132.5t-103.5 35.5q-66 0 -112 -42t-46 -112q0 -74 49 -121t125 -47zM1135 508q0 70 -42 120t-120 50q-62 0 -129.5 -35t-122.5 -100q95 -102 145 -138t117 -36t109.5 34.5t42.5 104.5z" />
    <glyph glyph-name="integral" unicode="&#x222b;" horiz-adv-x="968" 
d="M238 -369q83 0 126.5 64.5t43.5 208.5q0 51 -3 102.5t-11.5 122.5t-12.5 102t-18.5 127t-16.5 113q-51 330 -51 539q0 132 43 237q50 118 152 188t251 70q112 0 193.5 -60.5t81.5 -158.5q0 -75 -40 -121.5t-112 -46.5q-60 0 -97 33.5t-40 87.5q0 29 6 59l74 7
q14 32 14 65q0 80 -100 80q-173 0 -170 -244q1 -93 13 -200t34 -253t31 -221q37 -308 37 -440q0 -118 -29 -209q-41 -140 -146.5 -227.5t-265.5 -87.5q-110 0 -190 60.5t-80 158.5q0 77 43 124.5t119 47.5q58 0 93.5 -33t37.5 -86q0 -34 -10 -63l-74 -6q-17 -34 -17 -62
q2 -36 26 -57t65 -21z" />
    <glyph glyph-name="approxequal" unicode="&#x2248;" 
d="M770 240q-78 0 -248 54t-237 54q-54 0 -96 -26t-91 -86l-51 32q58 74 117.5 114t132.5 40q76 0 244 -55.5t237 -55.5q54 0 98 24.5t89 86.5l53 -33q-102 -149 -248 -149zM831 588q-78 0 -248 54t-237 54q-54 0 -95.5 -26t-90.5 -86l-51 32q58 75 117 114.5t132 39.5
q76 0 244.5 -55.5t237.5 -55.5q54 0 97.5 24.5t88.5 86.5l53 -33q-102 -149 -248 -149z" />
    <glyph glyph-name="notequal" unicode="&#x2260;" 
d="M993 383h-567l-268 -262l-52 51l211 211h-254l15 74h317l250 245h-524l12 74h586l215 211l57 -51l-162 -160h234l-12 -74h-297l-252 -245h506z" />
    </font>
</defs>
</svg>
