<?xml version="1.0" standalone="no"?>
<!DOCTYPE svg PUBLIC "-//W3C//DTD SVG 1.1//EN" "http://www.w3.org/Graphics/SVG/1.1/DTD/svg11.dtd" >
<svg xmlns="http://www.w3.org/2000/svg" xmlns:xlink="http://www.w3.org/1999/xlink" version="1.1">
<metadata>
Created by FontForge 20170731 at Wed Feb 17 08:57:48 2021
 By Aleksey,,,
Copyright (c) 2011 by TypeTogether. All rights reserved.
</metadata>
<defs>
<font id="AbrilDisplay-ExtraBoldItalic" horiz-adv-x="1126" >
  <font-face 
    font-family="Abril Display EB"
    font-weight="800"
    font-style="italic"
    font-stretch="normal"
    units-per-em="2048"
    panose-1="2 0 5 4 7 0 0 9 0 3"
    ascent="1536"
    descent="-512"
    x-height="993"
    cap-height="1434"
    bbox="-444 -944 2826 2165"
    underline-thickness="102"
    underline-position="-307"
    slope="-10"
    unicode-range="U+0020-FB06"
  />
<missing-glyph horiz-adv-x="409" 
 />
    <glyph glyph-name="ij" unicode="ij" horiz-adv-x="1361" 
d="M477 1483q81 0 126.5 -37t45.5 -109q0 -92 -68.5 -147t-168.5 -55q-93 0 -133.5 41.5t-40.5 101.5q0 93 68.5 149t170.5 56zM440 246q-14 -82 -14 -119q0 -53 47 -53q55 0 129 100l47 -35q-55 -81 -125.5 -121.5t-171.5 -40.5q-118 0 -183 55.5t-65 172.5q0 60 27 203
l109 526h-162l10 53h502q-92 -409 -150 -741zM1278 987l-162 -987q-84 -512 -549 -512q-127 0 -217 61.5t-90 174.5q0 85 55 140.5t142 55.5q89 0 127 -69t-4 -152l-82 -14q-23 -73 -4 -104.5t73 -31.5q30 0 54.5 12.5t43.5 39.5t33.5 58.5t26.5 79t20.5 91t18.5 104.5
l162 1000h-170l10 53h512zM1180 1483q81 0 126.5 -37t45.5 -109q0 -92 -68.5 -147t-169.5 -55q-93 0 -133.5 41.5t-40.5 101.5q0 93 68.5 149t171.5 56z" />
    <glyph glyph-name="ff" unicode="ff" horiz-adv-x="1427" 
d="M63 -66l177 1000h-152l10 53h150l12 60q50 240 204 377t386 137q192 0 328 -123q138 145 346 145q51 0 101 -14t93.5 -41t70 -73t26.5 -103q0 -87 -52 -140t-129 -53q-69 0 -110 38t-41 95q0 41 20 80l86 10q19 43 19 72q0 37 -25 57.5t-63 20.5q-36 0 -64.5 -17.5
t-48.5 -47.5t-37 -83t-29 -108.5t-26 -140.5l-25 -148h254l-10 -53h-252l-156 -871q-46 -260 -200.5 -398t-407.5 -138q-100 0 -185.5 36t-129.5 93q-144 -170 -342 -170q-53 0 -102.5 12.5t-93 37.5t-69.5 69.5t-26 101.5q0 86 54 143.5t140 57.5q66 0 105 -37.5t39 -97.5
q0 -36 -19 -82l-84 -10q-18 -41 -18 -68q0 -66 80 -66q30 0 54 11t42.5 38t31.5 54t26 79t21 92t21 113zM768 -25l166 959h-346l-150 -825q-20 -118 -43 -181q62 -42 62 -108q0 -28 -17 -74l-80 -10q-12 -24 -12 -47q0 -44 39.5 -72.5t108.5 -28.5q113 0 172 88.5t100 298.5
zM627 1165l-31 -178h348l31 133q-66 29 -66 107q0 39 21 82l86 10q16 40 16 67q0 54 -39 88.5t-104 34.5q-111 0 -170.5 -77t-91.5 -267z" />
    <glyph glyph-name="fi" unicode="fi" horiz-adv-x="1368" 
d="M1122 246q-14 -82 -14 -119q0 -28 19 -40.5t42 -12.5q55 0 129 100l48 -35q-55 -81 -125.5 -121.5t-171.5 -40.5q-119 0 -188.5 56t-69.5 172q0 83 26 203l109 526h-336l-170 -934q-46 -250 -180 -382t-373 -132q-53 0 -103.5 12.5t-95 37.5t-71.5 69.5t-27 101.5
q0 86 54 143.5t140 57.5q66 0 105 -37.5t39 -97.5q0 -36 -19 -82l-84 -10q-18 -41 -18 -68q0 -66 80 -66q30 0 54 11t42.5 38t31.5 54t26 79t21 92t21 113l177 1000h-152l10 53h150l14 82q25 141 79 242t135 160t178.5 85.5t219.5 26.5q98 0 179.5 -23.5t135.5 -77.5
t54 -130q0 -87 -51.5 -140t-128.5 -53q-69 0 -110.5 38t-41.5 95q0 40 21 80l86 10q14 28 14 58q0 43 -36 67.5t-87 24.5q-113 0 -176 -71t-96 -257l-39 -217h674q-92 -409 -150 -741z" />
    <glyph glyph-name="fl" unicode="fl" horiz-adv-x="1404" 
d="M63 -66l177 1000h-152l10 53h150l14 82q42 241 190.5 377.5t381.5 136.5q102 0 187 -52t112 -136l219 141h34l-225 -1286q-8 -41 -8 -86q0 -88 61 -88q55 0 132 98l47 -35q-66 -89 -135 -125.5t-166 -36.5q-132 0 -202.5 61.5t-70.5 182.5q0 59 13.5 147.5t54.5 295.5
l100 491q-70 0 -113 40.5t-43 100.5q0 33 19 76l86 10q16 33 16 66q0 41 -28 62.5t-70 21.5q-95 0 -146.5 -93.5t-86.5 -303.5l-25 -148h235l-10 -53h-233l-170 -934q-46 -251 -179.5 -382.5t-371.5 -131.5q-53 0 -103.5 12.5t-95 37.5t-71.5 69.5t-27 101.5q0 86 54 143.5
t140 57.5q66 0 105 -37.5t39 -97.5q0 -36 -19 -82l-84 -10q-18 -41 -18 -68q0 -66 80 -66q30 0 54 11t42.5 38t31.5 54t26 79t21 92t21 113z" />
    <glyph glyph-name="ffi" unicode="ffi" horiz-adv-x="2066" 
d="M63 -66l177 1000h-152l10 53h150l12 60q50 240 204 377t386 137q192 0 328 -123q57 60 180.5 102.5t236.5 42.5q84 0 160.5 -23.5t131.5 -77.5t55 -130q0 -87 -52 -140t-129 -53q-69 0 -110 38t-41 95q0 41 20 80l86 10q15 30 15 58q0 44 -37 68t-90 24q-44 0 -77.5 -9
t-67 -34t-58.5 -69t-47.5 -115t-38.5 -170l-25 -148h680q-54 -238 -93.5 -436.5t-55 -297t-15.5 -126.5t19.5 -40.5t42.5 -12.5q55 0 129 100l47 -35q-55 -81 -125.5 -121.5t-171.5 -40.5q-119 0 -188.5 56t-69.5 172q0 78 27 203l108 526h-342l-160 -893
q-42 -239 -197.5 -376.5t-373.5 -137.5q-116 0 -210 36t-138 93q-144 -170 -342 -170q-53 0 -102.5 12.5t-93 37.5t-69.5 69.5t-26 101.5q0 86 54 143.5t140 57.5q66 0 105 -37.5t39 -97.5q0 -36 -19 -82l-84 -10q-18 -41 -18 -68q0 -66 80 -66q30 0 54 11t42.5 38t31.5 54
t26 79t21 92t21 113zM768 -25l166 959h-346l-150 -821q-14 -82 -41 -179q60 -41 60 -114q0 -32 -17 -74l-80 -10q-10 -20 -10 -45q0 -44 43.5 -73.5t116.5 -29.5q105 0 161 84t97 303zM627 1165l-31 -178h346l33 131q-30 13 -47 44.5t-17 70.5q0 36 19 76l86 10q16 40 16 67
q0 54 -39 88.5t-104 34.5q-111 0 -170.5 -77t-91.5 -267z" />
    <glyph glyph-name="ffl" unicode="ffl" horiz-adv-x="2088" 
d="M1540 1532q-121 0 -176 -169q-22 -66 -49 -228l-25 -148h234l-11 -53h-231l-156 -871q-46 -260 -200.5 -398t-407.5 -138q-100 0 -185.5 36t-129.5 93q-144 -170 -342 -170q-53 0 -102.5 12.5t-93 37.5t-69.5 69.5t-26 101.5q0 86 54 143.5t140 57.5q66 0 105 -37.5
t39 -97.5q0 -36 -19 -82l-84 -10q-18 -41 -18 -68q0 -66 80 -66q30 0 53.5 11t42 37.5t31.5 54.5t26 79t21.5 92.5t21.5 112.5l177 1000h-152l10 53h150l12 60q50 240 204 377t386 137q192 0 328 -123q138 145 346 145q101 0 179.5 -51t106.5 -137l220 141h34l-225 -1286
q-8 -41 -8 -86q0 -88 61 -88q54 0 131 98l48 -35q-66 -89 -135.5 -125.5t-166.5 -36.5q-132 0 -202 61t-70 183q0 59 13.5 147.5t54.5 295.5l100 491q-70 0 -113 40.5t-43 100.5q0 33 19 76l86 10q16 33 16 68q0 39 -26 60.5t-64 21.5zM768 -25l166 959h-346l-150 -825
q-20 -118 -43 -181q62 -42 62 -108q0 -28 -17 -74l-80 -10q-12 -24 -12 -47q0 -44 39.5 -72.5t108.5 -28.5q113 0 172 88.5t100 298.5zM627 1165l-31 -178h348l31 133q-66 29 -66 107q0 39 21 82l86 10q16 40 16 67q0 54 -39 88.5t-104 34.5q-113 0 -171.5 -76.5
t-90.5 -267.5z" />
    <glyph glyph-name="f_k" unicode="fk" horiz-adv-x="1916" 
d="M63 -66l177 1000h-152l10 53h150l14 82q42 241 190.5 377.5t381.5 136.5q102 0 187 -52t112 -136l219 141h34l-186 -1020l117 55q115 55 180.5 116.5t67.5 107.5l-82 32q-2 10 -2 29q0 74 45 121t133 47q83 0 121.5 -44.5t38.5 -107.5q0 -67 -45 -117t-134 -91l-286 -136
l4 -8q100 17 125 17q117 0 165 -45.5t48 -124.5q0 -35 -6 -72l-21 -129q-6 -35 -6 -47q0 -45 53 -45q31 0 59.5 23.5t67.5 76.5l47 -35q-55 -81 -125.5 -121.5t-171.5 -40.5q-52 0 -97.5 9.5t-85 30.5t-62.5 59.5t-23 91.5q0 37 8 70l23 98q10 45 10 67q0 68 -63 68
q-27 0 -63 -8t-50 -14l-70 -441q-62 0 -189 -7.5t-169 -18.5l94 430l131 743q-70 0 -113 40.5t-43 100.5q0 33 19 76l86 10q16 33 16 66q0 41 -28 62.5t-70 21.5q-95 0 -146.5 -93.5t-86.5 -303.5l-25 -148h235l-10 -53h-233l-170 -934q-46 -251 -179.5 -382.5
t-371.5 -131.5q-53 0 -103.5 12.5t-95 37.5t-71.5 69.5t-27 101.5q0 86 54 143.5t140 57.5q66 0 105 -37.5t39 -97.5q0 -36 -19 -82l-84 -10q-18 -41 -18 -68q0 -66 80 -66q30 0 54 11t42.5 38t31.5 54t26 79t21 92t21 113z" />
    <glyph glyph-name="f_b" unicode="fb" horiz-adv-x="1959" 
d="M877 563l110 592q-70 0 -113 40.5t-43 100.5q0 33 19 76l86 10q16 33 16 66q0 41 -28 62.5t-70 21.5q-95 0 -146.5 -93.5t-86.5 -303.5l-25 -148h235l-10 -53h-233l-170 -934q-46 -251 -179.5 -382.5t-371.5 -131.5q-53 0 -103.5 12.5t-95 37.5t-71.5 69.5t-27 101.5
q0 86 54 143.5t140 57.5q66 0 105 -37.5t39 -97.5q0 -36 -19 -82l-84 -10q-18 -41 -18 -68q0 -66 80 -66q30 0 54 11t42.5 38t31.5 54t26 79t21 92t21 113l177 1000h-152l10 53h150l14 82q42 241 190.5 377.5t381.5 136.5q102 0 187 -52t112 -136l219 141h34l-137 -721
l11 -6q119 199 335 199q154 0 231 -93.5t77 -259.5q0 -102 -22.5 -198.5t-71.5 -184t-120 -153t-174 -104t-227 -38.5q-432 0 -432 373q0 105 21 213zM1470 909q-63 0 -117.5 -64t-89.5 -164.5t-55 -220.5t-20 -235q0 -91 30 -135.5t95 -44.5q61 0 109.5 61.5t78.5 164
t46 227t16 258.5q0 82 -23.5 117.5t-69.5 35.5z" />
    <glyph glyph-name="f_h" unicode="fh" horiz-adv-x="1974" 
d="M854 367l133 788q-70 0 -113 40.5t-43 100.5q0 33 19 76l86 10q16 33 16 66q0 41 -28 62.5t-70 21.5q-95 0 -146.5 -93.5t-86.5 -303.5l-25 -148h238l-11 -53h-235l-170 -934q-46 -251 -179.5 -382.5t-371.5 -131.5q-53 0 -103.5 12.5t-95 37.5t-71.5 69.5t-27 101.5
q0 86 54 143.5t140 57.5q66 0 105 -37.5t39 -97.5q0 -36 -19 -82l-84 -10q-18 -41 -18 -68q0 -66 80 -66q30 0 54 11t42.5 38t31.5 54t26 79t21 92t21 113l177 1000h-152l10 53h150l14 82q42 241 190.5 377.5t381.5 136.5q102 0 187 -52t112 -136l219 141h34l-192 -887
l14 -6q156 365 430 365q110 0 165 -58t55 -162q0 -40 -21 -143l-92 -399q-21 -99 -21 -119q0 -53 50 -53q59 0 133 100l47 -35q-55 -81 -125.5 -121.5t-171.5 -40.5q-119 0 -187.5 56t-68.5 172q0 62 24.5 172t46 182.5t41.5 130.5q23 71 23 115q0 69 -53 69
q-113 0 -209 -236t-135 -632q-232 0 -371 -20z" />
    <glyph glyph-name="f_t" unicode="ft" horiz-adv-x="1503" 
d="M1495 934h-217l-86 -438q-43 -227 -43 -308q0 -39 21 -62.5t63 -23.5q47 0 89 37t97 117l51 -35q-32 -52 -65.5 -92.5t-78.5 -76.5t-102.5 -55.5t-123.5 -19.5q-65 0 -115.5 14.5t-82 38t-52.5 56t-29 67t-8 72.5q0 86 39 281l82 428h-346l-170 -934
q-46 -251 -179.5 -382.5t-371.5 -131.5q-53 0 -103.5 12.5t-95 37.5t-71.5 69.5t-27 101.5q0 86 54 143.5t140 57.5q66 0 105 -37.5t39 -97.5q0 -36 -19 -82l-84 -10q-18 -41 -18 -68q0 -66 80 -66q30 0 54 11t42.5 38t31.5 54t26 79t21 92t21 113l177 1000h-152l10 53h150
l14 82q43 247 178.5 380.5t372.5 133.5q55 0 105 -12t94.5 -37t71 -70.5t26.5 -105.5q0 -82 -51.5 -133t-128.5 -51q-69 0 -110.5 39t-41.5 98q0 39 21 80l86 10q16 31 16 61q0 33 -24 51.5t-62 18.5q-30 0 -53.5 -10.5t-42 -37t-31.5 -54t-25.5 -80t-20.5 -95.5t-21 -120
l-25 -148h348l25 123l321 72h33l-37 -195h215z" />
    <glyph glyph-name="f_j" unicode="fj" horiz-adv-x="1363" 
d="M1280 987l-172 -1040q-77 -461 -567 -461q-38 0 -56 2v61q134 21 190 102.5t89 282.5l162 1000h-336l-170 -934q-46 -250 -180 -382t-373 -132q-53 0 -103.5 12.5t-95 37.5t-71.5 69.5t-27 101.5q0 86 54 143.5t140 57.5q66 0 105 -37.5t39 -97.5q0 -36 -19 -82l-84 -10
q-18 -41 -18 -68q0 -66 80 -66q30 0 54 11t42.5 38t31.5 54t26 79t21 92t21 113l177 1000h-152l10 53h150l14 82q89 514 629 514q89 0 168.5 -26.5t133.5 -84t54 -133.5q0 -86 -52.5 -133t-131.5 -47q-71 0 -111.5 37t-40.5 94q0 38 21 82l86 10q14 28 14 58q0 43 -36 67.5
t-87 24.5q-113 0 -176 -71t-96 -257l-39 -217h682z" />
    <glyph glyph-name="f_f_j" unicode="ffj" horiz-adv-x="2054" 
d="M63 -66l177 1000h-152l10 53h150l12 60q50 240 204 377t386 137q192 0 328 -123q138 145 346 145q51 0 101 -14t93.5 -41t70 -73t26.5 -103q0 -87 -52 -140t-129 -53q-69 0 -110 38t-41 95q0 41 20 80l86 10q19 43 19 72q0 37 -25 57.5t-63 20.5q-36 0 -64.5 -17.5
t-48.5 -47.5t-37 -83t-29 -108.5t-26 -140.5l-25 -148h680l-172 -1040q-77 -461 -567 -461q-37 0 -55 2v61q69 11 114.5 35t77.5 72.5t50.5 111.5t35.5 166l164 1000h-336l-164 -909q-46 -260 -200.5 -398.5t-407.5 -138.5q-100 0 -185.5 36t-129.5 93q-111 -131 -334 -131
q-53 0 -102.5 12.5t-93 37.5t-69.5 69.5t-26 101.5q0 86 54 143.5t140 57.5q66 0 105 -37.5t39 -97.5q0 -36 -19 -82l-84 -10q-18 -41 -18 -68q0 -66 80 -66q30 0 54 11t42.5 38t31.5 54t26 79t21 92t21 113zM760 -63l174 997h-346l-142 -787q-25 -132 -65 -258
q30 -9 49 -40.5t19 -67.5q0 -28 -17 -74l-80 -10q-12 -24 -12 -47q0 -44 39 -72.5t108 -28.5q113 0 172.5 89t100.5 299zM627 1165l-31 -178h348l31 133q-66 29 -66 107q0 39 21 82l86 10q16 40 16 67q0 54 -39 88.5t-104 34.5q-111 0 -170.5 -77t-91.5 -267z" />
    <glyph glyph-name="f_f_k" unicode="ffk" horiz-adv-x="2617" 
d="M1556 418l113 739q-71 0 -115.5 40t-44.5 99q0 33 19 76l86 10q16 33 16 68q0 39 -26 60.5t-64 21.5q-121 0 -176 -169q-22 -66 -49 -228l-25 -148h234l-11 -53h-231l-156 -871q-46 -260 -200.5 -398t-407.5 -138q-100 0 -185.5 36t-129.5 93q-144 -170 -342 -170
q-53 0 -102.5 12.5t-93 37.5t-69.5 69.5t-26 101.5q0 86 54 143.5t140 57.5q66 0 105 -37.5t39 -97.5q0 -36 -19 -82l-84 -10q-18 -41 -18 -68q0 -66 80 -66q30 0 53.5 11t42 37.5t31.5 54.5t26 79t21.5 92.5t21.5 112.5l177 1000h-152l10 53h150l12 60q50 240 204 377
t386 137q192 0 328 -123q138 145 346 145q101 0 179.5 -51t106.5 -137l220 141h34l-166 -1022l119 57q116 57 181 117.5t67 106.5l-82 32q-10 84 35 140.5t141 56.5q83 0 121.5 -44.5t38.5 -107.5q0 -67 -44.5 -117t-133.5 -91l-287 -136l4 -8q100 17 125 17q61 0 104 -13
t65 -35.5t34 -53.5t10.5 -66t-6.5 -74l-23 -141q-6 -35 8.5 -57.5t34.5 -22.5q35 0 65 23.5t69 76.5l47 -35q-55 -81 -125.5 -121.5t-171.5 -40.5q-48 0 -89 7.5t-80.5 25.5t-62.5 47.5t-33.5 74.5t5.5 106l22 98q17 66 5 100.5t-58 34.5q-27 0 -63 -8t-50 -14l-69 -441
q-62 0 -189.5 -7.5t-169.5 -18.5zM768 -25l166 959h-346l-150 -825q-20 -118 -43 -181q62 -42 62 -108q0 -28 -17 -74l-80 -10q-12 -24 -12 -47q0 -44 39.5 -72.5t108.5 -28.5q113 0 172 88.5t100 298.5zM627 1165l-31 -178h348l31 133q-66 29 -66 107q0 39 21 82l86 10
q16 40 16 67q0 54 -39 88.5t-104 34.5q-113 0 -171.5 -76.5t-90.5 -267.5z" />
    <glyph glyph-name="f_f_b" unicode="ffb" horiz-adv-x="2635" 
d="M1540 1532q-121 0 -176 -169q-22 -66 -49 -228l-25 -148h234l-11 -53h-231l-156 -871q-46 -260 -200.5 -398t-407.5 -138q-100 0 -185.5 36t-129.5 93q-144 -170 -342 -170q-53 0 -102.5 12.5t-93 37.5t-69.5 69.5t-26 101.5q0 86 54 143.5t140 57.5q66 0 105 -37.5
t39 -97.5q0 -36 -19 -82l-84 -10q-18 -41 -18 -68q0 -66 80 -66q30 0 53.5 11t42 37.5t31.5 54.5t26 79t21.5 92.5t21.5 112.5l177 1000h-152l10 53h150l12 60q50 240 204 377t386 137q192 0 328 -123q138 145 346 145q101 0 179.5 -51t106.5 -137l220 141h34l-139 -723
l10 -4q119 199 336 199q154 0 230.5 -93t76.5 -260q0 -102 -22.5 -198.5t-71.5 -184t-119.5 -153t-173.5 -104t-227 -38.5q-432 0 -432 373q0 82 14 162l119 643q-70 0 -113 40.5t-43 100.5q0 33 19 76l86 10q16 33 16 68q0 39 -26 60.5t-64 21.5zM768 -25l166 959h-346
l-150 -825q-20 -118 -43 -181q62 -42 62 -108q0 -28 -17 -74l-80 -10q-12 -24 -12 -47q0 -44 39.5 -72.5t108.5 -28.5q113 0 172 88.5t100 298.5zM2146 909q-50 0 -99.5 -48.5t-90.5 -133.5q-92 -191 -92 -502q0 -91 30 -135.5t95 -44.5q61 0 109.5 61.5t78.5 164t45.5 227
t15.5 258.5q0 82 -23 117.5t-69 35.5zM627 1165l-31 -178h348l31 133q-66 29 -66 107q0 39 21 82l86 10q16 40 16 67q0 54 -39 88.5t-104 34.5q-113 0 -171.5 -76.5t-90.5 -267.5z" />
    <glyph glyph-name="f_f_h" unicode="ffh" horiz-adv-x="2658" 
d="M1540 1532q-121 0 -176 -169q-22 -66 -49 -228l-25 -148h234l-11 -53h-231l-156 -871q-46 -260 -200.5 -398t-407.5 -138q-100 0 -185.5 36t-129.5 93q-144 -170 -342 -170q-53 0 -102.5 12.5t-93 37.5t-69.5 69.5t-26 101.5q0 86 54 143.5t140 57.5q66 0 105 -37.5
t39 -97.5q0 -36 -19 -82l-84 -10q-18 -41 -18 -68q0 -66 80 -66q30 0 53.5 11t42 37.5t31.5 54.5t26 79t21.5 92.5t21.5 112.5l177 1000h-152l10 53h150l12 60q50 240 204 377t386 137q192 0 328 -123q138 145 346 145q101 0 179.5 -51t106.5 -137l220 141h34l-184 -889
l12 -4q156 365 430 365q110 0 165 -58t55 -162q0 -57 -21 -143l-92 -399q-21 -99 -21 -119q0 -53 50 -53q59 0 133 100l47 -35q-55 -81 -125.5 -121.5t-171.5 -40.5q-119 0 -187.5 56t-68.5 172q0 62 25 172.5t46.5 181.5t41.5 131q22 72 22 115q0 69 -53 69t-110 -65.5
t-103 -177.5q-89 -216 -131 -625q-54 2 -192.5 -5t-178.5 -15l86 381l127 788q-70 0 -113 40.5t-43 100.5q0 33 19 76l86 10q16 33 16 68q0 39 -26 60.5t-64 21.5zM768 -25l166 959h-346l-150 -825q-20 -118 -43 -181q62 -42 62 -108q0 -28 -17 -74l-80 -10q-12 -24 -12 -47
q0 -44 39.5 -72.5t108.5 -28.5q113 0 172 88.5t100 298.5zM627 1165l-31 -178h348l31 133q-66 29 -66 107q0 39 21 82l86 10q16 40 16 67q0 54 -39 88.5t-104 34.5q-113 0 -171.5 -76.5t-90.5 -267.5z" />
    <glyph glyph-name="f_f_t" unicode="fft" horiz-adv-x="2191" 
d="M63 -66l177 1000h-152l10 53h150l12 60q50 240 204 377t386 137q192 0 328 -123q138 145 356 145q69 0 130.5 -20.5t106 -70t44.5 -120.5q0 -87 -52 -139.5t-129 -52.5q-69 0 -110 38t-41 95q0 41 20 80l86 10q19 36 19 63q0 30 -19.5 48t-58.5 18q-40 0 -69.5 -16.5
t-50.5 -45t-38.5 -81t-29.5 -109t-27 -145.5l-25 -148h340l23 119l323 72h33l-35 -191h215l-6 -53h-217l-86 -438q-43 -227 -43 -308q0 -39 21 -62.5t63 -23.5q47 0 89 37t97 117l52 -35q-68 -112 -156.5 -178t-214.5 -66q-65 0 -115.5 14.5t-82 38t-52.5 56t-29 67t-8 72.5
q0 86 39 281l82 428h-340l-156 -871q-46 -260 -200.5 -398t-407.5 -138q-100 0 -185.5 36t-129.5 93q-144 -170 -342 -170q-53 0 -102.5 12.5t-93 37.5t-69.5 69.5t-26 101.5q0 86 54 143.5t140 57.5q66 0 105 -37.5t39 -97.5q0 -36 -19 -82l-84 -10q-18 -41 -18 -68
q0 -66 80 -66q30 0 54 11t42.5 38t31.5 54t26 79t21 92t21 113zM768 -25l166 959h-346l-150 -825q-20 -118 -43 -181q62 -42 62 -108q0 -28 -17 -74l-80 -10q-12 -24 -12 -47q0 -44 39.5 -72.5t108.5 -28.5q113 0 172 88.5t100 298.5zM627 1165l-31 -178h348l31 133
q-66 29 -66 107q0 39 21 82l86 10q16 40 16 67q0 54 -39 88.5t-104 34.5q-111 0 -170.5 -77t-91.5 -267z" />
    <glyph glyph-name="f_iacute" unicode="f&#xed;" horiz-adv-x="1361" 
d="M70 -66l176 1000h-152l10 53h150l25 141q79 455 442 455q74 0 136.5 -23.5t104.5 -77.5t42 -130q0 -87 -52 -140t-129 -53q-69 0 -110 38t-41 95q0 41 20 80l86 10q19 43 19 72q0 37 -25 57.5t-63 20.5q-61 0 -95 -43t-34 -125q0 -100 49 -229l-25 -148h676
q-54 -238 -93.5 -436.5t-55 -297t-15.5 -126.5q0 -53 62 -53q55 0 129 100l47 -35q-55 -81 -125.5 -121.5t-171.5 -40.5q-119 0 -188.5 56t-69.5 172q0 83 26 203l109 526h-338l-170 -934q-46 -250 -180 -382t-373 -132q-53 0 -103.5 12.5t-95 37.5t-71.5 69.5t-27 101.5
q0 86 54.5 143.5t140.5 57.5q66 0 104.5 -37.5t38.5 -97.5q0 -39 -18 -82l-89 -10q-16 -33 -16 -66q0 -32 22 -50t60 -18q30 0 54 11t42.5 37.5t31.5 54.5t26 79.5t21.5 92t21.5 112.5zM1047 1151l176 391l116 25q43 9 80 -10.5t37 -67.5q0 -58 -63 -109l-312 -254z" />
    <glyph glyph-name="t_t.alt" unicode="tt" horiz-adv-x="1460" 
d="M1452 934h-217l-86 -438q-43 -227 -43 -308q0 -39 21 -62.5t63 -23.5q47 0 89 37t97 117l51 -35q-32 -52 -65.5 -92.5t-78.5 -76.5t-102.5 -55.5t-123.5 -19.5q-65 0 -115.5 14.5t-82 38t-52.5 56t-29 67t-8 72.5q0 86 39 281l82 428h-326l-86 -438q-43 -227 -43 -297
q0 -97 84 -97q43 0 72.5 22t66.5 75l52 -35q-24 -40 -49.5 -69.5t-64 -58.5t-91.5 -44t-119 -15q-65 0 -115.5 14.5t-82 38t-52.5 56t-29 67t-8 72.5q0 86 39 281l82 428h-147l6 53h149l35 207l324 72h33l-48 -279h326l35 207l323 72h33l-47 -279h215z" />
    <glyph glyph-name=".notdef" horiz-adv-x="409" 
 />
    <glyph glyph-name=".null" horiz-adv-x="0" 
 />
    <glyph glyph-name="nonmarkingreturn" horiz-adv-x="682" 
 />
    <glyph glyph-name="space" unicode=" " horiz-adv-x="409" 
 />
    <glyph glyph-name="exclam" unicode="!" horiz-adv-x="784" 
d="M299 385l16 92q27 150 30.5 261.5t-7.5 167.5t-24 137t-13 159q0 111 57 182.5t174 71.5q87 0 125.5 -47t38.5 -115q0 -61 -24.5 -124t-63.5 -129t-81 -141t-83 -187t-63 -238l-16 -90h-66zM121 117q0 78 54.5 132t139.5 54q63 0 101.5 -33.5t38.5 -93.5
q0 -82 -53.5 -139t-141.5 -57q-71 0 -105 40.5t-34 96.5z" />
    <glyph glyph-name="quotedbl" unicode="&#x22;" horiz-adv-x="765" 
d="M244 1071l16 455q69 49 129 49q37 0 62.5 -17.5t25.5 -56.5q0 -53 -37 -129l-147 -301h-49zM547 1071l16 455q69 49 129 49q37 0 62.5 -17.5t25.5 -56.5q0 -53 -37 -129l-147 -301h-49z" />
    <glyph glyph-name="numbersign" unicode="#" horiz-adv-x="1263" 
d="M250 0h-92l94 285h-244l33 86h240l122 362h-245l30 88h240l84 266h94l-86 -266h316l84 266h90l-86 -266h247l-28 -88h-244l-119 -362h244l-29 -86h-239l-94 -285h-93l95 285h-318zM809 733h-313l-123 -362h317z" />
    <glyph glyph-name="dollar" unicode="$" horiz-adv-x="1136" 
d="M307 -145l27 147q-56 8 -128.5 27.5t-88.5 19.5q-12 0 -22 -7.5t-16 -16.5t-22 -35h-39l64 469h45q23 -123 79 -222t142 -149l88 483q-262 94 -262 338q0 170 108 304.5t298 175.5l30 172h64l-29 -162q8 0 24.5 1t24.5 1q28 0 74 -4l29 164h63l-31 -175q36 -8 93 -28.5
t79 -20.5q29 0 56 41h33l-58 -397h-41q-59 246 -178 319l-78 -442q49 -21 83.5 -38t76.5 -47.5t67.5 -64.5t43.5 -85.5t18 -112.5q0 -200 -125.5 -338.5t-314.5 -171.5l-27 -145h-63l24 137q-12 -2 -39 -2q-30 0 -84 4l-24 -139h-64zM504 49h24l84 463q-112 39 -114 39
l-90 -490q44 -12 96 -12zM594 59q217 61 217 246q0 68 -32.5 106.5t-106.5 75.5zM676 877l80 452q-44 12 -88 12q-23 0 -33 -2l-76 -426q62 -20 117 -36zM500 938l69 391q-84 -16 -136 -72t-52 -145q0 -119 119 -174z" />
    <glyph glyph-name="percent" unicode="%" horiz-adv-x="1589" 
d="M778 242q0 192 113 311t295 119q131 0 204.5 -66.5t73.5 -197.5q0 -129 -59.5 -228.5t-150.5 -149.5t-195 -50q-138 0 -209.5 71t-71.5 191zM1176 625q-55 0 -95 -56t-59.5 -140t-28 -155.5t-8.5 -126.5q0 -122 84 -122q44 0 78.5 38t54 93t32 125t17 125.5t4.5 103.5
q0 59 -18.5 87t-60.5 28zM225 0l1082 1434h77l-1077 -1434h-82zM170 1026q0 192 113 311t295 119q131 0 204.5 -66.5t73.5 -197.5q0 -129 -59.5 -228.5t-150.5 -149.5t-195 -50q-138 0 -209.5 71t-71.5 191zM567 1409q-55 0 -95 -56t-59 -139.5t-27.5 -155t-8.5 -126.5
q0 -123 84 -123q44 0 78.5 38t54 93t32 125t17 125.5t4.5 103.5q0 59 -19 87t-61 28z" />
    <glyph glyph-name="ampersand" unicode="&#x26;" horiz-adv-x="1845" 
d="M1620 647l-162 -29q-7 -82 -26 -156.5t-54 -148.5t-91.5 -133.5t-131.5 -105.5t-181.5 -71.5t-234.5 -25.5q-281 0 -438.5 102.5t-157.5 291.5q0 92 40.5 166t114 124.5t168.5 82t212 44.5v7q-173 11 -274 84.5t-101 201.5q0 92 45 164.5t125 118t186 69t232 23.5
q84 0 154.5 -14t132 -45t96.5 -89.5t35 -140.5q0 -104 -56 -154t-133 -50q-58 0 -94.5 26t-46 63.5t-5 76.5t22.5 67h103q44 103 8 155t-135 52q-55 0 -102.5 -18.5t-86.5 -57t-61.5 -105.5t-22.5 -157q0 -75 16 -144t46 -106q83 31 129 31q84 0 84 -66q0 -65 -98 -65
q-24 0 -51 9t-37 14t-39 22q-179 -138 -179 -340q0 -340 314 -340q114 0 206.5 43t152 117t94.5 167t44 199l-247 -31q-41 -6 -55 -24t-23 -70l-43 2q6 188 49.5 278t136.5 107q27 5 232 33.5t254 38.5q30 6 43.5 24.5t19.5 67.5l43 -2q4 -103 -11.5 -183t-56.5 -134.5
t-104 -65.5z" />
    <glyph glyph-name="quotesingle" unicode="'" horiz-adv-x="462" 
d="M236 1071l16 455q69 49 129 49q37 0 62.5 -17.5t25.5 -56.5q0 -53 -37 -129l-147 -301h-49z" />
    <glyph glyph-name="parenleft" unicode="(" horiz-adv-x="772" 
d="M113 678q37 208 159 406.5t287.5 331.5t329.5 161l2 -45q-47 -11 -86 -31.5t-71.5 -58t-56.5 -70.5t-46.5 -98t-37 -110.5t-33.5 -137t-29.5 -148t-30.5 -171.5q-68 -389 -68 -623q0 -176 27 -249.5t112 -117.5l-16 -39q-131 36 -239 148.5t-168 266.5t-60 315
q0 129 25 270z" />
    <glyph glyph-name="parenright" unicode=")" horiz-adv-x="772" 
d="M686 848q0 -159 -32.5 -312t-99.5 -292.5t-161.5 -252.5t-226.5 -195.5t-287 -117.5l-2 50q44 13 80.5 34t66.5 52.5t53.5 66t44.5 86t37 100t33.5 119.5t31 133.5t32.5 152.5q10 51 16 77q70 333 70 622q0 176 -27 249.5t-112 117.5l16 39q131 -36 239 -148t168 -266
t60 -315z" />
    <glyph glyph-name="asterisk" unicode="*" horiz-adv-x="1042" 
d="M1024 1260l-371 -70l248 -72q22 -6 36 -12t29 -17t21 -27t2 -38q-15 -85 -151 -137l-205 272l16 -364q-72 -50 -133 -50q-42 0 -63.5 20.5t-14.5 55.5q7 43 33 94l125 246l-297 -274q-47 18 -78.5 53t-23.5 84q7 40 39.5 61t89.5 35l258 70l-340 70q-2 17 4 67
q9 47 39 85t75 38q28 0 46.5 -13t50.5 -48l151 -170l-20 346q70 51 133 51q40 0 62 -21.5t16 -56.5q-6 -40 -43 -106l-111 -215l203 172q74 61 125 61q45 0 62 -34.5t7 -88.5q-5 -33 -20 -67z" />
    <glyph glyph-name="plus" unicode="+" 
d="M1020 612h-430l-74 -424h-82l74 424h-418l14 74h418l70 399h82l-70 -399h430z" />
    <glyph glyph-name="comma" unicode="," horiz-adv-x="608" 
d="M80 -319l-27 43q144 97 193 165t49 136q0 50 -39 57l-100 -78q-36 12 -64.5 50t-28.5 87q0 79 56.5 127.5t130.5 48.5q83 0 126.5 -53.5t43.5 -134.5q0 -128 -80.5 -231.5t-259.5 -216.5z" />
    <glyph glyph-name="hyphen" unicode="-" horiz-adv-x="706" 
d="M82 512l22 119h504l-22 -119h-504z" />
    <glyph glyph-name="period" unicode="." horiz-adv-x="591" 
d="M272 319q69 0 109.5 -35t40.5 -98q0 -94 -56.5 -150t-146.5 -56q-78 0 -112.5 42t-34.5 103q0 86 60 140t140 54z" />
    <glyph glyph-name="slash" unicode="/" horiz-adv-x="847" 
d="M-33 -199l907 1827h82l-905 -1827h-84z" />
    <glyph glyph-name="zero" unicode="0" horiz-adv-x="1263" 
d="M63 510q0 131 23.5 260t78.5 254t134.5 220t201 153.5t269.5 58.5q106 0 189 -28.5t146.5 -89t97.5 -163t34 -241.5q0 -90 -12.5 -181.5t-39.5 -186t-66.5 -179.5t-98.5 -160t-130.5 -129.5t-166 -86t-201.5 -31.5q-232 0 -345.5 140t-113.5 390zM444 715
q-53 -311 -53 -455q0 -115 30.5 -166t110.5 -51q36 0 64.5 8t53.5 28.5t44 45t37 70t31.5 89.5t29 117t28 140t30.5 170q53 311 53 465q0 118 -30.5 167.5t-112.5 49.5q-44 0 -77.5 -14t-62.5 -49t-51 -83t-43.5 -129.5t-40 -174t-41.5 -228.5z" />
    <glyph glyph-name="one" unicode="1" horiz-adv-x="960" 
d="M260 59l191 1155q-66 -12 -156 -4.5t-141 21.5l14 53q153 -12 294.5 37t211.5 135h184l-233 -1397h202l-12 -59h-788l10 59h223z" />
    <glyph glyph-name="two" unicode="2" horiz-adv-x="1093" 
d="M616 1456q118 0 206.5 -27t140 -74.5t76 -106.5t24.5 -130q0 -42 -10 -82t-25.5 -75.5t-46 -75t-59.5 -72t-78 -73.5t-90.5 -73.5t-107.5 -79.5t-118.5 -82.5t-133.5 -90.5l-9 -6l-184 -125h467q92 0 148 21t81.5 54.5t48.5 96.5h47l-78 -455h-923l39 231l254 248
q212 205 299.5 359t87.5 321q0 121 -37.5 177.5t-114.5 56.5q-73 0 -107 -45t-14 -123h84q6 -108 -40 -173t-146 -65q-80 0 -121 47.5t-41 118.5q0 131 136 217t345 86z" />
    <glyph glyph-name="three" unicode="3" horiz-adv-x="1167" 
d="M694 1456q391 0 391 -272q0 -61 -29 -113t-75 -90t-118.5 -73.5t-142.5 -59.5t-165 -51l-2 -11q127 17 224.5 0t155.5 -61.5t87 -104t29 -131.5q0 -103 -41 -189.5t-109 -145t-157.5 -99.5t-186 -59.5t-195.5 -18.5q-188 0 -276 66.5t-88 181.5q0 93 59.5 160.5
t157.5 67.5q57 0 92 -23.5t45 -61t6 -78t-20 -81.5h-86q-51 -67 -28.5 -116.5t110.5 -49.5q136 0 230.5 114t94.5 308q0 135 -42.5 195.5t-127.5 60.5q-84 0 -182 -39l-10 55q209 68 311.5 173t102.5 280q0 91 -42.5 146t-119.5 55q-67 0 -103 -45t-10 -132h80
q18 -233 -197 -233q-72 0 -111.5 46.5t-39.5 109.5q0 148 141 233.5t387 85.5z" />
    <glyph glyph-name="four" unicode="4" horiz-adv-x="1208" 
d="M946 367l-57 -308h196l-8 -59h-780l6 59h229l58 308h-565l14 82q308 295 460 522t152 338q0 61 -24 110l57 49q132 0 202 -40.5t70 -139.5q0 -118 -112.5 -235.5t-532.5 -460.5l-192 -158h479l61 357l375 73l-78 -430h179l-9 -67h-180z" />
    <glyph glyph-name="five" unicode="5" horiz-adv-x="1114" 
d="M311 43q81 0 144 46t98.5 123t53.5 165.5t18 183.5q0 124 -35.5 184t-116.5 60q-44 0 -106.5 -23t-122.5 -65l-56 24l189 689l31 14q89 -34 205.5 -54t222.5 -20q218 0 266 152l43 -4q-15 -212 -140.5 -320t-342.5 -108q-60 0 -152 13.5t-135 33.5l-107 -338
q193 112 408 112q171 0 255.5 -84.5t84.5 -228.5q0 -188 -93.5 -331t-250 -216.5t-350.5 -73.5q-169 0 -250.5 68t-81.5 172q0 97 55 165.5t166 68.5q74 0 109.5 -38t34 -90.5t-28.5 -107.5h-88q-55 -71 -33 -121.5t106 -50.5z" />
    <glyph glyph-name="six" unicode="6" horiz-adv-x="1206" 
d="M895 1393q-146 0 -261.5 -183t-168.5 -471q54 71 139.5 118.5t196.5 47.5q144 0 234.5 -87.5t90.5 -262.5q0 -137 -49 -248t-132.5 -182t-192 -109.5t-230.5 -38.5q-97 0 -175 27.5t-138.5 84.5t-93.5 154t-33 228q0 108 20.5 219.5t60.5 223t106.5 208.5t151.5 172
t202.5 118.5t253.5 43.5q143 0 226 -59t83 -178q0 -90 -51.5 -152.5t-149.5 -62.5q-76 0 -111.5 39.5t-31 92.5t34.5 107h77q30 50 26 83.5t-27 50t-58 16.5zM678 809q-110 0 -190 -165.5t-80 -424.5q0 -85 27 -129.5t93 -44.5q48 0 94.5 38t85 108t62 183.5t23.5 252.5
q0 89 -26 135.5t-89 46.5z" />
    <glyph glyph-name="seven" unicode="7" horiz-adv-x="1103" 
d="M995 713h-284q-138 -265 -138 -455q0 -131 56 -221l-45 -62q-164 -16 -249 49t-85 162q0 59 15 112t57 121.5t84.5 126t130.5 167.5h-240l14 63h275q122 144 319 338h-434q-97 0 -142 -14.5t-73 -53.5t-63 -135h-58l139 547l35 15q66 -39 211 -39h684l17 -43
q-84 -76 -246.5 -282t-235.5 -333h273z" />
    <glyph glyph-name="eight" unicode="8" horiz-adv-x="1179" 
d="M524 764q-158 9 -248 88.5t-90 202.5q0 183 147.5 292t407.5 109q203 0 318 -80.5t115 -238.5q0 -147 -128 -254t-321 -119l-2 -6q194 -22 283.5 -109t89.5 -217q0 -141 -82 -246t-217 -157t-301 -52q-218 0 -344.5 96.5t-126.5 268.5q0 78 32 149t92.5 128.5t157 94.5
t215.5 44zM735 496q0 47 -4.5 81.5t-16 68t-37 51.5t-63.5 18q-58 0 -103.5 -44t-70 -116t-37 -150.5t-12.5 -158.5q0 -98 27.5 -149.5t99.5 -51.5q71 0 122 67.5t73 167t22 216.5zM727 1391q-48 0 -84.5 -37t-57 -98t-30.5 -129.5t-10 -139.5q0 -106 19.5 -151t70.5 -45
q48 0 85 38t58 101.5t31 137t10 153.5q0 89 -21 129.5t-71 40.5z" />
    <glyph glyph-name="nine" unicode="9" horiz-adv-x="1206" 
d="M328 43q145 0 261.5 165.5t174.5 489.5q-43 -67 -125 -111t-186 -44q-51 0 -98.5 11.5t-92.5 38.5t-78 67.5t-53 102.5t-20 140q0 138 46 245.5t126.5 173.5t183.5 100t223 34q222 0 340.5 -123t118.5 -391q0 -87 -13 -178t-42 -186t-71.5 -181.5t-106.5 -164
t-142 -133.5t-183 -89t-224 -33q-166 0 -246 62t-80 168q0 96 55.5 158.5t153.5 62.5q71 0 107 -41t34.5 -95t-31.5 -102h-86q-53 -64 -36 -105.5t90 -41.5zM561 629q75 0 136 77.5t94.5 205t33.5 276.5q0 107 -27 155t-93 48q-64 0 -115.5 -57.5t-80.5 -147t-44.5 -186.5
t-15.5 -189q0 -93 25 -137.5t87 -44.5z" />
    <glyph glyph-name="colon" unicode=":" horiz-adv-x="591" 
d="M276 319q69 0 109.5 -35t40.5 -98q0 -94 -56.5 -150t-146.5 -56q-78 0 -112.5 42t-34.5 103q0 86 60 140t140 54zM403 997q69 0 109.5 -35t40.5 -98q0 -94 -56.5 -150.5t-146.5 -56.5q-78 0 -112.5 42.5t-34.5 103.5q0 86 60 140t140 54z" />
    <glyph glyph-name="semicolon" unicode=";" horiz-adv-x="608" 
d="M80 -319l-27 43q144 97 193 165t49 136q0 50 -39 57l-100 -78q-36 12 -64.5 50t-28.5 87q0 79 56.5 127.5t130.5 48.5q83 0 126.5 -53.5t43.5 -134.5q0 -128 -80.5 -231.5t-259.5 -216.5zM383 997q69 0 109 -35t40 -98q0 -94 -56 -150.5t-146 -56.5q-78 0 -113 42.5
t-35 103.5q0 86 60.5 140t140.5 54z" />
    <glyph glyph-name="less" unicode="&#x3c;" 
d="M918 176l-857 395l11 58l993 389l-14 -84l-871 -338l752 -344z" />
    <glyph glyph-name="equal" unicode="=" 
d="M993 383h-930l15 74h930zM133 776h930l-12 -74h-930z" />
    <glyph glyph-name="greater" unicode="&#x3e;" 
d="M1055 571l-996 -395l15 86l870 344l-751 338l14 74l858 -389z" />
    <glyph glyph-name="question" unicode="?" horiz-adv-x="1120" 
d="M682 1456q107 0 190 -26.5t132 -72t73.5 -101t24.5 -119.5q0 -74 -21 -132.5t-57 -97t-83 -68t-98.5 -49t-102.5 -36t-98 -33.5t-83 -37.5t-57 -52t-21 -72.5q0 -49 33 -87t113 -38q183 0 239 228l47 -11q-24 -125 -112 -203.5t-219 -78.5q-161 0 -252.5 76.5
t-91.5 195.5q0 84 32 145.5t83 97.5t112.5 63.5t123.5 52t113 54.5t83 80t32 119q0 73 -49 113.5t-139 40.5q-105 0 -153.5 -48t-24.5 -134h71q11 -93 -31 -153t-137 -60q-75 0 -112 45.5t-37 107.5q0 78 47 137t121.5 91t153 47.5t155.5 15.5zM332 117q0 78 54.5 132
t139.5 54q63 0 101.5 -33.5t38.5 -93.5q0 -82 -53.5 -139t-141.5 -57q-71 0 -105 40.5t-34 96.5z" />
    <glyph glyph-name="at" unicode="@" horiz-adv-x="1792" 
d="M924 823q117 0 184 -75l45 61h195l-136 -387q-37 -109 -52 -165t-15 -107q0 -54 21 -77.5t67 -23.5q45 0 102 36.5t113 103.5t94.5 181t38.5 248q0 234 -141.5 364t-423.5 130q-249 0 -441.5 -115.5t-294.5 -312.5t-102 -440q0 -119 32.5 -214.5t89 -159.5t135 -106.5
t167 -61.5t189.5 -19q259 0 493 172l35 -48q-105 -85 -253 -133.5t-290 -48.5q-199 0 -349 71.5t-234 211.5t-84 332q0 203 69 376.5t190.5 295.5t294 190.5t373.5 68.5q135 0 247.5 -35t195 -102t128.5 -171.5t46 -237.5q0 -123 -29 -229t-77 -180t-110 -127t-129 -78
t-134 -25q-60 0 -105 15t-69 40.5t-36.5 51t-17.5 54.5q-40 -65 -104 -111t-154 -46q-126 0 -191 69.5t-65 192.5q0 80 21.5 161.5t64.5 154.5t101 130.5t137 91t168 33.5zM934 260l147 445q-47 53 -116 53q-75 0 -132.5 -55.5t-88.5 -142t-46.5 -175t-15.5 -170.5
q0 -133 86 -133q61 0 98 44.5t68 133.5z" />
    <glyph glyph-name="A" unicode="A" horiz-adv-x="1331" 
d="M776 59l-55 418h-410l-215 -418h152l-8 -59h-342l8 59h114l707 1375h207l213 -1375h123l-8 -59h-617l8 59h123zM639 1114l-299 -577h375z" />
    <glyph glyph-name="B" unicode="B" horiz-adv-x="1294" 
d="M209 1434h536q129 0 224 -16t166 -51.5t107 -97t36 -149.5q0 -135 -111.5 -236.5t-328.5 -129.5l-2 -4q192 -14 293.5 -86.5t101.5 -200.5q0 -106 -42 -188t-111 -133t-165.5 -84t-195.5 -45.5t-211 -12.5h-526l10 59h121l219 1315h-129zM563 711l-112 -652h55
q156 0 253 107.5t97 298.5q0 133 -56 189.5t-184 56.5h-53zM670 1374l-97 -598h15q70 0 128.5 20.5t105.5 63.5t73.5 118.5t26.5 178.5q0 114 -55.5 165.5t-170.5 51.5h-26z" />
    <glyph glyph-name="C" unicode="C" horiz-adv-x="1269" 
d="M879 1397q-91 0 -166 -59t-123 -151.5t-80.5 -210.5t-46.5 -230.5t-14 -217.5q0 -234 70.5 -347t213.5 -113q132 0 245.5 90t178.5 286l55 -14q-27 -91 -68.5 -164t-91.5 -121t-103.5 -82.5t-110.5 -52.5t-105 -25.5t-96 -7.5q-263 0 -411 139.5t-148 415.5
q0 140 32 273.5t99 251.5t161 207t226.5 140.5t286.5 51.5q66 0 139 -15t124.5 -30.5t65.5 -15.5q15 0 25.5 6.5t15.5 12.5t17 24h41l-58 -428h-51q-17 387 -323 387z" />
    <glyph glyph-name="D" unicode="D" horiz-adv-x="1441" 
d="M1401 883q0 -411 -256 -647t-699 -236h-466l10 59h121l219 1315h-129l10 60h520q124 0 224 -17.5t184.5 -58.5t141.5 -104t88.5 -156.5t31.5 -214.5zM451 59h36q127 0 227 60.5t166 171.5t104.5 258.5t51.5 331.5q4 82 4 110q0 74 -9 132t-24.5 98t-41 68.5t-51.5 44.5
t-64 25.5t-71.5 12t-80.5 2.5h-28z" />
    <glyph glyph-name="E" unicode="E" horiz-adv-x="1230" 
d="M211 1434h1040l-47 -400h-51q-12 108 -36 174t-71 103.5t-108 50t-160 12.5h-108l-103 -612h66q103 0 170.5 61t116.5 201h47l-101 -606h-51q0 114 -23 175t-66.5 82t-123.5 21h-45l-106 -637h98q116 0 199 21.5t144.5 71.5t104.5 117t86 171h58l-90 -440h-1071l10 59
h121l217 1315h-127z" />
    <glyph glyph-name="F" unicode="F" horiz-adv-x="1189" 
d="M211 1434h1040l-47 -400h-51q-12 108 -36 174t-71 103.5t-108 50t-160 12.5h-108l-105 -635h66q103 0 170.5 61t116.5 201h47l-101 -606h-51q0 114 -23 175t-66.5 82.5t-123.5 21.5h-45l-104 -615h196l-12 -59h-655l10 59h121l217 1315h-127z" />
    <glyph glyph-name="G" unicode="G" horiz-adv-x="1374" 
d="M647 -23q-278 0 -424.5 143t-146.5 425q0 121 31 246.5t97.5 245t159 212.5t227.5 150t292 57q66 0 139 -15t124.5 -30.5t65.5 -15.5q15 0 25.5 6.5t15.5 12.5t17 24h41l-58 -428h-51q-17 387 -323 387q-91 0 -166 -59t-123 -151.5t-80.5 -210.5t-46.5 -230.5t-14 -217.5
q0 -249 67 -359t211 -110q65 0 107 17l73 448h-159l10 60h606l-12 -60h-111l-78 -438q-98 -45 -238 -77t-278 -32z" />
    <glyph glyph-name="H" unicode="H" horiz-adv-x="1511" 
d="M211 1434h602l-10 -60h-133l-99 -600h447l98 600h-131l10 60h588l-10 -60h-117l-219 -1315h131l-10 -59h-604l10 59h133l109 641h-445l-110 -641h135l-13 -59h-593l10 59h121l219 1315h-129z" />
    <glyph glyph-name="I" unicode="I" horiz-adv-x="731" 
d="M457 59h133l-10 -59h-598l10 59h119l219 1315h-131l10 60h602l-10 -60h-125z" />
    <glyph glyph-name="J" unicode="J" horiz-adv-x="1003" 
d="M473 1434h621l-11 -60h-116l-154 -919q-41 -245 -170.5 -359t-361.5 -114q-150 0 -220.5 61.5t-70.5 161.5q0 95 54 144.5t134 49.5q75 0 109 -39.5t30 -95t-34 -117.5h-64q-18 -24 -18 -51q0 -63 80 -63q72 0 106.5 60t65.5 241l174 1040h-164z" />
    <glyph glyph-name="K" unicode="K" horiz-adv-x="1409" 
d="M213 1434h600l-10 -60h-131l-105 -620l90 22l594 598h-112l10 60h321l-10 -60h-108l-414 -426l297 -889h115l-13 -59h-612l12 59h121l-194 652l-105 -25l-106 -627h127l-13 -59h-587l12 59h121l219 1315h-129z" />
    <glyph glyph-name="L" unicode="L" horiz-adv-x="1159" 
d="M211 1434h663l-10 -60h-194l-219 -1315h88q113 0 193 21.5t142.5 73.5t108.5 126.5t94 192.5h51l-94 -473h-1054l10 59h121l219 1315h-129z" />
    <glyph glyph-name="M" unicode="M" horiz-adv-x="1667" 
d="M1217 1434h522l-10 -60h-117l-217 -1315h129l-11 -59h-595l10 59h127l215 1309h-8l-615 -1368h-135l-129 1366h-8l-217 -1307h133l-10 -59h-312l11 59h106l225 1315h-108l10 60h483l99 -924h8z" />
    <glyph glyph-name="N" unicode="N" horiz-adv-x="1384" 
d="M1329 1374l-229 -1374h-260l-434 1327h-7l-204 -1268h124l-8 -59h-331l10 59h125l217 1315h-129l10 60h514l356 -1049h9l161 989h-120l10 60h313l-10 -60h-117z" />
    <glyph glyph-name="O" unicode="O" horiz-adv-x="1415" 
d="M1004 717q45 270 45 403q0 140 -45 206.5t-160 66.5q-48 0 -87.5 -9.5t-72 -33t-57.5 -51.5t-47 -76t-38.5 -95.5t-33.5 -121.5t-29.5 -141.5t-29.5 -166.5q-37 -206 -37 -362q0 -148 44 -220.5t160 -72.5q60 0 107 16.5t84 55.5t64.5 89t51.5 131.5t42 168.5t39 213z
M76 522q0 143 30 277.5t94 254t155.5 209t223 141.5t287.5 52q256 0 385 -140.5t129 -412.5q0 -138 -28.5 -269t-91 -250.5t-152 -208.5t-221 -142t-289.5 -53q-262 0 -392 142.5t-130 399.5z" />
    <glyph glyph-name="P" unicode="P" horiz-adv-x="1257" 
d="M211 1434h563q514 0 514 -332q0 -113 -37 -202.5t-100 -147t-153 -95t-189 -53.5t-215 -16h-53l-90 -529h251l-10 -59h-712l10 59h121l219 1315h-129zM670 1374l-117 -727h53q68 0 123.5 31.5t90 81.5t58 116t33 130t9.5 129q0 99 -21 151t-63 70t-121 18h-45z" />
    <glyph glyph-name="Q" unicode="Q" horiz-adv-x="1415" 
d="M504 -14l203 -9q158 -6 232 -39t128 -135q9 -16 26.5 -54t30.5 -61.5t32 -51t41 -41t48 -13.5q62 0 137 96l43 -28q-41 -56 -72.5 -87t-89.5 -54t-137 -23q-78 0 -138.5 18t-103.5 55t-71 75t-57 94q-8 16 -23.5 48t-25 49t-25.5 43.5t-31.5 42t-37.5 32.5t-49 27.5
t-60 15.5zM1004 717q45 270 45 403q0 140 -45 206.5t-160 66.5q-48 0 -87.5 -9.5t-72 -33t-57.5 -51.5t-47 -76t-38.5 -95.5t-33.5 -121.5t-29.5 -141.5t-29.5 -166.5q-37 -206 -37 -362q0 -148 44 -220.5t160 -72.5q60 0 107 16.5t84 55.5t64.5 89t51.5 131.5t42 168.5
t39 213zM76 522q0 143 30 277.5t94 254t155.5 209t223 141.5t287.5 52q256 0 385 -140.5t129 -412.5q0 -138 -28.5 -269t-91 -250.5t-152 -208.5t-221 -142t-289.5 -53q-262 0 -392 142.5t-130 399.5z" />
    <glyph glyph-name="R" unicode="R" horiz-adv-x="1380" 
d="M754 739v-6q90 -6 145.5 -20.5t98.5 -49t63.5 -92t28.5 -149.5l14 -164q7 -88 24.5 -131t59.5 -43q30 0 52.5 13.5t53.5 60.5l45 -29q-17 -28 -29.5 -45.5t-36 -40t-50.5 -35.5t-69 -22t-95 -9q-45 0 -82 5.5t-79 24.5t-71.5 50.5t-51.5 87t-27 131.5l-11 154
q-10 162 -44 218.5t-111 56.5h-21l-110 -646h137l-10 -59h-598l10 59h121l219 1315h-129l10 60h479q77 0 142 -4.5t136 -15.5t125 -32.5t98.5 -53t68.5 -79.5t24 -110q0 -95 -40.5 -168.5t-114 -121t-167 -74.5t-208.5 -36zM670 1374l-99 -610h21q139 0 232.5 96t93.5 279
q0 123 -58 179t-170 56h-20z" />
    <glyph glyph-name="S" unicode="S" horiz-adv-x="1130" 
d="M510 39q133 0 207 71t74 197q0 25 -3.5 47t-13.5 41t-18.5 34.5t-27.5 31t-30.5 26t-38.5 23.5t-40.5 20t-46 20t-46.5 18t-51 18q-30 11 -50.5 19.5t-54.5 27t-57.5 38t-51.5 51t-45 67.5t-28.5 86.5t-11.5 109.5q0 109 40 199t108.5 149t157.5 91t188 32
q63 0 121 -13.5t91.5 -29.5t63 -29.5t41.5 -13.5q4 0 8 1t8 3.5t7 4.5t7 7t6.5 7.5t7 9.5t6.5 10.5t7 12t7 12.5h49l-64 -439h-51q-37 398 -297 398q-120 0 -196 -60.5t-76 -169.5q0 -46 15 -83.5t35.5 -61.5t55.5 -45t61.5 -32t67.5 -25q147 -51 206 -85q156 -89 184 -259
q6 -39 6 -84q0 -156 -73.5 -275t-192.5 -179.5t-261 -60.5q-71 0 -141.5 14.5t-114 32t-82 32t-53.5 14.5q-4 0 -8.5 -1t-8 -4.5t-7 -6.5t-7.5 -9t-7 -11t-7 -14t-7.5 -15t-8.5 -17t-9 -19h-49l74 494h49q9 -200 102.5 -314t274.5 -114z" />
    <glyph glyph-name="T" unicode="T" horiz-adv-x="1339" 
d="M1417 1434l-59 -488h-55q-4 110 -18 185t-37 123.5t-62.5 74.5t-87 35.5t-119.5 9.5h-14l-220 -1315h189l-8 -59h-719l10 59h189l219 1315h-15q-125 0 -202 -37.5t-135.5 -126t-125.5 -264.5h-55l105 488h1220z" />
    <glyph glyph-name="U" unicode="U" horiz-adv-x="1404" 
d="M750 61q62 0 117 19.5t106.5 62.5t90 123t56.5 191l152 917h-142l9 60h342l-11 -60h-116l-152 -911q-21 -124 -57.5 -210t-101.5 -150.5t-165 -95t-241 -30.5q-106 0 -187 18.5t-145 60.5t-97.5 116t-33.5 178q0 71 16 172l146 852h-129l10 60h602l-8 -60h-135l-156 -938
q-12 -67 -12 -131q0 -117 60.5 -180.5t181.5 -63.5z" />
    <glyph glyph-name="V" unicode="V" horiz-adv-x="1267" 
d="M705 289l557 1085h-138l9 60h321l-10 -60h-103l-706 -1374h-221l-228 1374h-104l8 60h586l-8 -60h-138z" />
    <glyph glyph-name="W" unicode="W" horiz-adv-x="1982" 
d="M1231 0l-158 883l-432 -883h-219l-223 1374h-117l8 60h586l-8 -60h-119l180 -1046l324 671l-66 375h-127l10 60h611l-11 -60h-133l183 -1046l440 1046h-156l11 60h352l-10 -60h-115l-582 -1374h-229z" />
    <glyph glyph-name="X" unicode="X" horiz-adv-x="1325" 
d="M1270 0h-682l10 59h164l-232 566l-415 -566h161l-10 -59h-383l11 59h135l471 646l-275 669h-116l10 60h649l-12 -60h-146l203 -506l385 506h-160l11 60h378l-10 -60h-133l-440 -581l305 -734h131z" />
    <glyph glyph-name="Y" unicode="Y" horiz-adv-x="1206" 
d="M774 743l426 631h-135l10 60h318l-11 -60h-100l-485 -719l-103 -596h166l-10 -59h-670l10 59h164l99 592l-244 723h-125l10 60h641l-10 -60h-150z" />
    <glyph glyph-name="Z" unicode="Z" horiz-adv-x="1212" 
d="M1255 1434l-10 -60l-854 -1315h193q156 0 286.5 108t202.5 322h57l-100 -489h-1048l8 53l891 1321h-179q-80 0 -135 -8t-108.5 -31t-94.5 -66t-80.5 -110.5t-78.5 -167.5h-53l96 443h1007z" />
    <glyph glyph-name="bracketleft" unicode="[" horiz-adv-x="763" 
d="M608 -293l-8 -55h-569l340 1927h569l-6 -57h-113q-76 0 -100.5 -18.5t-36.5 -88.5l-287 -1599q-13 -76 3 -92.5t94 -16.5h114z" />
    <glyph glyph-name="backslash" unicode="\" horiz-adv-x="831" 
d="M344 1628l299 -1827h-86l-297 1827h84z" />
    <glyph glyph-name="bracketright" unicode="]" horiz-adv-x="763" 
d="M197 1524l8 55h569l-340 -1927h-569l6 57h113q76 0 100.5 18.5t36.5 88.5l287 1599q13 76 -3 92.5t-94 16.5h-114z" />
    <glyph glyph-name="asciicircum" unicode="^" horiz-adv-x="1146" 
d="M1051 614l-76 -30l-389 688l-359 -690l-77 32l387 746h100z" />
    <glyph glyph-name="underscore" unicode="_" horiz-adv-x="1036" 
d="M1030 -217h-1024v76h1024v-76z" />
    <glyph glyph-name="grave" unicode="`" horiz-adv-x="1024" 
d="M805 1511l61 -393l-37 -14l-243 270q-35 49 -35 88q0 58 56 84t104 6z" />
    <glyph glyph-name="a" unicode="a" horiz-adv-x="1243" 
d="M1155 997q-6 -29 -29.5 -144t-33 -163.5t-27 -141.5t-30.5 -172t-25 -161q-11 -62 -5 -94t18 -41.5t36 -9.5q27 0 61 23t68 73l45 -33q-102 -156 -275 -156q-277 0 -221 261l-10 2q-45 -123 -133 -193t-219 -70q-326 0 -326 383q0 101 19.5 195t60.5 176.5t99.5 144
t143 97t185.5 35.5q99 0 152 -40t84 -110l30 125q228 -5 332 14zM489 70q96 0 171.5 154.5t99.5 428.5q12 133 -24.5 205t-106.5 72q-99 0 -163.5 -165.5t-84.5 -485.5q-4 -34 -0.5 -70.5t12 -67.5t33 -51t63.5 -20z" />
    <glyph glyph-name="b" unicode="b" horiz-adv-x="1183" 
d="M111 528l174 955h-168l6 53h520l-162 -721l11 -6q38 63 79.5 104.5t104.5 68t143 26.5q154 0 230.5 -93t76.5 -260q0 -102 -22.5 -198.5t-71.5 -184t-119.5 -153t-173.5 -104t-227 -38.5q-211 0 -313.5 104t-102.5 286q0 75 15 161zM694 909q-95 0 -182 -182
q-79 -165 -98 -432q-2 -29 -2 -70q0 -91 30 -135.5t95 -44.5q58 0 101 43.5t71 128t45 190.5t28 250q4 57 4 99q0 82 -23 117.5t-69 35.5z" />
    <glyph glyph-name="c" unicode="c" horiz-adv-x="989" 
d="M664 1008q160 0 235.5 -69.5t75.5 -172.5q0 -91 -48 -152t-141 -61q-71 0 -105 35.5t-34 87.5q0 46 31 106h82q25 64 17 102t-31 54t-60 16q-73 0 -130.5 -61t-89 -155.5t-47.5 -191t-16 -184.5q0 -158 37 -225t125 -67q82 0 154 77.5t117 206.5l67 -22
q-124 -355 -448 -355q-198 0 -304 103t-106 289q0 286 164.5 462.5t454.5 176.5z" />
    <glyph glyph-name="d" unicode="d" horiz-adv-x="1255" 
d="M1243 1536l-158 -893q-32 -175 -75 -469q-8 -59 6 -81.5t47 -22.5q64 0 129 96l45 -33q-102 -156 -274 -156q-269 0 -224 261l-10 2q-48 -125 -138 -194t-222 -69q-324 0 -324 367q0 96 16.5 187.5t54.5 179t94 152.5t141.5 105t191.5 40q103 0 161.5 -40t88.5 -116
l94 631h-144l11 53h489zM494 70q95 0 169.5 154t98.5 429q12 133 -24.5 205t-106.5 72q-195 0 -244 -582q-4 -41 -4 -115q0 -86 26 -124.5t85 -38.5z" />
    <glyph glyph-name="e" unicode="e" horiz-adv-x="999" 
d="M651 1008q160 0 244 -64t84 -180q0 -57 -23 -104t-60 -78.5t-89.5 -56.5t-103.5 -39t-111 -23.5t-103.5 -13t-89.5 -5.5q-17 -202 26.5 -285t145.5 -83q91 0 166 67t123 205l55 -18q-63 -185 -176 -269t-297 -84q-190 0 -292.5 100.5t-102.5 282.5q0 299 164.5 473.5
t439.5 174.5zM698 811q0 131 -75 131q-82 0 -141 -124.5t-79 -313.5q69 6 118.5 22.5t91.5 50t63.5 92t21.5 142.5z" />
    <glyph glyph-name="f" unicode="f" horiz-adv-x="729" 
d="M63 -66l177 1000h-152l10 53h150l14 82q42 244 181 379t370 135q78 0 145.5 -23.5t114.5 -77.5t47 -130q0 -87 -51.5 -140t-128.5 -53q-94 0 -133 66.5t2 146.5l86 10q23 50 17.5 83.5t-29 50t-58.5 16.5q-36 0 -64.5 -17.5t-48 -47t-36.5 -83t-29 -109t-26 -140.5
l-25 -148h254l-10 -53h-252l-170 -934q-46 -251 -179.5 -382.5t-371.5 -131.5q-53 0 -103.5 12.5t-95 37.5t-71.5 69.5t-27 101.5q0 86 54 143.5t140 57.5q89 0 125.5 -65.5t-0.5 -151.5l-84 -10q-29 -63 -11.5 -98.5t73.5 -35.5q30 0 54 11t42.5 37.5t32 55t26 78.5
t21 92.5t20.5 112.5z" />
    <glyph glyph-name="g" unicode="g" horiz-adv-x="1218" 
d="M719 174l-10 6q-28 -52 -67.5 -94.5t-109 -75.5t-151.5 -33q-163 0 -244.5 92t-81.5 269q0 79 11 155t34.5 153t63.5 141t93.5 114t130 78.5t167.5 28.5q180 0 248 -152l31 125q220 -5 333 16q-67 -322 -157 -893q-50 -309 -224.5 -462.5t-443.5 -153.5q-160 0 -255 57.5
t-95 171.5q0 89 51.5 140t130.5 51q80 0 127.5 -51.5t30.5 -161.5l-111 -31q-28 -113 105 -113q65 0 113 20t87.5 61t72 117.5t60.5 175.5t60 249zM506 70q95 0 169.5 154t98.5 429q12 133 -24.5 205t-106.5 72q-99 0 -159 -143.5t-85 -436.5q-4 -41 -4 -117
q0 -86 26 -124.5t85 -38.5z" />
    <glyph glyph-name="h" unicode="h" horiz-adv-x="1247" 
d="M930 -23q-118 0 -186 55.5t-68 172.5q0 125 112 485q13 42 18.5 72.5t4.5 57t-14.5 40.5t-40.5 14q-53 0 -110 -65.5t-103 -177.5q-89 -216 -131 -625q-54 2 -191.5 -5t-177.5 -15l86 381l168 1116h-145l6 53h499l-190 -887l14 -6q156 365 430 365q110 0 164.5 -58
t54.5 -162q0 -61 -20 -143l-92 -399q-21 -99 -21 -119q0 -53 50 -53q59 0 133 100l47 -35q-55 -81 -125.5 -121.5t-171.5 -40.5z" />
    <glyph glyph-name="i" unicode="i" horiz-adv-x="679" 
d="M475 1483q81 0 126.5 -37t45.5 -109q0 -92 -68.5 -147t-168.5 -55q-93 0 -133.5 41.5t-40.5 101.5q0 93 68.5 149t170.5 56zM438 246q-14 -82 -14 -119q0 -53 47 -53q55 0 129 100l47 -35q-55 -81 -125.5 -121.5t-171.5 -40.5q-118 0 -183 55.5t-65 172.5q0 60 27 203
l109 526h-162l10 53h502q-92 -409 -150 -741z" />
    <glyph glyph-name="j" unicode="j" horiz-adv-x="667" 
d="M584 987l-162 -987q-84 -512 -549 -512q-127 0 -217 61.5t-90 174.5q0 85 54.5 140.5t141.5 55.5q89 0 127 -69t-4 -152l-82 -14q-23 -73 -3.5 -104.5t73.5 -31.5q30 0 54.5 12.5t43.5 39.5t33.5 58.5t26.5 79t20.5 91t18.5 104.5l161 1000h-170l11 53h512zM485 1483
q81 0 126.5 -37t45.5 -109q0 -92 -68.5 -147t-168.5 -55q-93 0 -133.5 41.5t-40.5 101.5q0 93 68.5 149t170.5 56z" />
    <glyph glyph-name="k" unicode="k" horiz-adv-x="1179" 
d="M616 238l23 98q33 135 -64 135q-49 0 -100 -22l-69 -441q-62 0 -190.5 -7.5t-170.5 -18.5l94 436l158 1065h-141l8 53h493l-174 -1022l107 57q117 63 182 121.5t66 102.5l-82 32q-10 84 35 140.5t141 56.5q83 0 121.5 -44.5t38.5 -107.5q0 -67 -45 -117t-134 -91
l-286 -136l4 -8q100 17 125 17q61 0 103.5 -13.5t65.5 -35.5t33 -54t8.5 -65.5t-10.5 -73.5q-28 -129 -28 -168q0 -28 16.5 -40.5t38.5 -12.5q35 0 64 23.5t69 76.5l47 -35q-55 -81 -125.5 -121.5t-171.5 -40.5q-48 0 -88 7.5t-78 25.5t-59.5 47.5t-31 74.5t6.5 106z" />
    <glyph glyph-name="l" unicode="l" horiz-adv-x="694" 
d="M102 221q0 54 13 134.5t57 308.5l162 817h-150l9 55h493l-240 -1286q-19 -80 -10.5 -127t58.5 -47q54 0 131 98l47 -35q-66 -89 -135 -125.5t-166 -36.5q-132 0 -200.5 61t-68.5 183z" />
    <glyph glyph-name="m" unicode="m" horiz-adv-x="1787" 
d="M616 -14q71 321 166 704q26 100 20.5 142t-48.5 42q-52 0 -106.5 -64.5t-100.5 -178.5q-89 -216 -131 -625q-54 2 -190.5 -5t-176.5 -15l86 381l78 567h-145l6 53h485l-88 -338l14 -6q23 54 46.5 98t62.5 96t82.5 87.5t105.5 59.5t133 24q83 0 125.5 -42t42.5 -110
q0 -72 -30 -174l12 -4q25 54 48 95t59 88t75.5 77t95 50t119.5 20q104 0 159.5 -53t55.5 -146q0 -74 -22 -164l-96 -399q-21 -99 -21 -119q0 -53 53 -53t127 100l47 -35q-55 -81 -125.5 -121.5t-171.5 -40.5q-118 0 -186 55.5t-68 172.5q0 22 3 49.5t9 59t12 61t15.5 65.5
t16.5 62t17.5 60.5t15.5 51.5t14 45t10 31q10 30 15.5 50t10.5 43.5t4.5 38t-5 27.5t-16 19t-29.5 6q-84 0 -195 -233q-54 -113 -87 -265t-58 -370q-51 2 -182.5 -5t-168.5 -15z" />
    <glyph glyph-name="n" unicode="n" horiz-adv-x="1253" 
d="M934 -23q-118 0 -186 54.5t-68 167.5q0 45 14.5 120t31 134.5t39.5 137.5t28 99q10 38 15.5 63.5t7.5 50.5t-3 39t-18 22.5t-35 8.5q-53 0 -110 -65.5t-103 -177.5q-89 -216 -131 -625q-54 2 -190.5 -5t-176.5 -15l86 381l78 567h-145l6 53h485l-88 -338l14 -6
q156 365 430 365q110 0 168 -58.5t58 -161.5q0 -57 -21 -143l-98 -399q-21 -99 -21 -119q0 -53 50 -53q59 0 133 100l47 -35q-55 -81 -125.5 -121.5t-171.5 -40.5z" />
    <glyph glyph-name="o" unicode="o" horiz-adv-x="1095" 
d="M696 489q31 202 31 295q0 87 -26 130.5t-83 43.5q-50 0 -86.5 -28.5t-63.5 -93t-45.5 -142t-39.5 -202.5q-33 -200 -33 -297q0 -86 26.5 -127t88.5 -41q95 0 140.5 97t90.5 365zM41 365q0 133 38.5 249t111.5 204t187 139t255 51q407 0 407 -383q0 -300 -159 -474
t-428 -174q-205 0 -308.5 99.5t-103.5 288.5z" />
    <glyph glyph-name="p" unicode="p" horiz-adv-x="1249" 
d="M758 897q-50 0 -100.5 -48.5t-90.5 -133.5q-42 -89 -63.5 -179.5t-30.5 -218.5q-2 -29 -2 -69q0 -178 131 -178q59 0 107.5 55.5t78.5 148.5t46 209t16 242q0 94 -23 133t-69 39zM0 -434l227 1368h-164l11 53h483l-68 -272l11 -6q73 150 164 224.5t233 74.5
q147 0 222 -95.5t75 -265.5q0 -142 -41.5 -267.5t-111.5 -213t-164.5 -138.5t-196.5 -51q-105 0 -168.5 43t-83.5 115l-96 -569h241l-10 -53h-700l10 53h127z" />
    <glyph glyph-name="q" unicode="q" horiz-adv-x="1187" 
d="M932 987h198l-235 -1419h170l-8 -55h-680l8 55h197l127 602l-11 6q-112 -199 -325 -199q-166 0 -247 96.5t-81 278.5q0 108 20.5 205.5t62 180t101 142.5t143 94t181.5 34q188 0 256 -172zM481 70q101 0 178 154t101 429q12 133 -24.5 205t-106.5 72q-195 0 -244 -582
q-4 -41 -4 -115q0 -83 24 -123t76 -40z" />
    <glyph glyph-name="r" unicode="r" horiz-adv-x="1073" 
d="M778 664l-10 161q-208 -58 -299 -456q-30 -126 -49 -359q-62 1 -180 -7t-191 -19l92 419l74 531h-143l8 53h471l-94 -395l12 -6q28 65 54 115.5t67 111.5t83.5 100.5t101.5 67t124 27.5q78 0 133 -45.5t55 -137.5q0 -64 -28 -109t-72 -64t-99.5 -16t-109.5 28z" />
    <glyph glyph-name="s" unicode="s" horiz-adv-x="991" 
d="M377 41q119 0 172 43.5t53 112.5q0 38 -15 66.5t-48.5 50t-61.5 34t-78 30.5q-9 3 -14 5q-45 17 -73.5 29.5t-65.5 36.5t-58.5 51.5t-37 69.5t-15.5 94q0 107 64 186t172 118.5t243 39.5q54 0 102 -6t94.5 -22t80 -39.5t54 -61.5t20.5 -86q0 -69 -43.5 -111.5
t-120.5 -42.5q-55 0 -94 26.5t-39 69.5q0 56 30 94h66q50 119 -127 119q-108 0 -165.5 -41t-57.5 -106q0 -35 15 -62.5t48 -49.5t61.5 -35.5t77.5 -32.5q128 -50 176 -82q111 -74 111 -197q0 -173 -143 -269t-369 -96q-173 0 -272 59t-99 167q0 78 46.5 122t123.5 44
q81 0 115.5 -60.5t-6.5 -142.5h-78q-20 -55 18 -90t138 -35z" />
    <glyph glyph-name="t" unicode="t" horiz-adv-x="790" 
d="M782 934h-217l-86 -438q-43 -227 -43 -308q0 -39 21 -62.5t63 -23.5q47 0 90 37t97 117l51 -35q-68 -112 -156.5 -178t-214.5 -66q-65 0 -115.5 14.5t-82 38t-52.5 56t-29 67t-8 72.5q0 86 39 281l82 428h-147l6 53h149l35 207l324 72h33l-48 -279h215z" />
    <glyph glyph-name="u" unicode="u" horiz-adv-x="1292" 
d="M106 293q63 343 127 641h-143l8 53h488q-69 -292 -160 -754q-5 -34 -6 -60.5t16.5 -43t55.5 -16.5q65 0 126.5 87.5t103.5 219.5t69 279t32 272q52 -2 192.5 6t180.5 16q-116 -552 -147 -798q-3 -35 -4 -62.5t11.5 -45t41.5 -17.5q62 0 131 96l45 -33
q-60 -85 -128.5 -120.5t-160.5 -35.5q-322 0 -215 353l-12 4q-24 -58 -48 -104.5t-61.5 -95.5t-80.5 -82t-104 -54t-132 -21q-134 0 -193 89.5t-33 226.5z" />
    <glyph glyph-name="v" unicode="v" horiz-adv-x="1118" 
d="M575 741q-69 -351 -94 -487q-21 -94 -4 -139t90 -45q102 0 198 93.5t151 222t55 239.5q0 84 -28.5 124.5t-76.5 38.5l-57 -81q-55 15 -87 52.5t-32 88.5q0 79 49.5 119.5t122.5 40.5q54 0 95 -25t64 -65.5t34.5 -85.5t11.5 -91q0 -63 -10.5 -131.5t-33.5 -143.5
t-57 -144.5t-85.5 -132.5t-114 -110t-146.5 -74.5t-180 -27.5q-74 0 -134 20t-105 60t-63.5 108.5t-4.5 158.5q28 171 94 487q11 43 7.5 68.5t-27.5 25.5q-30 0 -62 -24t-84 -93l-51 35q40 59 83 98t87.5 57t81 24t82.5 6q132 0 192.5 -71.5t38.5 -195.5z" />
    <glyph glyph-name="w" unicode="w" horiz-adv-x="1669" 
d="M1028 205q-11 -73 7.5 -104t82.5 -31q99 0 194 89t152.5 223.5t57.5 264.5q0 53 -26.5 98t-72.5 46l-57 -82q-57 17 -90 55.5t-33 85.5q0 75 42.5 116.5t125.5 41.5q55 0 97 -26t65 -67.5t34 -85t11 -86.5q0 -79 -16 -164t-47 -171.5t-82 -163.5t-116 -137t-154 -95
t-191 -35q-86 0 -164.5 26.5t-126.5 88.5q-132 -115 -324 -115q-66 0 -119 20t-92 60t-54 108t-1 157q19 114 94 475q12 41 11 74.5t-27 33.5q-62 0 -148 -117l-51 35q41 62 82.5 101t86.5 56.5t82 22.5t91 5q122 0 182.5 -72t38.5 -193q-16 -83 -51 -252t-51 -253
q-16 -74 -1 -119t71 -45q39 0 74 19.5t83 62.5q-5 45 11 127q104 490 133 690q49 -2 179.5 7.5t170.5 18.5q-113 -473 -164 -794z" />
    <glyph glyph-name="x" unicode="x" horiz-adv-x="1337" 
d="M545 426l-158 377q-18 42 -33 62t-39 20q-23 0 -44.5 -21.5t-63.5 -85.5l-55 29q67 114 145 157.5t182 43.5q60 0 102.5 -15.5t74 -55.5t47.5 -70.5t45 -99.5q3 -6 4.5 -9.5t3.5 -9t4 -9.5l28 -67q11 18 68 98q5 8 24.5 35t25.5 36t24 32.5t27 32.5t27 27.5t30.5 26
t32 19t37 16.5t39.5 9t46 4q72 0 122 -46t50 -118q0 -98 -76 -143t-175 -21l-21 127q-33 20 -67.5 8t-69.5 -63l-105 -154l166 -393q26 -58 46.5 -81.5t56.5 -23.5q60 0 112 117l58 -29q-85 -211 -330 -211q-119 0 -183.5 48t-111.5 163l-63 156l-95 -129q-5 -8 -24.5 -35
t-25.5 -36t-24 -32.5t-27 -32.5t-27 -27.5t-30.5 -26t-32 -19t-37 -16.5t-39.5 -9t-46 -4q-72 0 -122 46t-50 118q0 98 76 143t176 21l20 -127q33 -20 68 -8t70 63z" />
    <glyph glyph-name="y" unicode="y" horiz-adv-x="1122" 
d="M1096 780q0 -237 -326 -688q-22 -30 -64 -88.5t-65 -90t-62.5 -83t-65.5 -81t-65 -71t-69.5 -65t-71 -51t-77.5 -41.5t-80.5 -23.5t-88.5 -9.5q-122 0 -186.5 61t-64.5 172q0 89 54.5 143t133.5 54q78 0 123.5 -56t19.5 -159l-100 -14q-20 -26 -23.5 -56.5t16 -53.5
t60.5 -23q177 0 410 303q-170 629 -242 872q-20 70 -36 96.5t-44 26.5q-30 0 -52.5 -29.5t-57.5 -109.5l-62 24q21 50 37.5 82.5t45 71.5t60.5 61.5t79.5 38t105.5 15.5q98 0 156.5 -48t89.5 -153q76 -258 170 -619q221 330 221 467q0 90 -72 97l-63 -86q-58 19 -95.5 64.5
t-37.5 98.5q0 85 53 132t133 47q94 0 148.5 -61t54.5 -167z" />
    <glyph glyph-name="z" unicode="z" horiz-adv-x="1105" 
d="M242 231l438 426q-48 5 -143.5 15t-161 16t-103.5 8q-55 3 -76.5 -19.5t-50.5 -103.5l-51 11q44 166 95.5 259.5t109.5 129t141 35.5q106 0 213 -80l176 -123q9 90 55.5 142t104.5 52q45 0 76 -22t31 -72q0 -60 -58 -103.5t-168 -47.5l-442 -432q243 -15 412 -19
q61 -2 90.5 25.5t62.5 124.5l51 -9q-28 -131 -67 -224t-85.5 -145t-96.5 -75t-109 -23q-57 0 -102 18t-109 58l-194 123q-18 -98 -61 -145t-101 -47q-60 0 -85.5 30t-25.5 74q0 64 67 107t167 36z" />
    <glyph glyph-name="braceleft" unicode="{" horiz-adv-x="860" 
d="M125 651q63 4 108 25t71.5 53t41.5 81.5t20 98t5 115.5q0 28 -2 86t-2 84q0 188 115 278.5t325 90.5q17 0 33.5 -1t28 -2t24.5 -3.5t20.5 -4.5t17.5 -5t14.5 -5t14 -5.5t11.5 -4.5l-31 -53q-46 16 -84 16q-43 0 -77.5 -30t-45.5 -93q-9 -56 -10 -229.5t-14 -245.5
q-9 -46 -25.5 -82.5t-44 -63.5t-58.5 -46t-77 -34.5t-89.5 -26t-105.5 -21.5q37 -7 67 -14.5t61.5 -18t55 -23t46.5 -29.5t36 -37t24 -45.5t10 -55t-5 -66.5q-13 -73 -63 -224t-56 -186q-9 -59 -7.5 -103.5t27 -70.5t75.5 -26q52 0 92 18l8 -61q-80 -33 -246 -33
q-164 0 -244 75t-59 193q10 62 67.5 220.5t71.5 232.5q11 52 4.5 90.5t-20 63.5t-38 40.5t-49 21.5t-52.5 7z" />
    <glyph glyph-name="bar" unicode="|" horiz-adv-x="665" 
d="M113 -260l317 1888h80l-317 -1888h-80z" />
    <glyph glyph-name="braceright" unicode="}" horiz-adv-x="860" 
d="M762 559q-62 -3 -107.5 -24.5t-71.5 -52t-41 -77t-19.5 -90.5t-4.5 -102q0 -45 1 -105t1 -83q0 -189 -116 -283t-324 -94q-16 0 -30 0.5t-26.5 2t-22 2.5t-19.5 3.5l-16 4t-15.5 4.5t-12.5 4t-12 4.5t-10 4.5l31 54q49 -17 84 -17q43 0 77.5 30t45.5 93q9 56 10 229.5
t14 245.5q10 55 34 97t56 69.5t83 48.5t101.5 33.5t125.5 26.5q-75 14 -129.5 34.5t-99 54.5t-62 87t-4.5 123q10 55 27 118t30.5 103t34 100.5t26.5 77.5q31 91 6.5 146t-100.5 55q-49 0 -92 -19l-8 62q80 33 246 33q164 0 244 -75.5t59 -193.5q-12 -72 -78 -256t-66 -268
q0 -79 46 -114.5t114 -37.5z" />
    <glyph glyph-name="asciitilde" unicode="~" horiz-adv-x="1247" 
d="M909 506q-34 0 -74 5t-67 11t-70.5 16.5t-64.5 14.5q-22 5 -73.5 18.5t-93 22t-67.5 8.5q-44 0 -74 -19t-67 -79l-37 14q57 159 127 228t154 69q26 0 51 -2t51.5 -7.5t44 -9t48.5 -11.5t44 -11q182 -41 263 -41q43 0 68.5 18t57.5 72l41 -12q-52 -169 -114.5 -237
t-147.5 -68z" />
    <glyph glyph-name="uni00A0" unicode="&#xa0;" horiz-adv-x="409" 
 />
    <glyph glyph-name="exclamdown" unicode="&#xa1;" horiz-adv-x="784" 
d="M455 590l-17 -92q-27 -150 -30 -261.5t8 -167.5t24 -137t13 -159q0 -110 -57.5 -182t-174.5 -72q-87 0 -125.5 47t-38.5 115q0 61 24.5 124t64 129t81.5 141t83 187t63 238l16 90h66zM633 858q0 -78 -55 -132t-140 -54q-63 0 -101 33.5t-38 93.5q0 82 53.5 139t141.5 57
q71 0 105 -40.5t34 -96.5z" />
    <glyph glyph-name="cent" unicode="&#xa2;" horiz-adv-x="1073" 
d="M737 981q-61 0 -110.5 -29t-81.5 -79t-55.5 -108.5t-35.5 -125t-17 -121t-5 -104.5q0 -219 168 -219q58 0 107.5 20.5t84.5 56.5t59 72.5t42 79.5l53 -21q-67 -168 -195.5 -239t-324.5 -49l-92 -230l-62 17l90 223q-106 29 -176.5 121t-70.5 219q0 140 50.5 253
t135.5 182.5t194 104.5t228 29l90 217l61 -14l-86 -211q99 -15 162.5 -73t63.5 -134q0 -98 -50.5 -148t-125.5 -50q-58 0 -91.5 32t-33 79t25.5 99h72q15 35 17 68.5t-22 57.5t-69 24z" />
    <glyph glyph-name="sterling" unicode="&#xa3;" horiz-adv-x="1212" 
d="M928 238q67 0 96.5 38.5t46.5 149.5l57 -6q-43 -443 -272 -443q-54 0 -129.5 25t-127.5 50.5t-131 68t-93 49.5q-42 -87 -96.5 -133.5t-135.5 -46.5q-96 0 -145 51.5t-49 138.5q0 123 77 189.5t181 66.5q70 0 149 -22q-1 29 -7 64t-11.5 56.5t-16.5 62t-14 52.5h-217
l14 72h185q-62 172 -62 272q0 202 166 332.5t436 130.5q181 0 274 -67t93 -185q0 -91 -49 -150t-148 -59q-74 0 -111.5 38.5t-35 93t34.5 108.5h74q33 52 30 87t-30 53t-70 18q-108 0 -169 -84.5t-101 -255.5l-78 -330l356 -2l-14 -72l-363 2l-82 -256q33 -12 101.5 -37
t118.5 -43t108 -37t99 -29.5t61 -10.5zM37 154q0 -39 25 -67t85 -28q49 0 92 35t64 101q-3 1 -27.5 12t-40.5 17.5t-42 13t-46 6.5q-46 0 -78 -25t-32 -65z" />
    <glyph glyph-name="currency" unicode="&#xa4;" horiz-adv-x="1030" 
d="M203 696q0 108 59 197l-158 182l39 37l185 -145q92 63 213 63q124 0 200 -61l185 141l35 -33l-154 -174q57 -85 57 -201q0 -110 -61 -204l153 -201l-36 -35l-193 158q-75 -60 -192 -60q-123 0 -203 56l-182 -152l-37 37l147 182q-57 83 -57 213zM283 696
q0 -122 60.5 -197t193.5 -75q118 0 182.5 77.5t64.5 194.5q0 124 -63 199.5t-189 75.5q-123 0 -186 -78.5t-63 -196.5z" />
    <glyph glyph-name="yen" unicode="&#xa5;" horiz-adv-x="1243" 
d="M158 717l14 67h274l-215 596h-102l8 54h617l-9 -54h-143l199 -571l373 571h-195l8 54h420l-8 -54h-142l-387 -596h283l-14 -67h-291l-31 -191h291l-12 -67h-291l-68 -400h174l-12 -59h-747l12 59h174l68 400h-291l12 67h291l31 191h-291z" />
    <glyph glyph-name="brokenbar" unicode="&#xa6;" horiz-adv-x="665" 
d="M299 844l131 784h80l-131 -784h-80zM113 -260l149 895h80l-149 -895h-80z" />
    <glyph glyph-name="section" unicode="&#xa7;" horiz-adv-x="1306" 
d="M438 -154q123 0 207 82t123 230q-128 54 -234 127.5t-186 165.5t-124 206t-44 238q0 121 38.5 219t100.5 160.5t144.5 104.5t167 59.5t172.5 17.5q194 0 297.5 -73t103.5 -205q0 -74 -44.5 -123t-127.5 -49q-72 0 -118 38.5t-46 104.5q0 43 15 80l82 16q10 33 10 66
q0 48 -35.5 74t-103.5 26q-257 0 -314 -283q123 -49 227.5 -115.5t191 -153.5t136 -198t49.5 -233t-40.5 -226t-108 -176.5t-156 -124t-184 -76t-191.5 -24.5q-169 0 -266.5 74.5t-97.5 204.5q0 73 47 124.5t131 51.5q71 0 114.5 -40t43.5 -107q0 -43 -15 -80l-77 -17
q-11 -37 -11 -65q0 -48 32 -74.5t91 -26.5zM801 436q0 206 -68 358t-219 289q-8 -60 -8 -143q0 -448 274 -725q21 116 21 221z" />
    <glyph glyph-name="dieresis" unicode="&#xa8;" horiz-adv-x="1024" 
d="M549 1442q59 0 94 -27.5t35 -81.5q0 -76 -50 -127t-128 -51q-66 0 -97.5 36t-31.5 87q0 72 53 118t125 46zM963 1442q59 0 94 -27.5t35 -81.5q0 -76 -50 -127t-129 -51q-67 0 -98 34.5t-31 84.5q0 76 54 122t125 46z" />
    <glyph glyph-name="copyright" unicode="&#xa9;" horiz-adv-x="1640" 
d="M1501 655q0 -207 -86 -361.5t-239 -235.5t-353 -81q-165 0 -294.5 48.5t-212.5 135.5t-126 205t-43 261q0 155 53 283.5t145.5 214t216.5 132t265 46.5q312 0 493 -176t181 -472zM1434 643q0 191 -79.5 329t-215 206.5t-312.5 68.5q-174 0 -311 -72.5t-217 -214
t-80 -331.5q0 -277 161 -435.5t443 -158.5q280 0 445.5 163.5t165.5 444.5zM852 1016q-116 0 -173.5 -85.5t-57.5 -279.5q0 -186 57.5 -275t177.5 -89q80 0 138 57.5t83 161.5h25l-8 -244h-21q-1 3 -4 8.5t-5 8.5t-5 7t-6.5 5.5t-8.5 1.5q-1 0 -72.5 -21.5t-133.5 -21.5
q-166 0 -270.5 100.5t-104.5 300.5q0 186 112.5 294t270.5 108q54 0 121 -20.5t71 -20.5q5 0 8.5 1.5t6.5 5.5t5 6.5t5 8.5l4 8h18l7 -243h-29q-23 105 -78 161t-133 56z" />
    <glyph glyph-name="ordfeminine" unicode="&#xaa;" horiz-adv-x="991" 
d="M977 762l41 -31q-40 -59 -98.5 -92t-124.5 -33q-98 0 -136.5 54.5t-19.5 152.5l-8 2q-32 -90 -94.5 -149.5t-157.5 -59.5q-242 0 -242 262q0 127 42 233t128 172t201 66q74 0 114 -32t48 -70l22 84q207 -6 285 10q-90 -389 -115 -545q-13 -84 39 -84q36 0 76 60zM463 684
q41 0 76 58t54.5 138.5t30.5 152.5t11 112q0 62 -13.5 90.5t-46.5 28.5q-39 0 -73.5 -59t-55.5 -141t-33 -158t-12 -120q0 -51 13 -76.5t49 -25.5z" />
    <glyph glyph-name="guillemotleft" unicode="&#xab;" horiz-adv-x="1030" 
d="M514 571l404 242l28 -29l-250 -335l133 -314l-32 -24l-285 217q-70 54 -70 125q0 62 72 118zM121 571l403 242l29 -29l-250 -335l133 -314l-33 -24l-284 217q-70 54 -70 125q0 62 72 118z" />
    <glyph glyph-name="logicalnot" unicode="&#xac;" horiz-adv-x="1228" 
d="M1001 336v274h-851v74h929v-348h-78z" />
    <glyph glyph-name="uni00AD" unicode="&#xad;" horiz-adv-x="690" 
d="M109 512l22 119h504l-23 -119h-503z" />
    <glyph glyph-name="registered" unicode="&#xae;" horiz-adv-x="980" 
d="M961 983q0 -171 -109 -278t-281 -107q-186 0 -286.5 103t-100.5 268q0 175 111.5 281t277.5 106q178 0 283 -102t105 -271zM899 977q0 153 -92 240.5t-234 87.5q-145 0 -235 -90.5t-90 -243.5q0 -149 85 -234.5t240 -85.5q149 0 237.5 88.5t88.5 237.5zM553 987h-27v-172
h58v-22h-183v22h45v348h-45v23h148q40 0 67.5 -3.5t53 -12.5t38.5 -28t13 -48q0 -87 -123 -97v-2q59 -5 83 -26t24 -70v-47q0 -17 5 -25t21 -8t23.5 12t11.5 48l22 -2q-2 -21 -5 -33.5t-10.5 -27.5t-23.5 -22.5t-40 -7.5q-82 0 -82 68v68q0 65 -74 65zM526 1163v-155h6
q57 0 82 20.5t25 61.5q0 40 -22 56.5t-80 16.5h-11z" />
    <glyph glyph-name="macron" unicode="&#xaf;" horiz-adv-x="1024" 
d="M446 1190l31 172h557l-30 -172h-558z" />
    <glyph glyph-name="degree" unicode="&#xb0;" horiz-adv-x="673" 
d="M254 1284q0 -81 45 -130.5t131 -49.5q78 0 125 50.5t47 129.5q0 83 -47.5 131.5t-130.5 48.5q-78 0 -124 -49.5t-46 -130.5zM172 1284q0 104 69 175t191 71q120 0 185 -66t65 -176q0 -109 -68 -180.5t-188 -71.5q-124 0 -189 68.5t-65 179.5z" />
    <glyph glyph-name="plusminus" unicode="&#xb1;" 
d="M1073 612h-432l-68 -383h-81l67 383h-416l15 74h415l62 358h82l-62 -358h432zM967 0h-930l12 74h930z" />
    <glyph glyph-name="twosuperior" unicode="&#xb2;" horiz-adv-x="714" 
d="M479 1681q159 0 229 -57.5t70 -150.5q0 -108 -106 -204.5t-340 -219.5l-103 -54h215q60 0 104.5 9t70 20.5t45.5 36t29 42t22 52.5h49l-59 -348h-613l31 164l129 112q126 110 187 211t61 211q0 65 -30 93t-73 28q-41 0 -63 -17.5t-21 -40t11 -44.5h55
q11 -71 -20.5 -113.5t-100.5 -42.5q-54 0 -80 32t-26 75q0 88 91 147t236 59z" />
    <glyph glyph-name="threesuperior" unicode="&#xb3;" horiz-adv-x="768" 
d="M522 1681q155 0 218 -41t63 -124q0 -47 -27 -84.5t-77.5 -64.5t-108.5 -45.5t-133 -33.5q0 -1 1 -4t1 -4q38 2 81 2.5t86.5 -11.5t78.5 -31t57 -57t22 -89q0 -82 -40 -143t-107.5 -94t-143 -48.5t-159.5 -15.5q-130 0 -186 50t-56 122q0 58 42.5 102.5t113.5 44.5
q40 0 64 -15.5t31 -40.5t4.5 -52.5t-13.5 -55.5h-68q-18 -22 -21.5 -43.5t14 -37t56.5 -15.5q81 0 133 58.5t52 164.5q0 144 -115 144q-43 0 -92 -17l-6 72q138 42 199 92.5t61 140.5q0 58 -34.5 87.5t-92.5 29.5q-42 0 -61 -24.5t8 -71.5h55q10 -67 -26 -112.5t-111 -45.5
q-53 0 -81 31t-28 74q0 101 94 153.5t252 52.5z" />
    <glyph glyph-name="acute" unicode="&#xb4;" horiz-adv-x="1024" 
d="M545 1126l176 392l117 24q43 9 79.5 -10.5t36.5 -67.5q0 -57 -63 -108l-311 -254z" />
    <glyph glyph-name="mu" unicode="&#xb5;" horiz-adv-x="1312" 
d="M614 1026l-112 -676q-7 -44 -10.5 -71.5t-6 -59t1.5 -49.5t12 -34t24 -23t40 -7q57 0 111.5 87t77.5 223l96 592l342 18l-141 -823q-15 -88 51 -88q67 0 108 182l52 -2q-15 -91 -43.5 -154t-70 -97.5t-89 -49t-109.5 -14.5q-222 0 -229 202q-36 -87 -110 -146t-175 -59
q-33 0 -61.5 9t-62 32t-63.5 74t-52 125l-19 -8l107 -354q43 -128 43 -187q0 -60 -46 -98.5t-112 -24.5l-152 37l238 1426z" />
    <glyph glyph-name="paragraph" unicode="&#xb6;" horiz-adv-x="1333" 
d="M1264 1378l-201 -1147q-49 -282 -177.5 -415t-346.5 -133q-104 0 -179.5 24.5t-115 65.5t-57 84.5t-17.5 91.5q0 101 57.5 163t153.5 62q98 0 133.5 -70.5t-6.5 -164.5l-94 -17q-21 -49 -19 -88t42 -63.5t114 -24.5q52 0 97.5 9t99.5 39t97 79t80.5 136t57.5 204
l203 1167h-172l-162 -934h-207q-191 0 -319.5 117t-128.5 309q0 177 83.5 305.5t229 192.5t336.5 64h559l-8 -56h-133z" />
    <glyph glyph-name="periodcentered" unicode="&#xb7;" horiz-adv-x="585" 
d="M328 774q69 0 109 -35t40 -98q0 -94 -56.5 -150.5t-146.5 -56.5q-78 0 -112.5 42.5t-34.5 103.5q0 86 60.5 140t140.5 54z" />
    <glyph glyph-name="cedilla" unicode="&#xb8;" horiz-adv-x="1024" 
d="M477 27h72l-119 -150q63 23 125 23q77 0 119.5 -42t42.5 -118q0 -41 -16.5 -79t-50 -71t-93 -53t-137.5 -20q-97 0 -144 38.5t-47 88.5q0 41 24 67.5t66 26.5q80 0 82 -82l-53 -33q-15 -69 58 -69q43 0 75.5 38t32.5 123q0 64 -21 95.5t-55 31.5q-31 0 -78 -14l-12 33z
" />
    <glyph glyph-name="onesuperior" unicode="&#xb9;" horiz-adv-x="638" 
d="M244 860l116 656q-38 -8 -99 -4.5t-91 12.5l12 49q97 -7 196 24.5t144 83.5h154l-150 -821h129l-12 -53h-551l10 53h142z" />
    <glyph glyph-name="ordmasculine" unicode="&#xba;" horiz-adv-x="917" 
d="M637 973q20 117 20 194q0 60 -15.5 86.5t-59.5 26.5q-70 0 -104 -70.5t-62 -242.5q-23 -138 -23 -199q0 -60 18 -86.5t66 -26.5q68 0 98 63.5t62 254.5zM125 887q0 208 127 324t342 116q164 0 250 -66.5t86 -199.5q0 -215 -124.5 -335t-340.5 -120q-165 0 -252.5 73
t-87.5 208z" />
    <glyph glyph-name="guillemotright" unicode="&#xbb;" horiz-adv-x="1030" 
d="M887 352l-404 -241l-28 28l252 340l-134 303l33 25l283 -211q69 -53 69 -125q0 -64 -71 -119zM494 352l-404 -241l-29 28l252 340l-133 303l33 25l283 -211q69 -53 69 -125q0 -64 -71 -119z" />
    <glyph glyph-name="onequarter" unicode="&#xbc;" horiz-adv-x="1843" 
d="M305 639l117 655q-38 -8 -99.5 -4t-91.5 13l13 49q97 -7 196 24.5t144 83.5h153l-149 -821h129l-12 -53h-551l10 53h141zM393 -23l1135 1479h86l-1133 -1479h-88zM1538 41h129l-10 -53h-559l8 53h156l30 154h-346l15 73q183 154 278.5 295t95.5 209q0 45 -14 70l33 28
q98 2 148 -23.5t50 -96.5q0 -77 -56.5 -139t-221.5 -175l-264 -182h293l30 166l287 43l-41 -209h111l-11 -59h-110z" />
    <glyph glyph-name="onehalf" unicode="&#xbd;" horiz-adv-x="1843" 
d="M244 639l116 655q-38 -8 -99 -4t-91 13l12 49q97 -7 196 24.5t144 83.5h154l-150 -821h129l-12 -53h-551l10 53h142zM332 -23l1134 1479h86l-1132 -1479h-88zM1442 862q159 0 229 -58t70 -151q0 -108 -106 -204.5t-341 -219.5l-102 -53h215q60 0 104.5 9t70 20.5
t45.5 36.5t28 42t22 52h49l-59 -348h-612l30 164l129 112q126 110 187 211t61 211q0 65 -29.5 93t-72.5 28q-41 0 -63.5 -17.5t-21.5 -40t11 -44.5h55q11 -71 -20 -113.5t-100 -42.5q-54 0 -80.5 32t-26.5 74q0 88 91.5 147.5t236.5 59.5z" />
    <glyph glyph-name="threequarters" unicode="&#xbe;" horiz-adv-x="1843" 
d="M645 1460q155 0 218 -41.5t63 -124.5q0 -47 -27 -84.5t-78 -64t-108.5 -45t-132.5 -33.5q0 -1 1 -4t1 -4q38 2 81 2.5t86.5 -12t78.5 -31.5t57 -57t22 -89q0 -82 -40 -143t-107.5 -94t-143 -48.5t-159.5 -15.5q-130 0 -186 50t-56 122q0 58 42.5 103t113.5 45
q40 0 64 -15.5t31 -40.5t4.5 -52.5t-13.5 -55.5h-68q-18 -22 -21.5 -43.5t14 -37t56.5 -15.5q81 0 133 58.5t52 164.5q0 143 -115 143q-46 0 -92 -16l-6 72q138 42 199 92.5t61 140.5q0 58 -34.5 87.5t-92.5 29.5q-42 0 -61.5 -24.5t7.5 -71.5h56q10 -67 -26 -112.5
t-111 -45.5q-53 0 -81 31t-28 73q0 101 94 154t252 53zM461 -23l1134 1479h86l-1132 -1479h-88zM1573 41h129l-10 -53h-559l8 53h155l31 154h-346l14 73q183 154 279 295t96 209q0 45 -14 70l33 28q98 2 148 -23.5t50 -96.5q0 -77 -56.5 -139t-221.5 -175l-265 -182h293
l31 166l287 43l-41 -209h110l-10 -59h-110z" />
    <glyph glyph-name="questiondown" unicode="&#xbf;" horiz-adv-x="1120" 
d="M438 -479q-107 0 -190 26.5t-132 72t-73.5 101t-24.5 119.5q0 74 21 132.5t57 97t83 68t98.5 49t102.5 36t98 33.5t83 37.5t57 52t21 72.5q0 49 -32.5 87t-112.5 38q-184 0 -240 -228l-47 11q24 125 112.5 203.5t219.5 78.5q161 0 252.5 -76.5t91.5 -195.5
q0 -84 -32 -145.5t-83 -97.5t-113 -63.5t-124 -52t-113 -54.5t-83 -80t-32 -119q0 -72 49.5 -113t139.5 -41q105 0 153.5 48t24.5 134h-72q-11 93 31 153t137 60q75 0 112 -45.5t37 -107.5q0 -78 -47 -137t-121.5 -91t-153 -47.5t-155.5 -15.5zM788 860q0 -78 -54.5 -132
t-139.5 -54q-63 0 -101 33.5t-38 93.5q0 82 53 139t141 57q71 0 105 -40.5t34 -96.5z" />
    <glyph glyph-name="Agrave" unicode="&#xc0;" horiz-adv-x="1331" 
d="M776 59l-55 418h-410l-215 -418h152l-8 -59h-342l8 59h114l707 1375h207l213 -1375h123l-8 -59h-617l8 59h123zM639 1114l-299 -577h375zM801 1901l227 -361l-27 -27l-317 162q-48 24 -68 48.5t-20 62.5q0 40 34 66t85 34z" />
    <glyph glyph-name="Aacute" unicode="&#xc1;" horiz-adv-x="1331" 
d="M776 59l-55 418h-410l-215 -418h152l-8 -59h-342l8 59h114l707 1375h207l213 -1375h123l-8 -59h-617l8 59h123zM639 1114l-299 -577h375zM662 1530l253 350l89 -18q57 -11 76.5 -32.5t19.5 -60.5q0 -37 -22.5 -63.5t-69.5 -48.5l-322 -156z" />
    <glyph glyph-name="Acircumflex" unicode="&#xc2;" horiz-adv-x="1331" 
d="M776 59l-55 418h-410l-215 -418h152l-8 -59h-342l8 59h114l707 1375h207l213 -1375h123l-8 -59h-617l8 59h123zM639 1114l-299 -577h375zM518 1530l273 274q68 33 118 33q53 0 80.5 -20t48.5 -62l113 -231l-25 -23l-249 139l-340 -139z" />
    <glyph glyph-name="Atilde" unicode="&#xc3;" horiz-adv-x="1331" 
d="M776 59l-55 418h-410l-215 -418h152l-8 -59h-342l8 59h114l707 1375h207l213 -1375h123l-8 -59h-617l8 59h123zM639 1114l-299 -577h375zM983 1573q-74 0 -182 49q-75 33 -117 33q-73 0 -123 -86l-37 12q61 134 121 197t152 63q13 0 25 -1t26.5 -5t22 -5.5t26 -9t21.5 -9
t25.5 -11.5t23.5 -10q76 -31 110 -31q40 0 70.5 16.5t56.5 69.5l41 -10q-60 -143 -123 -202.5t-139 -59.5z" />
    <glyph glyph-name="Adieresis" unicode="&#xc4;" horiz-adv-x="1331" 
d="M776 59l-55 418h-410l-215 -418h152l-8 -59h-342l8 59h114l707 1375h207l213 -1375h123l-8 -59h-617l8 59h123zM639 1114l-299 -577h375zM694 1812q59 0 94 -27t35 -81q0 -76 -50 -127t-128 -51q-66 0 -97.5 36t-31.5 87q0 72 53 117.5t125 45.5zM1108 1812q59 0 94 -27
t35 -81q0 -76 -50 -127t-128 -51q-67 0 -98 34.5t-31 84.5q0 76 53.5 121.5t124.5 45.5z" />
    <glyph glyph-name="Aring" unicode="&#xc5;" horiz-adv-x="1331" 
d="M776 59l-55 418h-410l-215 -418h152l-8 -59h-342l8 59h114l707 1375h207l213 -1375h123l-8 -59h-617l8 59h123zM639 1114l-299 -577h375zM877 1772q-57 0 -96.5 -40t-39.5 -98q0 -41 24 -70.5t73 -29.5q60 0 97.5 38.5t37.5 96.5q0 44 -24 73.5t-72 29.5zM668 1620
q0 91 63 150t162 59q75 0 115.5 -39t40.5 -102q0 -95 -62 -154t-162 -59q-80 0 -118.5 40t-38.5 105z" />
    <glyph glyph-name="AE" unicode="&#xc6;" horiz-adv-x="1978" 
d="M780 1434h1209l-47 -400h-48q-21 135 -62.5 207.5t-115 102.5t-200.5 30h-111l-105 -626h72q192 0 285 262h47l-100 -607h-52q-6 156 -52.5 217.5t-158.5 61.5h-51l-94 -623h102q375 0 527 381h55l-90 -440h-1088l11 59h131l102 619h-409l-424 -619h153l-10 -59h-338
l10 59h105l897 1315h-160zM1063 1374h-53l-430 -631h378z" />
    <glyph glyph-name="Ccedilla" unicode="&#xc7;" horiz-adv-x="1269" 
d="M879 1397q-91 0 -166 -59t-123 -151.5t-80.5 -210.5t-46.5 -230.5t-14 -217.5q0 -234 70.5 -347t213.5 -113q132 0 245.5 90t178.5 286l55 -14q-29 -99 -77.5 -177t-101.5 -126t-117 -81t-119 -47t-113 -19l-80 -103q63 23 125 23q77 0 119.5 -42t42.5 -118
q0 -41 -16.5 -79t-50 -71t-93 -53t-137.5 -20q-97 0 -144 38.5t-47 88.5q0 41 24.5 67.5t66.5 26.5q79 0 81 -82l-53 -33q-15 -69 58 -69q43 0 75.5 38t32.5 123q0 64 -21 95.5t-55 31.5q-30 0 -77 -14l-13 33l90 116q-252 6 -393 145.5t-141 409.5q0 140 32 273.5t99 251.5
t161 207t226.5 140.5t286.5 51.5q66 0 139 -15t124.5 -30.5t65.5 -15.5q15 0 25.5 6.5t15.5 12.5t17 24h41l-58 -428h-51q-17 387 -323 387z" />
    <glyph glyph-name="Egrave" unicode="&#xc8;" horiz-adv-x="1230" 
d="M211 1434h1040l-47 -400h-51q-12 108 -36 174t-71 103.5t-108 50t-160 12.5h-108l-103 -612h66q103 0 170.5 61t116.5 201h47l-101 -606h-51q0 114 -23 175t-66.5 82t-123.5 21h-45l-106 -637h98q116 0 199 21.5t144.5 71.5t104.5 117t86 171h58l-90 -440h-1071l10 59
h121l217 1315h-127zM748 1901l227 -361l-27 -27l-317 162q-48 24 -68 48.5t-20 62.5q0 40 34 66t85 34z" />
    <glyph glyph-name="Eacute" unicode="&#xc9;" horiz-adv-x="1230" 
d="M211 1434h1040l-47 -400h-51q-12 108 -36 174t-71 103.5t-108 50t-160 12.5h-108l-103 -612h66q103 0 170.5 61t116.5 201h47l-101 -606h-51q0 114 -23 175t-66.5 82t-123.5 21h-45l-106 -637h98q116 0 199 21.5t144.5 71.5t104.5 117t86 171h58l-90 -440h-1071l10 59
h121l217 1315h-127zM594 1530l254 350l88 -18q57 -11 76.5 -32.5t19.5 -60.5q0 -37 -22.5 -63.5t-69.5 -48.5l-322 -156z" />
    <glyph glyph-name="Ecircumflex" unicode="&#xca;" horiz-adv-x="1230" 
d="M211 1434h1040l-47 -400h-51q-12 108 -36 174t-71 103.5t-108 50t-160 12.5h-108l-103 -612h66q103 0 170.5 61t116.5 201h47l-101 -606h-51q0 114 -23 175t-66.5 82t-123.5 21h-45l-106 -637h98q116 0 199 21.5t144.5 71.5t104.5 117t86 171h58l-90 -440h-1071l10 59
h121l217 1315h-127zM451 1530l272 274q68 33 119 33q53 0 80.5 -20t48.5 -62l112 -231l-24 -23l-250 139l-340 -139z" />
    <glyph glyph-name="Edieresis" unicode="&#xcb;" horiz-adv-x="1230" 
d="M211 1434h1040l-47 -400h-51q-12 108 -36 174t-71 103.5t-108 50t-160 12.5h-108l-103 -612h66q103 0 170.5 61t116.5 201h47l-101 -606h-51q0 114 -23 175t-66.5 82t-123.5 21h-45l-106 -637h98q116 0 199 21.5t144.5 71.5t104.5 117t86 171h58l-90 -440h-1071l10 59
h121l217 1315h-127zM627 1812q59 0 94 -27t35 -81q0 -76 -50 -127t-128 -51q-66 0 -97.5 36t-31.5 87q0 72 53 117.5t125 45.5zM1040 1812q59 0 94 -27t35 -81q0 -76 -50 -127t-128 -51q-67 0 -98 34.5t-31 84.5q0 76 53.5 121.5t124.5 45.5z" />
    <glyph glyph-name="Igrave" unicode="&#xcc;" horiz-adv-x="731" 
d="M457 59h133l-10 -59h-598l10 59h119l219 1315h-131l10 60h602l-10 -60h-125zM494 1901l227 -361l-27 -27l-317 162q-48 24 -68 48.5t-20 62.5q0 40 34 66t85 34z" />
    <glyph glyph-name="Iacute" unicode="&#xcd;" horiz-adv-x="731" 
d="M457 59h133l-10 -59h-598l10 59h119l219 1315h-131l10 60h602l-10 -60h-125zM340 1530l254 350l88 -18q57 -11 76.5 -32.5t19.5 -60.5q0 -37 -22.5 -63.5t-69.5 -48.5l-321 -156z" />
    <glyph glyph-name="Icircumflex" unicode="&#xce;" horiz-adv-x="731" 
d="M457 59h133l-10 -59h-598l10 59h119l219 1315h-131l10 60h602l-10 -60h-125zM197 1530l272 274q68 33 119 33q53 0 80.5 -20t48.5 -62l112 -231l-24 -23l-250 139l-340 -139z" />
    <glyph glyph-name="Idieresis" unicode="&#xcf;" horiz-adv-x="731" 
d="M457 59h133l-10 -59h-598l10 59h119l219 1315h-131l10 60h602l-10 -60h-125zM373 1812q59 0 94 -27t35 -81q0 -76 -50 -127t-128 -51q-66 0 -97.5 36t-31.5 87q0 72 53 117.5t125 45.5zM786 1812q59 0 94 -27t35 -81q0 -76 -50 -127t-128 -51q-67 0 -98 34.5t-31 84.5
q0 76 53.5 121.5t124.5 45.5z" />
    <glyph glyph-name="Eth" unicode="&#xd0;" horiz-adv-x="1470" 
d="M1430 883q0 -411 -256 -647t-699 -236h-467l10 59h121l111 670h-158l8 59h160l98 586h-129l11 60h520q124 0 224 -17.5t184.5 -58.5t141.5 -104t88.5 -156.5t31.5 -214.5zM479 59h37q127 0 227 60.5t166 171.5t104.5 258.5t51.5 331.5q4 82 4 110q0 74 -9 132t-24.5 98
t-41 68.5t-51.5 44.5t-64 25.5t-71.5 12t-80.5 2.5h-29l-98 -586h291l-8 -59h-293z" />
    <glyph glyph-name="Ntilde" unicode="&#xd1;" horiz-adv-x="1384" 
d="M1329 1374l-229 -1374h-260l-434 1327h-7l-204 -1268h124l-8 -59h-331l10 59h125l217 1315h-129l10 60h514l356 -1049h9l161 989h-120l10 60h313l-10 -60h-117zM983 1573q-74 0 -182 49q-75 33 -117 33q-73 0 -123 -86l-37 12q61 134 121 197t152 63q13 0 25 -1t26.5 -5
t22 -5.5t26 -9t21.5 -9t25.5 -11.5t23.5 -10q76 -31 110 -31q40 0 70.5 16.5t56.5 69.5l41 -10q-60 -143 -123 -202.5t-139 -59.5z" />
    <glyph glyph-name="Ograve" unicode="&#xd2;" horiz-adv-x="1415" 
d="M1004 717q45 270 45 403q0 140 -45 206.5t-160 66.5q-48 0 -87.5 -9.5t-72 -33t-57.5 -51.5t-47 -76t-38.5 -95.5t-33.5 -121.5t-29.5 -141.5t-29.5 -166.5q-37 -206 -37 -362q0 -148 44 -220.5t160 -72.5q60 0 107 16.5t84 55.5t64.5 89t51.5 131.5t42 168.5t39 213z
M76 522q0 143 30 277.5t94 254t155.5 209t223 141.5t287.5 52q256 0 385 -140.5t129 -412.5q0 -138 -28.5 -269t-91 -250.5t-152 -208.5t-221 -142t-289.5 -53q-262 0 -392 142.5t-130 399.5zM838 1901l227 -361l-27 -27l-317 162q-48 24 -68 48.5t-20 62.5q0 40 34 66
t85 34z" />
    <glyph glyph-name="Oacute" unicode="&#xd3;" horiz-adv-x="1415" 
d="M1004 717q45 270 45 403q0 140 -45 206.5t-160 66.5q-48 0 -87.5 -9.5t-72 -33t-57.5 -51.5t-47 -76t-38.5 -95.5t-33.5 -121.5t-29.5 -141.5t-29.5 -166.5q-37 -206 -37 -362q0 -148 44 -220.5t160 -72.5q60 0 107 16.5t84 55.5t64.5 89t51.5 131.5t42 168.5t39 213z
M76 522q0 143 30 277.5t94 254t155.5 209t223 141.5t287.5 52q256 0 385 -140.5t129 -412.5q0 -138 -28.5 -269t-91 -250.5t-152 -208.5t-221 -142t-289.5 -53q-262 0 -392 142.5t-130 399.5zM684 1530l254 350l88 -18q57 -11 76.5 -32.5t19.5 -60.5q0 -37 -22.5 -63.5
t-69.5 -48.5l-321 -156z" />
    <glyph glyph-name="Ocircumflex" unicode="&#xd4;" horiz-adv-x="1415" 
d="M1004 717q45 270 45 403q0 140 -45 206.5t-160 66.5q-48 0 -87.5 -9.5t-72 -33t-57.5 -51.5t-47 -76t-38.5 -95.5t-33.5 -121.5t-29.5 -141.5t-29.5 -166.5q-37 -206 -37 -362q0 -148 44 -220.5t160 -72.5q60 0 107 16.5t84 55.5t64.5 89t51.5 131.5t42 168.5t39 213z
M76 522q0 143 30 277.5t94 254t155.5 209t223 141.5t287.5 52q256 0 385 -140.5t129 -412.5q0 -138 -28.5 -269t-91 -250.5t-152 -208.5t-221 -142t-289.5 -53q-262 0 -392 142.5t-130 399.5zM541 1530l272 274q68 33 119 33q53 0 80.5 -20t48.5 -62l113 -231l-25 -23
l-250 139l-340 -139z" />
    <glyph glyph-name="Otilde" unicode="&#xd5;" horiz-adv-x="1415" 
d="M1004 717q45 270 45 403q0 140 -45 206.5t-160 66.5q-48 0 -87.5 -9.5t-72 -33t-57.5 -51.5t-47 -76t-38.5 -95.5t-33.5 -121.5t-29.5 -141.5t-29.5 -166.5q-37 -206 -37 -362q0 -148 44 -220.5t160 -72.5q60 0 107 16.5t84 55.5t64.5 89t51.5 131.5t42 168.5t39 213z
M76 522q0 143 30 277.5t94 254t155.5 209t223 141.5t287.5 52q256 0 385 -140.5t129 -412.5q0 -138 -28.5 -269t-91 -250.5t-152 -208.5t-221 -142t-289.5 -53q-262 0 -392 142.5t-130 399.5zM1006 1573q-75 0 -183 49q-75 33 -116 33q-73 0 -123 -86l-37 12
q62 135 121 197.5t151 62.5q13 0 25 -1t26.5 -5t22 -5.5t26 -9t21.5 -9t25.5 -11.5t23.5 -10q76 -31 111 -31q40 0 70.5 16.5t56.5 69.5l41 -10q-60 -143 -123 -202.5t-139 -59.5z" />
    <glyph glyph-name="Odieresis" unicode="&#xd6;" horiz-adv-x="1415" 
d="M1004 717q45 270 45 403q0 140 -45 206.5t-160 66.5q-48 0 -87.5 -9.5t-72 -33t-57.5 -51.5t-47 -76t-38.5 -95.5t-33.5 -121.5t-29.5 -141.5t-29.5 -166.5q-37 -206 -37 -362q0 -148 44 -220.5t160 -72.5q60 0 107 16.5t84 55.5t64.5 89t51.5 131.5t42 168.5t39 213z
M76 522q0 143 30 277.5t94 254t155.5 209t223 141.5t287.5 52q256 0 385 -140.5t129 -412.5q0 -138 -28.5 -269t-91 -250.5t-152 -208.5t-221 -142t-289.5 -53q-262 0 -392 142.5t-130 399.5zM717 1812q59 0 94 -27t35 -81q0 -76 -50 -127t-128 -51q-66 0 -97.5 36t-31.5 87
q0 72 53 117.5t125 45.5zM1130 1812q59 0 94.5 -27t35.5 -81q0 -76 -50 -127t-129 -51q-67 0 -98 34.5t-31 84.5q0 76 53.5 121.5t124.5 45.5z" />
    <glyph glyph-name="multiply" unicode="&#xd7;" 
d="M971 946l-359 -303l246 -301l-61 -49l-246 297l-352 -299l-43 51l352 301l-246 303l62 53l245 -303l359 303z" />
    <glyph glyph-name="Oslash" unicode="&#xd8;" horiz-adv-x="1415" 
d="M76 522q0 143 30 277.5t94 254t155.5 209t223 141.5t287.5 52q99 0 172 -20l86 168l66 -33l-80 -158q270 -114 270 -510q0 -138 -28.5 -269t-91 -250.5t-152 -208.5t-221 -142t-289.5 -53q-107 0 -203 26l-94 -184l-68 33l93 180q-125 60 -187.5 185t-62.5 302zM1004 717
q45 270 45 403q0 87 -17 142l-579 -1141q47 -78 163 -78q60 0 107 16.5t84 55.5t64.5 89t51.5 131.5t42 168.5t39 213zM412 336q0 -70 8 -117l571 1122q-52 52 -147 52q-48 0 -87.5 -9.5t-72 -33t-57.5 -51.5t-47 -76t-38.5 -95.5t-33.5 -121.5t-29.5 -141.5t-29.5 -166.5
q-37 -206 -37 -362z" />
    <glyph glyph-name="Ugrave" unicode="&#xd9;" horiz-adv-x="1404" 
d="M750 61q62 0 117 19.5t106.5 62.5t90 123t56.5 191l152 917h-142l9 60h342l-11 -60h-116l-152 -911q-21 -124 -57.5 -210t-101.5 -150.5t-165 -95t-241 -30.5q-106 0 -187 18.5t-145 60.5t-97.5 116t-33.5 178q0 71 16 172l146 852h-129l10 60h602l-8 -60h-135l-156 -938
q-12 -67 -12 -131q0 -117 60.5 -180.5t181.5 -63.5zM844 1901l227 -361l-27 -27l-317 162q-48 24 -68 48.5t-20 62.5q0 40 34 66t85 34z" />
    <glyph glyph-name="Uacute" unicode="&#xda;" horiz-adv-x="1404" 
d="M750 61q-121 0 -181.5 63.5t-60.5 180.5q0 64 12 131l156 938h135l8 60h-602l-10 -60h129l-146 -852q-16 -101 -16 -172q0 -104 33.5 -178t97.5 -116t145 -60.5t187 -18.5q141 0 241 30.5t165 95t101.5 150.5t57.5 210l152 911h116l11 60h-342l-9 -60h142l-152 -917
q-18 -111 -56.5 -191t-90 -123t-106.5 -62.5t-117 -19.5zM735 1530l254 350l88 -18q57 -11 77 -32.5t20 -60.5q0 -37 -22.5 -63t-70.5 -49l-321 -156z" />
    <glyph glyph-name="Ucircumflex" unicode="&#xdb;" horiz-adv-x="1404" 
d="M750 61q-121 0 -181.5 63.5t-60.5 180.5q0 64 12 131l156 938h135l8 60h-602l-10 -60h129l-146 -852q-16 -101 -16 -172q0 -104 33.5 -178t97.5 -116t145 -60.5t187 -18.5q141 0 241 30.5t165 95t101.5 150.5t57.5 210l152 911h116l11 60h-342l-9 -60h142l-152 -917
q-18 -111 -56.5 -191t-90 -123t-106.5 -62.5t-117 -19.5zM573 1530l273 274q68 33 119 33q53 0 80.5 -20t48.5 -62l112 -231l-24 -23l-250 139l-340 -139z" />
    <glyph glyph-name="Udieresis" unicode="&#xdc;" horiz-adv-x="1404" 
d="M750 61q62 0 117 19.5t106.5 62.5t90 123t56.5 191l152 917h-142l9 60h342l-11 -60h-116l-152 -911q-21 -124 -57.5 -210t-101.5 -150.5t-165 -95t-241 -30.5q-106 0 -187 18.5t-145 60.5t-97.5 116t-33.5 178q0 71 16 172l146 852h-129l10 60h602l-8 -60h-135l-156 -938
q-12 -67 -12 -131q0 -117 60.5 -180.5t181.5 -63.5zM750 1812q59 0 94 -27t35 -81q0 -76 -50 -127t-129 -51q-66 0 -97.5 36t-31.5 87q0 72 53.5 117.5t125.5 45.5zM1163 1812q59 0 94 -27t35 -81q0 -76 -50 -127t-128 -51q-67 0 -98 34.5t-31 84.5q0 76 53.5 121.5
t124.5 45.5z" />
    <glyph glyph-name="Yacute" unicode="&#xdd;" horiz-adv-x="1206" 
d="M774 743l426 631h-135l10 60h318l-11 -60h-100l-485 -719l-103 -596h166l-10 -59h-670l10 59h164l99 592l-244 723h-125l10 60h641l-10 -60h-150zM645 1530l254 350l88 -18q57 -11 76.5 -32.5t19.5 -60.5q0 -37 -22.5 -63.5t-69.5 -48.5l-321 -156z" />
    <glyph glyph-name="Thorn" unicode="&#xde;" horiz-adv-x="1257" 
d="M670 1374l-35 -215h86q135 0 233.5 -16.5t173.5 -55t112.5 -105.5t37.5 -163q0 -85 -22.5 -156t-61.5 -122t-96 -90.5t-121 -64.5t-141 -41t-152 -22t-158 -6h-32l-43 -258h256l-11 -59h-737l10 59h142l219 1315h-144l11 60h751l-10 -60h-268zM625 1100l-123 -727h43
q83 0 150 32t110 83.5t71.5 121t40 140.5t11.5 147q0 113 -58 158t-174 45h-71z" />
    <glyph glyph-name="germandbls" unicode="&#xdf;" horiz-adv-x="1497" 
d="M78 -66l201 1129q45 253 210.5 386.5t446.5 133.5q65 0 118 -5t106 -19.5t88.5 -38t58 -63t22.5 -91.5q0 -56 -30 -105t-74.5 -82t-97 -67.5t-97 -62.5t-74.5 -67t-30 -81q0 -48 38 -85.5t111 -78.5q15 -8 48 -26.5t51.5 -29t49.5 -29t49 -34t42.5 -37t39 -43.5t28 -48
t20 -56.5t6.5 -64.5q0 -176 -135.5 -284t-339.5 -108q-165 0 -250.5 60t-85.5 174q0 84 47.5 131t124.5 47q55 0 93.5 -30t43.5 -77.5t-30 -105.5h-70q-21 -54 5 -94.5t124 -40.5q101 0 158 50t57 126q0 70 -43.5 115.5t-124.5 87.5q-9 5 -45.5 24t-49 26t-43.5 26.5
t-43.5 31.5t-33.5 34.5t-29.5 43t-16 48.5t-7.5 59q0 66 21.5 120.5t56 93.5t76 74.5t82.5 71t75.5 75t56 95t21.5 121.5q0 80 -37.5 125t-116.5 45q-120 0 -192 -78t-105 -258l-217 -1198q-94 -514 -555 -514q-72 0 -137.5 23.5t-112.5 77.5t-47 130q0 86 54.5 143.5
t140.5 57.5q89 0 125.5 -65.5t-0.5 -151.5l-86 -10q-28 -71 -9.5 -107.5t72.5 -36.5q30 0 54.5 12.5t43 40.5t32 57.5t26.5 80t21 90.5t20 106z" />
    <glyph glyph-name="agrave" unicode="&#xe0;" horiz-adv-x="1243" 
d="M1155 997q-6 -29 -29.5 -144t-33 -163.5t-27 -141.5t-30.5 -172t-25 -161q-11 -62 -5 -94t18 -41.5t36 -9.5q27 0 61 23t68 73l45 -33q-102 -156 -275 -156q-277 0 -221 261l-10 2q-45 -123 -133 -193t-219 -70q-326 0 -326 383q0 101 19.5 195t60.5 176.5t99.5 144
t143 97t185.5 35.5q99 0 152 -40t84 -110l30 125q228 -5 332 14zM489 70q96 0 171.5 154.5t99.5 428.5q12 133 -24.5 205t-106.5 72q-99 0 -163.5 -165.5t-84.5 -485.5q-4 -34 -0.5 -70.5t12 -67.5t33 -51t63.5 -20zM786 1511l62 -393l-37 -14l-244 270q-35 49 -35 88
q0 58 56 84t104 6z" />
    <glyph glyph-name="aacute" unicode="&#xe1;" horiz-adv-x="1243" 
d="M1155 997q-6 -29 -29.5 -144t-33 -163.5t-27 -141.5t-30.5 -172t-25 -161q-11 -62 -5 -94t18 -41.5t36 -9.5q27 0 61 23t68 73l45 -33q-102 -156 -275 -156q-277 0 -221 261l-10 2q-45 -123 -133 -193t-219 -70q-326 0 -326 383q0 101 19.5 195t60.5 176.5t99.5 144
t143 97t185.5 35.5q99 0 152 -40t84 -110l30 125q228 -5 332 14zM489 70q96 0 171.5 154.5t99.5 428.5q12 133 -24.5 205t-106.5 72q-99 0 -163.5 -165.5t-84.5 -485.5q-4 -34 -0.5 -70.5t12 -67.5t33 -51t63.5 -20zM543 1126l176 392l117 24q43 9 79.5 -10.5t36.5 -67.5
q0 -57 -63 -108l-311 -254z" />
    <glyph glyph-name="acircumflex" unicode="&#xe2;" horiz-adv-x="1243" 
d="M1155 997q-6 -29 -29.5 -144t-33 -163.5t-27 -141.5t-30.5 -172t-25 -161q-11 -62 -5 -94t18 -41.5t36 -9.5q27 0 61 23t68 73l45 -33q-102 -156 -275 -156q-277 0 -221 261l-10 2q-45 -123 -133 -193t-219 -70q-326 0 -326 383q0 101 19.5 195t60.5 176.5t99.5 144
t143 97t185.5 35.5q99 0 152 -40t84 -110l30 125q228 -5 332 14zM489 70q96 0 171.5 154.5t99.5 428.5q12 133 -24.5 205t-106.5 72q-99 0 -163.5 -165.5t-84.5 -485.5q-4 -34 -0.5 -70.5t12 -67.5t33 -51t63.5 -20zM414 1130l217 343q17 11 58.5 24.5t76.5 13.5
q54 0 81.5 -20.5t39.5 -67.5l74 -299l-31 -16l-195 201l-295 -207z" />
    <glyph glyph-name="atilde" unicode="&#xe3;" horiz-adv-x="1243" 
d="M1155 997q-6 -29 -29.5 -144t-33 -163.5t-27 -141.5t-30.5 -172t-25 -161q-11 -62 -5 -94t18 -41.5t36 -9.5q27 0 61 23t68 73l45 -33q-102 -156 -275 -156q-277 0 -221 261l-10 2q-45 -123 -133 -193t-219 -70q-326 0 -326 383q0 101 19.5 195t60.5 176.5t99.5 144
t143 97t185.5 35.5q99 0 152 -40t84 -110l30 125q228 -5 332 14zM489 70q96 0 171.5 154.5t99.5 428.5q12 133 -24.5 205t-106.5 72q-99 0 -163.5 -165.5t-84.5 -485.5q-4 -34 -0.5 -70.5t12 -67.5t33 -51t63.5 -20zM842 1188q-75 0 -183 49q-75 33 -116 33q-73 0 -123 -86
l-37 12q62 135 121 197.5t151 62.5q13 0 25 -1t26.5 -5t22 -5.5t26 -9t21.5 -9t25.5 -11.5t23.5 -10q76 -31 111 -31q40 0 70.5 16.5t56.5 69.5l41 -10q-60 -143 -123 -202.5t-139 -59.5z" />
    <glyph glyph-name="adieresis" unicode="&#xe4;" horiz-adv-x="1243" 
d="M1155 997q-6 -29 -29.5 -144t-33 -163.5t-27 -141.5t-30.5 -172t-25 -161q-11 -62 -5 -94t18 -41.5t36 -9.5q27 0 61 23t68 73l45 -33q-102 -156 -275 -156q-277 0 -221 261l-10 2q-45 -123 -133 -193t-219 -70q-326 0 -326 383q0 101 19.5 195t60.5 176.5t99.5 144
t143 97t185.5 35.5q99 0 152 -40t84 -110l30 125q228 -5 332 14zM489 70q96 0 171.5 154.5t99.5 428.5q12 133 -24.5 205t-106.5 72q-99 0 -163.5 -165.5t-84.5 -485.5q-4 -34 -0.5 -70.5t12 -67.5t33 -51t63.5 -20zM547 1442q59 0 94 -27.5t35 -81.5q0 -76 -50 -127
t-128 -51q-66 0 -97.5 36t-31.5 87q0 72 53 118t125 46zM961 1442q59 0 94 -27.5t35 -81.5q0 -76 -50 -127t-129 -51q-67 0 -98 34.5t-31 84.5q0 76 54 122t125 46z" />
    <glyph glyph-name="aring" unicode="&#xe5;" horiz-adv-x="1243" 
d="M1155 997q-6 -29 -29.5 -144t-33 -163.5t-27 -141.5t-30.5 -172t-25 -161q-11 -62 -5 -94t18 -41.5t36 -9.5q27 0 61 23t68 73l45 -33q-102 -156 -275 -156q-277 0 -221 261l-10 2q-45 -123 -133 -193t-219 -70q-326 0 -326 383q0 101 19.5 195t60.5 176.5t99.5 144
t143 97t185.5 35.5q99 0 152 -40t84 -110l30 125q228 -5 332 14zM489 70q96 0 171.5 154.5t99.5 428.5q12 133 -24.5 205t-106.5 72q-99 0 -163.5 -165.5t-84.5 -485.5q-4 -34 -0.5 -70.5t12 -67.5t33 -51t63.5 -20zM750 1438q-57 0 -96.5 -40t-39.5 -98q0 -41 24 -70.5
t73 -29.5q60 0 97.5 38.5t37.5 96.5q0 44 -24 73.5t-72 29.5zM541 1286q0 91 63 150t162 59q75 0 115.5 -39t40.5 -102q0 -95 -62 -154t-162 -59q-80 0 -118.5 40t-38.5 105z" />
    <glyph glyph-name="ae" unicode="&#xe6;" horiz-adv-x="1658" 
d="M1315 1008q162 0 248 -61.5t86 -174.5q0 -58 -22.5 -106.5t-58 -81.5t-87.5 -58t-102.5 -39.5t-111.5 -24t-106 -13t-94 -5.5q-4 -70 -4 -94q0 -150 42 -212t130 -62q91 0 166 67t123 205l55 -18q-63 -185 -176 -269t-297 -84q-159 0 -249 71t-112 202
q-47 -120 -144.5 -196.5t-225.5 -76.5q-326 0 -326 383q0 101 19.5 195t60.5 176.5t99.5 144t143 97t185.5 35.5q99 0 152 -40t84 -110l30 119q138 -3 283 14t209 17zM492 70q95 0 169.5 154t98.5 429q12 133 -24.5 205t-106.5 72q-99 0 -159 -142.5t-85 -435.5
q-4 -41 -4 -119q0 -86 26 -124.5t85 -38.5zM1368 803q0 139 -82 139q-81 0 -138 -123.5t-77 -314.5q52 5 92 15t80 31t66.5 52.5t42.5 82.5t16 118z" />
    <glyph glyph-name="ccedilla" unicode="&#xe7;" horiz-adv-x="989" 
d="M664 1008q160 0 235.5 -69.5t75.5 -172.5q0 -91 -48 -152t-141 -61q-71 0 -105 35.5t-34 87.5q0 46 31 106h82q25 64 17 102t-31 54t-60 16q-73 0 -130.5 -61t-89 -155.5t-47.5 -191t-16 -184.5q0 -158 37 -225t125 -67q82 0 154 77.5t117 206.5l67 -22
q-122 -351 -442 -355l-80 -100q63 23 125 23q77 0 119.5 -42t42.5 -118q0 -41 -16.5 -79t-50 -71t-93 -53t-137.5 -20q-97 0 -144 38.5t-47 88.5q0 41 24 67.5t66 26.5q80 0 82 -82l-53 -33q-15 -69 57 -69q43 0 76 38t33 123q0 64 -21 95.5t-55 31.5q-31 0 -78 -14l-12 33
l92 121q-168 15 -257 116t-89 271q0 286 164.5 462.5t454.5 176.5z" />
    <glyph glyph-name="egrave" unicode="&#xe8;" horiz-adv-x="999" 
d="M651 1008q160 0 244 -64t84 -180q0 -57 -23 -104t-60 -78.5t-89.5 -56.5t-103.5 -39t-111 -23.5t-103.5 -13t-89.5 -5.5q-17 -202 26.5 -285t145.5 -83q91 0 166 67t123 205l55 -18q-63 -185 -176 -269t-297 -84q-190 0 -292.5 100.5t-102.5 282.5q0 299 164.5 473.5
t439.5 174.5zM698 811q0 131 -75 131q-82 0 -141 -124.5t-79 -313.5q69 6 118.5 22.5t91.5 50t63.5 92t21.5 142.5zM719 1511l61 -393l-37 -14l-243 270q-35 49 -35 88q0 58 56 84t104 6z" />
    <glyph glyph-name="eacute" unicode="&#xe9;" horiz-adv-x="999" 
d="M651 1008q-275 0 -439.5 -174.5t-164.5 -473.5q0 -182 102.5 -282.5t292.5 -100.5q184 0 297 84t176 269l-55 18q-48 -138 -123 -205t-166 -67q-102 0 -145.5 83t-26.5 285q46 2 89.5 5.5t103.5 13t111 23.5t103.5 39t89.5 56.5t60 78.5t23 104q0 116 -84 180t-244 64z
M698 811q0 -84 -21.5 -142.5t-63.5 -92t-91.5 -50t-118.5 -22.5q20 189 79 313.5t141 124.5q75 0 75 -131zM475 1126l176 392l117 24q43 9 80 -10.5t37 -67.5q0 -56 -64 -108l-311 -254z" />
    <glyph glyph-name="ecircumflex" unicode="&#xea;" horiz-adv-x="999" 
d="M651 1008q-275 0 -439.5 -174.5t-164.5 -473.5q0 -182 102.5 -282.5t292.5 -100.5q184 0 297 84t176 269l-55 18q-48 -138 -123 -205t-166 -67q-102 0 -145.5 83t-26.5 285q46 2 89.5 5.5t103.5 13t111 23.5t103.5 39t89.5 56.5t60 78.5t23 104q0 116 -84 180t-244 64z
M698 811q0 -84 -21.5 -142.5t-63.5 -92t-91.5 -50t-118.5 -22.5q20 189 79 313.5t141 124.5q75 0 75 -131zM346 1130l217 343q17 11 58.5 24.5t76.5 13.5q54 0 81.5 -20.5t39.5 -67.5l74 -299l-31 -16l-194 201l-295 -207z" />
    <glyph glyph-name="edieresis" unicode="&#xeb;" horiz-adv-x="999" 
d="M651 1008q160 0 244 -64t84 -180q0 -57 -23 -104t-60 -78.5t-89.5 -56.5t-103.5 -39t-111 -23.5t-103.5 -13t-89.5 -5.5q-17 -202 26.5 -285t145.5 -83q91 0 166 67t123 205l55 -18q-63 -185 -176 -269t-297 -84q-190 0 -292.5 100.5t-102.5 282.5q0 299 164.5 473.5
t439.5 174.5zM698 811q0 131 -75 131q-82 0 -141 -124.5t-79 -313.5q69 6 118.5 22.5t91.5 50t63.5 92t21.5 142.5zM479 1442q59 0 94 -27.5t35 -81.5q0 -76 -50 -127t-128 -51q-66 0 -97.5 36t-31.5 87q0 72 53 118t125 46zM893 1442q59 0 94 -27.5t35 -81.5
q0 -76 -50 -127t-128 -51q-67 0 -98 34.5t-31 84.5q0 76 54 122t124 46z" />
    <glyph glyph-name="igrave" unicode="&#xec;" horiz-adv-x="679" 
d="M438 246q-14 -82 -14 -119q0 -53 47 -53q55 0 129 100l47 -35q-55 -81 -125.5 -121.5t-171.5 -40.5q-118 0 -183 55.5t-65 172.5q0 60 27 203l109 526h-162l10 53h502q-92 -409 -150 -741zM459 1511l61 -393l-37 -14l-243 270q-35 49 -35 88q0 58 56 84t104 6z" />
    <glyph glyph-name="iacute" unicode="&#xed;" horiz-adv-x="679" 
d="M438 246q-14 -82 -14 -119q0 -53 47 -53q55 0 129 100l47 -35q-55 -81 -125.5 -121.5t-171.5 -40.5q-118 0 -183 55.5t-65 172.5q0 60 27 203l109 526h-162l10 53h502q-92 -409 -150 -741zM231 1126l177 392l116 24q43 9 80 -10.5t37 -67.5q0 -57 -63 -108l-312 -254z
" />
    <glyph glyph-name="icircumflex" unicode="&#xee;" horiz-adv-x="679" 
d="M438 246q-14 -82 -14 -119q0 -53 47 -53q55 0 129 100l47 -35q-55 -81 -125.5 -121.5t-171.5 -40.5q-118 0 -183 55.5t-65 172.5q0 60 27 203l109 526h-162l10 53h502q-92 -409 -150 -741zM102 1130l217 343q17 11 59 24.5t77 13.5q54 0 81 -20t39 -68l74 -299l-31 -16
l-194 201l-295 -207z" />
    <glyph glyph-name="idieresis" unicode="&#xef;" horiz-adv-x="679" 
d="M438 246q-14 -82 -14 -119q0 -53 47 -53q55 0 129 100l47 -35q-55 -81 -125.5 -121.5t-171.5 -40.5q-118 0 -183 55.5t-65 172.5q0 60 27 203l109 526h-162l10 53h502q-92 -409 -150 -741zM236 1442q59 0 94 -27.5t35 -81.5q0 -76 -50 -127t-129 -51q-66 0 -97.5 36
t-31.5 87q0 72 53.5 118t125.5 46zM649 1442q59 0 94 -27.5t35 -81.5q0 -76 -50 -127t-128 -51q-67 0 -98 34.5t-31 84.5q0 76 54 122t124 46z" />
    <glyph glyph-name="eth" unicode="&#xf0;" horiz-adv-x="1163" 
d="M598 1167l-18 52l190 127q-86 149 -326 198l13 35q310 0 479 -123l182 123l17 -49l-158 -109q153 -156 153 -481q0 -121 -14.5 -233t-44.5 -222t-82 -200t-122 -159t-169.5 -107.5t-218.5 -38.5q-418 0 -418 395q0 126 30.5 231t82 176t120 120t142.5 71t152 22
q100 0 156 -42.5t69 -108.5q16 197 16 233q0 137 -36 221zM641 946q-64 0 -117.5 -71t-85.5 -181t-49.5 -232t-17.5 -235q0 -104 26 -151t92 -47q38 0 67.5 12t53 40.5t40.5 63.5t32.5 94.5t26.5 117.5t26 149q27 162 27 246q0 194 -121 194z" />
    <glyph glyph-name="ntilde" unicode="&#xf1;" horiz-adv-x="1253" 
d="M934 -23q-118 0 -186 54.5t-68 167.5q0 45 14.5 120t31 134.5t39.5 137.5t28 99q10 38 15.5 63.5t7.5 50.5t-3 39t-18 22.5t-35 8.5q-53 0 -110 -65.5t-103 -177.5q-89 -216 -131 -625q-54 2 -190.5 -5t-176.5 -15l86 381l78 567h-145l6 53h485l-88 -338l14 -6
q156 365 430 365q110 0 168 -58.5t58 -161.5q0 -57 -21 -143l-98 -399q-21 -99 -21 -119q0 -53 50 -53q59 0 133 100l47 -35q-55 -81 -125.5 -121.5t-171.5 -40.5zM848 1188q-74 0 -182 49q-75 33 -117 33q-73 0 -123 -86l-37 12q61 134 121 197t152 63q13 0 25 -1t26 -5
t22.5 -6t25 -8.5t22 -9t25 -11t23.5 -10.5q76 -31 111 -31q40 0 70.5 16.5t56.5 69.5l41 -10q-60 -143 -123 -202.5t-139 -59.5z" />
    <glyph glyph-name="ograve" unicode="&#xf2;" horiz-adv-x="1095" 
d="M696 489q31 202 31 295q0 87 -26 130.5t-83 43.5q-50 0 -86.5 -28.5t-63.5 -93t-45.5 -142t-39.5 -202.5q-33 -200 -33 -297q0 -86 26.5 -127t88.5 -41q95 0 140.5 97t90.5 365zM41 365q0 133 38.5 249t111.5 204t187 139t255 51q407 0 407 -383q0 -300 -159 -474
t-428 -174q-205 0 -308.5 99.5t-103.5 288.5zM735 1511l62 -393l-37 -14l-244 270q-35 49 -35 88q0 58 56 84t104 6z" />
    <glyph glyph-name="oacute" unicode="&#xf3;" horiz-adv-x="1095" 
d="M696 489q31 202 31 295q0 87 -26 130.5t-83 43.5q-50 0 -86.5 -28.5t-63.5 -93t-45.5 -142t-39.5 -202.5q-33 -200 -33 -297q0 -86 26.5 -127t88.5 -41q95 0 140.5 97t90.5 365zM41 365q0 133 38.5 249t111.5 204t187 139t255 51q407 0 407 -383q0 -300 -159 -474
t-428 -174q-205 0 -308.5 99.5t-103.5 288.5zM492 1126l176 392l116 24q43 9 80 -10.5t37 -67.5q0 -57 -63 -108l-312 -254z" />
    <glyph glyph-name="ocircumflex" unicode="&#xf4;" horiz-adv-x="1095" 
d="M696 489q31 202 31 295q0 87 -26 130.5t-83 43.5q-50 0 -86.5 -28.5t-63.5 -93t-45.5 -142t-39.5 -202.5q-33 -200 -33 -297q0 -86 26.5 -127t88.5 -41q95 0 140.5 97t90.5 365zM41 365q0 133 38.5 249t111.5 204t187 139t255 51q407 0 407 -383q0 -300 -159 -474
t-428 -174q-205 0 -308.5 99.5t-103.5 288.5zM362 1130l218 343q17 11 58.5 24.5t76.5 13.5q54 0 81.5 -20.5t39.5 -67.5l73 -299l-30 -16l-195 201l-295 -207z" />
    <glyph glyph-name="otilde" unicode="&#xf5;" horiz-adv-x="1095" 
d="M696 489q31 202 31 295q0 87 -26 130.5t-83 43.5q-50 0 -86.5 -28.5t-63.5 -93t-45.5 -142t-39.5 -202.5q-33 -200 -33 -297q0 -86 26.5 -127t88.5 -41q95 0 140.5 97t90.5 365zM41 365q0 133 38.5 249t111.5 204t187 139t255 51q407 0 407 -383q0 -300 -159 -474
t-428 -174q-205 0 -308.5 99.5t-103.5 288.5zM791 1188q-75 0 -183 49q-75 33 -116 33q-73 0 -123 -86l-37 12q62 135 121 197.5t151 62.5q13 0 25 -1t26.5 -5t22 -5.5t26 -9t21.5 -9t25.5 -11.5t23.5 -10q76 -31 111 -31q40 0 70.5 16.5t56.5 69.5l41 -10
q-60 -143 -123 -202.5t-139 -59.5z" />
    <glyph glyph-name="odieresis" unicode="&#xf6;" horiz-adv-x="1095" 
d="M696 489q31 202 31 295q0 87 -26 130.5t-83 43.5q-50 0 -86.5 -28.5t-63.5 -93t-45.5 -142t-39.5 -202.5q-33 -200 -33 -297q0 -86 26.5 -127t88.5 -41q95 0 140.5 97t90.5 365zM41 365q0 133 38.5 249t111.5 204t187 139t255 51q407 0 407 -383q0 -300 -159 -474
t-428 -174q-205 0 -308.5 99.5t-103.5 288.5zM496 1442q59 0 94 -27.5t35 -81.5q0 -76 -50 -127t-129 -51q-66 0 -97.5 36t-31.5 87q0 72 53.5 118t125.5 46zM909 1442q59 0 94 -27.5t35 -81.5q0 -76 -50 -127t-128 -51q-67 0 -98 34.5t-31 84.5q0 76 54 122t124 46z" />
    <glyph glyph-name="divide" unicode="&#xf7;" 
d="M643 1063q46 0 72 -21t26 -63q0 -63 -37.5 -103t-97.5 -40q-98 0 -98 88q0 60 40 99.5t95 39.5zM537 463q46 0 73 -21.5t27 -64.5q0 -62 -37.5 -101.5t-97.5 -39.5q-52 0 -75.5 24.5t-23.5 63.5q0 60 39.5 99.5t94.5 39.5zM1022 610h-930l12 74h930z" />
    <glyph glyph-name="oslash" unicode="&#xf8;" horiz-adv-x="1095" 
d="M41 365q0 133 38.5 249t111.5 204t187 139t255 51q59 0 112 -9l91 179l55 -25l-84 -168q233 -71 233 -360q0 -300 -159 -474t-428 -174q-75 0 -136 15l-84 -172l-57 28l80 160q-215 79 -215 357zM696 489q31 202 31 295q0 23 -2 35l-360 -731q24 -61 100 -61
q95 0 140.5 97t90.5 365zM383 492q-33 -196 -33 -293l352 712q-24 47 -84 47q-50 0 -86.5 -28.5t-63.5 -93t-45.5 -142t-39.5 -202.5z" />
    <glyph glyph-name="ugrave" unicode="&#xf9;" horiz-adv-x="1292" 
d="M106 293q63 343 127 641h-143l8 53h488q-69 -292 -160 -754q-5 -34 -6 -60.5t16.5 -43t55.5 -16.5q65 0 126.5 87.5t103.5 219.5t69 279t32 272q52 -2 192.5 6t180.5 16q-116 -552 -147 -798q-3 -35 -4 -62.5t11.5 -45t41.5 -17.5q62 0 131 96l45 -33
q-60 -85 -128.5 -120.5t-160.5 -35.5q-322 0 -215 353l-12 4q-24 -58 -48 -104.5t-61.5 -95.5t-80.5 -82t-104 -54t-132 -21q-134 0 -193 89.5t-33 226.5zM768 1511l61 -393l-36 -14l-244 270q-35 49 -35 88q0 58 56 84t104 6z" />
    <glyph glyph-name="uacute" unicode="&#xfa;" horiz-adv-x="1292" 
d="M106 293q63 343 127 641h-143l8 53h488q-69 -292 -160 -754q-5 -34 -6 -60.5t16.5 -43t55.5 -16.5q65 0 126.5 87.5t103.5 219.5t69 279t32 272q52 -2 192.5 6t180.5 16q-116 -552 -147 -798q-3 -35 -4 -62.5t11.5 -45t41.5 -17.5q62 0 131 96l45 -33
q-60 -85 -128.5 -120.5t-160.5 -35.5q-322 0 -215 353l-12 4q-24 -58 -48 -104.5t-61.5 -95.5t-80.5 -82t-104 -54t-132 -21q-134 0 -193 89.5t-33 226.5zM559 1126l176 392l117 24q43 9 80 -10.5t37 -67.5q0 -56 -64 -108l-311 -254z" />
    <glyph glyph-name="ucircumflex" unicode="&#xfb;" horiz-adv-x="1292" 
d="M106 293q63 343 127 641h-143l8 53h488q-69 -292 -160 -754q-5 -34 -6 -60.5t16.5 -43t55.5 -16.5q65 0 126.5 87.5t103.5 219.5t69 279t32 272q52 -2 192.5 6t180.5 16q-116 -552 -147 -798q-3 -35 -4 -62.5t11.5 -45t41.5 -17.5q62 0 131 96l45 -33
q-60 -85 -128.5 -120.5t-160.5 -35.5q-322 0 -215 353l-12 4q-24 -58 -48 -104.5t-61.5 -95.5t-80.5 -82t-104 -54t-132 -21q-134 0 -193 89.5t-33 226.5zM430 1130l217 343q17 11 58.5 24.5t76.5 13.5q54 0 81.5 -20.5t39.5 -67.5l74 -299l-31 -16l-194 201l-295 -207z" />
    <glyph glyph-name="udieresis" unicode="&#xfc;" horiz-adv-x="1292" 
d="M106 293q63 343 127 641h-143l8 53h488q-69 -292 -160 -754q-5 -34 -6 -60.5t16.5 -43t55.5 -16.5q65 0 126.5 87.5t103.5 219.5t69 279t32 272q52 -2 192.5 6t180.5 16q-116 -552 -147 -798q-3 -35 -4 -62.5t11.5 -45t41.5 -17.5q62 0 131 96l45 -33
q-60 -85 -128.5 -120.5t-160.5 -35.5q-322 0 -215 353l-12 4q-24 -58 -48 -104.5t-61.5 -95.5t-80.5 -82t-104 -54t-132 -21q-134 0 -193 89.5t-33 226.5zM563 1442q59 0 94 -27.5t35 -81.5q0 -76 -50 -127t-128 -51q-66 0 -97.5 36t-31.5 87q0 72 53 118t125 46zM977 1442
q59 0 94 -27.5t35 -81.5q0 -76 -50 -127t-128 -51q-67 0 -98 34.5t-31 84.5q0 76 54 122t124 46z" />
    <glyph glyph-name="yacute" unicode="&#xfd;" horiz-adv-x="1122" 
d="M1096 780q0 -237 -326 -688q-22 -30 -64 -88.5t-65 -90t-62.5 -83t-65.5 -81t-65 -71t-69.5 -65t-71 -51t-77.5 -41.5t-80.5 -23.5t-88.5 -9.5q-122 0 -186.5 61t-64.5 172q0 89 54.5 143t133.5 54q78 0 123.5 -56t19.5 -159l-100 -14q-20 -26 -23.5 -56.5t16 -53.5
t60.5 -23q177 0 410 303q-170 629 -242 872q-20 70 -36 96.5t-44 26.5q-30 0 -52.5 -29.5t-57.5 -109.5l-62 24q21 50 37.5 82.5t45 71.5t60.5 61.5t79.5 38t105.5 15.5q98 0 156.5 -48t89.5 -153q76 -258 170 -619q221 330 221 467q0 90 -72 97l-63 -86q-58 19 -95.5 64.5
t-37.5 98.5q0 85 53 132t133 47q94 0 148.5 -61t54.5 -167zM496 1126l176 392l116 24q43 9 80 -10.5t37 -67.5q0 -57 -63 -108l-312 -254z" />
    <glyph glyph-name="thorn" unicode="&#xfe;" horiz-adv-x="1249" 
d="M758 897q-50 0 -100.5 -48.5t-90.5 -133.5q-42 -89 -63.5 -179.5t-30.5 -218.5q-2 -29 -2 -69q0 -178 131 -178q59 0 108.5 73t79 182t46 224t16.5 211q0 137 -94 137zM0 -434l313 1915h-163l10 53h483l-154 -819l11 -6q73 150 164 224.5t233 74.5q147 0 222 -95.5
t75 -265.5q0 -142 -41.5 -267.5t-111.5 -213t-164.5 -138.5t-196.5 -51q-105 0 -168.5 43t-83.5 115l-96 -569h241l-10 -53h-700l10 53h127z" />
    <glyph glyph-name="ydieresis" unicode="&#xff;" horiz-adv-x="1122" 
d="M1096 780q0 -237 -326 -688q-22 -30 -64 -88.5t-65 -90t-62.5 -83t-65.5 -81t-65 -71t-69.5 -65t-71 -51t-77.5 -41.5t-80.5 -23.5t-88.5 -9.5q-122 0 -186.5 61t-64.5 172q0 89 54.5 143t133.5 54q78 0 123.5 -56t19.5 -159l-100 -14q-20 -26 -23.5 -56.5t16 -53.5
t60.5 -23q177 0 410 303q-170 629 -242 872q-20 70 -36 96.5t-44 26.5q-30 0 -52.5 -29.5t-57.5 -109.5l-62 24q21 50 37.5 82.5t45 71.5t60.5 61.5t79.5 38t105.5 15.5q98 0 156.5 -48t89.5 -153q76 -258 170 -619q221 330 221 467q0 90 -72 97l-63 -86q-58 19 -95.5 64.5
t-37.5 98.5q0 85 53 132t133 47q94 0 148.5 -61t54.5 -167zM500 1442q59 0 94 -27.5t35 -81.5q0 -76 -50 -127t-128 -51q-66 0 -97.5 36t-31.5 87q0 72 53 118t125 46zM913 1442q59 0 94 -27.5t35 -81.5q0 -76 -50 -127t-128 -51q-67 0 -98 34.5t-31 84.5q0 76 54 122
t124 46z" />
    <glyph glyph-name="Amacron" unicode="&#x100;" horiz-adv-x="1331" 
d="M776 59l-55 418h-410l-215 -418h152l-8 -59h-342l8 59h114l707 1375h207l213 -1375h123l-8 -59h-617l8 59h123zM639 1114l-299 -577h375zM573 1591l31 172h557l-31 -172h-557z" />
    <glyph glyph-name="amacron" unicode="&#x101;" horiz-adv-x="1243" 
d="M1155 997q-6 -29 -29.5 -144t-33 -163.5t-27 -141.5t-30.5 -172t-25 -161q-11 -62 -5 -94t18 -41.5t36 -9.5q27 0 61 23t68 73l45 -33q-102 -156 -275 -156q-277 0 -221 261l-10 2q-45 -123 -133 -193t-219 -70q-326 0 -326 383q0 101 19.5 195t60.5 176.5t99.5 144
t143 97t185.5 35.5q99 0 152 -40t84 -110l30 125q228 -5 332 14zM489 70q96 0 171.5 154.5t99.5 428.5q12 133 -24.5 205t-106.5 72q-99 0 -163.5 -165.5t-84.5 -485.5q-4 -34 -0.5 -70.5t12 -67.5t33 -51t63.5 -20zM426 1190l31 172h557l-31 -172h-557z" />
    <glyph glyph-name="Abreve" unicode="&#x102;" horiz-adv-x="1331" 
d="M776 59l-55 418h-410l-215 -418h152l-8 -59h-342l8 59h114l707 1375h207l213 -1375h123l-8 -59h-617l8 59h123zM639 1114l-299 -577h375zM610 1798l37 6q20 -64 69.5 -91t164.5 -27q105 0 167 31t99 100l39 -7q-16 -61 -42 -112t-66.5 -95.5t-100.5 -70t-133 -25.5
q-67 0 -115.5 23t-74.5 64.5t-36.5 92t-7.5 111.5z" />
    <glyph glyph-name="abreve" unicode="&#x103;" horiz-adv-x="1243" 
d="M1155 997q-6 -29 -29.5 -144t-33 -163.5t-27 -141.5t-30.5 -172t-25 -161q-11 -62 -5 -94t18 -41.5t36 -9.5q27 0 61 23t68 73l45 -33q-102 -156 -275 -156q-277 0 -221 261l-10 2q-45 -123 -133 -193t-219 -70q-326 0 -326 383q0 101 19.5 195t60.5 176.5t99.5 144
t143 97t185.5 35.5q99 0 152 -40t84 -110l30 125q228 -5 332 14zM489 70q96 0 171.5 154.5t99.5 428.5q12 133 -24.5 205t-106.5 72q-99 0 -163.5 -165.5t-84.5 -485.5q-4 -34 -0.5 -70.5t12 -67.5t33 -51t63.5 -20zM459 1456l43 8q14 -74 68.5 -111.5t166.5 -37.5
q101 0 170.5 38t100.5 107l43 -8q-18 -71 -46.5 -129.5t-71.5 -107.5t-104.5 -76t-136.5 -27q-71 0 -121 27.5t-75.5 76.5t-34.5 109t-2 131z" />
    <glyph glyph-name="Aogonek" unicode="&#x104;" horiz-adv-x="1331" 
d="M776 59l-55 418h-410l-215 -418h152l-8 -59h-342l8 59h114l707 1377h207l213 -1377h123l-8 -59h-160q-78 -68 -131 -151.5t-53 -155.5q0 -76 67 -76q60 0 121 90l43 -26q-88 -185 -289 -185q-94 0 -145 42.5t-51 123.5q0 56 25 104.5t76 90.5t103 73t131 70h-354l8 59
h123zM639 1116l-299 -579h375z" />
    <glyph glyph-name="aogonek" unicode="&#x105;" horiz-adv-x="1243" 
d="M1155 997q-6 -29 -29.5 -144t-33 -163.5t-27 -141.5t-30.5 -172t-25 -161q-11 -62 -5 -94t18 -41.5t36 -9.5q27 0 61 23t68 73l45 -33q-22 -35 -51.5 -62.5t-52 -42t-62.5 -36.5q-79 -43 -132.5 -132t-53.5 -167q0 -76 67 -76q60 0 121 90l43 -26q-88 -185 -289 -185
q-94 0 -145 42.5t-51 123.5q0 52 21.5 97.5t64.5 84.5t91 70t116 66q-235 17 -183 258l-10 2q-45 -123 -133 -193t-219 -70q-326 0 -326 383q0 101 19.5 195t60.5 176.5t99.5 144t143 97t185.5 35.5q99 0 152 -40t84 -110l30 125q228 -5 332 14zM489 70q96 0 171.5 154.5
t99.5 428.5q12 133 -24.5 205t-106.5 72q-100 0 -165.5 -166.5t-82.5 -484.5q-4 -34 -0.5 -70.5t12 -67.5t33 -51t63.5 -20z" />
    <glyph glyph-name="Cacute" unicode="&#x106;" horiz-adv-x="1269" 
d="M879 1397q-91 0 -166 -59t-123 -151.5t-80.5 -210.5t-46.5 -230.5t-14 -217.5q0 -234 70.5 -347t213.5 -113q132 0 245.5 90t178.5 286l55 -14q-27 -91 -68.5 -164t-91.5 -121t-103.5 -82.5t-110.5 -52.5t-105 -25.5t-96 -7.5q-263 0 -411 139.5t-148 415.5
q0 140 32 273.5t99 251.5t161 207t226.5 140.5t286.5 51.5q66 0 139 -15t124.5 -30.5t65.5 -15.5q15 0 25.5 6.5t15.5 12.5t17 24h41l-58 -428h-51q-17 387 -323 387zM686 1530l254 350l88 -18q57 -11 76.5 -32.5t19.5 -60.5q0 -37 -22.5 -63.5t-69.5 -48.5l-321 -156z" />
    <glyph glyph-name="cacute" unicode="&#x107;" horiz-adv-x="989" 
d="M664 1008q160 0 235.5 -69.5t75.5 -172.5q0 -91 -48 -152t-141 -61q-71 0 -105 35.5t-34 87.5q0 46 31 106h82q25 64 17 102t-31 54t-60 16q-73 0 -130.5 -61t-89 -155.5t-47.5 -191t-16 -184.5q0 -158 37 -225t125 -67q82 0 154 77.5t117 206.5l67 -22
q-124 -355 -448 -355q-198 0 -304 103t-106 289q0 286 164.5 462.5t454.5 176.5zM489 1126l177 392l116 24q43 9 80 -10.5t37 -67.5q0 -57 -63 -108l-312 -254z" />
    <glyph glyph-name="Ccircumflex" unicode="&#x108;" horiz-adv-x="1269" 
d="M879 1397q-91 0 -166 -59t-123 -151.5t-80.5 -210.5t-46.5 -230.5t-14 -217.5q0 -234 70.5 -347t213.5 -113q132 0 245.5 90t178.5 286l55 -14q-27 -91 -68.5 -164t-91.5 -121t-103.5 -82.5t-110.5 -52.5t-105 -25.5t-96 -7.5q-263 0 -411 139.5t-148 415.5
q0 140 32 273.5t99 251.5t161 207t226.5 140.5t286.5 51.5q66 0 139 -15t124.5 -30.5t65.5 -15.5q15 0 25.5 6.5t15.5 12.5t17 24h41l-58 -428h-51q-17 387 -323 387zM543 1530l272 274q68 33 119 33q53 0 80.5 -20t48.5 -62l113 -231l-25 -23l-250 139l-340 -139z" />
    <glyph glyph-name="ccircumflex" unicode="&#x109;" horiz-adv-x="989" 
d="M664 1008q160 0 235.5 -69.5t75.5 -172.5q0 -91 -48 -152t-141 -61q-71 0 -105 35.5t-34 87.5q0 46 31 106h82q25 64 17 102t-31 54t-60 16q-73 0 -130.5 -61t-89 -155.5t-47.5 -191t-16 -184.5q0 -158 37 -225t125 -67q82 0 154 77.5t117 206.5l67 -22
q-124 -355 -448 -355q-198 0 -304 103t-106 289q0 286 164.5 462.5t454.5 176.5zM338 1130l217 343q17 11 58.5 24.5t76.5 13.5q54 0 81.5 -20.5t39.5 -67.5l74 -299l-31 -16l-195 201l-294 -207z" />
    <glyph glyph-name="Cdotaccent" unicode="&#x10a;" horiz-adv-x="1269" 
d="M879 1397q-91 0 -166 -59t-123 -151.5t-80.5 -210.5t-46.5 -230.5t-14 -217.5q0 -234 70.5 -347t213.5 -113q132 0 245.5 90t178.5 286l55 -14q-27 -91 -68.5 -164t-91.5 -121t-103.5 -82.5t-110.5 -52.5t-105 -25.5t-96 -7.5q-263 0 -411 139.5t-148 415.5
q0 140 32 273.5t99 251.5t161 207t226.5 140.5t286.5 51.5q66 0 139 -15t124.5 -30.5t65.5 -15.5q15 0 25.5 6.5t15.5 12.5t17 24h41l-58 -428h-51q-17 387 -323 387zM934 1872q81 0 126.5 -37t45.5 -109q0 -92 -68.5 -147t-169.5 -55q-93 0 -133.5 41.5t-40.5 101.5
q0 93 68.5 149t171.5 56z" />
    <glyph glyph-name="cdotaccent" unicode="&#x10b;" horiz-adv-x="989" 
d="M664 1008q160 0 235.5 -69.5t75.5 -172.5q0 -91 -48 -152t-141 -61q-71 0 -105 35.5t-34 87.5q0 46 31 106h82q25 64 17 102t-31 54t-60 16q-73 0 -130.5 -61t-89 -155.5t-47.5 -191t-16 -184.5q0 -158 37 -225t125 -67q82 0 154 77.5t117 206.5l67 -22
q-124 -355 -448 -355q-198 0 -304 103t-106 289q0 286 164.5 462.5t454.5 176.5zM700 1483q81 0 126.5 -37t45.5 -109q0 -92 -68.5 -147t-168.5 -55q-93 0 -133.5 41.5t-40.5 101.5q0 93 68.5 149t170.5 56z" />
    <glyph glyph-name="Ccaron" unicode="&#x10c;" horiz-adv-x="1269" 
d="M879 1397q-91 0 -166 -59t-123 -151.5t-80.5 -210.5t-46.5 -230.5t-14 -217.5q0 -234 70.5 -347t213.5 -113q132 0 245.5 90t178.5 286l55 -14q-27 -91 -68.5 -164t-91.5 -121t-103.5 -82.5t-110.5 -52.5t-105 -25.5t-96 -7.5q-263 0 -411 139.5t-148 415.5
q0 140 32 273.5t99 251.5t161 207t226.5 140.5t286.5 51.5q66 0 139 -15t124.5 -30.5t65.5 -15.5q15 0 25.5 6.5t15.5 12.5t17 24h41l-58 -428h-51q-17 387 -323 387zM1257 1833l-272 -279q-66 -32 -119 -32t-80.5 20t-48.5 62l-112 231l24 23l258 -146l332 146z" />
    <glyph glyph-name="ccaron" unicode="&#x10d;" horiz-adv-x="989" 
d="M664 1008q160 0 235.5 -69.5t75.5 -172.5q0 -91 -48 -152t-141 -61q-71 0 -105 35.5t-34 87.5q0 46 31 106h82q25 64 17 102t-31 54t-60 16q-73 0 -130.5 -61t-89 -155.5t-47.5 -191t-16 -184.5q0 -158 37 -225t125 -67q82 0 154 77.5t117 206.5l67 -22
q-124 -355 -448 -355q-198 0 -304 103t-106 289q0 286 164.5 462.5t454.5 176.5zM516 1149l-121 348l29 21l229 -209l283 211l25 -25l-170 -291q-52 -88 -164 -88q-34 0 -66.5 11.5t-44.5 21.5z" />
    <glyph glyph-name="Dcaron" unicode="&#x10e;" horiz-adv-x="1441" 
d="M1401 883q0 -411 -256 -647t-699 -236h-466l10 59h121l219 1315h-129l10 60h520q124 0 224 -17.5t184.5 -58.5t141.5 -104t88.5 -156.5t31.5 -214.5zM451 59h36q127 0 227 60.5t166 171.5t104.5 258.5t51.5 331.5q4 82 4 110q0 74 -9 132t-24.5 98t-41 68.5t-51.5 44.5
t-64 25.5t-71.5 12t-80.5 2.5h-28zM1182 1833l-273 -279q-66 -32 -118 -32q-53 0 -80.5 20t-48.5 62l-113 231l24 23l258 -146l332 146z" />
    <glyph glyph-name="dcaron" unicode="&#x10f;" horiz-adv-x="1394" 
d="M1243 1536l-158 -893q-32 -175 -75 -469q-8 -59 6 -81.5t47 -22.5q64 0 129 96l45 -33q-102 -156 -274 -156q-269 0 -224 261l-10 2q-48 -125 -138 -194t-222 -69q-324 0 -324 367q0 96 16.5 187.5t54.5 179t94 152.5t141.5 105t191.5 40q103 0 161.5 -40t88.5 -116
l94 631h-144l11 53h489zM494 70q95 0 169.5 154t98.5 429q12 133 -24.5 205t-106.5 72q-195 0 -244 -582q-4 -41 -4 -115q0 -86 26 -124.5t85 -38.5zM1237 1065l-29 41q84 61 114 111t30 112q0 43 -13 72t-45 53l31 33q53 57 117 57q52 0 79 -32.5t27 -90.5q0 -42 -20 -84.5
t-48 -76.5t-74 -72.5t-81.5 -63.5t-87.5 -59z" />
    <glyph glyph-name="Dcroat" unicode="&#x110;" horiz-adv-x="1470" 
d="M1430 883q0 -411 -256 -647t-699 -236h-467l10 59h121l111 670h-158l8 59h160l98 586h-129l11 60h520q124 0 224 -17.5t184.5 -58.5t141.5 -104t88.5 -156.5t31.5 -214.5zM479 59h37q127 0 227 60.5t166 171.5t104.5 258.5t51.5 331.5q4 82 4 110q0 74 -9 132t-24.5 98
t-41 68.5t-51.5 44.5t-64 25.5t-71.5 12t-80.5 2.5h-29l-98 -586h291l-8 -59h-293z" />
    <glyph glyph-name="dcroat" unicode="&#x111;" horiz-adv-x="1255" 
d="M1243 1536l-51 -289h149l-8 -53h-151l-97 -551q-32 -175 -75 -469q-8 -59 6 -81.5t47 -22.5q64 0 129 96l45 -33q-102 -156 -274 -156q-269 0 -224 261l-10 2q-48 -125 -138 -194t-222 -69q-324 0 -324 367q0 96 16.5 187.5t54.5 179t94 152.5t141.5 105t191.5 40
q103 0 161.5 -40t88.5 -116l51 342h-379l8 53h379l35 236h-144l11 53h489zM494 70q95 0 169.5 154t98.5 429q12 133 -24.5 205t-106.5 72q-195 0 -244 -582q-4 -41 -4 -115q0 -86 26 -124.5t85 -38.5z" />
    <glyph glyph-name="Emacron" unicode="&#x112;" horiz-adv-x="1230" 
d="M211 1434h1040l-47 -400h-51q-12 108 -36 174t-71 103.5t-108 50t-160 12.5h-108l-103 -612h66q103 0 170.5 61t116.5 201h47l-101 -606h-51q0 114 -23 175t-66.5 82t-123.5 21h-45l-106 -637h98q116 0 199 21.5t144.5 71.5t104.5 117t86 171h58l-90 -440h-1071l10 59
h121l217 1315h-127zM506 1591l31 172h557l-31 -172h-557z" />
    <glyph glyph-name="emacron" unicode="&#x113;" horiz-adv-x="999" 
d="M651 1008q-275 0 -439.5 -174.5t-164.5 -473.5q0 -182 102.5 -282.5t292.5 -100.5q184 0 297 84t176 269l-55 18q-48 -138 -123 -205t-166 -67q-102 0 -145.5 83t-26.5 285q46 2 89.5 5.5t103.5 13t111 23.5t103.5 39t89.5 56.5t60 78.5t23 104q0 116 -84 180t-244 64z
M698 811q0 -84 -21.5 -142.5t-63.5 -92t-91.5 -50t-118.5 -22.5q20 189 79 313.5t141 124.5q75 0 75 -131zM358 1190l31 172h557l-31 -172h-557z" />
    <glyph glyph-name="Ebreve" unicode="&#x114;" horiz-adv-x="1230" 
d="M211 1434h1040l-47 -400h-51q-12 108 -36 174t-71 103.5t-108 50t-160 12.5h-108l-103 -612h66q103 0 170.5 61t116.5 201h47l-101 -606h-51q0 114 -23 175t-66.5 82t-123.5 21h-45l-106 -637h98q116 0 199 21.5t144.5 71.5t104.5 117t86 171h58l-90 -440h-1071l10 59
h121l217 1315h-127zM543 1798l37 6q13 -43 36.5 -67.5t71 -37.5t125.5 -13q105 0 167 31t99 100l39 -7q-16 -61 -42 -112t-66.5 -95.5t-100.5 -70t-133 -25.5q-130 0 -185 81t-48 210z" />
    <glyph glyph-name="ebreve" unicode="&#x115;" horiz-adv-x="999" 
d="M651 1008q160 0 244 -64t84 -180q0 -57 -23 -104t-60 -78.5t-89.5 -56.5t-103.5 -39t-111 -23.5t-103.5 -13t-89.5 -5.5q-17 -202 26.5 -285t145.5 -83q91 0 166 67t123 205l55 -18q-63 -185 -176 -269t-297 -84q-190 0 -292.5 100.5t-102.5 282.5q0 299 164.5 473.5
t439.5 174.5zM698 811q0 131 -75 131q-82 0 -141 -124.5t-79 -313.5q69 6 118.5 22.5t91.5 50t63.5 92t21.5 142.5zM391 1456l43 8q14 -74 69 -111.5t167 -37.5q101 0 170 38t100 107l43 -8q-18 -71 -46.5 -129.5t-71 -107.5t-104 -76t-136.5 -27q-71 0 -121 27.5t-76 76.5
t-35 109t-2 131z" />
    <glyph glyph-name="Edotaccent" unicode="&#x116;" horiz-adv-x="1230" 
d="M211 1434h1040l-47 -400h-51q-12 108 -36 174t-71 103.5t-108 50t-160 12.5h-108l-103 -612h66q103 0 170.5 61t116.5 201h47l-101 -606h-51q0 114 -23 175t-66.5 82t-123.5 21h-45l-106 -637h98q116 0 199 21.5t144.5 71.5t104.5 117t86 171h58l-90 -440h-1071l10 59
h121l217 1315h-127zM842 1872q81 0 126.5 -37t45.5 -109q0 -92 -68.5 -147t-169.5 -55q-93 0 -133.5 41.5t-40.5 101.5q0 93 68.5 149t171.5 56z" />
    <glyph glyph-name="edotaccent" unicode="&#x117;" horiz-adv-x="999" 
d="M651 1008q-275 0 -439.5 -174.5t-164.5 -473.5q0 -182 102.5 -282.5t292.5 -100.5q184 0 297 84t176 269l-55 18q-48 -138 -123 -205t-166 -67q-102 0 -145.5 83t-26.5 285q46 2 89.5 5.5t103.5 13t111 23.5t103.5 39t89.5 56.5t60 78.5t23 104q0 116 -84 180t-244 64z
M698 811q0 -84 -21.5 -142.5t-63.5 -92t-91.5 -50t-118.5 -22.5q20 189 79 313.5t141 124.5q75 0 75 -131zM694 1483q81 0 126.5 -37t45.5 -109q0 -92 -68.5 -147t-168.5 -55q-93 0 -133.5 41.5t-40.5 101.5q0 93 68.5 149t170.5 56z" />
    <glyph glyph-name="Eogonek" unicode="&#x118;" horiz-adv-x="1230" 
d="M211 1434h1040l-47 -400h-51q-12 108 -36 174t-71 103.5t-108 50t-160 12.5h-108l-103 -612h66q103 0 170.5 61t116.5 201h47l-101 -606h-51q0 114 -23 175t-66.5 82t-123.5 21h-45l-106 -637h98q116 0 199 21.5t144.5 71.5t104.5 117t86 171h58l-90 -440h-127
q-79 -69 -132 -152t-53 -155q0 -76 68 -76q60 0 121 90l43 -26q-88 -185 -289 -185q-95 0 -146 42.5t-51 123.5q0 56 25 104.5t76.5 90.5t103.5 73t131 70h-841l10 59h121l217 1315h-127z" />
    <glyph glyph-name="eogonek" unicode="&#x119;" horiz-adv-x="999" 
d="M651 1008q160 0 244 -64t84 -180q0 -57 -23 -104t-60 -78.5t-89.5 -56.5t-103.5 -39t-111 -23.5t-103.5 -13t-89.5 -5.5q-17 -202 26.5 -285t145.5 -83q91 0 166 67t123 205l55 -18q-41 -118 -101.5 -191.5t-151.5 -128.5q-85 -51 -145 -144t-60 -173q0 -76 67 -76
q60 0 121 90l43 -26q-88 -185 -289 -185q-94 0 -145 42.5t-51 123.5q0 98 79.5 170.5t231.5 147.5q-9 0 -36 -1.5t-36 -1.5q-190 0 -292.5 100.5t-102.5 282.5q0 299 164.5 473.5t439.5 174.5zM698 811q0 131 -75 131q-82 0 -141 -124.5t-79 -313.5q69 6 118.5 22.5t91.5 50
t63.5 92t21.5 142.5z" />
    <glyph glyph-name="Ecaron" unicode="&#x11a;" horiz-adv-x="1230" 
d="M211 1434h1040l-47 -400h-51q-12 108 -36 174t-71 103.5t-108 50t-160 12.5h-108l-103 -612h66q103 0 170.5 61t116.5 201h47l-101 -606h-51q0 114 -23 175t-66.5 82t-123.5 21h-45l-106 -637h98q116 0 199 21.5t144.5 71.5t104.5 117t86 171h58l-90 -440h-1071l10 59
h121l217 1315h-127zM1165 1833l-272 -279q-66 -32 -119 -32t-80.5 20t-48.5 62l-113 231l25 23l258 -146l332 146z" />
    <glyph glyph-name="ecaron" unicode="&#x11b;" horiz-adv-x="999" 
d="M651 1008q160 0 244 -64t84 -180q0 -57 -23 -104t-60 -78.5t-89.5 -56.5t-103.5 -39t-111 -23.5t-103.5 -13t-89.5 -5.5q-17 -202 26.5 -285t145.5 -83q91 0 166 67t123 205l55 -18q-63 -185 -176 -269t-297 -84q-190 0 -292.5 100.5t-102.5 282.5q0 299 164.5 473.5
t439.5 174.5zM698 811q0 131 -75 131q-82 0 -141 -124.5t-79 -313.5q69 6 118.5 22.5t91.5 50t63.5 92t21.5 142.5zM526 1149l-120 348l28 21l230 -209l282 211l25 -25l-170 -291q-52 -88 -164 -88q-34 0 -66.5 11.5t-44.5 21.5z" />
    <glyph glyph-name="Gcircumflex" unicode="&#x11c;" horiz-adv-x="1374" 
d="M647 -23q-278 0 -424.5 143t-146.5 425q0 121 31 246.5t97.5 245t159 212.5t227.5 150t292 57q66 0 139 -15t124.5 -30.5t65.5 -15.5q15 0 25.5 6.5t15.5 12.5t17 24h41l-58 -428h-51q-17 387 -323 387q-91 0 -166 -59t-123 -151.5t-80.5 -210.5t-46.5 -230.5t-14 -217.5
q0 -249 67 -359t211 -110q65 0 107 17l73 448h-159l10 60h606l-12 -60h-111l-78 -438q-98 -45 -238 -77t-278 -32zM541 1530l272 274q68 33 119 33q53 0 80.5 -20t48.5 -62l113 -231l-25 -23l-250 139l-340 -139z" />
    <glyph glyph-name="gcircumflex" unicode="&#x11d;" horiz-adv-x="1218" 
d="M719 174l-10 6q-28 -52 -67.5 -94.5t-109 -75.5t-151.5 -33q-163 0 -244.5 92t-81.5 269q0 79 11 155t34.5 153t63.5 141t93.5 114t130 78.5t167.5 28.5q180 0 248 -152l31 125q220 -5 333 16q-67 -322 -157 -893q-50 -309 -224.5 -462.5t-443.5 -153.5q-160 0 -255 57.5
t-95 171.5q0 89 51.5 140t130.5 51q80 0 127.5 -51.5t30.5 -161.5l-111 -31q-28 -113 105 -113q65 0 113 20t87.5 61t72 117.5t60.5 175.5t60 249zM506 70q95 0 169.5 154t98.5 429q12 133 -24.5 205t-106.5 72q-99 0 -159 -143.5t-85 -436.5q-4 -41 -4 -117
q0 -86 26 -124.5t85 -38.5zM399 1130l217 343q17 11 59 24.5t77 13.5q54 0 81 -20t39 -68l74 -299l-31 -16l-194 201l-295 -207z" />
    <glyph glyph-name="Gbreve" unicode="&#x11e;" horiz-adv-x="1374" 
d="M647 -23q-278 0 -424.5 143t-146.5 425q0 121 31 246.5t97.5 245t159 212.5t227.5 150t292 57q66 0 139 -15t124.5 -30.5t65.5 -15.5q15 0 25.5 6.5t15.5 12.5t17 24h41l-58 -428h-51q-17 387 -323 387q-91 0 -166 -59t-123 -151.5t-80.5 -210.5t-46.5 -230.5t-14 -217.5
q0 -249 67 -359t211 -110q65 0 107 17l73 448h-159l10 60h606l-12 -60h-111l-78 -438q-98 -45 -238 -77t-278 -32zM633 1798l37 6q13 -43 36.5 -67.5t71 -37.5t125.5 -13q105 0 167 31t99 100l39 -7q-16 -61 -42 -112t-66.5 -95.5t-100.5 -70t-133 -25.5q-130 0 -185 81
t-48 210z" />
    <glyph glyph-name="gbreve" unicode="&#x11f;" horiz-adv-x="1218" 
d="M719 174l-10 6q-28 -52 -67.5 -94.5t-109 -75.5t-151.5 -33q-163 0 -244.5 92t-81.5 269q0 79 11 155t34.5 153t63.5 141t93.5 114t130 78.5t167.5 28.5q180 0 248 -152l31 125q220 -5 333 16q-67 -322 -157 -893q-50 -309 -224.5 -462.5t-443.5 -153.5q-160 0 -255 57.5
t-95 171.5q0 89 51.5 140t130.5 51q80 0 127.5 -51.5t30.5 -161.5l-111 -31q-28 -113 105 -113q65 0 113 20t87.5 61t72 117.5t60.5 175.5t60 249zM506 70q95 0 169.5 154t98.5 429q12 133 -24.5 205t-106.5 72q-99 0 -159 -143.5t-85 -436.5q-4 -41 -4 -117
q0 -86 26 -124.5t85 -38.5zM444 1456l43 8q14 -74 69 -111.5t167 -37.5q101 0 170 38t100 107l43 -8q-18 -71 -46.5 -129.5t-71 -107.5t-104 -76t-136.5 -27q-71 0 -121 27.5t-76 76.5t-35 109t-2 131z" />
    <glyph glyph-name="Gdotaccent" unicode="&#x120;" horiz-adv-x="1374" 
d="M647 -23q-278 0 -424.5 143t-146.5 425q0 121 31 246.5t97.5 245t159 212.5t227.5 150t292 57q66 0 139 -15t124.5 -30.5t65.5 -15.5q15 0 25.5 6.5t15.5 12.5t17 24h41l-58 -428h-51q-17 387 -323 387q-91 0 -166 -59t-123 -151.5t-80.5 -210.5t-46.5 -230.5t-14 -217.5
q0 -249 67 -359t211 -110q65 0 107 17l73 448h-159l10 60h606l-12 -60h-111l-78 -438q-98 -45 -238 -77t-278 -32zM932 1872q81 0 126.5 -37t45.5 -109q0 -92 -68.5 -147t-169.5 -55q-93 0 -133.5 41.5t-40.5 101.5q0 93 68.5 149t171.5 56z" />
    <glyph glyph-name="gdotaccent" unicode="&#x121;" horiz-adv-x="1218" 
d="M719 174l-10 6q-28 -52 -67.5 -94.5t-109 -75.5t-151.5 -33q-163 0 -244.5 92t-81.5 269q0 79 11 155t34.5 153t63.5 141t93.5 114t130 78.5t167.5 28.5q180 0 248 -152l31 125q220 -5 333 16q-67 -322 -157 -893q-50 -309 -224.5 -462.5t-443.5 -153.5q-160 0 -255 57.5
t-95 171.5q0 89 51.5 140t130.5 51q80 0 127.5 -51.5t30.5 -161.5l-111 -31q-28 -113 105 -113q65 0 113 20t87.5 61t72 117.5t60.5 175.5t60 249zM506 70q95 0 169.5 154t98.5 429q12 133 -24.5 205t-106.5 72q-99 0 -159 -143.5t-85 -436.5q-4 -41 -4 -117
q0 -86 26 -124.5t85 -38.5zM748 1483q81 0 126.5 -37t45.5 -109q0 -92 -68.5 -147t-169.5 -55q-93 0 -133.5 41.5t-40.5 101.5q0 93 68.5 149t171.5 56z" />
    <glyph glyph-name="Gcommaaccent" unicode="&#x122;" horiz-adv-x="1374" 
d="M647 -23q-278 0 -424.5 143t-146.5 425q0 121 31 246.5t97.5 245t159 212.5t227.5 150t292 57q66 0 139 -15t124.5 -30.5t65.5 -15.5q15 0 25.5 6.5t15.5 12.5t17 24h41l-58 -428h-51q-17 387 -323 387q-91 0 -166 -59t-123 -151.5t-80.5 -210.5t-46.5 -230.5t-14 -217.5
q0 -249 67 -359t211 -110q65 0 107 17l73 448h-159l10 60h606l-12 -60h-111l-78 -438q-98 -45 -238 -77t-278 -32zM567 -592l-26 43q161 89 161 178q0 45 -34 62l-68 -68q-31 12 -55.5 44.5t-24.5 72.5q0 66 43 104.5t111 38.5q72 0 110.5 -47t38.5 -110q0 -99 -64 -174.5
t-192 -143.5z" />
    <glyph glyph-name="gcommaaccent" unicode="&#x123;" horiz-adv-x="1218" 
d="M719 174l-10 6q-28 -52 -67.5 -94.5t-109 -75.5t-151.5 -33q-163 0 -244.5 92t-81.5 269q0 79 11 155t34.5 153t63.5 141t93.5 114t130 78.5t167.5 28.5q180 0 248 -152l31 125q220 -5 333 16q-67 -322 -157 -893q-50 -309 -224.5 -462.5t-443.5 -153.5q-160 0 -255 57.5
t-95 171.5q0 89 51.5 140t130.5 51q80 0 127.5 -51.5t30.5 -161.5l-111 -31q-28 -113 105 -113q65 0 113 20t87.5 61t72 117.5t60.5 175.5t60 249zM506 70q95 0 169.5 154t98.5 429q12 133 -24.5 205t-106.5 72q-99 0 -159 -143.5t-85 -436.5q-4 -41 -4 -117
q0 -86 26 -124.5t85 -38.5zM893 1657l22 -49q-90 -41 -149 -94t-59 -99q0 -45 38 -69l76 65q33 -12 55.5 -42.5t22.5 -76.5q0 -70 -52 -111.5t-122 -41.5q-79 0 -119.5 47.5t-40.5 111.5q0 109 83.5 196t244.5 163z" />
    <glyph glyph-name="Hcircumflex" unicode="&#x124;" horiz-adv-x="1511" 
d="M211 1434h602l-10 -60h-133l-99 -600h447l98 600h-131l10 60h588l-10 -60h-117l-219 -1315h131l-10 -59h-604l10 59h133l109 641h-445l-110 -641h135l-13 -59h-593l10 59h121l219 1315h-129zM584 1530l272 274q68 33 119 33q53 0 80.5 -20t48.5 -62l113 -231l-25 -23
l-250 139l-340 -139z" />
    <glyph glyph-name="hcircumflex" unicode="&#x125;" horiz-adv-x="1247" 
d="M930 -23q-118 0 -186 55.5t-68 172.5q0 125 112 485q13 42 18.5 72.5t4.5 57t-14.5 40.5t-40.5 14q-53 0 -110 -65.5t-103 -177.5q-89 -216 -131 -625q-54 2 -191.5 -5t-177.5 -15l86 381l168 1116h-145l6 53h499l-190 -887l14 -6q156 365 430 365q110 0 164.5 -58
t54.5 -162q0 -61 -20 -143l-92 -399q-21 -99 -21 -119q0 -53 50 -53q59 0 133 100l47 -35q-55 -81 -125.5 -121.5t-171.5 -40.5zM106 1608l273 274q68 33 119 33q53 0 80.5 -20t48.5 -62l112 -231l-24 -23l-250 139l-340 -139z" />
    <glyph glyph-name="Hbar" unicode="&#x126;" horiz-adv-x="1511" 
d="M211 1434h602l-10 -60h-133l-45 -272h446l45 272h-131l10 60h588l-10 -60h-117l-45 -272h139l-10 -60h-139l-164 -983h131l-10 -59h-604l10 59h133l109 641h-445l-110 -641h135l-13 -59h-593l10 59h121l163 983h-141l10 60h142l45 272h-129zM571 774h447l43 268h-447z
" />
    <glyph glyph-name="hbar" unicode="&#x127;" horiz-adv-x="1247" 
d="M930 -23q-118 0 -186 55.5t-68 172.5q0 125 112 485q13 42 18.5 72.5t4.5 57t-14.5 40.5t-40.5 14q-53 0 -110 -65.5t-103 -177.5q-89 -216 -131 -625q-54 2 -191.5 -5t-177.5 -15l86 381l125 827h-162l10 53h160l35 236h-145l6 53h499l-63 -289h317l-10 -53h-317
l-117 -545l14 -6q156 365 430 365q110 0 164.5 -58t54.5 -162q0 -61 -20 -143l-92 -399q-21 -99 -21 -119q0 -53 50 -53q59 0 133 100l47 -35q-55 -81 -125.5 -121.5t-171.5 -40.5z" />
    <glyph glyph-name="Itilde" unicode="&#x128;" horiz-adv-x="731" 
d="M457 59h133l-10 -59h-598l10 59h119l219 1315h-131l10 60h602l-10 -60h-125zM662 1573q-75 0 -183 49q-75 33 -117 33q-72 0 -122 -86l-37 12q62 135 121 197.5t151 62.5q13 0 25 -1t26.5 -5t22 -5.5t26 -9t21.5 -9t25.5 -11.5t23.5 -10q76 -31 111 -31q40 0 70.5 16.5
t56.5 69.5l41 -10q-60 -143 -123 -202.5t-139 -59.5z" />
    <glyph glyph-name="itilde" unicode="&#x129;" horiz-adv-x="679" 
d="M438 246q-14 -82 -14 -119q0 -53 47 -53q55 0 129 100l47 -35q-55 -81 -125.5 -121.5t-171.5 -40.5q-118 0 -183 55.5t-65 172.5q0 60 27 203l109 526h-162l10 53h502q-92 -409 -150 -741zM530 1188q-74 0 -182 49q-75 33 -117 33q-72 0 -122 -86l-37 12
q62 135 121 197.5t151 62.5q13 0 25 -1t26.5 -5t22 -5.5t26 -9t21.5 -9t25.5 -11.5t23.5 -10q76 -31 111 -31q40 0 70.5 16.5t56.5 69.5l41 -10q-60 -143 -123.5 -202.5t-139.5 -59.5z" />
    <glyph glyph-name="Imacron" unicode="&#x12a;" horiz-adv-x="731" 
d="M457 59h133l-10 -59h-598l10 59h119l219 1315h-131l10 60h602l-10 -60h-125zM252 1591l31 172h557l-31 -172h-557z" />
    <glyph glyph-name="imacron" unicode="&#x12b;" horiz-adv-x="679" 
d="M438 246q-14 -82 -14 -119q0 -53 47 -53q55 0 129 100l47 -35q-55 -81 -125.5 -121.5t-171.5 -40.5q-118 0 -183 55.5t-65 172.5q0 60 27 203l109 526h-162l10 53h502q-92 -409 -150 -741zM115 1190l30 172h557l-30 -172h-557z" />
    <glyph glyph-name="Ibreve" unicode="&#x12c;" horiz-adv-x="731" 
d="M457 59h133l-10 -59h-598l10 59h119l219 1315h-131l10 60h602l-10 -60h-125zM289 1798l37 6q13 -43 36.5 -67.5t71 -37.5t125.5 -13q105 0 167 31t99 100l39 -7q-16 -61 -42 -112t-66.5 -95.5t-100.5 -70t-133 -25.5q-130 0 -185 81t-48 210z" />
    <glyph glyph-name="ibreve" unicode="&#x12d;" horiz-adv-x="679" 
d="M438 246q-14 -82 -14 -119q0 -53 47 -53q55 0 129 100l47 -35q-55 -81 -125.5 -121.5t-171.5 -40.5q-118 0 -183 55.5t-65 172.5q0 60 27 203l109 526h-162l10 53h502q-92 -409 -150 -741zM147 1456l43 8q14 -74 69 -111.5t167 -37.5q101 0 170 38t100 107l43 -8
q-18 -71 -46.5 -129.5t-71 -107.5t-104 -76t-136.5 -27q-71 0 -121 27.5t-76 76.5t-35 109t-2 131z" />
    <glyph glyph-name="Iogonek" unicode="&#x12e;" horiz-adv-x="731" 
d="M457 59h133l-10 -59h-172q-79 -69 -132 -152t-53 -155q0 -76 68 -76q60 0 121 90l43 -26q-88 -185 -289 -185q-95 0 -146 42.5t-51 123.5q0 56 25 104.5t76.5 90.5t103.5 73t131 70h-323l10 59h119l219 1315h-131l10 60h602l-10 -60h-125z" />
    <glyph glyph-name="iogonek" unicode="&#x12f;" horiz-adv-x="686" 
d="M440 246q-14 -82 -14 -119q0 -53 47 -53q55 0 129 100l47 -35q-31 -47 -67.5 -78.5t-89.5 -62.5q-84 -48 -138.5 -133t-54.5 -172q0 -76 68 -76q59 0 120 90l43 -26q-88 -185 -288 -185q-95 0 -146 42.5t-51 123.5q0 52 21.5 97.5t64 84t90.5 69t115 64.5
q-232 10 -232 228q0 60 27 203l109 526h-162l10 53h502q-92 -409 -150 -741zM477 1483q81 0 126.5 -37t45.5 -109q0 -92 -68.5 -147t-168.5 -55q-93 0 -133.5 41.5t-40.5 101.5q0 93 68.5 149t170.5 56z" />
    <glyph glyph-name="Idotaccent" unicode="&#x130;" horiz-adv-x="731" 
d="M457 59h133l-10 -59h-598l10 59h119l219 1315h-131l10 60h602l-10 -60h-125zM588 1872q81 0 126.5 -37t45.5 -109q0 -92 -68.5 -147t-169.5 -55q-93 0 -133.5 41.5t-40.5 101.5q0 93 68.5 149t171.5 56z" />
    <glyph glyph-name="dotlessi" unicode="&#x131;" horiz-adv-x="679" 
d="M438 246q-14 -82 -14 -119q0 -53 47 -53q55 0 129 100l47 -35q-55 -81 -125.5 -121.5t-171.5 -40.5q-118 0 -183 55.5t-65 172.5q0 60 27 203l109 526h-162l10 53h502q-92 -409 -150 -741z" />
    <glyph glyph-name="IJ" unicode="&#x132;" horiz-adv-x="1699" 
d="M455 59h133l-10 -59h-598l10 59h119l219 1315h-131l10 60h602l-10 -60h-125zM1182 1434h620l-10 -60h-117l-153 -919q-41 -245 -171 -359t-362 -114q-150 0 -220.5 61.5t-70.5 161.5q0 95 54 144.5t135 49.5q75 0 109 -39.5t29.5 -95t-34.5 -117.5h-63q-19 -25 -19 -51
q0 -63 80 -63q72 0 106.5 60t65.5 241l174 1040h-164z" />
    <glyph glyph-name="Jcircumflex" unicode="&#x134;" horiz-adv-x="1003" 
d="M473 1434h621l-11 -60h-116l-154 -919q-41 -245 -170.5 -359t-361.5 -114q-150 0 -220.5 61.5t-70.5 161.5q0 95 54 144.5t134 49.5q75 0 109 -39.5t30 -95t-34 -117.5h-64q-18 -24 -18 -51q0 -63 80 -63q72 0 106.5 60t65.5 241l174 1040h-164zM469 1530l272 274
q68 33 119 33q53 0 80.5 -20t48.5 -62l113 -231l-25 -23l-250 139l-340 -139z" />
    <glyph glyph-name="jcircumflex" unicode="&#x135;" horiz-adv-x="667" 
d="M584 987l-162 -987q-84 -512 -549 -512q-127 0 -217 61.5t-90 174.5q0 85 54.5 140.5t141.5 55.5q89 0 127 -69t-4 -152l-82 -14q-23 -73 -3.5 -104.5t73.5 -31.5q30 0 54.5 12.5t43.5 39.5t33.5 58.5t26.5 79t20.5 91t18.5 104.5l161 1000h-170l11 53h512zM82 1130
l217 343q17 11 58.5 24.5t76.5 13.5q54 0 81.5 -20.5t39.5 -67.5l74 -299l-31 -16l-195 201l-294 -207z" />
    <glyph glyph-name="Kcommaaccent" unicode="&#x136;" horiz-adv-x="1409" 
d="M213 1434h600l-10 -60h-131l-105 -620l90 22l594 598h-112l10 60h321l-10 -60h-108l-414 -426l297 -889h115l-13 -59h-612l12 59h121l-194 652l-105 -25l-106 -627h127l-13 -59h-587l12 59h121l219 1315h-129zM475 -592l-26 43q161 89 161 178q0 45 -35 62l-67 -68
q-31 12 -55.5 44.5t-24.5 72.5q0 66 43 104.5t111 38.5q72 0 110.5 -47t38.5 -110q0 -99 -64 -174.5t-192 -143.5z" />
    <glyph glyph-name="kcommaaccent" unicode="&#x137;" horiz-adv-x="1179" 
d="M616 238l23 98q33 135 -64 135q-49 0 -100 -22l-69 -441q-62 0 -190.5 -7.5t-170.5 -18.5l94 436l158 1065h-141l8 53h493l-174 -1022l107 57q117 63 182 121.5t66 102.5l-82 32q-10 84 35 140.5t141 56.5q83 0 121.5 -44.5t38.5 -107.5q0 -67 -45 -117t-134 -91
l-286 -136l4 -8q100 17 125 17q61 0 103.5 -13.5t65.5 -35.5t33 -54t8.5 -65.5t-10.5 -73.5q-28 -129 -28 -168q0 -28 16.5 -40.5t38.5 -12.5q35 0 64 23.5t69 76.5l47 -35q-55 -81 -125.5 -121.5t-171.5 -40.5q-48 0 -88 7.5t-78 25.5t-59.5 47.5t-31 74.5t6.5 106z
M358 -592l-26 43q162 89 162 178q0 45 -35 62l-68 -68q-31 12 -55.5 44.5t-24.5 72.5q0 66 43 104.5t111 38.5q72 0 110.5 -47t38.5 -110q0 -99 -64 -174.5t-192 -143.5z" />
    <glyph glyph-name="kgreenlandic" unicode="&#x138;" horiz-adv-x="1189" 
d="M616 238l23 98q33 135 -64 135q-49 0 -100 -22l-69 -441q-62 0 -190.5 -7.5t-170.5 -18.5l94 436l76 504h-141l8 53h481l-80 -461l107 57q117 63 182 121.5t66 102.5l-82 32q-10 84 35 140.5t141 56.5q83 0 121.5 -44.5t38.5 -107.5q0 -67 -45 -117t-134 -91l-286 -136
l4 -8q100 17 125 17q61 0 103.5 -13.5t65.5 -35.5t33 -54t8.5 -65.5t-10.5 -73.5q-28 -129 -28 -168q0 -28 16.5 -40.5t38.5 -12.5q35 0 64 23.5t69 76.5l47 -35q-55 -81 -125.5 -121.5t-171.5 -40.5q-48 0 -88 7.5t-78 25.5t-59.5 47.5t-31 74.5t6.5 106z" />
    <glyph glyph-name="Lacute" unicode="&#x139;" horiz-adv-x="1159" 
d="M211 1434h663l-10 -60h-194l-219 -1315h88q113 0 193 21.5t142.5 73.5t108.5 126.5t94 192.5h51l-94 -473h-1054l10 59h121l219 1315h-129zM348 1530l254 350l88 -18q57 -11 76.5 -32.5t19.5 -60.5q0 -37 -22.5 -63.5t-69.5 -48.5l-321 -156z" />
    <glyph glyph-name="lacute" unicode="&#x13a;" horiz-adv-x="694" 
d="M102 221q0 54 13 134.5t57 308.5l162 817h-150l9 55h493l-240 -1286q-19 -80 -10.5 -127t58.5 -47q54 0 131 98l47 -35q-66 -89 -135 -125.5t-166 -36.5q-132 0 -200.5 61t-68.5 183zM281 1614l254 350l88 -18q57 -11 76.5 -32.5t19.5 -60.5q0 -37 -22.5 -63.5
t-69.5 -48.5l-322 -156z" />
    <glyph glyph-name="Lcommaaccent" unicode="&#x13b;" horiz-adv-x="1159" 
d="M211 1434h663l-10 -60h-194l-219 -1315h88q113 0 193 21.5t142.5 73.5t108.5 126.5t94 192.5h51l-94 -473h-1054l10 59h121l219 1315h-129zM436 -592l-26 43q161 89 161 178q0 45 -34 62l-68 -68q-31 12 -55.5 44.5t-24.5 72.5q0 66 43 104.5t111 38.5q72 0 110.5 -47
t38.5 -110q0 -99 -64 -174.5t-192 -143.5z" />
    <glyph glyph-name="lcommaaccent" unicode="&#x13c;" horiz-adv-x="694" 
d="M102 221q0 54 13 134.5t57 308.5l162 817h-150l9 55h493l-240 -1286q-19 -80 -10.5 -127t58.5 -47q54 0 131 98l47 -35q-66 -89 -135 -125.5t-166 -36.5q-132 0 -200.5 61t-68.5 183zM197 -592l-27 43q162 89 162 178q0 45 -35 62l-68 -68q-30 12 -54.5 44.5t-24.5 72.5
q0 66 42.5 104.5t110.5 38.5q72 0 111 -47t39 -110q0 -99 -64 -174.5t-192 -143.5z" />
    <glyph glyph-name="Lcaron" unicode="&#x13d;" horiz-adv-x="1159" 
d="M211 1434h663l-10 -60h-194l-219 -1315h88q113 0 193 21.5t142.5 73.5t108.5 126.5t94 192.5h51l-94 -473h-1054l10 59h121l219 1315h-129zM889 967l-31 43q87 62 116.5 113.5t29.5 115.5q0 44 -12.5 74t-45.5 55l33 33q53 57 119 57q52 0 79 -33t27 -92q0 -53 -27 -105
t-79 -101t-97 -82.5t-112 -77.5z" />
    <glyph glyph-name="lcaron" unicode="&#x13e;" horiz-adv-x="829" 
d="M102 221q0 54 13 134.5t57 308.5l162 817h-150l9 55h493l-240 -1286q-19 -80 -10.5 -127t58.5 -47q54 0 131 98l47 -35q-66 -89 -135 -125.5t-166 -36.5q-132 0 -200.5 61t-68.5 183zM672 1065l-29 41q84 61 113.5 111t29.5 112q0 44 -12.5 72.5t-44.5 52.5l31 33
q53 57 117 57q52 0 79 -32.5t27 -90.5q0 -42 -20 -84.5t-48 -76.5t-74 -72.5t-81.5 -63.5t-87.5 -59z" />
    <glyph glyph-name="Ldot" unicode="&#x13f;" horiz-adv-x="1159" 
d="M211 1434h663l-10 -60h-194l-219 -1315h88q113 0 193 21.5t142.5 73.5t108.5 126.5t94 192.5h51l-94 -473h-1054l10 59h121l219 1315h-129zM989 997q81 0 126.5 -36.5t45.5 -108.5q0 -92 -68.5 -147.5t-168.5 -55.5q-93 0 -133.5 42t-40.5 102q0 93 68 148.5t171 55.5z
" />
    <glyph glyph-name="ldot" unicode="&#x140;" horiz-adv-x="858" 
d="M102 221q0 54 13 134.5t57 308.5l162 817h-150l9 55h493l-240 -1286q-19 -80 -10.5 -127t58.5 -47q54 0 131 98l47 -35q-66 -89 -135 -125.5t-166 -36.5q-132 0 -200.5 61t-68.5 183zM850 1006q81 0 126.5 -37t45.5 -109q0 -92 -69 -147.5t-169 -55.5q-93 0 -133.5 42
t-40.5 102q0 93 68.5 149t171.5 56z" />
    <glyph glyph-name="Lslash" unicode="&#x141;" horiz-adv-x="1159" 
d="M211 1434h663l-10 -60h-194l-92 -551l387 181l16 -68l-418 -193l-112 -684h88q113 0 193 21.5t142.5 73.5t108.5 126.5t94 192.5h51l-94 -473h-1054l10 59h121l88 537l-181 -84l-14 68l209 96l117 698h-129z" />
    <glyph glyph-name="lslash" unicode="&#x142;" horiz-adv-x="747" 
d="M23 633l-19 67l201 91l137 690h-149l8 55h493l-110 -596l178 82l20 -66l-215 -98l-112 -608q-19 -80 -11 -127t58 -47q54 0 131 98l47 -35q-66 -89 -135 -125.5t-166 -36.5q-268 0 -268 244q0 55 13 138.5t56 304.5l8 45z" />
    <glyph glyph-name="Nacute" unicode="&#x143;" horiz-adv-x="1384" 
d="M1329 1374l-229 -1374h-260l-434 1327h-7l-204 -1268h124l-8 -59h-331l10 59h125l217 1315h-129l10 60h514l356 -1049h9l161 989h-120l10 60h313l-10 -60h-117zM662 1530l253 350l89 -18q57 -11 76.5 -32.5t19.5 -60.5q0 -37 -22.5 -63.5t-69.5 -48.5l-322 -156z" />
    <glyph glyph-name="nacute" unicode="&#x144;" horiz-adv-x="1253" 
d="M934 -23q-118 0 -186 54.5t-68 167.5q0 45 14.5 120t31 134.5t39.5 137.5t28 99q10 38 15.5 63.5t7.5 50.5t-3 39t-18 22.5t-35 8.5q-53 0 -110 -65.5t-103 -177.5q-89 -216 -131 -625q-54 2 -190.5 -5t-176.5 -15l86 381l78 567h-145l6 53h485l-88 -338l14 -6
q156 365 430 365q110 0 168 -58.5t58 -161.5q0 -57 -21 -143l-98 -399q-21 -99 -21 -119q0 -53 50 -53q59 0 133 100l47 -35q-55 -81 -125.5 -121.5t-171.5 -40.5zM549 1126l176 392l117 24q43 9 79.5 -10.5t36.5 -67.5q0 -57 -63 -108l-311 -254z" />
    <glyph glyph-name="Ncommaaccent" unicode="&#x145;" horiz-adv-x="1384" 
d="M1329 1374l-229 -1374h-260l-434 1327h-7l-204 -1268h124l-8 -59h-331l10 59h125l217 1315h-129l10 60h514l356 -1049h9l161 989h-120l10 60h313l-10 -60h-117zM459 -592l-27 43q162 89 162 178q0 45 -35 62l-67 -68q-31 12 -55.5 44.5t-24.5 72.5q0 66 42.5 104.5
t110.5 38.5q72 0 111 -47t39 -110q0 -99 -64 -174.5t-192 -143.5z" />
    <glyph glyph-name="ncommaaccent" unicode="&#x146;" horiz-adv-x="1253" 
d="M934 -23q-118 0 -186 54.5t-68 167.5q0 45 14.5 120t31 134.5t39.5 137.5t28 99q10 38 15.5 63.5t7.5 50.5t-3 39t-18 22.5t-35 8.5q-53 0 -110 -65.5t-103 -177.5q-89 -216 -131 -625q-54 2 -190.5 -5t-176.5 -15l86 381l78 567h-145l6 53h485l-88 -338l14 -6
q156 365 430 365q110 0 168 -58.5t58 -161.5q0 -57 -21 -143l-98 -399q-21 -99 -21 -119q0 -53 50 -53q59 0 133 100l47 -35q-55 -81 -125.5 -121.5t-171.5 -40.5zM416 -592l-27 43q162 89 162 178q0 45 -35 62l-67 -68q-31 12 -55.5 44.5t-24.5 72.5q0 66 42.5 104.5
t110.5 38.5q72 0 111 -47t39 -110q0 -99 -64 -174.5t-192 -143.5z" />
    <glyph glyph-name="Ncaron" unicode="&#x147;" horiz-adv-x="1384" 
d="M1329 1374l-229 -1374h-260l-434 1327h-7l-204 -1268h124l-8 -59h-331l10 59h125l217 1315h-129l10 60h514l356 -1049h9l161 989h-120l10 60h313l-10 -60h-117zM1233 1833l-272 -279q-66 -32 -119 -32t-80.5 20t-48.5 62l-113 231l25 23l258 -146l331 146z" />
    <glyph glyph-name="ncaron" unicode="&#x148;" horiz-adv-x="1253" 
d="M934 -23q-118 0 -186 54.5t-68 167.5q0 45 14.5 120t31 134.5t39.5 137.5t28 99q10 38 15.5 63.5t7.5 50.5t-3 39t-18 22.5t-35 8.5q-53 0 -110 -65.5t-103 -177.5q-89 -216 -131 -625q-54 2 -190.5 -5t-176.5 -15l86 381l78 567h-145l6 53h485l-88 -338l14 -6
q156 365 430 365q110 0 168 -58.5t58 -161.5q0 -57 -21 -143l-98 -399q-21 -99 -21 -119q0 -53 50 -53q59 0 133 100l47 -35q-55 -81 -125.5 -121.5t-171.5 -40.5zM600 1149l-121 348l29 21l229 -209l283 211l24 -25l-170 -291q-52 -88 -163 -88q-34 0 -66.5 11.5
t-44.5 21.5z" />
    <glyph glyph-name="napostrophe" unicode="&#x149;" horiz-adv-x="1378" 
d="M1059 -23q-118 0 -186 54.5t-68 167.5q0 45 14.5 120t31 134.5t39.5 137.5t28 99q10 38 15.5 63.5t7.5 50.5t-3 39t-18 22.5t-35 8.5q-53 0 -110 -65.5t-103 -177.5q-89 -216 -131 -625q-54 2 -190.5 -5t-176.5 -15l86 381l78 567h-145l6 53h485l-88 -338l14 -6
q156 365 430 365q110 0 168 -58.5t58 -161.5q0 -57 -21 -143l-98 -399q-21 -99 -21 -119q0 -53 50 -53q59 0 133 100l47 -35q-55 -81 -125.5 -121.5t-171.5 -40.5zM31 932l-27 43q160 87 160 174q0 41 -35 59l-66 -65q-31 12 -54 43t-23 71q0 65 41.5 102.5t107.5 37.5
q70 0 109 -46.5t39 -107.5q0 -97 -63 -171t-189 -140z" />
    <glyph glyph-name="Eng" unicode="&#x14a;" horiz-adv-x="1384" 
d="M1329 1374l-225 -1351q-39 -235 -170 -346t-359 -111q-150 0 -218 58t-68 157q0 95 54 144.5t134 49.5q57 0 91 -22.5t42.5 -59.5t1 -80t-29.5 -89h-64q-18 -24 -18 -52q0 -30 17.5 -42.5t57.5 -12.5q200 0 250 293l15 90l-434 1327h-7l-204 -1268h124l-8 -59h-331l10 59
h125l217 1315h-129l10 60h514l356 -1049h9l161 989h-120l10 60h313l-10 -60h-117z" />
    <glyph glyph-name="eng" unicode="&#x14b;" horiz-adv-x="1247" 
d="M449 -451q36 0 65 20.5t48.5 52t37 85.5t29 103.5t24.5 123.5l140 756q7 34 10.5 54.5t6 44.5t0.5 37.5t-7 25.5t-16 17t-27 5q-53 0 -110 -65.5t-103 -177.5q-89 -216 -131 -625q-54 2 -190.5 -5t-176.5 -15l86 381l78 567h-145l6 53h485l-88 -338l14 -6
q156 365 430 365q273 0 205 -363l-123 -645q-48 -250 -179.5 -381t-368.5 -131q-127 0 -217.5 61.5t-90.5 174.5q0 85 55 140.5t142 55.5q89 0 127 -69t-4 -152l-82 -14q-23 -73 -3.5 -104.5t73.5 -31.5z" />
    <glyph glyph-name="Omacron" unicode="&#x14c;" horiz-adv-x="1415" 
d="M1004 717q45 270 45 403q0 140 -45 206.5t-160 66.5q-48 0 -87.5 -9.5t-72 -33t-57.5 -51.5t-47 -76t-38.5 -95.5t-33.5 -121.5t-29.5 -141.5t-29.5 -166.5q-37 -206 -37 -362q0 -148 44 -220.5t160 -72.5q60 0 107 16.5t84 55.5t64.5 89t51.5 131.5t42 168.5t39 213z
M76 522q0 143 30 277.5t94 254t155.5 209t223 141.5t287.5 52q256 0 385 -140.5t129 -412.5q0 -138 -28.5 -269t-91 -250.5t-152 -208.5t-221 -142t-289.5 -53q-262 0 -392 142.5t-130 399.5zM596 1591l31 172h557l-31 -172h-557z" />
    <glyph glyph-name="omacron" unicode="&#x14d;" horiz-adv-x="1095" 
d="M696 489q31 202 31 295q0 87 -26 130.5t-83 43.5q-50 0 -86.5 -28.5t-63.5 -93t-45.5 -142t-39.5 -202.5q-33 -200 -33 -297q0 -86 26.5 -127t88.5 -41q95 0 140.5 97t90.5 365zM41 365q0 133 38.5 249t111.5 204t187 139t255 51q407 0 407 -383q0 -300 -159 -474
t-428 -174q-205 0 -308.5 99.5t-103.5 288.5zM375 1190l31 172h557l-31 -172h-557z" />
    <glyph glyph-name="Obreve" unicode="&#x14e;" horiz-adv-x="1415" 
d="M1004 717q45 270 45 403q0 140 -45 206.5t-160 66.5q-48 0 -87.5 -9.5t-72 -33t-57.5 -51.5t-47 -76t-38.5 -95.5t-33.5 -121.5t-29.5 -141.5t-29.5 -166.5q-37 -206 -37 -362q0 -148 44 -220.5t160 -72.5q60 0 107 16.5t84 55.5t64.5 89t51.5 131.5t42 168.5t39 213z
M76 522q0 143 30 277.5t94 254t155.5 209t223 141.5t287.5 52q256 0 385 -140.5t129 -412.5q0 -138 -28.5 -269t-91 -250.5t-152 -208.5t-221 -142t-289.5 -53q-262 0 -392 142.5t-130 399.5zM633 1798l37 6q13 -43 36.5 -67.5t71 -37.5t125.5 -13q105 0 167 31t99 100
l39 -7q-16 -61 -42 -112t-66.5 -95.5t-100.5 -70t-133 -25.5q-130 0 -185 81t-48 210z" />
    <glyph glyph-name="obreve" unicode="&#x14f;" horiz-adv-x="1095" 
d="M696 489q31 202 31 295q0 87 -26 130.5t-83 43.5q-50 0 -86.5 -28.5t-63.5 -93t-45.5 -142t-39.5 -202.5q-33 -200 -33 -297q0 -86 26.5 -127t88.5 -41q95 0 140.5 97t90.5 365zM41 365q0 133 38.5 249t111.5 204t187 139t255 51q407 0 407 -383q0 -300 -159 -474
t-428 -174q-205 0 -308.5 99.5t-103.5 288.5zM408 1456l43 8q14 -74 68.5 -111.5t166.5 -37.5q101 0 170 38t100 107l43 -8q-18 -71 -46.5 -129.5t-71 -107.5t-104 -76t-136.5 -27q-71 0 -121 27.5t-75.5 76.5t-34.5 109t-2 131z" />
    <glyph glyph-name="Ohungarumlaut" unicode="&#x150;" horiz-adv-x="1415" 
d="M1004 717q45 270 45 403q0 140 -45 206.5t-160 66.5q-48 0 -87.5 -9.5t-72 -33t-57.5 -51.5t-47 -76t-38.5 -95.5t-33.5 -121.5t-29.5 -141.5t-29.5 -166.5q-37 -206 -37 -362q0 -148 44 -220.5t160 -72.5q60 0 107 16.5t84 55.5t64.5 89t51.5 131.5t42 168.5t39 213z
M76 522q0 143 30 277.5t94 254t155.5 209t223 141.5t287.5 52q256 0 385 -140.5t129 -412.5q0 -138 -28.5 -269t-91 -250.5t-152 -208.5t-221 -142t-289.5 -53q-262 0 -392 142.5t-130 399.5zM657 1530l140 385l88 16q56 9 92.5 -14t36.5 -68q0 -33 -14.5 -56.5t-45.5 -51.5
l-264 -232zM979 1536l172 371l90 6q55 3 87 -19.5t32 -64.5q0 -36 -16.5 -61.5t-53.5 -51.5l-284 -203z" />
    <glyph glyph-name="ohungarumlaut" unicode="&#x151;" horiz-adv-x="1095" 
d="M696 489q31 202 31 295q0 87 -26 130.5t-83 43.5q-50 0 -86.5 -28.5t-63.5 -93t-45.5 -142t-39.5 -202.5q-33 -200 -33 -297q0 -86 26.5 -127t88.5 -41q95 0 140.5 97t90.5 365zM41 365q0 133 38.5 249t111.5 204t187 139t255 51q407 0 407 -383q0 -300 -159 -474
t-428 -174q-205 0 -308.5 99.5t-103.5 288.5zM770 1151l162 391l112 31q42 12 80.5 -6.5t38.5 -65.5q0 -58 -69 -121l-289 -250zM436 1147l152 395l112 31q42 12 80.5 -6.5t38.5 -65.5q0 -55 -69 -121l-277 -256z" />
    <glyph glyph-name="OE" unicode="&#x152;" horiz-adv-x="2091" 
d="M1270 1434h831l-47 -400h-51q-31 198 -110.5 269t-266.5 71h-110l-103 -612h72q191 0 287 262h47l-103 -606h-51q-6 155 -52.5 216.5t-158.5 61.5h-51l-107 -637h113q376 0 528 381h54l-90 -440h-871l23 135q-188 -155 -441 -155q-271 0 -403.5 140t-132.5 402
q0 224 60 402t168 294t256.5 177t326.5 61q125 0 217 -42.5t143 -119.5zM1061 717q45 273 45 399q0 145 -53 211t-181 66q-68 0 -120.5 -17t-93.5 -56.5t-71 -91.5t-55 -135.5t-44 -174t-39 -220.5q-37 -230 -37 -362q0 -150 52.5 -221.5t180.5 -71.5q76 0 133.5 26.5
t100 75.5t76 134.5t57.5 187t49 250.5z" />
    <glyph glyph-name="oe" unicode="&#x153;" horiz-adv-x="1632" 
d="M1290 1008q161 0 246.5 -63.5t85.5 -178.5q0 -57 -23 -104t-60 -79t-89 -57t-103.5 -39.5t-111.5 -24t-104 -13t-89 -5.5q-4 -70 -4 -94q0 -151 42 -212.5t130 -61.5q91 0 166 67t123 205l55 -18q-62 -183 -170.5 -268t-271.5 -85q-214 0 -309 144q-150 -144 -350 -144
q-205 0 -308.5 99.5t-103.5 288.5q0 133 38.5 249t110.5 204t184.5 139t250.5 51q215 0 303 -138q72 64 165.5 101t196.5 37zM696 489q31 202 31 295q0 87 -26 130.5t-83 43.5q-50 0 -86.5 -28.5t-63.5 -93t-45.5 -142t-39.5 -202.5q-33 -200 -33 -297q0 -86 26.5 -127
t88.5 -41q95 0 140.5 97t90.5 365zM1341 817q0 125 -79 125q-81 0 -138 -123.5t-77 -314.5q162 20 228 91t66 222z" />
    <glyph glyph-name="Racute" unicode="&#x154;" horiz-adv-x="1380" 
d="M754 739v-6q90 -6 145.5 -20.5t98.5 -49t63.5 -92t28.5 -149.5l14 -164q7 -88 24.5 -131t59.5 -43q30 0 52.5 13.5t53.5 60.5l45 -29q-17 -28 -29.5 -45.5t-36 -40t-50.5 -35.5t-69 -22t-95 -9q-45 0 -82 5.5t-79 24.5t-71.5 50.5t-51.5 87t-27 131.5l-11 154
q-10 162 -44 218.5t-111 56.5h-21l-110 -646h137l-10 -59h-598l10 59h121l219 1315h-129l10 60h479q77 0 142 -4.5t136 -15.5t125 -32.5t98.5 -53t68.5 -79.5t24 -110q0 -95 -40.5 -168.5t-114 -121t-167 -74.5t-208.5 -36zM670 1374l-99 -610h21q139 0 232.5 96t93.5 279
q0 123 -58 179t-170 56h-20zM575 1530l254 350l89 -18q57 -11 76.5 -32.5t19.5 -60.5q0 -37 -22.5 -63.5t-69.5 -48.5l-322 -156z" />
    <glyph glyph-name="racute" unicode="&#x155;" horiz-adv-x="1073" 
d="M778 664l-10 161q-208 -58 -299 -456q-30 -126 -49 -359q-62 1 -180 -7t-191 -19l92 419l74 531h-143l8 53h471l-94 -395l12 -6q28 65 54 115.5t67 111.5t83.5 100.5t101.5 67t124 27.5q78 0 133 -45.5t55 -137.5q0 -64 -28 -109t-72 -64t-99.5 -16t-109.5 28zM498 1126
l176 392l117 24q43 9 79.5 -10.5t36.5 -67.5q0 -57 -63 -108l-312 -254z" />
    <glyph glyph-name="Rcommaaccent" unicode="&#x156;" horiz-adv-x="1380" 
d="M754 739v-6q90 -6 145.5 -20.5t98.5 -49t63.5 -92t28.5 -149.5l14 -164q7 -88 24.5 -131t59.5 -43q30 0 52.5 13.5t53.5 60.5l45 -29q-17 -28 -29.5 -45.5t-36 -40t-50.5 -35.5t-69 -22t-95 -9q-45 0 -82 5.5t-79 24.5t-71.5 50.5t-51.5 87t-27 131.5l-11 154
q-10 162 -44 218.5t-111 56.5h-21l-110 -646h137l-10 -59h-598l10 59h121l219 1315h-129l10 60h479q77 0 142 -4.5t136 -15.5t125 -32.5t98.5 -53t68.5 -79.5t24 -110q0 -95 -40.5 -168.5t-114 -121t-167 -74.5t-208.5 -36zM670 1374l-99 -610h21q139 0 232.5 96t93.5 279
q0 123 -58 179t-170 56h-20zM485 -592l-26 43q162 89 162 178q0 45 -35 62l-68 -68q-31 12 -55.5 44.5t-24.5 72.5q0 66 43 104.5t111 38.5q72 0 110.5 -47t38.5 -110q0 -99 -64 -174.5t-192 -143.5z" />
    <glyph glyph-name="rcommaaccent" unicode="&#x157;" horiz-adv-x="1073" 
d="M778 664l-10 161q-208 -58 -299 -456q-30 -126 -49 -359q-62 1 -180 -7t-191 -19l92 419l74 531h-143l8 53h471l-94 -395l12 -6q28 65 54 115.5t67 111.5t83.5 100.5t101.5 67t124 27.5q78 0 133 -45.5t55 -137.5q0 -64 -28 -109t-72 -64t-99.5 -16t-109.5 28zM98 -592
l-26 43q161 89 161 178q0 45 -34 62l-68 -68q-31 12 -55.5 44.5t-24.5 72.5q0 66 43 104.5t111 38.5q72 0 110.5 -47t38.5 -110q0 -99 -64 -174.5t-192 -143.5z" />
    <glyph glyph-name="Rcaron" unicode="&#x158;" horiz-adv-x="1380" 
d="M754 739v-6q90 -6 145.5 -20.5t98.5 -49t63.5 -92t28.5 -149.5l14 -164q7 -88 24.5 -131t59.5 -43q30 0 52.5 13.5t53.5 60.5l45 -29q-17 -28 -29.5 -45.5t-36 -40t-50.5 -35.5t-69 -22t-95 -9q-45 0 -82 5.5t-79 24.5t-71.5 50.5t-51.5 87t-27 131.5l-11 154
q-10 162 -44 218.5t-111 56.5h-21l-110 -646h137l-10 -59h-598l10 59h121l219 1315h-129l10 60h479q77 0 142 -4.5t136 -15.5t125 -32.5t98.5 -53t68.5 -79.5t24 -110q0 -95 -40.5 -168.5t-114 -121t-167 -74.5t-208.5 -36zM670 1374l-99 -610h21q139 0 232.5 96t93.5 279
q0 123 -58 179t-170 56h-20zM1147 1833l-273 -279q-66 -32 -118 -32q-53 0 -80.5 20t-48.5 62l-113 231l25 23l258 -146l331 146z" />
    <glyph glyph-name="rcaron" unicode="&#x159;" horiz-adv-x="1073" 
d="M778 664l-10 161q-208 -58 -299 -456q-30 -126 -49 -359q-62 1 -180 -7t-191 -19l92 419l74 531h-143l8 53h471l-94 -395l12 -6q28 65 54 115.5t67 111.5t83.5 100.5t101.5 67t124 27.5q78 0 133 -45.5t55 -137.5q0 -64 -28 -109t-72 -64t-99.5 -16t-109.5 28zM506 1149
l-121 348l29 21l229 -209l283 211l24 -25l-170 -291q-52 -88 -164 -88q-34 0 -66 11.5t-44 21.5z" />
    <glyph glyph-name="Sacute" unicode="&#x15a;" horiz-adv-x="1130" 
d="M510 39q133 0 207 71t74 197q0 25 -3.5 47t-13.5 41t-18.5 34.5t-27.5 31t-30.5 26t-38.5 23.5t-40.5 20t-46 20t-46.5 18t-51 18q-30 11 -50.5 19.5t-54.5 27t-57.5 38t-51.5 51t-45 67.5t-28.5 86.5t-11.5 109.5q0 109 40 199t108.5 149t157.5 91t188 32
q63 0 121 -13.5t91.5 -29.5t63 -29.5t41.5 -13.5q4 0 8 1t8 3.5t7 4.5t7 7t6.5 7.5t7 9.5t6.5 10.5t7 12t7 12.5h49l-64 -439h-51q-37 398 -297 398q-120 0 -196 -60.5t-76 -169.5q0 -46 15 -83.5t35.5 -61.5t55.5 -45t61.5 -32t67.5 -25q147 -51 206 -85q156 -89 184 -259
q6 -39 6 -84q0 -156 -73.5 -275t-192.5 -179.5t-261 -60.5q-71 0 -141.5 14.5t-114 32t-82 32t-53.5 14.5q-4 0 -8.5 -1t-8 -4.5t-7 -6.5t-7.5 -9t-7 -11t-7 -14t-7.5 -15t-8.5 -17t-9 -19h-49l74 494h49q9 -200 102.5 -314t274.5 -114zM504 1530l254 350l88 -18
q57 -11 76.5 -32.5t19.5 -60.5q0 -37 -22.5 -63.5t-69.5 -48.5l-322 -156z" />
    <glyph glyph-name="sacute" unicode="&#x15b;" horiz-adv-x="991" 
d="M377 41q119 0 172 43.5t53 112.5q0 38 -15 66.5t-48.5 50t-61.5 34t-78 30.5q-9 3 -14 5q-45 17 -73.5 29.5t-65.5 36.5t-58.5 51.5t-37 69.5t-15.5 94q0 107 64 186t172 118.5t243 39.5q54 0 102 -6t94.5 -22t80 -39.5t54 -61.5t20.5 -86q0 -69 -43.5 -111.5
t-120.5 -42.5q-55 0 -94 26.5t-39 69.5q0 56 30 94h66q50 119 -127 119q-108 0 -165.5 -41t-57.5 -106q0 -35 15 -62.5t48 -49.5t61.5 -35.5t77.5 -32.5q128 -50 176 -82q111 -74 111 -197q0 -173 -143 -269t-369 -96q-173 0 -272 59t-99 167q0 78 46.5 122t123.5 44
q81 0 115.5 -60.5t-6.5 -142.5h-78q-20 -55 18 -90t138 -35zM471 1126l176 392l117 24q43 9 80 -10.5t37 -67.5q0 -56 -64 -108l-311 -254z" />
    <glyph glyph-name="Scircumflex" unicode="&#x15c;" horiz-adv-x="1130" 
d="M510 39q133 0 207 71t74 197q0 25 -3.5 47t-13.5 41t-18.5 34.5t-27.5 31t-30.5 26t-38.5 23.5t-40.5 20t-46 20t-46.5 18t-51 18q-30 11 -50.5 19.5t-54.5 27t-57.5 38t-51.5 51t-45 67.5t-28.5 86.5t-11.5 109.5q0 109 40 199t108.5 149t157.5 91t188 32
q63 0 121 -13.5t91.5 -29.5t63 -29.5t41.5 -13.5q4 0 8 1t8 3.5t7 4.5t7 7t6.5 7.5t7 9.5t6.5 10.5t7 12t7 12.5h49l-64 -439h-51q-37 398 -297 398q-120 0 -196 -60.5t-76 -169.5q0 -46 15 -83.5t35.5 -61.5t55.5 -45t61.5 -32t67.5 -25q147 -51 206 -85q156 -89 184 -259
q6 -39 6 -84q0 -156 -73.5 -275t-192.5 -179.5t-261 -60.5q-71 0 -141.5 14.5t-114 32t-82 32t-53.5 14.5q-4 0 -8.5 -1t-8 -4.5t-7 -6.5t-7.5 -9t-7 -11t-7 -14t-7.5 -15t-8.5 -17t-9 -19h-49l74 494h49q9 -200 102.5 -314t274.5 -114zM360 1530l273 274q68 33 119 33
q53 0 80.5 -20t48.5 -62l112 -231l-24 -23l-250 139l-340 -139z" />
    <glyph glyph-name="scircumflex" unicode="&#x15d;" horiz-adv-x="991" 
d="M377 41q119 0 172 43.5t53 112.5q0 38 -15 66.5t-48.5 50t-61.5 34t-78 30.5q-9 3 -14 5q-45 17 -73.5 29.5t-65.5 36.5t-58.5 51.5t-37 69.5t-15.5 94q0 107 64 186t172 118.5t243 39.5q54 0 102 -6t94.5 -22t80 -39.5t54 -61.5t20.5 -86q0 -69 -43.5 -111.5
t-120.5 -42.5q-55 0 -94 26.5t-39 69.5q0 56 30 94h66q50 119 -127 119q-108 0 -165.5 -41t-57.5 -106q0 -35 15 -62.5t48 -49.5t61.5 -35.5t77.5 -32.5q128 -50 176 -82q111 -74 111 -197q0 -173 -143 -269t-369 -96q-173 0 -272 59t-99 167q0 78 46.5 122t123.5 44
q81 0 115.5 -60.5t-6.5 -142.5h-78q-20 -55 18 -90t138 -35zM342 1130l217 343q17 11 58.5 24.5t76.5 13.5q54 0 81.5 -20.5t39.5 -67.5l74 -299l-31 -16l-194 201l-295 -207z" />
    <glyph glyph-name="Scedilla" unicode="&#x15e;" horiz-adv-x="1130" 
d="M510 39q133 0 207 71t74 197q0 25 -3.5 47t-13.5 41t-18.5 34.5t-27.5 31t-30.5 26t-38.5 23.5t-40.5 20t-46 20t-46.5 18t-51 18q-30 11 -50.5 19.5t-54.5 27t-57.5 38t-51.5 51t-45 67.5t-28.5 86.5t-11.5 109.5q0 109 40 199t108.5 149t157.5 91t188 32
q63 0 121 -13.5t91.5 -29.5t63 -29.5t41.5 -13.5q4 0 8 1t8 3.5t7 4.5t7 7t6.5 7.5t7 9.5t6.5 10.5t7 12t7 12.5h49l-64 -439h-51q-37 398 -297 398q-120 0 -196 -60.5t-76 -169.5q0 -46 15 -83.5t35.5 -61.5t55.5 -45t61.5 -32t67.5 -25q147 -51 206 -85q156 -89 184 -259
q6 -39 6 -84q0 -156 -73.5 -275t-192.5 -179.5t-261 -60.5h-10l-80 -100q63 23 125 23q77 0 119.5 -42t42.5 -118q0 -41 -16.5 -79t-50 -71t-93 -53t-137.5 -20q-97 0 -144 38.5t-47 88.5q0 41 24 67.5t66 26.5q80 0 82 -82l-53 -33q-15 -69 58 -69q43 0 75.5 38t32.5 123
q0 64 -21 95.5t-55 31.5q-31 0 -78 -14l-12 33l94 121q-71 8 -140.5 30t-113 40t-59.5 18q-4 0 -8.5 -1t-8 -4.5t-7 -6.5t-7.5 -9t-7 -11t-7 -14t-7.5 -15t-8.5 -17t-9 -19h-49l74 494h49q9 -200 102.5 -314t274.5 -114z" />
    <glyph glyph-name="scedilla" unicode="&#x15f;" horiz-adv-x="991" 
d="M377 41q119 0 172 43.5t53 112.5q0 38 -15 66.5t-48.5 50t-61.5 34t-78 30.5q-9 3 -14 5q-45 17 -73.5 29.5t-65.5 36.5t-58.5 51.5t-37 69.5t-15.5 94q0 107 64 186t172 118.5t243 39.5q54 0 102 -6t94.5 -22t80 -39.5t54 -61.5t20.5 -86q0 -69 -43.5 -111.5
t-120.5 -42.5q-55 0 -94 26.5t-39 69.5q0 56 30 94h66q50 119 -127 119q-108 0 -165.5 -41t-57.5 -106q0 -35 15 -62.5t48 -49.5t61.5 -35.5t77.5 -32.5q128 -50 176 -82q111 -74 111 -197q0 -162 -127.5 -256.5t-333.5 -105.5l-80 -103q63 23 125 23q77 0 119.5 -42
t42.5 -118q0 -41 -16.5 -79t-50 -71t-93 -53t-137.5 -20q-97 0 -143.5 38.5t-46.5 88.5q0 41 24 67.5t66 26.5q80 0 82 -82l-53 -33q-15 -69 57 -69q43 0 75.5 38t32.5 123q0 64 -20.5 95.5t-54.5 31.5q-31 0 -78 -14l-12 33l90 116q-164 3 -257.5 62t-93.5 164
q0 78 46.5 122t123.5 44q81 0 115.5 -60.5t-6.5 -142.5h-78q-20 -55 18 -90t138 -35z" />
    <glyph glyph-name="Scaron" unicode="&#x160;" horiz-adv-x="1130" 
d="M510 39q133 0 207 71t74 197q0 25 -3.5 47t-13.5 41t-18.5 34.5t-27.5 31t-30.5 26t-38.5 23.5t-40.5 20t-46 20t-46.5 18t-51 18q-30 11 -50.5 19.5t-54.5 27t-57.5 38t-51.5 51t-45 67.5t-28.5 86.5t-11.5 109.5q0 109 40 199t108.5 149t157.5 91t188 32
q63 0 121 -13.5t91.5 -29.5t63 -29.5t41.5 -13.5q4 0 8 1t8 3.5t7 4.5t7 7t6.5 7.5t7 9.5t6.5 10.5t7 12t7 12.5h49l-64 -439h-51q-37 398 -297 398q-120 0 -196 -60.5t-76 -169.5q0 -46 15 -83.5t35.5 -61.5t55.5 -45t61.5 -32t67.5 -25q147 -51 206 -85q156 -89 184 -259
q6 -39 6 -84q0 -156 -73.5 -275t-192.5 -179.5t-261 -60.5q-71 0 -141.5 14.5t-114 32t-82 32t-53.5 14.5q-4 0 -8.5 -1t-8 -4.5t-7 -6.5t-7.5 -9t-7 -11t-7 -14t-7.5 -15t-8.5 -17t-9 -19h-49l74 494h49q9 -200 102.5 -314t274.5 -114zM1087 1833l-272 -279
q-66 -32 -119 -32t-80.5 20t-48.5 62l-112 231l24 23l258 -146l332 146z" />
    <glyph glyph-name="scaron" unicode="&#x161;" horiz-adv-x="991" 
d="M377 41q119 0 172 43.5t53 112.5q0 38 -15 66.5t-48.5 50t-61.5 34t-78 30.5q-9 3 -14 5q-45 17 -73.5 29.5t-65.5 36.5t-58.5 51.5t-37 69.5t-15.5 94q0 107 64 186t172 118.5t243 39.5q54 0 102 -6t94.5 -22t80 -39.5t54 -61.5t20.5 -86q0 -69 -43.5 -111.5
t-120.5 -42.5q-55 0 -94 26.5t-39 69.5q0 56 30 94h66q50 119 -127 119q-108 0 -165.5 -41t-57.5 -106q0 -35 15 -62.5t48 -49.5t61.5 -35.5t77.5 -32.5q128 -50 176 -82q111 -74 111 -197q0 -173 -143 -269t-369 -96q-173 0 -272 59t-99 167q0 78 46.5 122t123.5 44
q81 0 115.5 -60.5t-6.5 -142.5h-78q-20 -55 18 -90t138 -35zM510 1149l-121 348l29 21l229 -209l283 211l24 -25l-170 -291q-52 -88 -163 -88q-34 0 -66.5 11.5t-44.5 21.5z" />
    <glyph glyph-name="uni0162" unicode="&#x162;" horiz-adv-x="1339" 
d="M1417 1434l-59 -488h-55q-4 110 -18 185t-37 123.5t-62.5 74.5t-87 35.5t-119.5 9.5h-14l-220 -1315h189l-8 -59h-332l-96 -123q63 23 125 23q77 0 119 -42t42 -118q0 -41 -16.5 -79t-50 -71t-93 -53t-137.5 -20q-97 0 -143.5 38.5t-46.5 88.5q0 41 24 67.5t66 26.5
q80 0 82 -82l-53 -33q-15 -69 57 -69q43 0 76 38t33 123q0 64 -21 95.5t-55 31.5q-31 0 -78 -14l-12 33l108 139h-317l10 59h189l219 1315h-15q-125 0 -202 -37.5t-135.5 -126t-125.5 -264.5h-55l105 488h1220z" />
    <glyph glyph-name="uni0163" unicode="&#x163;" horiz-adv-x="790" 
d="M782 934h-217l-86 -438q-43 -227 -43 -308q0 -39 21 -62.5t63 -23.5q47 0 90 37t97 117l51 -35q-68 -112 -156.5 -178t-214.5 -66h-4l-80 -100q63 23 125 23q77 0 119.5 -42t42.5 -118q0 -41 -16.5 -79t-50 -71t-93 -53t-137.5 -20q-97 0 -144 38.5t-47 88.5
q0 41 24.5 67.5t66.5 26.5q79 0 81 -82l-53 -33q-15 -69 58 -69q43 0 75.5 38t32.5 123q0 64 -21 95.5t-55 31.5q-31 0 -78 -14l-12 33l94 123q-115 16 -165 82t-50 159q0 86 39 281l82 428h-147l6 53h149l35 207l324 72h33l-48 -279h215z" />
    <glyph glyph-name="Tcaron" unicode="&#x164;" horiz-adv-x="1339" 
d="M1417 1434l-59 -488h-55q-4 110 -18 185t-37 123.5t-62.5 74.5t-87 35.5t-119.5 9.5h-14l-220 -1315h189l-8 -59h-719l10 59h189l219 1315h-15q-125 0 -202 -37.5t-135.5 -126t-125.5 -264.5h-55l105 488h1220zM1202 1833l-272 -279q-66 -32 -119 -32t-80.5 20t-48.5 62
l-113 231l25 23l258 -146l332 146z" />
    <glyph glyph-name="tcaron" unicode="&#x165;" horiz-adv-x="823" 
d="M782 934h-217l-86 -438q-43 -227 -43 -308q0 -39 21 -62.5t63 -23.5q47 0 90 37t97 117l51 -35q-68 -112 -156.5 -178t-214.5 -66q-65 0 -115.5 14.5t-82 38t-52.5 56t-29 67t-8 72.5q0 86 39 281l82 428h-147l6 53h149l35 207l324 72h33l-48 -279h215zM676 1063l-29 41
q84 61 114 112t30 113q0 43 -13 72t-45 53l31 33q53 57 117 57q52 0 79 -32.5t27 -90.5q0 -42 -20 -85.5t-48 -77t-74 -72.5t-81.5 -64t-87.5 -59z" />
    <glyph glyph-name="Tbar" unicode="&#x166;" horiz-adv-x="1339" 
d="M1417 1434l-59 -488h-55q-4 110 -18 185t-37 123.5t-62.5 74.5t-87 35.5t-119.5 9.5h-14l-99 -590h332l-10 -59h-332l-111 -666h189l-8 -59h-719l10 59h189l110 666h-334l11 59h333l99 590h-15q-125 0 -202 -37.5t-135.5 -126t-125.5 -264.5h-55l105 488h1220z" />
    <glyph glyph-name="tbar" unicode="&#x167;" horiz-adv-x="790" 
d="M782 934h-217l-59 -303h225l-8 -53h-227l-17 -82q-43 -227 -43 -308q0 -39 21 -62.5t63 -23.5q47 0 90 37t97 117l51 -35q-68 -112 -156.5 -178t-214.5 -66q-65 0 -115.5 14.5t-82 38t-52.5 56t-29 67t-8 72.5q0 86 39 281l13 72h-138l9 53h139l59 303h-147l6 53h149
l35 207l324 72h33l-48 -279h215z" />
    <glyph glyph-name="Utilde" unicode="&#x168;" horiz-adv-x="1404" 
d="M750 61q-121 0 -181.5 63.5t-60.5 180.5q0 64 12 131l156 938h135l8 60h-602l-10 -60h129l-146 -852q-16 -101 -16 -172q0 -104 33.5 -178t97.5 -116t145 -60.5t187 -18.5q141 0 241 30.5t165 95t101.5 150.5t57.5 210l152 911h116l11 60h-342l-9 -60h142l-152 -917
q-18 -111 -56.5 -191t-90 -123t-106.5 -62.5t-117 -19.5zM1038 1573q-74 0 -182 49q-75 33 -117 33q-73 0 -123 -86l-36 12q62 135 121 197.5t151 62.5q13 0 25 -1t26.5 -5t22 -5.5t26 -9t21.5 -9t25.5 -11.5t23.5 -10q76 -31 111 -31q40 0 70.5 16.5t56.5 69.5l40 -10
q-60 -143 -123 -202.5t-139 -59.5z" />
    <glyph glyph-name="utilde" unicode="&#x169;" horiz-adv-x="1292" 
d="M106 293q63 343 127 641h-143l8 53h488q-69 -292 -160 -754q-5 -34 -6 -60.5t16.5 -43t55.5 -16.5q65 0 126.5 87.5t103.5 219.5t69 279t32 272q52 -2 192.5 6t180.5 16q-116 -552 -147 -798q-3 -35 -4 -62.5t11.5 -45t41.5 -17.5q62 0 131 96l45 -33
q-60 -85 -128.5 -120.5t-160.5 -35.5q-322 0 -215 353l-12 4q-24 -58 -48 -104.5t-61.5 -95.5t-80.5 -82t-104 -54t-132 -21q-134 0 -193 89.5t-33 226.5zM858 1188q-74 0 -182 49q-75 33 -117 33q-73 0 -123 -86l-37 12q61 134 121 197t152 63q13 0 25 -1t26.5 -5t22 -5.5
t26 -9t21.5 -9t25.5 -11.5t23.5 -10q76 -31 110 -31q40 0 70.5 16.5t56.5 69.5l41 -10q-60 -143 -123 -202.5t-139 -59.5z" />
    <glyph glyph-name="Umacron" unicode="&#x16a;" horiz-adv-x="1404" 
d="M750 61q-121 0 -181.5 63.5t-60.5 180.5q0 64 12 131l156 938h135l8 60h-602l-10 -60h129l-146 -852q-16 -101 -16 -172q0 -104 33.5 -178t97.5 -116t145 -60.5t187 -18.5q141 0 241 30.5t165 95t101.5 150.5t57.5 210l152 911h116l11 60h-342l-9 -60h142l-152 -917
q-18 -111 -56.5 -191t-90 -123t-106.5 -62.5t-117 -19.5zM616 1591l31 172h557l-30 -172h-558z" />
    <glyph glyph-name="umacron" unicode="&#x16b;" horiz-adv-x="1292" 
d="M106 293q63 343 127 641h-143l8 53h488q-69 -292 -160 -754q-5 -34 -6 -60.5t16.5 -43t55.5 -16.5q65 0 126.5 87.5t103.5 219.5t69 279t32 272q52 -2 192.5 6t180.5 16q-116 -552 -147 -798q-3 -35 -4 -62.5t11.5 -45t41.5 -17.5q62 0 131 96l45 -33
q-60 -85 -128.5 -120.5t-160.5 -35.5q-322 0 -215 353l-12 4q-24 -58 -48 -104.5t-61.5 -95.5t-80.5 -82t-104 -54t-132 -21q-134 0 -193 89.5t-33 226.5zM442 1190l31 172h557l-31 -172h-557z" />
    <glyph glyph-name="Ubreve" unicode="&#x16c;" horiz-adv-x="1404" 
d="M750 61q62 0 117 19.5t106.5 62.5t90 123t56.5 191l152 917h-142l9 60h342l-11 -60h-116l-152 -911q-21 -124 -57.5 -210t-101.5 -150.5t-165 -95t-241 -30.5q-106 0 -187 18.5t-145 60.5t-97.5 116t-33.5 178q0 71 16 172l146 852h-129l10 60h602l-8 -60h-135l-156 -938
q-12 -67 -12 -131q0 -117 60.5 -180.5t181.5 -63.5zM647 1798l37 6q20 -64 69.5 -91t164.5 -27q105 0 167 31t99 100l39 -7q-16 -61 -42 -112t-66.5 -95.5t-100.5 -70t-133 -25.5q-67 0 -115.5 23t-74.5 64.5t-36.5 92t-7.5 111.5z" />
    <glyph glyph-name="ubreve" unicode="&#x16d;" horiz-adv-x="1292" 
d="M106 293q63 343 127 641h-143l8 53h488q-69 -292 -160 -754q-5 -34 -6 -60.5t16.5 -43t55.5 -16.5q65 0 126.5 87.5t103.5 219.5t69 279t32 272q52 -2 192.5 6t180.5 16q-116 -552 -147 -798q-3 -35 -4 -62.5t11.5 -45t41.5 -17.5q62 0 131 96l45 -33
q-60 -85 -128.5 -120.5t-160.5 -35.5q-322 0 -215 353l-12 4q-24 -58 -48 -104.5t-61.5 -95.5t-80.5 -82t-104 -54t-132 -21q-134 0 -193 89.5t-33 226.5zM475 1456l43 8q14 -74 69 -111.5t167 -37.5q101 0 170 38t100 107l43 -8q-18 -71 -46.5 -129.5t-71 -107.5t-104 -76
t-136.5 -27q-71 0 -121 27.5t-76 76.5t-35 109t-2 131z" />
    <glyph glyph-name="Uring" unicode="&#x16e;" horiz-adv-x="1404" 
d="M750 61q-121 0 -181.5 63.5t-60.5 180.5q0 64 12 131l156 938h135l8 60h-602l-10 -60h129l-146 -852q-16 -101 -16 -172q0 -104 33.5 -178t97.5 -116t145 -60.5t187 -18.5q141 0 241 30.5t165 95t101.5 150.5t57.5 210l152 911h116l11 60h-342l-9 -60h142l-152 -917
q-18 -111 -56.5 -191t-90 -123t-106.5 -62.5t-117 -19.5zM948 1825q-57 0 -96 -39.5t-39 -97.5q0 -42 23.5 -71.5t72.5 -29.5q60 0 97.5 38.5t37.5 96.5q0 44 -24 73.5t-72 29.5zM739 1673q0 91 63.5 150t162.5 59q75 0 115 -39t40 -102q0 -95 -61.5 -154t-161.5 -59
q-80 0 -119 40t-39 105z" />
    <glyph glyph-name="uring" unicode="&#x16f;" horiz-adv-x="1292" 
d="M106 293q63 343 127 641h-143l8 53h488q-69 -292 -160 -754q-5 -34 -6 -60.5t16.5 -43t55.5 -16.5q65 0 126.5 87.5t103.5 219.5t69 279t32 272q52 -2 192.5 6t180.5 16q-116 -552 -147 -798q-3 -35 -4 -62.5t11.5 -45t41.5 -17.5q62 0 131 96l45 -33
q-60 -85 -128.5 -120.5t-160.5 -35.5q-322 0 -215 353l-12 4q-24 -58 -48 -104.5t-61.5 -95.5t-80.5 -82t-104 -54t-132 -21q-134 0 -193 89.5t-33 226.5zM766 1438q-57 0 -96 -40t-39 -98q0 -41 23.5 -70.5t72.5 -29.5q60 0 97.5 38.5t37.5 96.5q0 44 -24 73.5t-72 29.5z
M557 1286q0 91 63 150t162 59q75 0 115.5 -39t40.5 -102q0 -95 -61.5 -154t-161.5 -59q-80 0 -119 40t-39 105z" />
    <glyph glyph-name="Uhungarumlaut" unicode="&#x170;" horiz-adv-x="1404" 
d="M750 61q-121 0 -181.5 63.5t-60.5 180.5q0 64 12 131l156 938h135l8 60h-602l-10 -60h129l-146 -852q-16 -101 -16 -172q0 -104 33.5 -178t97.5 -116t145 -60.5t187 -18.5q141 0 241 30.5t165 95t101.5 150.5t57.5 210l152 911h116l11 60h-342l-9 -60h142l-152 -917
q-18 -111 -56.5 -191t-90 -123t-106.5 -62.5t-117 -19.5zM670 1530l139 385l88 16q56 9 92.5 -14t36.5 -68q0 -33 -14 -57t-45 -51l-265 -232zM991 1536l172 371l90 6q55 3 87 -19.5t32 -64.5q0 -65 -69 -113l-285 -203z" />
    <glyph glyph-name="uhungarumlaut" unicode="&#x171;" horiz-adv-x="1292" 
d="M106 293q63 343 127 641h-143l8 53h488q-69 -292 -160 -754q-5 -34 -6 -60.5t16.5 -43t55.5 -16.5q65 0 126.5 87.5t103.5 219.5t69 279t32 272q52 -2 192.5 6t180.5 16q-116 -552 -147 -798q-3 -35 -4 -62.5t11.5 -45t41.5 -17.5q62 0 131 96l45 -33
q-60 -85 -128.5 -120.5t-160.5 -35.5q-322 0 -215 353l-12 4q-24 -58 -48 -104.5t-61.5 -95.5t-80.5 -82t-104 -54t-132 -21q-134 0 -193 89.5t-33 226.5zM838 1151l161 391l113 31q42 12 80.5 -6.5t38.5 -65.5q0 -58 -70 -121l-289 -250zM504 1147l151 395l113 31
q42 12 80.5 -6.5t38.5 -65.5q0 -54 -70 -121l-276 -256z" />
    <glyph glyph-name="Uogonek" unicode="&#x172;" horiz-adv-x="1404" 
d="M750 61q62 0 117 19.5t106.5 62.5t90 123t56.5 191l152 917h-142l9 60h342l-11 -60h-116l-152 -911q-29 -174 -98.5 -275.5t-206.5 -177.5q-86 -47 -148.5 -142t-62.5 -175q0 -76 68 -76q59 0 120 90l44 -26q-88 -185 -289 -185q-95 0 -146 42.5t-51 123.5
q0 100 77.5 173.5t221.5 146.5q-77 -5 -94 -5q-106 0 -187 18.5t-145 60.5t-97.5 116t-33.5 178q0 71 16 172l146 852h-129l10 60h602l-8 -60h-135l-156 -938q-12 -67 -12 -131q0 -117 60.5 -180.5t181.5 -63.5z" />
    <glyph glyph-name="uogonek" unicode="&#x173;" horiz-adv-x="1292" 
d="M106 293q63 343 127 641h-143l8 53h488q-69 -292 -160 -754q-5 -34 -6 -60.5t16.5 -43t55.5 -16.5q65 0 126.5 87.5t103.5 219.5t69 279t32 272q52 -2 192.5 6t180.5 16q-116 -552 -147 -798q-3 -35 -4 -62.5t11.5 -45t41.5 -17.5q62 0 131 96l45 -33q-53 -76 -158 -141
q-80 -49 -132 -135t-52 -164q0 -76 67 -76q60 0 121 90l43 -26q-88 -185 -289 -185q-94 0 -145 42.5t-51 123.5q0 52 21.5 97.5t64 84t90.5 69t115 64.5q-303 9 -199 353l-12 4q-24 -58 -48 -104.5t-61.5 -95.5t-80.5 -82t-104 -54t-132 -21q-134 0 -193 89.5t-33 226.5z
" />
    <glyph glyph-name="Wcircumflex" unicode="&#x174;" horiz-adv-x="1982" 
d="M1231 0l-158 883l-432 -883h-219l-223 1374h-117l8 60h586l-8 -60h-119l180 -1046l324 671l-66 375h-127l10 60h611l-11 -60h-133l183 -1046l440 1046h-156l11 60h352l-10 -60h-115l-582 -1374h-229zM856 1530l272 274q68 33 119 33q53 0 80.5 -20t48.5 -62l113 -231
l-25 -23l-250 139l-340 -139z" />
    <glyph glyph-name="wcircumflex" unicode="&#x175;" horiz-adv-x="1669" 
d="M1028 205q-11 -73 7.5 -104t82.5 -31q99 0 194 89t152.5 223.5t57.5 264.5q0 53 -26.5 98t-72.5 46l-57 -82q-57 17 -90 55.5t-33 85.5q0 75 42.5 116.5t125.5 41.5q55 0 97 -26t65 -67.5t34 -85t11 -86.5q0 -79 -16 -164t-47 -171.5t-82 -163.5t-116 -137t-154 -95
t-191 -35q-86 0 -164.5 26.5t-126.5 88.5q-132 -115 -324 -115q-66 0 -119 20t-92 60t-54 108t-1 157q19 114 94 475q12 41 11 74.5t-27 33.5q-62 0 -148 -117l-51 35q41 62 82.5 101t86.5 56.5t82 22.5t91 5q122 0 182.5 -72t38.5 -193q-16 -83 -51 -252t-51 -253
q-16 -74 -1 -119t71 -45q39 0 74 19.5t83 62.5q-5 45 11 127q104 490 133 690q49 -2 179.5 7.5t170.5 18.5q-113 -473 -164 -794zM705 1130l217 343q17 11 58.5 24.5t76.5 13.5q54 0 81.5 -20.5t39.5 -67.5l73 -299l-30 -16l-195 201l-295 -207z" />
    <glyph glyph-name="Ycircumflex" unicode="&#x176;" horiz-adv-x="1206" 
d="M774 743l426 631h-135l10 60h318l-11 -60h-100l-485 -719l-103 -596h166l-10 -59h-670l10 59h164l99 592l-244 723h-125l10 60h641l-10 -60h-150zM471 1530l272 274q68 33 119 33q53 0 80.5 -20t48.5 -62l113 -231l-25 -23l-250 139l-340 -139z" />
    <glyph glyph-name="ycircumflex" unicode="&#x177;" horiz-adv-x="1122" 
d="M1096 780q0 -237 -326 -688q-22 -30 -64 -88.5t-65 -90t-62.5 -83t-65.5 -81t-65 -71t-69.5 -65t-71 -51t-77.5 -41.5t-80.5 -23.5t-88.5 -9.5q-122 0 -186.5 61t-64.5 172q0 89 54.5 143t133.5 54q78 0 123.5 -56t19.5 -159l-100 -14q-20 -26 -23.5 -56.5t16 -53.5
t60.5 -23q177 0 410 303q-170 629 -242 872q-20 70 -36 96.5t-44 26.5q-30 0 -52.5 -29.5t-57.5 -109.5l-62 24q21 50 37.5 82.5t45 71.5t60.5 61.5t79.5 38t105.5 15.5q98 0 156.5 -48t89.5 -153q76 -258 170 -619q221 330 221 467q0 90 -72 97l-63 -86q-58 19 -95.5 64.5
t-37.5 98.5q0 85 53 132t133 47q94 0 148.5 -61t54.5 -167zM362 1130l218 343q17 11 58.5 24.5t76.5 13.5q54 0 81.5 -20.5t39.5 -67.5l73 -299l-30 -16l-195 201l-295 -207z" />
    <glyph glyph-name="Ydieresis" unicode="&#x178;" horiz-adv-x="1206" 
d="M774 743l426 631h-135l10 60h318l-11 -60h-100l-485 -719l-103 -596h166l-10 -59h-670l10 59h164l99 592l-244 723h-125l10 60h641l-10 -60h-150zM655 1812q59 0 94 -27t35 -81q0 -76 -50 -127t-128 -51q-66 0 -97.5 36t-31.5 87q0 72 53 117.5t125 45.5zM1069 1812
q59 0 94 -27t35 -81q0 -76 -50 -127t-128 -51q-67 0 -98 34.5t-31 84.5q0 76 53.5 121.5t124.5 45.5z" />
    <glyph glyph-name="Zacute" unicode="&#x179;" horiz-adv-x="1212" 
d="M1255 1434l-10 -60l-854 -1315h193q156 0 286.5 108t202.5 322h57l-100 -489h-1048l8 53l891 1321h-179q-80 0 -135 -8t-108.5 -31t-94.5 -66t-80.5 -110.5t-78.5 -167.5h-53l96 443h1007zM567 1530l254 350l88 -18q57 -11 77 -32.5t20 -60.5q0 -37 -22.5 -63t-70.5 -49
l-321 -156z" />
    <glyph glyph-name="zacute" unicode="&#x17a;" horiz-adv-x="1105" 
d="M242 231l438 426q-48 5 -143.5 15t-161 16t-103.5 8q-55 3 -76.5 -19.5t-50.5 -103.5l-51 11q44 166 95.5 259.5t109.5 129t141 35.5q106 0 213 -80l176 -123q9 90 55.5 142t104.5 52q45 0 76 -22t31 -72q0 -60 -58 -103.5t-168 -47.5l-442 -432q243 -15 412 -19
q61 -2 90.5 25.5t62.5 124.5l51 -9q-28 -131 -67 -224t-85.5 -145t-96.5 -75t-109 -23q-57 0 -102 18t-109 58l-194 123q-18 -98 -61 -145t-101 -47q-60 0 -85.5 30t-25.5 74q0 64 67 107t167 36zM516 1126l176 392l117 24q43 9 80 -10.5t37 -67.5q0 -56 -64 -108l-311 -254
z" />
    <glyph glyph-name="Zdotaccent" unicode="&#x17b;" horiz-adv-x="1212" 
d="M1255 1434l-10 -60l-854 -1315h193q156 0 286.5 108t202.5 322h57l-100 -489h-1048l8 53l891 1321h-179q-80 0 -135 -8t-108.5 -31t-94.5 -66t-80.5 -110.5t-78.5 -167.5h-53l96 443h1007zM815 1872q81 0 126.5 -37t45.5 -109q0 -92 -68.5 -147t-168.5 -55
q-93 0 -134 41.5t-41 101.5q0 93 68.5 149t171.5 56z" />
    <glyph glyph-name="zdotaccent" unicode="&#x17c;" horiz-adv-x="1105" 
d="M242 231l438 426q-48 5 -143.5 15t-161 16t-103.5 8q-55 3 -76.5 -19.5t-50.5 -103.5l-51 11q44 166 95.5 259.5t109.5 129t141 35.5q106 0 213 -80l176 -123q9 90 55.5 142t104.5 52q45 0 76 -22t31 -72q0 -60 -58 -103.5t-168 -47.5l-442 -432q243 -15 412 -19
q61 -2 90.5 25.5t62.5 124.5l51 -9q-28 -131 -67 -224t-85.5 -145t-96.5 -75t-109 -23q-57 0 -102 18t-109 58l-194 123q-18 -98 -61 -145t-101 -47q-60 0 -85.5 30t-25.5 74q0 64 67 107t167 36zM721 1483q81 0 126.5 -37t45.5 -109q0 -92 -68.5 -147t-169.5 -55
q-93 0 -133.5 41.5t-40.5 101.5q0 93 68.5 149t171.5 56z" />
    <glyph glyph-name="Zcaron" unicode="&#x17d;" horiz-adv-x="1212" 
d="M1255 1434l-10 -60l-854 -1315h193q156 0 286.5 108t202.5 322h57l-100 -489h-1048l8 53l891 1321h-179q-80 0 -135 -8t-108.5 -31t-94.5 -66t-80.5 -110.5t-78.5 -167.5h-53l96 443h1007zM1139 1833l-273 -279q-66 -32 -118 -32q-53 0 -81 20t-49 62l-112 231l24 23
l258 -146l332 146z" />
    <glyph glyph-name="zcaron" unicode="&#x17e;" horiz-adv-x="1105" 
d="M242 231l438 426q-48 5 -143.5 15t-161 16t-103.5 8q-55 3 -76.5 -19.5t-50.5 -103.5l-51 11q44 166 95.5 259.5t109.5 129t141 35.5q106 0 213 -80l176 -123q9 90 55.5 142t104.5 52q45 0 76 -22t31 -72q0 -60 -58 -103.5t-168 -47.5l-442 -432q243 -15 412 -19
q61 -2 90.5 25.5t62.5 124.5l51 -9q-28 -131 -67 -224t-85.5 -145t-96.5 -75t-109 -23q-57 0 -102 18t-109 58l-194 123q-18 -98 -61 -145t-101 -47q-60 0 -85.5 30t-25.5 74q0 64 67 107t167 36zM545 1149l-121 348l29 21l229 -209l283 211l24 -25l-170 -291
q-52 -88 -164 -88q-34 0 -66 11.5t-44 21.5z" />
    <glyph glyph-name="longs" unicode="&#x17f;" horiz-adv-x="729" 
d="M63 -66l199 1135q42 244 181 379t370 135q78 0 145.5 -23.5t114.5 -77.5t47 -130q0 -87 -51.5 -140t-128.5 -53q-94 0 -133 66.5t2 146.5l86 10q23 50 17.5 83.5t-29 50t-58.5 16.5q-36 0 -64.5 -17.5t-48 -47t-36.5 -83t-29 -109t-26 -140.5l-203 -1135
q-46 -251 -179.5 -382.5t-371.5 -131.5q-53 0 -103.5 12.5t-95 37.5t-71.5 69.5t-27 101.5q0 86 54 143.5t140 57.5q89 0 125.5 -65.5t-0.5 -151.5l-84 -10q-29 -63 -11.5 -98.5t73.5 -35.5q30 0 54 11t42.5 37.5t32 55t26 78.5t21 92.5t20.5 112.5z" />
    <glyph glyph-name="florin" unicode="&#x192;" horiz-adv-x="1132" 
d="M942 831l-18 -65h-258l-131 -729q-84 -469 -545 -469q-140 0 -227 66t-87 169q0 87 45 140t136 53q69 0 105 -41t36 -107q0 -21 -12 -75h-72q-29 -73 -8.5 -111.5t82.5 -38.5q69 0 101.5 63.5t64.5 243.5l147 836h-149l14 65h147l25 154q17 99 56 182t102 149t157.5 103
t212.5 37q156 0 247 -62.5t91 -170.5q0 -74 -41.5 -125t-120.5 -51q-82 0 -119.5 39.5t-37.5 107.5q0 31 10 76h72q17 57 -7 95t-71 38q-27 0 -47.5 -7t-36 -26.5t-26 -39.5t-21 -61.5t-17.5 -77t-18 -99.5l-43 -261h262z" />
    <glyph glyph-name="Aringacute" unicode="&#x1fa;" horiz-adv-x="1331" 
d="M668 1556q0 91 63 150t162 59q75 0 115.5 -39t40.5 -102q0 -65 -31 -115t-84 -75l213 -1375h123l-8 -59h-617l8 59h123l-55 418h-410l-215 -418h152l-8 -59h-342l8 59h114l709 1375q-61 35 -61 122zM639 1114l-299 -577h375zM702 1815l254 350l88 -19q57 -11 77 -32
t20 -60q0 -37 -22.5 -63.5t-69.5 -48.5l-322 -156zM877 1708q-57 0 -96.5 -39.5t-39.5 -97.5q0 -41 24 -71t73 -30q60 0 97.5 39t37.5 97q0 43 -24 72.5t-72 29.5z" />
    <glyph glyph-name="aringacute" unicode="&#x1fb;" horiz-adv-x="1243" 
d="M1155 997q-6 -29 -29.5 -144t-33 -163.5t-27 -141.5t-30.5 -172t-25 -161q-11 -62 -5 -94t18 -41.5t36 -9.5q27 0 61 23t68 73l45 -33q-102 -156 -275 -156q-277 0 -221 261l-10 2q-45 -123 -133 -193t-219 -70q-326 0 -326 383q0 101 19.5 195t60.5 176.5t99.5 144
t143 97t185.5 35.5q99 0 152 -40t84 -110l30 125q228 -5 332 14zM489 70q96 0 171.5 154.5t99.5 428.5q12 133 -24.5 205t-106.5 72q-99 0 -163.5 -165.5t-84.5 -485.5q-4 -34 -0.5 -70.5t12 -67.5t33 -51t63.5 -20zM737 1364q-57 0 -96 -39.5t-39 -97.5q0 -42 23.5 -71.5
t72.5 -29.5q60 0 98 39t38 97q0 43 -24.5 72.5t-72.5 29.5zM528 1212q0 91 63.5 150t162.5 59q75 0 115 -39t40 -102q0 -95 -61.5 -154t-161.5 -59q-80 0 -119 40t-39 105zM575 1464l254 351l89 -19q57 -11 76.5 -32t19.5 -60q0 -37 -22.5 -64t-69.5 -49l-322 -155z" />
    <glyph glyph-name="AEacute" unicode="&#x1fc;" horiz-adv-x="1978" 
d="M780 1434h1209l-47 -400h-48q-21 135 -62.5 207.5t-115 102.5t-200.5 30h-111l-105 -626h72q192 0 285 262h47l-100 -607h-52q-6 156 -52.5 217.5t-158.5 61.5h-51l-94 -623h102q375 0 527 381h55l-90 -440h-1088l11 59h131l102 619h-409l-424 -619h153l-10 -59h-338
l10 59h105l897 1315h-160zM1063 1374h-53l-430 -631h378zM1292 1530l254 350l88 -18q57 -11 77 -32.5t20 -60.5q0 -37 -22.5 -63t-70.5 -49l-321 -156z" />
    <glyph glyph-name="aeacute" unicode="&#x1fd;" horiz-adv-x="1658" 
d="M1315 1008q-64 0 -209 -17t-283 -14l-30 -119q-31 70 -84 110t-152 40q-101 0 -185.5 -35.5t-143 -97t-99.5 -144t-60.5 -176.5t-19.5 -195q0 -383 326 -383q128 0 225.5 76.5t144.5 196.5q22 -131 112 -202t249 -71q184 0 297 84t176 269l-55 18q-48 -138 -123 -205
t-166 -67q-88 0 -130 62t-42 212q0 24 4 94q49 2 94 5.5t106 13t111.5 24t102.5 39.5t87.5 58t58 81.5t22.5 106.5q0 113 -86 174.5t-248 61.5zM492 70q-59 0 -85 38.5t-26 124.5q0 78 4 119q25 293 85 435.5t159 142.5q70 0 106.5 -72t24.5 -205q-24 -275 -98.5 -429
t-169.5 -154zM1368 803q0 -67 -16 -118t-42.5 -82.5t-66.5 -52.5t-80 -31t-92 -15q20 191 77 314.5t138 123.5q82 0 82 -139zM811 1126l176 392l117 24q43 9 80 -10.5t37 -67.5q0 -56 -64 -108l-311 -254z" />
    <glyph glyph-name="Oslashacute" unicode="&#x1fe;" horiz-adv-x="1415" 
d="M76 522q0 143 30 277.5t94 254t155.5 209t223 141.5t287.5 52q99 0 172 -20l86 168l66 -33l-80 -158q270 -114 270 -510q0 -138 -28.5 -269t-91 -250.5t-152 -208.5t-221 -142t-289.5 -53q-107 0 -203 26l-94 -184l-68 33l93 180q-125 60 -187.5 185t-62.5 302zM1004 717
q45 270 45 403q0 87 -17 142l-579 -1141q47 -78 163 -78q60 0 107 16.5t84 55.5t64.5 89t51.5 131.5t42 168.5t39 213zM412 336q0 -70 8 -117l571 1122q-52 52 -147 52q-48 0 -87.5 -9.5t-72 -33t-57.5 -51.5t-47 -76t-38.5 -95.5t-33.5 -121.5t-29.5 -141.5t-29.5 -166.5
q-37 -206 -37 -362zM684 1530l254 350l88 -18q57 -11 76.5 -32.5t19.5 -60.5q0 -37 -22.5 -63.5t-69.5 -48.5l-321 -156z" />
    <glyph glyph-name="oslashacute" unicode="&#x1ff;" horiz-adv-x="1095" 
d="M41 365q0 133 38.5 249t111.5 204t187 139t255 51q59 0 112 -9l91 179l55 -25l-84 -168q233 -71 233 -360q0 -300 -159 -474t-428 -174q-75 0 -136 15l-84 -172l-57 28l80 160q-215 79 -215 357zM696 489q31 202 31 295q0 23 -2 35l-360 -731q24 -61 100 -61
q95 0 140.5 97t90.5 365zM383 492q-33 -196 -33 -293l352 712q-24 47 -84 47q-50 0 -86.5 -28.5t-63.5 -93t-45.5 -142t-39.5 -202.5zM492 1126l176 392l116 24q43 9 80 -10.5t37 -67.5q0 -57 -63 -108l-312 -254z" />
    <glyph glyph-name="Scommaaccent" unicode="&#x218;" horiz-adv-x="1130" 
d="M510 39q133 0 207 71t74 197q0 25 -3.5 47t-13.5 41t-18.5 34.5t-27.5 31t-30.5 26t-38.5 23.5t-40.5 20t-46 20t-46.5 18t-51 18q-30 11 -50.5 19.5t-54.5 27t-57.5 38t-51.5 51t-45 67.5t-28.5 86.5t-11.5 109.5q0 109 40 199t108.5 149t157.5 91t188 32
q63 0 121 -13.5t91.5 -29.5t63 -29.5t41.5 -13.5q4 0 8 1t8 3.5t7 4.5t7 7t6.5 7.5t7 9.5t6.5 10.5t7 12t7 12.5h49l-64 -439h-51q-37 398 -297 398q-120 0 -196 -60.5t-76 -169.5q0 -46 15 -83.5t35.5 -61.5t55.5 -45t61.5 -32t67.5 -25q147 -51 206 -85q156 -89 184 -259
q6 -39 6 -84q0 -156 -73.5 -275t-192.5 -179.5t-261 -60.5q-71 0 -141.5 14.5t-114 32t-82 32t-53.5 14.5q-4 0 -8.5 -1t-8 -4.5t-7 -6.5t-7.5 -9t-7 -11t-7 -14t-7.5 -15t-8.5 -17t-9 -19h-49l74 494h49q9 -200 102.5 -314t274.5 -114zM371 -592l-27 43q162 89 162 178
q0 45 -35 62l-68 -68q-30 12 -54.5 44.5t-24.5 72.5q0 66 42.5 104.5t110.5 38.5q72 0 111 -47t39 -110q0 -99 -64 -174.5t-192 -143.5z" />
    <glyph glyph-name="scommaaccent" unicode="&#x219;" horiz-adv-x="991" 
d="M377 41q119 0 172 43.5t53 112.5q0 38 -15 66.5t-48.5 50t-61.5 34t-78 30.5q-9 3 -14 5q-45 17 -73.5 29.5t-65.5 36.5t-58.5 51.5t-37 69.5t-15.5 94q0 107 64 186t172 118.5t243 39.5q54 0 102 -6t94.5 -22t80 -39.5t54 -61.5t20.5 -86q0 -69 -43.5 -111.5
t-120.5 -42.5q-55 0 -94 26.5t-39 69.5q0 56 30 94h66q50 119 -127 119q-108 0 -165.5 -41t-57.5 -106q0 -35 15 -62.5t48 -49.5t61.5 -35.5t77.5 -32.5q128 -50 176 -82q111 -74 111 -197q0 -173 -143 -269t-369 -96q-173 0 -272 59t-99 167q0 78 46.5 122t123.5 44
q81 0 115.5 -60.5t-6.5 -142.5h-78q-20 -55 18 -90t138 -35zM305 -592l-26 43q161 89 161 178q0 45 -34 62l-68 -68q-31 12 -55.5 44.5t-24.5 72.5q0 66 43 104.5t111 38.5q72 0 110.5 -47t38.5 -110q0 -99 -64 -174.5t-192 -143.5z" />
    <glyph glyph-name="uni021A" unicode="&#x21a;" horiz-adv-x="1339" 
d="M1417 1434l-59 -488h-55q-4 110 -18 185t-37 123.5t-62.5 74.5t-87 35.5t-119.5 9.5h-14l-220 -1315h189l-8 -59h-719l10 59h189l219 1315h-15q-125 0 -202 -37.5t-135.5 -126t-125.5 -264.5h-55l105 488h1220zM426 -592l-27 43q162 89 162 178q0 45 -35 62l-67 -68
q-31 12 -55.5 44.5t-24.5 72.5q0 66 42.5 104.5t110.5 38.5q72 0 111 -47t39 -110q0 -99 -64 -174.5t-192 -143.5z" />
    <glyph glyph-name="uni021B" unicode="&#x21b;" horiz-adv-x="790" 
d="M782 934h-217l-86 -438q-43 -227 -43 -308q0 -39 21 -62.5t63 -23.5q47 0 90 37t97 117l51 -35q-68 -112 -156.5 -178t-214.5 -66q-65 0 -115.5 14.5t-82 38t-52.5 56t-29 67t-8 72.5q0 86 39 281l82 428h-147l6 53h149l35 207l324 72h33l-48 -279h215zM227 -592l-26 43
q161 89 161 178q0 45 -34 62l-68 -68q-31 12 -55.5 44.5t-24.5 72.5q0 66 43 104.5t111 38.5q72 0 110.5 -47t38.5 -110q0 -99 -64 -174.5t-192 -143.5z" />
    <glyph glyph-name="dotlessj" unicode="&#x237;" horiz-adv-x="667" 
d="M584 987l-162 -987q-84 -512 -549 -512q-127 0 -217 61.5t-90 174.5q0 85 54.5 140.5t141.5 55.5q89 0 127 -69t-4 -152l-82 -14q-23 -73 -3.5 -104.5t73.5 -31.5q30 0 54.5 12.5t43.5 39.5t33.5 58.5t26.5 79t20.5 91t18.5 104.5l161 1000h-170l11 53h512z" />
    <glyph glyph-name="apostrophe" unicode="&#x2bc;" horiz-adv-x="432" 
d="M139 999l-26 43q161 89 161 179q0 44 -34 61l-68 -68q-31 12 -55.5 44.5t-24.5 72.5q0 66 43 105t111 39q72 0 110.5 -47.5t38.5 -110.5q0 -99 -64 -174.5t-192 -143.5z" />
    <glyph glyph-name="circumflex" unicode="&#x2c6;" horiz-adv-x="1024" 
d="M442 1130l217 343q17 11 59 24.5t77 13.5q54 0 81 -20t39 -68l74 -299l-31 -16l-194 201l-295 -207z" />
    <glyph glyph-name="caron" unicode="&#x2c7;" horiz-adv-x="1024" 
d="M608 1149l-121 348l29 21l229 -209l283 211l25 -25l-170 -291q-52 -88 -164 -88q-34 0 -66.5 11.5t-44.5 21.5z" />
    <glyph glyph-name="uni02C9" unicode="&#x2c9;" horiz-adv-x="1024" 
d="M446 1190l33 172h557l-32 -172h-558z" />
    <glyph glyph-name="breve" unicode="&#x2d8;" horiz-adv-x="1024" 
d="M477 1456l43 8q14 -74 69 -111.5t167 -37.5q101 0 170 38t100 107l43 -8q-18 -71 -46.5 -129.5t-71 -107.5t-104 -76t-136.5 -27q-71 0 -121 27.5t-76 76.5t-35 109t-2 131z" />
    <glyph glyph-name="dotaccent" unicode="&#x2d9;" horiz-adv-x="1024" 
d="M764 1483q81 0 126.5 -37t45.5 -109q0 -92 -68.5 -147t-169.5 -55q-93 0 -133.5 41.5t-40.5 101.5q0 93 68.5 149t171.5 56z" />
    <glyph glyph-name="ring" unicode="&#x2da;" horiz-adv-x="1024" 
d="M756 1438q-57 0 -96 -40t-39 -98q0 -41 23.5 -70.5t72.5 -29.5q60 0 97.5 38.5t37.5 96.5q0 44 -24 73.5t-72 29.5zM547 1286q0 91 63 150t162 59q75 0 115.5 -39t40.5 -102q0 -95 -61.5 -154t-161.5 -59q-80 0 -119 40t-39 105z" />
    <glyph glyph-name="ogonek" unicode="&#x2db;" horiz-adv-x="1024" 
d="M567 29l43 -6l13 -13q-82 -69 -139.5 -155.5t-57.5 -161.5q0 -76 68 -76q59 0 120 90l43 -26q-88 -185 -288 -185q-95 0 -146 42.5t-51 123.5q0 36 12 69.5t29.5 60.5t50 55.5t60.5 49t75 46.5t80 42.5t88 43.5z" />
    <glyph glyph-name="tilde" unicode="&#x2dc;" horiz-adv-x="1024" 
d="M844 1188q-74 0 -182 49q-75 33 -117 33q-73 0 -123 -86l-37 12q62 135 121 197.5t151 62.5q13 0 25 -1t26.5 -5t22 -5.5t26 -9t21.5 -9t25.5 -11.5t23.5 -10q76 -31 111 -31q40 0 70.5 16.5t56.5 69.5l41 -10q-60 -143 -123 -202.5t-139 -59.5z" />
    <glyph glyph-name="hungarumlaut" unicode="&#x2dd;" horiz-adv-x="1024" 
d="M745 1151l162 391l113 31q42 12 80.5 -6.5t38.5 -65.5q0 -58 -70 -121l-289 -250zM412 1147l151 395l113 31q42 12 80.5 -6.5t38.5 -65.5q0 -54 -70 -121l-276 -256z" />
    <glyph glyph-name="uni0394" unicode="&#x394;" horiz-adv-x="1419" 
d="M1247 0h-1278l838 1466h168zM649 1083l-567 -991h717z" />
    <glyph glyph-name="uni03A9" unicode="&#x3a9;" horiz-adv-x="1775" 
d="M877 0l36 215q51 40 78 62.5t60 59t50.5 70.5t38.5 89t36 123.5t30 164.5q37 228 37 326q0 64 -10 113t-33 88.5t-64.5 60.5t-99.5 21q-56 0 -104 -18t-83 -47t-65 -76t-50 -94.5t-38 -113.5t-29.5 -122t-23.5 -131q-35 -206 -35 -326q0 -88 19.5 -139t64.5 -109
l-37 -217h-594l66 541h33q2 -93 17.5 -149t54 -90.5t97.5 -47t156 -12.5h133q-350 182 -350 493q0 216 99 380.5t274.5 252.5t400.5 88q268 0 410.5 -128.5t142.5 -354.5q0 -89 -21 -169.5t-47.5 -138.5t-81.5 -117.5t-91 -93t-111.5 -80.5t-107 -64t-110.5 -57
q-14 -7 -21 -11h151q191 0 277 59.5t147 239.5h31l-113 -541h-620z" />
    <glyph glyph-name="uni03BC" unicode="&#x3bc;" horiz-adv-x="1208" 
d="M711 1026l-113 -676q-7 -44 -10.5 -71.5t-6 -59t1.5 -49.5t12 -34t24 -23t40 -7q57 0 111.5 87t77.5 223l96 592l342 18l-141 -823q-15 -88 51 -88q68 0 109 182l51 -2q-15 -91 -43.5 -154t-70 -97.5t-89 -49t-109.5 -14.5q-222 0 -229 202q-36 -87 -110 -146t-175 -59
q-33 0 -61.5 9t-62 32t-63.5 74t-52 125l-19 -8l107 -354q43 -128 43 -187q0 -60 -46 -98.5t-112 -24.5l-151 37l237 1426z" />
    <glyph glyph-name="pi" unicode="&#x3c0;" horiz-adv-x="1277" 
d="M942 743h-88q-43 -166 -57 -266q-11 -85 -9.5 -149t30.5 -101t85 -37q58 0 91 25.5t65 97.5l39 -8q-17 -55 -33 -96.5t-41.5 -87.5t-53.5 -75.5t-69 -49t-88 -19.5q-69 0 -108.5 37t-46 96.5t3.5 133.5q8 51 23.5 112.5t27 101t42.5 141t46 151.5q-99 4 -297 18
q-86 -455 -139 -612q-33 -96 -83 -137.5t-98 -41.5q-52 0 -76 27.5t-24 69.5q0 28 12 56.5t24.5 44.5t40 47t38.5 44q95 114 155.5 226.5t98.5 279.5q-14 1 -49.5 3.5t-65 4.5t-35.5 2q-45 0 -72.5 -17.5t-58.5 -72.5l-43 13q75 205 140.5 283.5t162.5 78.5q49 0 316 -16.5
t317 -16.5q35 0 58.5 18.5t52.5 69.5l43 -10q-36 -110 -61.5 -173t-58 -111t-69.5 -66.5t-88 -18.5z" />
    <glyph glyph-name="Wgrave" unicode="&#x1e80;" horiz-adv-x="1982" 
d="M1231 0l-158 883l-432 -883h-219l-223 1374h-117l8 60h586l-8 -60h-119l180 -1046l324 671l-66 375h-127l10 60h611l-11 -60h-133l183 -1046l440 1046h-156l11 60h352l-10 -60h-115l-582 -1374h-229zM1153 1901l227 -361l-26 -27l-318 162q-48 24 -68 48.5t-20 62.5
q0 40 34 66t85 34z" />
    <glyph glyph-name="wgrave" unicode="&#x1e81;" horiz-adv-x="1669" 
d="M1028 205q-11 -73 7.5 -104t82.5 -31q99 0 194 89t152.5 223.5t57.5 264.5q0 53 -26.5 98t-72.5 46l-57 -82q-57 17 -90 55.5t-33 85.5q0 75 42.5 116.5t125.5 41.5q55 0 97 -26t65 -67.5t34 -85t11 -86.5q0 -79 -16 -164t-47 -171.5t-82 -163.5t-116 -137t-154 -95
t-191 -35q-86 0 -164.5 26.5t-126.5 88.5q-132 -115 -324 -115q-66 0 -119 20t-92 60t-54 108t-1 157q19 114 94 475q12 41 11 74.5t-27 33.5q-62 0 -148 -117l-51 35q41 62 82.5 101t86.5 56.5t82 22.5t91 5q122 0 182.5 -72t38.5 -193q-16 -83 -51 -252t-51 -253
q-16 -74 -1 -119t71 -45q39 0 74 19.5t83 62.5q-5 45 11 127q104 490 133 690q49 -2 179.5 7.5t170.5 18.5q-113 -473 -164 -794zM1128 1511l62 -393l-37 -14l-244 270q-35 49 -35 88q0 58 56 84t104 6z" />
    <glyph glyph-name="Wacute" unicode="&#x1e82;" horiz-adv-x="1982" 
d="M1231 0l-158 883l-432 -883h-219l-223 1374h-117l8 60h586l-8 -60h-119l180 -1046l324 671l-66 375h-127l10 60h611l-11 -60h-133l183 -1046l440 1046h-156l11 60h352l-10 -60h-115l-582 -1374h-229zM999 1530l254 350l88 -18q57 -11 77 -32.5t20 -60.5
q0 -37 -22.5 -63.5t-69.5 -48.5l-322 -156z" />
    <glyph glyph-name="wacute" unicode="&#x1e83;" horiz-adv-x="1669" 
d="M1028 205q-11 -73 7.5 -104t82.5 -31q99 0 194 89t152.5 223.5t57.5 264.5q0 53 -26.5 98t-72.5 46l-57 -82q-57 17 -90 55.5t-33 85.5q0 75 42.5 116.5t125.5 41.5q55 0 97 -26t65 -67.5t34 -85t11 -86.5q0 -79 -16 -164t-47 -171.5t-82 -163.5t-116 -137t-154 -95
t-191 -35q-86 0 -164.5 26.5t-126.5 88.5q-132 -115 -324 -115q-66 0 -119 20t-92 60t-54 108t-1 157q19 114 94 475q12 41 11 74.5t-27 33.5q-62 0 -148 -117l-51 35q41 62 82.5 101t86.5 56.5t82 22.5t91 5q122 0 182.5 -72t38.5 -193q-16 -83 -51 -252t-51 -253
q-16 -74 -1 -119t71 -45q39 0 74 19.5t83 62.5q-5 45 11 127q104 490 133 690q49 -2 179.5 7.5t170.5 18.5q-113 -473 -164 -794zM870 1126l177 392l116 24q43 9 80 -10.5t37 -67.5q0 -57 -63 -108l-312 -254z" />
    <glyph glyph-name="Wdieresis" unicode="&#x1e84;" horiz-adv-x="1982" 
d="M1231 0l-158 883l-432 -883h-219l-223 1374h-117l8 60h586l-8 -60h-119l180 -1046l324 671l-66 375h-127l10 60h611l-11 -60h-133l183 -1046l440 1046h-156l11 60h352l-10 -60h-115l-582 -1374h-229zM1032 1812q59 0 94 -27t35 -81q0 -76 -50 -127t-128 -51
q-66 0 -97.5 36t-31.5 87q0 72 53 117.5t125 45.5zM1446 1812q59 0 94 -27t35 -81q0 -76 -50 -127t-128 -51q-67 0 -98 34.5t-31 84.5q0 76 53.5 121.5t124.5 45.5z" />
    <glyph glyph-name="wdieresis" unicode="&#x1e85;" horiz-adv-x="1669" 
d="M1028 205q-11 -73 7.5 -104t82.5 -31q99 0 194 89t152.5 223.5t57.5 264.5q0 53 -26.5 98t-72.5 46l-57 -82q-57 17 -90 55.5t-33 85.5q0 75 42.5 116.5t125.5 41.5q55 0 97 -26t65 -67.5t34 -85t11 -86.5q0 -79 -16 -164t-47 -171.5t-82 -163.5t-116 -137t-154 -95
t-191 -35q-86 0 -164.5 26.5t-126.5 88.5q-132 -115 -324 -115q-66 0 -119 20t-92 60t-54 108t-1 157q19 114 94 475q12 41 11 74.5t-27 33.5q-62 0 -148 -117l-51 35q41 62 82.5 101t86.5 56.5t82 22.5t91 5q122 0 182.5 -72t38.5 -193q-16 -83 -51 -252t-51 -253
q-16 -74 -1 -119t71 -45q39 0 74 19.5t83 62.5q-5 45 11 127q104 490 133 690q49 -2 179.5 7.5t170.5 18.5q-113 -473 -164 -794zM807 1442q59 0 94 -27.5t35 -81.5q0 -76 -50 -127t-128 -51q-66 0 -97.5 36t-31.5 87q0 72 53 118t125 46zM1221 1442q59 0 94 -27.5t35 -81.5
q0 -76 -50 -127t-129 -51q-67 0 -98 34.5t-31 84.5q0 76 54 122t125 46z" />
    <glyph glyph-name="Ygrave" unicode="&#x1ef2;" horiz-adv-x="1206" 
d="M774 743l426 631h-135l10 60h318l-11 -60h-100l-485 -719l-103 -596h166l-10 -59h-670l10 59h164l99 592l-244 723h-125l10 60h641l-10 -60h-150zM711 1901l227 -361l-27 -27l-317 162q-48 24 -68 48.5t-20 62.5q0 40 34 66t85 34z" />
    <glyph glyph-name="ygrave" unicode="&#x1ef3;" horiz-adv-x="1122" 
d="M1096 780q0 -237 -326 -688q-22 -30 -64 -88.5t-65 -90t-62.5 -83t-65.5 -81t-65 -71t-69.5 -65t-71 -51t-77.5 -41.5t-80.5 -23.5t-88.5 -9.5q-122 0 -186.5 61t-64.5 172q0 89 54.5 143t133.5 54q78 0 123.5 -56t19.5 -159l-100 -14q-20 -26 -23.5 -56.5t16 -53.5
t60.5 -23q177 0 410 303q-170 629 -242 872q-20 70 -36 96.5t-44 26.5q-30 0 -52.5 -29.5t-57.5 -109.5l-62 24q21 50 37.5 82.5t45 71.5t60.5 61.5t79.5 38t105.5 15.5q98 0 156.5 -48t89.5 -153q76 -258 170 -619q221 330 221 467q0 90 -72 97l-63 -86q-58 19 -95.5 64.5
t-37.5 98.5q0 85 53 132t133 47q94 0 148.5 -61t54.5 -167zM723 1511l61 -393l-36 -14l-244 270q-35 49 -35 88q0 58 56 84t104 6z" />
    <glyph glyph-name="thinspace" unicode="&#x2009;" horiz-adv-x="102" 
 />
    <glyph glyph-name="endash" unicode="&#x2013;" horiz-adv-x="1024" 
d="M-10 537l12 75h1024l-12 -75h-1024z" />
    <glyph glyph-name="emdash" unicode="&#x2014;" horiz-adv-x="2048" 
d="M-12 537l12 75h2048l-12 -75h-2048z" />
    <glyph glyph-name="quoteleft" unicode="&#x2018;" horiz-adv-x="526" 
d="M543 1569l22 -49q-96 -49 -158.5 -107t-62.5 -110q0 -43 43 -72l78 67q34 -13 58 -47t24 -84q0 -79 -56.5 -123.5t-132.5 -44.5q-78 0 -118.5 52.5t-40.5 122.5q0 121 87 214t257 181z" />
    <glyph glyph-name="quoteright" unicode="&#x2019;" horiz-adv-x="505" 
d="M238 903l-23 49q96 49 158.5 107t62.5 110q0 43 -43 72l-78 -67q-34 13 -58 47t-24 84q0 79 56.5 123.5t132.5 44.5q78 0 119 -52.5t41 -122.5q0 -121 -87 -214t-257 -181z" />
    <glyph glyph-name="quotesinglbase" unicode="&#x201a;" horiz-adv-x="557" 
d="M92 -324l-22 50q96 49 158.5 107t62.5 110q0 42 -43 71l-78 -67q-34 13 -58 47t-24 84q0 79 56 123.5t132 44.5q78 0 119 -52t41 -122q0 -121 -87 -214.5t-257 -181.5z" />
    <glyph glyph-name="quotedblleft" unicode="&#x201c;" horiz-adv-x="937" 
d="M954 1569l23 -49q-96 -49 -158.5 -107t-62.5 -110q0 -43 43 -72l78 67q34 -13 57.5 -47t23.5 -84q0 -79 -56 -123.5t-132 -44.5q-78 0 -119 52.5t-41 122.5q0 121 87 214t257 181zM543 1569l22 -49q-96 -49 -158.5 -107t-62.5 -110q0 -43 43 -72l78 67q34 -13 58 -47
t24 -84q0 -79 -56.5 -123.5t-132.5 -44.5q-78 0 -118.5 52.5t-40.5 122.5q0 121 87 214t257 181z" />
    <glyph glyph-name="quotedblright" unicode="&#x201d;" horiz-adv-x="915" 
d="M647 903l-22 49q96 49 158.5 107t62.5 110q0 43 -43 72l-78 -67q-34 13 -58 47t-24 84q0 79 56 123.5t132 44.5q78 0 119 -52.5t41 -122.5q0 -121 -87 -214t-257 -181zM238 903l-23 49q96 49 158.5 107t62.5 110q0 43 -43 72l-78 -67q-34 13 -58 47t-24 84
q0 79 56.5 123.5t132.5 44.5q78 0 119 -52.5t41 -122.5q0 -121 -87 -214t-257 -181z" />
    <glyph glyph-name="quotedblbase" unicode="&#x201e;" horiz-adv-x="962" 
d="M498 -324l-23 50q96 49 158.5 107t62.5 110q0 42 -43 71l-78 -67q-34 13 -57.5 47t-23.5 84q0 79 56 123.5t132 44.5q78 0 119 -52t41 -122q0 -121 -87 -214.5t-257 -181.5zM92 -324l-22 50q96 49 158.5 107t62.5 110q0 42 -43 71l-78 -67q-34 13 -58 47t-24 84
q0 79 56 123.5t132 44.5q78 0 119 -52t41 -122q0 -121 -87 -214.5t-257 -181.5z" />
    <glyph glyph-name="dagger" unicode="&#x2020;" horiz-adv-x="1075" 
d="M737 707l-2 -13q-33 -40 -52 -65.5t-55 -82t-62 -126.5t-42 -150l-102 -516h-60l87 510q7 41 8 82.5t-4 81.5t-11.5 72.5t-19 72.5t-20 62t-21.5 59l2 13q54 56 116.5 141t80.5 141q-50 -3 -147 -54.5t-140 -51.5q-47 0 -83 31t-36 87q0 70 44.5 108t96.5 38
q29 0 58 -11.5t53 -28.5t48.5 -34t54 -29.5t59.5 -13.5q2 14 2 41q0 46 -23.5 132t-23.5 120q0 66 42.5 109t123.5 43q52 0 78 -32t26 -79q0 -43 -23.5 -86.5t-53 -75.5t-59.5 -79.5t-40 -94.5q53 4 166 61.5t158 57.5q96 0 96 -121q0 -65 -45 -104t-101 -39q-39 0 -84 24.5
t-95 51.5t-97 30q0 -92 102 -282z" />
    <glyph glyph-name="daggerdbl" unicode="&#x2021;" horiz-adv-x="1191" 
d="M410 449q69 49 157 161q-6 21 -19.5 45.5t-23.5 39t-29.5 41t-23.5 32.5l2 12q60 48 116.5 109t74.5 100q-50 -3 -147 -54.5t-140 -51.5q-47 0 -83 31t-36 87q0 70 44.5 108t96.5 38q29 0 58 -11.5t53 -28.5t48.5 -34t54 -29.5t59.5 -13.5q2 14 2 41q0 46 -23.5 132
t-23.5 120q0 66 42.5 109t123.5 43q52 0 78 -32t26 -79q0 -43 -23.5 -86.5t-53 -75.5t-59.5 -79.5t-40 -94.5q53 4 165.5 61.5t157.5 57.5q44 0 70.5 -29t26.5 -92q0 -65 -45 -104t-101 -39q-39 0 -84 24.5t-95 51.5t-97 30q5 -37 23 -76.5t35 -63.5t50 -67l-2 -12
q-72 -52 -157 -164q21 -56 96 -155l-2 -13q-60 -48 -116.5 -109t-74.5 -100q50 3 147 55t140 52q47 0 83 -31.5t36 -87.5q0 -70 -44.5 -107.5t-96.5 -37.5q-35 0 -72 17.5t-63.5 39t-64 40t-73.5 19.5q-2 -14 -2 -41q0 -46 23.5 -131.5t23.5 -119.5q0 -66 -42.5 -109
t-123.5 -43q-52 0 -78 32t-26 79q0 35 15 69t38 63.5t47.5 58.5t46 67t29.5 77q-53 -4 -166 -61t-158 -57q-96 0 -96 121q0 65 45 104t101 39q39 0 84 -25t95 -52t97 -30q-5 37 -23 76.5t-35 63.5t-50 67z" />
    <glyph glyph-name="bullet" unicode="&#x2022;" horiz-adv-x="1024" 
d="M569 911q125 0 196 -64.5t71 -199.5q0 -163 -107 -277t-270 -114q-140 0 -202 71t-62 189q0 171 105 283t269 112z" />
    <glyph glyph-name="ellipsis" unicode="&#x2026;" horiz-adv-x="1617" 
d="M272 319q69 0 109.5 -35t40.5 -98q0 -94 -56.5 -150t-146.5 -56q-78 0 -112.5 42t-34.5 103q0 86 60 140t140 54zM780 319q69 0 109.5 -35t40.5 -98q0 -94 -56.5 -150t-146.5 -56q-78 0 -112.5 42t-34.5 103q0 86 60 140t140 54zM1298 319q69 0 109.5 -35t40.5 -98
q0 -94 -56.5 -150t-146.5 -56q-78 0 -112.5 42t-34.5 103q0 86 60 140t140 54z" />
    <glyph glyph-name="perthousand" unicode="&#x2030;" horiz-adv-x="2347" 
d="M1493 219q0 180 108.5 289.5t290.5 109.5q125 0 202 -62.5t77 -182.5q0 -180 -117 -289t-280 -109q-135 0 -208 67t-73 177zM1882 571q-51 0 -88.5 -50.5t-55.5 -126.5t-26 -141t-8 -116q0 -114 80 -114q50 0 87 49.5t54.5 125t25 142.5t7.5 125q0 55 -17.5 80.5
t-58.5 25.5zM748 219q0 180 108.5 289.5t290.5 109.5q125 0 201.5 -62.5t76.5 -182.5q0 -180 -117 -289t-280 -109q-134 0 -207 67t-73 177zM1137 571q-51 0 -88.5 -50.5t-56 -126.5t-26.5 -141t-8 -116q0 -114 80 -114q50 0 87 49.5t54.5 125t25 142.5t7.5 125
q0 55 -17.5 80.5t-57.5 25.5zM225 0l1082 1434h77l-1077 -1434h-82zM188 1057q0 179 109 289t291 110q125 0 201.5 -63t76.5 -183q0 -121 -56.5 -213t-146 -138t-194.5 -46q-135 0 -208 67t-73 177zM578 1409q-51 0 -88.5 -50.5t-56 -126.5t-26.5 -141t-8 -116
q0 -115 80 -115q50 0 87 49.5t54.5 125.5t25 143t7.5 125q0 55 -17.5 80.5t-57.5 25.5z" />
    <glyph glyph-name="guilsinglleft" unicode="&#x2039;" horiz-adv-x="636" 
d="M121 571l403 242l29 -29l-250 -335l133 -314l-33 -24l-284 217q-70 54 -70 125q0 62 72 118z" />
    <glyph glyph-name="guilsinglright" unicode="&#x203a;" horiz-adv-x="636" 
d="M494 352l-404 -241l-29 28l252 340l-133 303l33 25l283 -211q69 -53 69 -125q0 -64 -71 -119z" />
    <glyph glyph-name="fraction" unicode="&#x2044;" horiz-adv-x="389" 
d="M-397 -23l1134 1479h86l-1132 -1479h-88z" />
    <glyph glyph-name="zerosuperior" unicode="&#x2070;" horiz-adv-x="831" 
d="M125 1114q0 81 17 160.5t53.5 153t89 130t129.5 90t168 33.5q309 0 309 -315q0 -121 -26.5 -219.5t-70.5 -162.5t-104 -107.5t-124.5 -62.5t-133.5 -19q-156 0 -231.5 85t-75.5 234zM397 1235q-32 -185 -32 -264q0 -59 18 -88t59 -29q47 0 75.5 32t50 109.5t46.5 235.5
q31 187 31 278q0 62 -16 88.5t-58 26.5q-71 0 -101.5 -74t-72.5 -315z" />
    <glyph glyph-name="foursuperior" unicode="&#x2074;" horiz-adv-x="792" 
d="M680 860h129l-10 -53h-559l8 53h155l31 154h-346l14 73q183 154 279 295t96 209q0 45 -14 70l33 29q97 2 147.5 -24t50.5 -97q0 -77 -56.5 -139t-221.5 -175l-264 -182h292l31 166l287 43l-41 -209h110l-10 -59h-110z" />
    <glyph glyph-name="fivesuperior" unicode="&#x2075;" horiz-adv-x="724" 
d="M285 852q52 0 89.5 26.5t56 70.5t26.5 88t8 91q0 138 -96 138q-47 0 -131 -33l-45 18l126 412l29 12q140 -53 293 -53q84 0 125.5 25.5t56.5 70.5h29q-7 -143 -94.5 -215.5t-237.5 -72.5q-35 0 -99.5 10t-92.5 22l-68 -172q134 74 270 74q107 0 165.5 -55t58.5 -160
q0 -156 -130.5 -256t-328.5 -100q-63 0 -107.5 15.5t-66 41t-30.5 50.5t-9 52q0 28 8.5 55t26 51t50 39t75.5 15q51 0 77 -25t24.5 -60t-21.5 -71h-62q-39 -44 -33.5 -74t58.5 -30z" />
    <glyph glyph-name="sixsuperior" unicode="&#x2076;" horiz-adv-x="806" 
d="M672 1624q-60 0 -114.5 -53.5t-90.5 -137t-53 -182.5q78 99 209 99q91 0 149.5 -54t58.5 -163q0 -67 -22 -123.5t-60 -96t-89.5 -67t-110 -40.5t-121.5 -13q-281 0 -281 313q0 80 18.5 159t59.5 154.5t101 133.5t150 93t198 35q95 0 145.5 -41t50.5 -114
q0 -70 -39.5 -103.5t-95.5 -33.5q-40 0 -67.5 17t-35 53t24.5 91l50 -4q23 31 16.5 48.5t-20 23.5t-31.5 6zM526 1270q-43 0 -75 -36t-47 -90.5t-22 -103.5t-7 -90q0 -96 67 -96q31 0 54 15.5t37.5 46.5t23.5 67.5t16 89.5q17 104 7 150.5t-54 46.5z" />
    <glyph glyph-name="sevensuperior" unicode="&#x2077;" horiz-adv-x="749" 
d="M750 1212h-189q-7 -9 -20 -38t-26 -83.5t-13 -107.5q0 -96 37 -160l-27 -35q-66 -7 -116 3.5t-76.5 33t-39 47.5t-12.5 52q0 41 8.5 72.5t36 71t48 62.5t75.5 82h-141l14 52h168q29 27 100 95.5t125 119.5h-247q-60 0 -91 -3.5t-55.5 -19t-37.5 -38t-31 -68.5l-62 -2
l88 333l33 11q48 -25 143 -25h465l13 -29q-56 -43 -176.5 -176.5t-159.5 -197.5h184z" />
    <glyph glyph-name="eightsuperior" unicode="&#x2078;" horiz-adv-x="772" 
d="M428 1268q-108 3 -169.5 51.5t-61.5 122.5q0 112 96 175.5t278 63.5q139 0 217 -49.5t78 -148.5q0 -84 -87.5 -146.5t-215.5 -68.5q-2 0 -2 -2q132 -16 192 -71.5t60 -129.5q0 -127 -115 -199.5t-284 -72.5q-146 0 -232 61.5t-86 167.5q0 93 86 165t244 79zM479 1227
q-61 0 -86.5 -43.5t-44.5 -153.5q-7 -48 -9 -87.5t17.5 -65t61.5 -25.5q61 0 87.5 42.5t39.5 137.5q7 57 7.5 100.5t-17.5 69t-56 25.5zM446 1464q-8 -44 -10 -68.5t0 -53t17 -41.5t43 -13q47 0 63.5 35t36.5 141q14 72 4.5 116t-53.5 44q-47 0 -67 -38t-34 -122z" />
    <glyph glyph-name="ninesuperior" unicode="&#x2079;" horiz-adv-x="804" 
d="M326 850q72 0 127 54.5t86 135.5t45 183q-77 -99 -201 -99q-95 0 -156 59.5t-61 170.5q0 67 22 122.5t59 92.5t86 63t102.5 37.5t109.5 11.5q149 0 227 -80t78 -258q0 -73 -18 -147t-59.5 -147t-101 -129.5t-149.5 -91.5t-198 -35q-95 0 -146 41t-51 114q0 70 39.5 103.5
t95.5 33.5q40 0 67.5 -17t35 -53t-24.5 -91l-49 4q-53 -78 35 -78zM471 1204q43 0 75 36t47.5 90.5t22.5 103.5t7 90q0 96 -68 96q-31 0 -54 -15.5t-37.5 -46.5t-23.5 -67.5t-16 -89.5q-17 -104 -7 -150.5t54 -46.5z" />
    <glyph glyph-name="zeroinferior" unicode="&#x2080;" horiz-adv-x="831" 
d="M-57 31q0 103 28 201t81.5 181t143.5 134t203 51q310 0 310 -315q0 -121 -26.5 -219.5t-70.5 -163t-104 -108t-124.5 -62.5t-133.5 -19q-155 0 -231 85.5t-76 234.5zM215 152q-33 -191 -33 -265q0 -59 18 -87.5t60 -28.5q47 0 75.5 32t50 109t46.5 235q31 187 31 279
q0 62 -16 88.5t-58 26.5q-71 0 -101.5 -74t-72.5 -315z" />
    <glyph glyph-name="oneinferior" unicode="&#x2081;" horiz-adv-x="638" 
d="M61 -223l117 655q-38 -8 -99 -4.5t-91 12.5l12 49q97 -7 196 25t144 84h154l-150 -821h129l-12 -53h-551l10 53h141z" />
    <glyph glyph-name="twoinferior" unicode="&#x2082;" horiz-adv-x="714" 
d="M297 598q159 0 229 -58t70 -151q0 -108 -106 -204.5t-340 -219.5l-103 -53h215q60 0 104.5 9t70 20.5t45.5 36.5t28 42t22 52h50l-60 -348h-612l31 163l129 113q126 110 186.5 211t60.5 211q0 65 -29.5 93t-72.5 28q-41 0 -63.5 -17.5t-21.5 -40.5t11 -45h56
q11 -71 -20.5 -113t-100.5 -42q-54 0 -80.5 32t-26.5 74q0 88 91.5 147.5t236.5 59.5z" />
    <glyph glyph-name="threeinferior" unicode="&#x2083;" horiz-adv-x="768" 
d="M340 598q155 0 218 -41.5t63 -124.5q0 -47 -27.5 -84.5t-78 -64t-108.5 -45t-133 -33.5q0 -1 1 -4t1 -4q38 2 81 2.5t87 -12t79 -31.5t57 -57t22 -89q0 -82 -40 -143t-107.5 -94t-143 -48.5t-159.5 -15.5q-130 0 -186 50t-56 122q0 58 42.5 103t113.5 45q40 0 64 -15.5
t31 -40.5t4.5 -52.5t-13.5 -55.5h-68q-18 -22 -21.5 -43.5t14 -37t56.5 -15.5q81 0 132.5 58t51.5 165q0 143 -114 143q-46 0 -92 -16l-7 71q138 42 199.5 93t61.5 141q0 58 -34.5 87.5t-92.5 29.5q-42 0 -61.5 -25t7.5 -72h56q9 -66 -27 -111.5t-111 -45.5
q-53 0 -80.5 30.5t-27.5 73.5q0 101 94 154t252 53z" />
    <glyph glyph-name="fourinferior" unicode="&#x2084;" horiz-adv-x="792" 
d="M498 -223h129l-11 -53h-559l9 53h155l31 153h-346l14 74q183 154 279 295t96 209q0 45 -14 70l32 28q98 2 148.5 -24t50.5 -97q0 -77 -56.5 -138t-222.5 -175l-264 -182h293l31 166l287 43l-41 -209h110l-10 -60h-111z" />
    <glyph glyph-name="fiveinferior" unicode="&#x2085;" horiz-adv-x="724" 
d="M102 -231q52 0 89.5 26.5t56.5 70.5t27 88t8 91q0 137 -97 137q-49 0 -131 -32l-45 18l127 412l29 12q140 -53 293 -53q84 0 125.5 25.5t56.5 70.5h29q-7 -143 -94.5 -216t-237.5 -73q-35 0 -99.5 10t-93.5 23l-67 -172q134 74 270 74q107 0 165 -55t58 -160
q0 -156 -130 -256.5t-328 -100.5q-63 0 -107.5 15.5t-66 41.5t-30.5 51t-9 52q0 39 13.5 73t51 60.5t94.5 26.5q51 0 77 -25t24.5 -60t-21.5 -71h-61q-26 -30 -33 -53t7.5 -37t49.5 -14z" />
    <glyph glyph-name="sixinferior" unicode="&#x2086;" horiz-adv-x="806" 
d="M489 541q-60 0 -114.5 -53.5t-90.5 -137t-53 -182.5q77 98 209 98q92 0 150.5 -54t58.5 -163q0 -67 -22 -123.5t-60 -96t-89.5 -67t-110 -40.5t-121.5 -13q-281 0 -281 314q0 80 18.5 159t59.5 154.5t101 133.5t150 93t198 35q95 0 145.5 -41.5t50.5 -114.5
q0 -70 -39.5 -103.5t-95.5 -33.5q-40 0 -67.5 17.5t-35 53.5t24.5 91l49 -4q23 31 16.5 48.5t-20 23.5t-31.5 6zM344 186q-43 0 -75 -36t-47 -90.5t-22 -103t-7 -89.5q0 -96 67 -96q31 0 54 15.5t37.5 46.5t23.5 67.5t16 89.5q10 69 10 112.5t-13.5 63.5t-43.5 20z" />
    <glyph glyph-name="seveninferior" unicode="&#x2087;" horiz-adv-x="749" 
d="M567 129h-188q-7 -9 -20 -38t-26.5 -83.5t-13.5 -107.5q0 -96 37 -160l-26 -35q-66 -7 -116 3t-76.5 32.5t-39 47.5t-12.5 52q0 33 8 63t17.5 51t36.5 55t44.5 53.5t61.5 66.5h-141l14 51h168q29 27 100 95.5t125 119.5h-248q-60 0 -91 -3.5t-55.5 -19t-37.5 -38
t-31 -68.5l-61 -2l88 334l33 10q46 -24 143 -24h465l12 -29q-56 -43 -176.5 -177t-159.5 -198h185z" />
    <glyph glyph-name="eightinferior" unicode="&#x2088;" horiz-adv-x="772" 
d="M246 184q-108 3 -170 51.5t-62 122.5q0 112 96.5 176t278.5 64q139 0 217 -50t78 -149q0 -84 -87.5 -146.5t-215.5 -68.5q-2 0 -2 -2q133 -16 192.5 -71t59.5 -129q0 -127 -115.5 -200t-284.5 -73q-146 0 -231.5 62t-85.5 168q0 93 85.5 164.5t244.5 78.5zM297 143
q-61 0 -86.5 -43t-44.5 -153q-7 -48 -9 -87.5t17.5 -65t61.5 -25.5q61 0 87 42.5t39 137.5q7 57 8 100.5t-17 68.5t-56 25zM264 381q-5 -30 -7.5 -46.5t-4.5 -40.5t1 -37t9 -26.5t19 -19.5t32 -6q20 0 34.5 7.5t23.5 17.5t17.5 37t12.5 47.5t13 66.5q14 72 4.5 116t-53.5 44
q-47 0 -67 -38t-34 -122z" />
    <glyph glyph-name="nineinferior" unicode="&#x2089;" horiz-adv-x="804" 
d="M143 -233q54 0 99.5 30.5t76.5 83.5t51 118t31 140q-37 -47 -83 -72.5t-117 -25.5q-95 0 -156 59t-61 170q0 83 33 148t88 103t120.5 57.5t136.5 19.5q149 0 227.5 -80t78.5 -258q0 -60 -13.5 -122t-39.5 -124.5t-70 -116.5t-100.5 -96.5t-134.5 -67t-169 -24.5
q-95 0 -145.5 41.5t-50.5 114.5q0 70 39.5 103.5t95.5 33.5q40 0 67.5 -17.5t35 -53.5t-24.5 -91l-49 4q-53 -77 34 -77zM289 121q43 0 75 36t47 90.5t22 103t7 89.5q0 97 -67 97q-31 0 -54 -15.5t-37.5 -47t-23.5 -68t-16 -89.5q-10 -69 -10 -112.5t13.5 -63.5t43.5 -20z
" />
    <glyph glyph-name="Euro" unicode="&#x20ac;" horiz-adv-x="1277" 
d="M1010 1397q-150 0 -255.5 -135.5t-166.5 -382.5h393l-14 -68h-394q-15 -88 -18 -162h373l-17 -67h-358v-7q0 -70 4 -128t14 -122.5t30 -113t49.5 -89t75 -62t103.5 -21.5q85 0 119.5 49.5t-0.5 132.5h-71q-16 34 -13 70.5t17.5 67.5t49 51t81.5 20q67 0 106 -43t39 -119
q0 -79 -36.5 -138.5t-95.5 -91t-121 -46.5t-126 -15q-262 0 -414 149t-167 454v2h-144l17 67h131q8 95 22 162h-114l14 68h117q48 178 157.5 310.5t255.5 199.5t310 67q90 0 158 -21t106.5 -58t57 -80.5t18.5 -94.5q0 -78 -42 -128t-126 -50q-62 0 -94 33t-31 79.5t28 92.5
h64q23 47 24 81t-16 52.5t-42 26.5t-58 8z" />
    <glyph glyph-name="afii61352" unicode="&#x2116;" horiz-adv-x="2316" 
d="M1448 1092l-197 -1106h-247l-400 1233l-158 -889q-62 -350 -315 -350q-85 0 -142 38t-57 115q0 94 49.5 144.5t114.5 50.5q51 0 81 -25.5t30 -71.5q0 -34 -23 -88h-84q-18 -35 -18 -61q0 -43 72 -43q49 0 86.5 21.5t63.5 64t43 95t30 124.5l168 952l-37 78h-123l10 60
h531l325 -1047l127 719q10 55 22.5 100t37 93.5t56.5 81t81.5 54t110.5 21.5q87 0 147.5 -42.5t60.5 -129.5q0 -83 -50 -129.5t-115 -46.5q-51 0 -81 24.5t-30 69.5q0 38 22 90h84q19 34 19 60q0 45 -72 45q-96 0 -146.5 -78t-76.5 -227zM1501 180l12 66h603l-13 -66h-602z
M1788 332q-155 0 -230 66.5t-75 181.5q0 84 26.5 158.5t78.5 135.5t139 96.5t198 35.5q150 0 234 -65.5t84 -197.5q0 -55 -16.5 -110.5t-52.5 -110t-87.5 -96.5t-129 -68t-169.5 -26zM1812 373q67 0 105.5 113.5t56.5 336.5q10 127 -69 127q-124 0 -158 -432
q-6 -78 8.5 -111.5t56.5 -33.5z" />
    <glyph glyph-name="trademark" unicode="&#x2122;" horiz-adv-x="1947" 
d="M848 1327l10 -233h-33q-12 64 -28.5 103.5t-44 60t-59 27.5t-83.5 7h-14v-680h104v-43h-348v43h107v680h-15q-51 0 -83.5 -7t-59.5 -28t-43.5 -60t-28.5 -103h-34l12 233h641zM1589 1327h262v-41h-82v-678h82v-39h-301v39h80v676l-235 -715h-56l-286 701v-662h73v-39
h-202v39h69v678h-69v41h262l217 -557z" />
    <glyph glyph-name="Omega" unicode="&#x2126;" horiz-adv-x="1775" 
d="M877 0l36 215q51 40 78 62.5t60 59t50.5 70.5t38.5 89t36 123.5t30 164.5q37 228 37 326q0 64 -10 113t-33 88.5t-64.5 60.5t-99.5 21q-56 0 -104 -18t-83 -47t-65 -76t-50 -94.5t-38 -113.5t-29.5 -122t-23.5 -131q-35 -206 -35 -326q0 -88 19.5 -139t64.5 -109
l-37 -217h-594l66 541h33q2 -93 17.5 -149t54 -90.5t97.5 -47t156 -12.5h133q-350 182 -350 493q0 216 99 380.5t274.5 252.5t400.5 88q268 0 410.5 -128.5t142.5 -354.5q0 -89 -21 -169.5t-47.5 -138.5t-81.5 -117.5t-91 -93t-111.5 -80.5t-107 -64t-110.5 -57
q-14 -7 -21 -11h151q191 0 277 59.5t147 239.5h31l-113 -541h-620z" />
    <glyph glyph-name="onethird" unicode="&#x2153;" horiz-adv-x="1843" 
d="M244 639l116 655q-38 -8 -99 -4t-91 13l12 49q97 -7 196 24.5t144 83.5h154l-150 -821h129l-12 -53h-551l10 53h142zM307 -23l1135 1479h86l-1133 -1479h-88zM1464 862q155 0 218 -41.5t63 -124.5q0 -47 -27 -84.5t-78 -64t-108.5 -45t-132.5 -33.5q0 -1 1 -4t1 -4
q38 2 81 2.5t86.5 -12t78.5 -31.5t57 -57t22 -89q0 -82 -40 -143t-107.5 -94t-143 -48.5t-159.5 -15.5q-130 0 -186 50t-56 122q0 58 42.5 103t113.5 45q40 0 64 -15.5t31 -40.5t4.5 -52.5t-13.5 -55.5h-68q-18 -22 -21.5 -43.5t14 -37t56.5 -15.5q81 0 133 58.5t52 164.5
q0 143 -115 143q-46 0 -92 -16l-6 72q138 42 199 92.5t61 140.5q0 58 -34.5 87.5t-92.5 29.5q-42 0 -61 -24.5t8 -71.5h55q10 -67 -26 -112.5t-111 -45.5q-53 0 -81 31t-28 73q0 101 94 154t252 53z" />
    <glyph glyph-name="twothirds" unicode="&#x2154;" horiz-adv-x="1843" 
d="M459 1460q159 0 229 -58t70 -151q0 -108 -106 -204.5t-341 -219.5l-102 -53h215q60 0 104.5 9t70 20.5t45.5 36.5t28 42t22 52h49l-59 -348h-612l30 164l129 112q126 110 187 211t61 211q0 65 -29.5 93t-72.5 28q-41 0 -63.5 -17.5t-21.5 -40t11 -44.5h55
q11 -71 -20 -113.5t-100 -42.5q-54 0 -80.5 32t-26.5 74q0 88 91.5 147.5t236.5 59.5zM342 -23l1135 1479h86l-1133 -1479h-88zM1491 862q155 0 218 -41.5t63 -124.5q0 -47 -27.5 -84.5t-78 -64t-108.5 -45t-133 -33.5q0 -1 1 -4t1 -4q38 2 81 2.5t87 -12t79 -31.5t57 -57
t22 -89q0 -82 -40 -143t-107.5 -94t-143 -48.5t-159.5 -15.5q-130 0 -186 50t-56 122q0 58 42.5 103t113.5 45q40 0 64 -15.5t31 -40.5t4.5 -52.5t-13.5 -55.5h-68q-18 -22 -21.5 -43.5t14 -37t56.5 -15.5q81 0 132.5 58t51.5 165q0 143 -114 143q-46 0 -92 -16l-7 72
q139 42 200 92.5t61 140.5q0 58 -34.5 87.5t-92.5 29.5q-42 0 -61.5 -24.5t7.5 -71.5h56q9 -66 -27 -112t-111 -46q-53 0 -80.5 30.5t-27.5 73.5q0 101 94 154t252 53z" />
    <glyph glyph-name="oneeighth" unicode="&#x215b;" horiz-adv-x="1843" 
d="M244 639l116 655q-38 -8 -99 -4t-91 13l12 49q97 -7 196 24.5t144 83.5h154l-150 -821h129l-12 -53h-551l10 53h142zM297 -23l1135 1479h86l-1133 -1479h-88zM1315 449q-108 3 -170 51.5t-62 122.5q0 112 96.5 175.5t278.5 63.5q139 0 217 -49.5t78 -148.5
q0 -84 -87.5 -146.5t-215.5 -68.5q-2 -1 -2 -3q133 -16 192.5 -71t59.5 -129q0 -127 -115.5 -200t-284.5 -73q-146 0 -231.5 62t-85.5 168q0 93 85.5 164.5t244.5 78.5zM1366 408q-61 0 -86.5 -43.5t-44.5 -153.5q-7 -48 -9 -87.5t17.5 -65t61.5 -25.5q61 0 87.5 42.5
t39.5 137.5q7 57 7.5 100.5t-17.5 69t-56 25.5zM1333 645q-5 -30 -7.5 -46.5t-4.5 -40.5t1 -37t9 -26.5t19 -19.5t32 -6q20 0 34.5 7.5t23.5 17.5t17.5 37t12.5 47.5t13 66.5q14 72 4.5 116t-53.5 44q-47 0 -67 -38t-34 -122z" />
    <glyph glyph-name="threeeighths" unicode="&#x215c;" horiz-adv-x="1843" 
d="M512 1460q155 0 218 -41.5t63 -124.5q0 -47 -27.5 -84.5t-78 -64t-108.5 -45t-133 -33.5q0 -1 1.5 -4t1.5 -4q38 2 81 2.5t86.5 -12t78.5 -31.5t57 -57t22 -89q0 -82 -40 -143t-107.5 -94t-143 -48.5t-159.5 -15.5q-130 0 -186 50t-56 122q0 58 42.5 103t113.5 45
q40 0 64 -15.5t31 -40.5t4.5 -52.5t-13.5 -55.5h-68q-18 -22 -21.5 -43.5t14 -37t56.5 -15.5q81 0 132.5 58t51.5 165q0 143 -114 143q-46 0 -92 -16l-7 72q139 42 200 92.5t61 140.5q0 58 -34.5 87.5t-92.5 29.5q-42 0 -61.5 -24.5t7.5 -71.5h56q9 -66 -27 -112t-111 -46
q-53 0 -80.5 30.5t-27.5 73.5q0 101 94 154t252 53zM322 -23l1134 1479h86l-1132 -1479h-88zM1356 449q-108 3 -170 51.5t-62 122.5q0 112 96.5 175.5t278.5 63.5q139 0 217 -49.5t78 -148.5q0 -84 -87.5 -146.5t-215.5 -68.5q-2 -1 -2 -3q133 -16 192.5 -71t59.5 -129
q0 -127 -115.5 -200t-284.5 -73q-146 0 -231.5 62t-85.5 168q0 93 85.5 164.5t244.5 78.5zM1407 408q-61 0 -86.5 -43.5t-44.5 -153.5q-7 -48 -9 -87.5t17.5 -65t61.5 -25.5q61 0 87.5 42.5t39.5 137.5q7 57 7.5 100.5t-17.5 69t-56 25.5zM1374 645q-5 -30 -7.5 -46.5
t-4.5 -40.5t1 -37t9 -26.5t19 -19.5t32 -6q20 0 34.5 7.5t23.5 17.5t17.5 37t12.5 47.5t13 66.5q14 72 4.5 116t-53.5 44q-47 0 -67 -38t-34 -122z" />
    </font>
</defs>
</svg>
