<?xml version="1.0" standalone="no"?>
<!DOCTYPE svg PUBLIC "-//W3C//DTD SVG 1.1//EN" "http://www.w3.org/Graphics/SVG/1.1/DTD/svg11.dtd" >
<svg xmlns="http://www.w3.org/2000/svg" xmlns:xlink="http://www.w3.org/1999/xlink" version="1.1">
<metadata>
Created by FontForge 20170731 at Wed Feb 17 08:57:49 2021
 By Aleksey,,,
Copyright (c) 2011 by TypeTogether. All rights reserved.
</metadata>
<defs>
<font id="AbrilDisplay-Italic" horiz-adv-x="1126" >
  <font-face 
    font-family="Abril Display"
    font-weight="400"
    font-style="italic"
    font-stretch="normal"
    units-per-em="2048"
    panose-1="2 0 5 3 7 0 0 9 0 3"
    ascent="1536"
    descent="-512"
    x-height="989"
    cap-height="1434"
    bbox="-444 -944 2826 2161"
    underline-thickness="102"
    underline-position="-307"
    unicode-range="U+0020-FB06"
  />
<missing-glyph horiz-adv-x="409" 
 />
    <glyph glyph-name="ij" unicode="ij" horiz-adv-x="1118" 
d="M362 1184q-108 0 -108 106q0 58 35 99t100 41q109 0 109 -105q0 -62 -35 -101.5t-101 -39.5zM455 143l43 -32q-44 -67 -95 -100.5t-118 -33.5q-191 0 -191 177q0 67 33 219q35 161 125 549h-164l8 53h340l-160 -772q-17 -88 -4.5 -121t58.5 -33q32 0 59.5 20.5t65.5 73.5
zM453 -336l-78 -10q-23 -56 -2.5 -87.5t73.5 -31.5q22 0 40.5 4.5t33 11t27 22t22 29.5t19 41.5t15.5 49.5t14 62.5t13.5 71.5t14.5 85l166 1010h-158l9 53h335l-157 -971q-14 -88 -31.5 -156t-49.5 -139t-74 -116.5t-107 -75t-148 -29.5q-96 0 -158.5 50.5t-62.5 129.5
q0 64 36 107t103 43q53 0 87 -41t18 -113zM915 1184q-110 0 -110 106q0 59 35 99.5t102 40.5q109 0 109 -105q0 -61 -35.5 -101t-100.5 -40z" />
    <glyph glyph-name="ff" unicode="ff" horiz-adv-x="1290" 
d="M49 -166l195 1088h-156l8 53h156l22 129q36 211 182 335t343 124q189 0 264 -113q129 133 297 133q109 0 173 -51t64 -135q0 -63 -36.5 -104.5t-104.5 -41.5q-52 0 -81 30t-29 77q0 21 6 45l67 6q24 59 0.5 92t-80.5 33q-44 0 -80.5 -19.5t-59.5 -48.5t-41.5 -72.5
t-28.5 -82t-19 -86.5l-43 -250h291l-8 -53h-291l-166 -918q-86 -475 -500 -475q-184 0 -276 100q-112 -141 -281 -141q-116 0 -180 53t-64 135q0 65 38 108.5t106 43.5q65 0 96 -46t8 -116l-73 -8q-21 -30 -21 -51q0 -32 28.5 -50t78.5 -18q40 0 69.5 15.5t46.5 30t33.5 63
t22 71t20.5 97.5q3 12 4 18zM713 -16l166 938h-455l-150 -822q-12 -77 -49 -223q104 -28 66 -149l-74 -9q-40 -56 14.5 -97.5t157.5 -41.5q132 0 209.5 97.5t114.5 306.5zM473 1204l-41 -229h455l49 244q-64 23 -64 98q0 17 7 45l67 6q28 62 -11 103.5t-142 41.5
q-128 0 -210.5 -78t-109.5 -231z" />
    <glyph glyph-name="fi" unicode="fi" horiz-adv-x="1200" 
d="M1073 143l43 -32q-44 -67 -95 -100.5t-118 -33.5q-190 0 -190 177q0 72 32 219q35 161 125 549h-446l-178 -981q-40 -224 -136.5 -338.5t-273.5 -114.5q-116 0 -180 53t-64 135q0 65 38 108.5t106 43.5q65 0 96 -46t8 -116l-73 -8q-27 -38 -19.5 -64.5t33.5 -40.5t61 -14
q56 0 91.5 15t57.5 62t30 79t24 119q3 13 4 20l195 1088h-156l8 53h156l29 153q39 208 170 331.5t333 123.5q118 0 189 -51t71 -135q0 -63 -36.5 -104.5t-104.5 -41.5q-52 0 -81 30t-29 77q0 21 6 45l67 6q25 57 -4 91t-94 34q-63 0 -114.5 -28t-86 -77t-57 -106t-35.5 -125
l-43 -223h623l-160 -772q-17 -88 -5 -121t58 -33q32 0 59.5 20.5t65.5 73.5z" />
    <glyph glyph-name="fl" unicode="fl" horiz-adv-x="1220" 
d="M49 -166l195 1088h-156l8 53h156l24 149q36 218 158 338.5t316 120.5q100 0 166.5 -50.5t80.5 -127.5l156 125l21 -8l-240 -1266q-19 -97 -19 -137q0 -70 62 -70q34 0 63 22t64 74l45 -30q-88 -138 -215 -138q-89 0 -136.5 47t-47.5 132q0 91 75 471l136 673
q-27 -38 -84 -38q-41 0 -71 25t-30 71q0 21 6 45l70 6q10 23 10 51q0 36 -29.5 55t-80.5 19q-225 0 -277 -309l-43 -250h291l-8 -53h-291l-178 -981q-40 -223 -137.5 -338t-274.5 -115q-115 0 -178.5 53t-63.5 135q0 65 38 108.5t106 43.5q51 0 81.5 -29.5t30.5 -79.5
q0 -29 -8 -53l-73 -8q-25 -36 -25 -59q0 -28 26.5 -44t69.5 -16q40 0 70.5 14t51.5 37t38 63t28 80.5t23 100.5z" />
    <glyph glyph-name="ffi" unicode="ffi" horiz-adv-x="1835" 
d="M49 -166l195 1088h-156l8 53h156l22 129q36 211 182 335t343 124q189 0 264 -113q142 133 338 133q119 0 193.5 -51.5t74.5 -134.5q0 -63 -36.5 -104.5t-104.5 -41.5q-52 0 -81.5 30t-29.5 77q0 21 6 45l68 6q12 27 12 51q0 35 -32.5 54.5t-84.5 19.5q-77 0 -136 -44
t-92 -111.5t-48 -153.5l-43 -250h623l-160 -772q-17 -88 -5 -121t58 -33q32 0 59.5 20.5t65.5 73.5l43 -32q-44 -67 -95 -100.5t-118 -33.5q-190 0 -190 177q0 83 32 219l125 549h-446l-166 -918q-44 -243 -167.5 -359t-330.5 -116q-186 0 -278 100q-112 -141 -281 -141
q-116 0 -180 53t-64 135q0 65 38 108.5t106 43.5q51 0 81.5 -29.5t30.5 -79.5q0 -29 -8 -53l-73 -8q-21 -30 -21 -51q0 -32 28.5 -50t78.5 -18q40 0 69.5 15.5t46.5 30t33.5 63t22 71t20.5 97.5q3 12 4 18zM713 -16l166 938h-455l-150 -822q-23 -122 -53 -221q80 -23 80 -92
q0 -26 -10 -59l-74 -9q-16 -21 -16 -43q0 -42 54 -69t138 -27q129 0 206.5 100.5t113.5 303.5zM473 1204l-41 -229h455l49 244q-64 23 -64 98q0 17 7 45l67 6q10 27 10 47q0 44 -41 71t-122 27q-128 0 -210.5 -78t-109.5 -231z" />
    <glyph glyph-name="ffl" unicode="ffl" horiz-adv-x="1861" 
d="M1382 1534q-66 0 -114.5 -23t-79 -67.5t-48.5 -96t-30 -122.5l-43 -250h291l-8 -53h-291l-166 -918q-44 -242 -166 -358.5t-324 -116.5q-99 0 -173.5 29t-112.5 71q-112 -141 -281 -141q-116 0 -180 53t-64 135q0 65 38 108.5t106 43.5q65 0 96 -46t8 -116l-73 -8
q-21 -30 -21 -51q0 -32 28.5 -50t78.5 -18q35 0 61 8t45.5 29t32 41t23.5 61t17.5 70t16.5 86l195 1088h-156l8 53h156l22 129q36 211 182 335t343 124q188 0 264 -115q135 135 319 135q99 0 168.5 -51t83.5 -127l156 125l20 -8l-239 -1266q-19 -97 -19 -137q0 -70 62 -70
q34 0 63 22t64 74l45 -30q-88 -138 -215 -138q-89 0 -137 47t-48 132q0 54 15.5 149.5t60.5 321.5l135 673q-27 -38 -84 -38q-41 0 -70.5 25t-29.5 71q0 21 6 45l70 6q10 23 10 51q0 35 -32.5 54.5t-84.5 19.5zM717 0l162 922h-455l-150 -822q-11 -65 -49 -219
q51 -13 68 -53t-2 -100l-74 -9q-40 -56 15.5 -97.5t160.5 -41.5q131 0 208.5 100.5t115.5 319.5zM473 1204l-41 -229h455l49 244q-64 23 -64 98q0 17 7 45l67 6q28 62 -11 103.5t-142 41.5q-128 0 -210.5 -78t-109.5 -231z" />
    <glyph glyph-name="f_k" unicode="fk" horiz-adv-x="1699" 
d="M795 428l166 870q-27 -34 -82 -34q-42 0 -72.5 24.5t-30.5 69.5q0 21 6 45l70 6q10 23 10 51q0 36 -29.5 55t-80.5 19q-225 0 -277 -309l-43 -250h291l-8 -53h-291l-178 -981q-40 -223 -137.5 -338t-274.5 -115q-115 0 -178.5 53t-63.5 135q0 65 38 108.5t106 43.5
q51 0 81.5 -29.5t30.5 -79.5q0 -29 -8 -53l-73 -8q-25 -36 -25 -59q0 -28 26.5 -44t69.5 -16q49 0 84.5 19.5t59.5 61.5t38.5 91t28.5 123l195 1088h-156l8 53h156l24 149q36 218 159 338.5t321 120.5q96 0 161.5 -50.5t83.5 -129.5l152 127l21 -8l-216 -1026l211 114
q121 66 176 116.5t46 96.5l-76 29q-10 63 25 109.5t108 46.5q60 0 94.5 -36.5t34.5 -88.5q0 -100 -115 -168q-142 -84 -311 -174l6 -11q59 9 109 9q118 0 161 -57t17 -154l-43 -162q-17 -54 -7 -87.5t60 -33.5q38 0 67.5 23t65.5 75l41 -26q-83 -140 -209 -140
q-118 0 -164 65t-16 175l33 119q19 68 -8.5 106.5t-100.5 38.5q-41 0 -101 -16.5t-108 -40.5l-65 -416q-85 0 -187 -26z" />
    <glyph glyph-name="f_b" unicode="fb" horiz-adv-x="1775" 
d="M838 672l120 628q-30 -38 -88 -38q-40 0 -67 24.5t-27 71.5q0 21 6 45l70 6q10 23 10 51q0 36 -29.5 55t-80.5 19q-225 0 -277 -309l-43 -250h291l-8 -53h-291l-178 -981q-40 -223 -137.5 -338t-274.5 -115q-115 0 -178.5 53t-63.5 135q0 65 38 108.5t106 43.5
q51 0 81.5 -29.5t30.5 -79.5q0 -29 -8 -53l-73 -8q-25 -36 -25 -59q0 -28 26.5 -44t69.5 -16q49 0 84.5 19.5t59.5 61.5t38.5 91t28.5 123l195 1088h-156l8 53h156l24 149q36 218 159 338.5t321 120.5q96 0 159.5 -47t85.5 -129l152 123l21 -8l-173 -811l11 -2
q68 135 170 210.5t233 75.5q133 0 200.5 -92.5t67.5 -261.5q0 -92 -19.5 -183.5t-62.5 -178.5t-104 -154t-151 -107.5t-197 -40.5q-354 0 -354 336q0 133 43 359zM1153 41q72 0 130.5 36.5t95.5 95.5t62 139.5t35.5 163.5t10.5 171q0 54 -3 90.5t-12 72.5t-25 57t-43.5 33.5
t-66.5 12.5q-73 0 -142.5 -59t-118 -149.5t-78 -201.5t-29.5 -214q0 -43 3 -74.5t14.5 -66t31 -56.5t54 -36.5t81.5 -14.5z" />
    <glyph glyph-name="f_h" unicode="fh" horiz-adv-x="1796" 
d="M49 -166l195 1088h-156l8 53h156l24 149q36 219 157.5 339t322.5 120q96 0 162 -50t81 -126l154 123l21 -8l-207 -910l10 -4q193 387 438 387q134 0 185 -92t8 -258q-97 -368 -115 -455q-8 -36 -8 -69q0 -39 16 -55.5t51 -16.5q56 0 129 88l39 -33q-84 -127 -221 -127
q-91 0 -136.5 45t-45.5 128q0 64 22 161.5t58 225t51 198.5q21 104 4 144.5t-76 40.5q-77 0 -156 -68.5t-139 -171.5t-96 -221q-54 -177 -84 -453q-94 3 -203 -20l86 387l174 925q-29 -36 -84 -36q-40 0 -69 25t-29 71q0 21 6 45l70 6q10 23 10 51q0 36 -29.5 55t-80.5 19
q-66 0 -115 -23.5t-81 -69.5t-52 -102.5t-33 -134.5l-39 -229h291l-8 -53h-291l-178 -981q-40 -223 -137.5 -338t-274.5 -115q-115 0 -178.5 53t-63.5 135q0 65 38 108.5t106 43.5q51 0 81.5 -29.5t30.5 -79.5q0 -29 -8 -53l-73 -8q-25 -36 -25 -59q0 -28 26.5 -44t69.5 -16
q49 0 84.5 19.5t59.5 61.5t38.5 91t28.5 123z" />
    <glyph glyph-name="f_t" unicode="ft" horiz-adv-x="1308" 
d="M1196 182l45 -35q-50 -77 -120.5 -123.5t-151.5 -46.5q-113 0 -172.5 56t-59.5 151q0 15 0.5 29.5t3.5 34.5t4 31t6.5 38.5t7.5 37t9.5 47t9.5 49.5l92 471h-446l-178 -981q-40 -224 -136.5 -338.5t-273.5 -114.5q-116 0 -180 53t-64 135q0 65 38 108.5t106 43.5
q65 0 96 -46t8 -116l-73 -8q-27 -38 -19 -64.5t36.5 -40.5t68.5 -14q42 0 72.5 16t47.5 31t33.5 65t21.5 73t19 101q1 6 2 9l195 1088h-156l8 53h156l24 149q35 212 148.5 335.5t300.5 123.5q109 0 173.5 -51t64.5 -135q0 -63 -37 -104.5t-105 -41.5q-52 0 -81 30t-29 77
q0 21 6 45l67 6q24 59 1 92t-80 33q-55 0 -96.5 -27.5t-67.5 -76.5t-40.5 -96.5t-25.5 -108.5l-43 -250h447l39 221l192 51l-47 -272h215l-10 -53h-213l-127 -689q-17 -91 2.5 -133.5t79.5 -42.5q55 0 96 29.5t90 95.5z" />
    <glyph glyph-name="f_j" unicode="fj" horiz-adv-x="1169" 
d="M399 -512v47q124 16 194.5 99t102.5 278l166 1010h-438l-178 -981q-40 -224 -136.5 -338.5t-273.5 -114.5q-116 0 -180 53t-64 135q0 65 38 108.5t106 43.5q65 0 96 -46t8 -116l-73 -8q-27 -38 -19.5 -64.5t33.5 -40.5t61 -14q45 0 77.5 15t51 31t35 63.5t22 72.5
t18.5 98l3 15l195 1088h-156l8 53h156l29 153q39 208 170 331.5t333 123.5q118 0 189 -51t71 -135q0 -63 -36.5 -104.5t-104.5 -41.5q-52 0 -81 30t-29 77q0 21 6 45l67 6q25 57 -4 91t-94 34q-63 0 -114.5 -28t-86 -77t-57 -106t-35.5 -125l-43 -223h617l-158 -971
q-14 -87 -34 -155.5t-58 -138t-89.5 -116t-131 -76t-179.5 -30.5z" />
    <glyph glyph-name="f_f_j" unicode="ffj" horiz-adv-x="1781" 
d="M49 -166l195 1088h-156l8 53h156l22 129q36 211 182 335t343 124q189 0 264 -113q55 56 151 94.5t187 38.5q124 0 197 -51t73 -135q0 -63 -36.5 -104.5t-104.5 -41.5q-52 0 -81.5 30t-29.5 77q0 21 6 45l68 6q26 57 -2.5 91t-97.5 34q-59 0 -110 -28t-85 -74.5t-56 -99
t-32 -107.5l-43 -250h616l-157 -971q-14 -87 -34 -155.5t-58 -138t-89.5 -116t-131 -76t-179.5 -30.5v47q124 16 194.5 99t102.5 278l166 1010h-438l-172 -959q-44 -242 -166 -358.5t-324 -116.5q-195 0 -288 111q-57 -55 -120.5 -83t-152.5 -28q-116 0 -180 53t-64 135
q0 65 38 108.5t106 43.5q65 0 96 -46t8 -116l-73 -8q-21 -30 -21 -51q0 -32 28.5 -50t78.5 -18q40 0 69.5 15.5t46.5 30t33.5 63t22 71t20.5 97.5q3 12 4 18zM707 -57l172 979h-455l-150 -822q-23 -143 -57 -262q52 -11 71 -51t-3 -100l-74 -9q-40 -55 14 -97t152 -42
q135 0 214.5 100t115.5 304zM473 1204l-41 -229h455l49 244q-64 23 -64 98q0 17 7 45l67 6q28 62 -11 103.5t-142 41.5q-128 0 -210.5 -78t-109.5 -231z" />
    <glyph glyph-name="f_f_k" unicode="ffk" horiz-adv-x="2344" 
d="M1382 1534q-66 0 -114.5 -23t-79 -67.5t-48.5 -96t-30 -122.5l-43 -250h270l-8 -53h-270l-166 -918q-44 -242 -166 -358.5t-324 -116.5q-100 0 -174 29t-112 71q-112 -141 -281 -141q-116 0 -180 53t-64 135q0 65 38 108.5t106 43.5q65 0 96 -46t8 -116l-73 -8
q-21 -30 -21 -51q0 -32 28.5 -50t78.5 -18q35 0 61 8t45.5 29t32 41t23.5 61t17.5 70t16.5 86l195 1088h-156l8 53h156l22 129q36 211 182 335t343 124q188 0 264 -115q135 135 321 135q98 0 168 -51t88 -129l152 127l20 -8l-215 -1026l211 114q121 66 176 116.5t46 96.5
l-76 29q-10 63 25 109.5t108 46.5q60 0 94.5 -36.5t34.5 -88.5q0 -100 -115 -168q-142 -84 -311 -174l6 -11q58 9 109 9q118 0 161 -57t17 -154l-43 -162q-17 -54 -7 -87.5t60 -33.5q38 0 67.5 23t65.5 75l41 -26q-83 -140 -209 -140q-118 0 -164 65t-16 175l33 119
q19 68 -8.5 106.5t-100.5 38.5q-41 0 -101 -16.5t-108 -40.5l-65 -416q-85 0 -187 -26l93 446l165 870q-27 -34 -81 -34q-42 0 -72.5 24.5t-30.5 69.5q0 21 6 45l70 6q10 23 10 51q0 35 -33.5 54.5t-85.5 19.5zM717 8l162 914h-455l-150 -822q-17 -102 -49 -219
q51 -14 69 -53.5t-1 -99.5l-76 -9q-40 -55 14 -97t152 -42q138 0 216 100.5t118 327.5zM473 1204l-41 -229h455l49 244q-64 23 -64 98q0 17 7 45l67 6q28 62 -11 103.5t-142 41.5q-128 0 -210.5 -78t-109.5 -231z" />
    <glyph glyph-name="f_f_b" unicode="ffb" horiz-adv-x="2410" 
d="M1391 1534q-68 0 -118.5 -22.5t-82 -66.5t-50 -96.5t-30.5 -123.5l-43 -250h270l-8 -53h-270l-166 -918q-44 -243 -167.5 -359t-330.5 -116q-186 0 -278 100q-112 -141 -281 -141q-116 0 -180 53t-64 135q0 65 38 108.5t106 43.5q65 0 96 -46t8 -116l-73 -8
q-21 -30 -21 -51q0 -32 28.5 -50t78.5 -18q35 0 61 8t45.5 29t32 41t23.5 61t17.5 70t16.5 86l195 1088h-156l8 53h156l22 129q36 211 182 335t343 124q188 0 264 -115q66 64 150.5 99.5t172.5 35.5q102 0 167 -47t87 -129l152 123l20 -8l-172 -811l11 -2q68 135 170 210.5
t233 75.5q133 0 200.5 -92.5t67.5 -261.5q0 -92 -19.5 -183.5t-62.5 -178.5t-104 -154t-151 -107.5t-197 -40.5q-354 0 -354 336q0 133 43 359l120 628q-30 -38 -88 -38q-40 0 -67 24.5t-27 71.5q0 21 6 45l70 6q10 23 10 51q0 36 -29.5 55t-80.5 19zM713 -16l166 938h-455
l-150 -822q-14 -88 -47 -219q103 -27 64 -153l-74 -9q-40 -55 14 -97t152 -42q135 0 214.5 100t115.5 304zM1792 41q72 0 130.5 36.5t95.5 95.5t62 139.5t35.5 163.5t10.5 171q0 54 -3 90.5t-12 72.5t-25 57t-43.5 33.5t-66.5 12.5q-73 0 -142.5 -59t-118 -149.5t-78 -201.5
t-29.5 -214q0 -43 3 -74.5t14.5 -66t31 -56.5t54 -36.5t81.5 -14.5zM473 1204l-41 -229h455l49 244q-64 23 -64 98q0 17 7 45l67 6q28 62 -11 103.5t-142 41.5q-128 0 -210.5 -78t-109.5 -231z" />
    <glyph glyph-name="f_f_h" unicode="ffh" horiz-adv-x="2441" 
d="M1391 1534q-127 0 -190.5 -79t-90.5 -230l-43 -250h270l-8 -53h-270l-166 -918q-44 -242 -166.5 -358.5t-325.5 -116.5q-192 0 -284 100q-112 -141 -281 -141q-116 0 -180 53t-64 135q0 65 38 108.5t106 43.5q65 0 96 -46t8 -116l-73 -8q-21 -30 -21 -51q0 -32 28.5 -50
t78.5 -18q35 0 61 8t45.5 29t32 41t23.5 61t17.5 70t16.5 86l195 1088h-156l8 53h156l22 129q36 211 182 335t343 124q188 0 264 -115q135 135 326 135q101 0 164.5 -46t84.5 -130l154 123l20 -8l-206 -910l10 -4q29 58 58 107t71.5 103t87 91t102.5 61.5t119 24.5
q134 0 185 -92t8 -258q-97 -368 -115 -455q-8 -36 -8 -69q0 -39 16 -55.5t51 -16.5q56 0 129 88l39 -33q-84 -127 -221 -127q-91 0 -136.5 45t-45.5 128q0 64 22 161.5t58 225t51 198.5q21 104 4 144.5t-76 40.5q-77 0 -156 -68.5t-139 -171.5t-96 -221q-54 -177 -84 -453
q-94 3 -203 -20l86 387l174 925q-29 -36 -84 -36q-40 0 -69 25t-29 71q0 21 6 45l70 6q10 23 10 51q0 36 -29.5 55t-80.5 19zM713 -16l166 938h-455l-150 -822q-16 -96 -49 -223q52 -12 69 -50.5t-3 -98.5l-74 -9q-40 -56 14.5 -97.5t155.5 -41.5q135 0 211.5 94.5
t114.5 309.5zM473 1204l-41 -229h455l49 244q-64 23 -64 98q0 17 7 45l67 6q28 62 -11 103.5t-142 41.5q-128 0 -210.5 -78t-109.5 -231z" />
    <glyph glyph-name="f_f_t" unicode="fft" horiz-adv-x="1953" 
d="M49 -166l195 1088h-156l8 53h156l22 129q36 211 182 335t343 124q189 0 264 -113q129 133 297 133q109 0 173 -51t64 -135q0 -63 -36.5 -104.5t-104.5 -41.5q-52 0 -81 30t-29 77q0 21 6 45l67 6q24 59 0.5 92t-80.5 33q-44 0 -80.5 -19.5t-59.5 -48.5t-41.5 -72.5
t-28.5 -82t-19 -86.5l-43 -250h457l39 221l192 51l-47 -272h215l-10 -53h-213l-127 -689q-17 -91 2.5 -133.5t79.5 -42.5q55 0 96 29.5t90 95.5l45 -35q-50 -77 -120.5 -123.5t-151.5 -46.5q-113 0 -172.5 56t-59.5 151q0 15 0.5 29.5t3.5 34.5t4 31t6.5 38.5t7.5 37t9.5 47
t9.5 49.5l93 471h-457l-166 -918q-44 -243 -168.5 -359t-337.5 -116q-178 0 -270 100q-112 -141 -281 -141q-116 0 -180 53t-64 135q0 65 38 108.5t106 43.5q65 0 96 -46t8 -116l-73 -8q-21 -30 -21 -51q0 -32 28.5 -50t78.5 -18q40 0 69.5 15.5t46.5 30t33.5 63t22 71
t20.5 97.5q3 12 4 18zM713 -16l166 938h-455l-150 -822q-12 -77 -49 -223q51 -12 70 -50.5t0 -98.5l-78 -9q-40 -55 14 -97t152 -42q137 0 215 96t115 308zM473 1204l-41 -229h455l49 244q-64 23 -64 98q0 17 7 45l67 6q28 62 -11 103.5t-142 41.5q-128 0 -210.5 -78
t-109.5 -231z" />
    <glyph glyph-name="f_iacute" unicode="f&#xed;" horiz-adv-x="1200" 
d="M1073 143l43 -32q-44 -67 -95 -100.5t-118 -33.5q-190 0 -190 177q0 72 32 219q35 161 125 549h-446l-178 -981q-40 -224 -136.5 -338.5t-273.5 -114.5q-116 0 -180 53t-64 135q0 65 38 108.5t106 43.5q65 0 96 -46t8 -116l-73 -8q-27 -38 -19.5 -64.5t33.5 -40.5t61 -14
q45 0 78 16.5t51 30t35.5 66t21.5 72.5t19 102q1 5 2 8l195 1088h-156l8 53h156l29 153q20 105 53 185.5t84.5 142.5t126 94.5t170.5 32.5q103 0 159 -50.5t56 -135.5q0 -63 -37 -104.5t-105 -41.5q-52 0 -81 30t-29 77q0 21 6 45l68 6q29 59 17.5 92t-71.5 33
q-26 0 -48.5 -6.5t-40 -15.5t-33 -28t-26 -33t-21.5 -43.5t-17 -46t-14.5 -53.5t-11.5 -53t-11 -57l-43 -223h623l-160 -772q-17 -88 -5 -121t58 -33q32 0 59.5 20.5t65.5 73.5zM938 1128l190 367l76 14q33 8 60.5 -7.5t27.5 -49.5q0 -44 -57 -98l-270 -246z" />
    <glyph glyph-name="t_t.alt" unicode="tt" horiz-adv-x="1298" 
d="M1186 182l45 -35q-50 -76 -121 -123t-152 -47q-113 0 -172 56t-59 151q0 15 0.5 29.5t3.5 34.5t4 31t6.5 38.5t7.5 37t9.5 47t9.5 49.5l92 471h-436l-127 -689q-17 -91 2.5 -133.5t79.5 -42.5q55 0 96 29.5t90 95.5l45 -35q-50 -77 -120.5 -123.5t-151.5 -46.5
q-113 0 -172.5 56t-59.5 151q0 15 0.5 29.5t3.5 34.5t4 31t6.5 38.5t7.5 37t9.5 47t9.5 49.5l93 471h-148l10 53h146l41 252l192 51l-49 -303h436l41 252l193 51l-49 -303h215l-11 -53h-213l-126 -689q-17 -91 2 -133.5t79 -42.5q55 0 96.5 29.5t90.5 95.5z" />
    <glyph glyph-name=".notdef" horiz-adv-x="409" 
 />
    <glyph glyph-name=".null" horiz-adv-x="0" 
 />
    <glyph glyph-name="nonmarkingreturn" horiz-adv-x="682" 
 />
    <glyph glyph-name="space" unicode=" " horiz-adv-x="409" 
 />
    <glyph glyph-name="exclam" unicode="!" horiz-adv-x="784" 
d="M297 365l29 174q24 148 34 288.5t7.5 220t-1.5 162.5t7 117q11 62 47.5 95.5t95.5 33.5q58 0 82.5 -36.5t13.5 -102.5q-7 -51 -35 -132.5t-59.5 -162.5t-68.5 -213.5t-60 -271.5l-29 -172h-63zM307 236q-62 0 -106.5 -42t-44.5 -110q0 -44 25.5 -74t82.5 -30q64 0 109 43
t45 112q0 50 -30 75.5t-81 25.5z" />
    <glyph glyph-name="quotedbl" unicode="&#x22;" horiz-adv-x="765" 
d="M240 1092l22 434q69 49 115 49q30 0 45.5 -15.5t15.5 -39.5q0 -37 -32 -121l-121 -307h-45zM543 1092l22 434q69 49 115 49q30 0 45.5 -15.5t15.5 -39.5q0 -37 -32 -121l-121 -307h-45z" />
    <glyph glyph-name="numbersign" unicode="#" horiz-adv-x="1226" 
d="M250 0h-92l94 285h-244l33 86h240l122 362h-245l30 88h240l84 266h94l-86 -266h316l84 266h90l-86 -266h247l-28 -88h-244l-119 -362h244l-29 -86h-239l-94 -285h-93l95 285h-318zM809 733h-313l-123 -362h317z" />
    <glyph glyph-name="dollar" unicode="$" horiz-adv-x="1110" 
d="M449 -162l28 158h-10q-41 0 -111 8l-28 -166h-64l33 178q-52 12 -124 39t-93 27q-19 0 -32.5 -17t-33.5 -63h-32l59 444h43q31 -289 223 -366l101 561q-55 25 -95 51.5t-76.5 66.5t-55.5 96t-19 126q0 155 102 270t275 138l32 184h64l-31 -178h12q50 0 107 -13l33 191h63
l-37 -205q26 -7 62 -19.5t57.5 -19t34.5 -6.5q19 0 32 14t27 47h31l-57 -407h-41q-26 247 -156 326l-96 -543q61 -26 103 -51.5t83.5 -64.5t62.5 -93.5t21 -124.5q0 -177 -114 -290t-291 -136l-29 -162h-63zM786 332q0 74 -39 124t-110 87l-86 -484q105 19 170 85.5
t65 187.5zM467 53h20l93 516q-22 9 -65.5 26.5t-49.5 20.5l-98 -553q52 -10 100 -10zM504 834l112 -50l97 543q-43 14 -103 14h-16zM322 1085q0 -137 124 -219l82 467q-91 -21 -148.5 -82t-57.5 -166z" />
    <glyph glyph-name="percent" unicode="%" horiz-adv-x="1556" 
d="M735 233q0 182 108.5 309.5t282.5 127.5q55 0 101.5 -15t84.5 -45t59.5 -82t21.5 -120q0 -106 -36.5 -191.5t-95 -136t-125.5 -77t-135 -26.5q-131 0 -198.5 67.5t-67.5 188.5zM1116 623q-53 0 -94.5 -29.5t-66 -73t-40 -101t-21 -107.5t-5.5 -97q0 -188 123 -188
q54 0 95.5 30t65.5 74.5t39.5 101t21 103t5.5 88.5q0 109 -30.5 154t-92.5 45zM147 1020q0 182 109 309t283 127q115 0 190.5 -64.5t75.5 -197.5q0 -86 -24 -158.5t-63.5 -121.5t-91 -83.5t-105 -50.5t-107.5 -16q-131 0 -199 67.5t-68 188.5zM528 1409q-53 0 -94.5 -29.5
t-66 -73t-40 -101t-21 -107.5t-5.5 -97q0 -188 123 -188q54 0 95.5 30t65.5 74.5t39.5 101t21 103t5.5 88.5q0 109 -30.5 154t-92.5 45zM160 0l1114 1434h88l-1112 -1434h-90z" />
    <glyph glyph-name="ampersand" unicode="&#x26;" horiz-adv-x="1665" 
d="M1516 668l-183 -29q-9 -62 -22.5 -118.5t-40 -125t-60.5 -125.5t-88 -113t-119.5 -94.5t-157 -62t-198.5 -23.5q-225 0 -364.5 100.5t-139.5 272.5q0 74 23 137t60 107.5t92 82.5t110 62.5t123 46.5q-246 81 -246 301q0 118 72 203.5t184.5 125.5t249.5 40q157 0 262 -69
t105 -191q0 -69 -40.5 -111.5t-103.5 -42.5q-42 0 -69 19t-35.5 47t-5 59t19.5 56h72q11 24 12.5 49t-9.5 48.5t-33 42t-60.5 29.5t-89.5 11q-153 0 -239.5 -90t-86.5 -223q0 -177 100 -277q89 33 127 33q35 0 60.5 -15.5t25.5 -46.5q0 -34 -31.5 -53.5t-68.5 -19.5
q-80 0 -127 43q-231 -131 -231 -389q0 -143 84 -226.5t247 -83.5q124 0 222.5 41.5t165.5 119t110 179.5t66 232l-250 -37q-37 -6 -53 -26t-25 -72l-41 4q5 113 35 171.5t104 71.5q42 8 254.5 39t259.5 41q30 6 44 25t20 67l45 -2q-1 -118 -36 -175t-101 -66z" />
    <glyph glyph-name="quotesingle" unicode="'" horiz-adv-x="462" 
d="M240 1092l22 434q69 49 115 49q30 0 45.5 -15.5t15.5 -39.5q0 -37 -32 -121l-121 -307h-45z" />
    <glyph glyph-name="parenleft" unicode="(" horiz-adv-x="645" 
d="M113 680q38 214 138 408t247.5 328.5t308.5 162.5l2 -45q-94 -22 -166 -85.5t-125.5 -172.5t-91 -244t-70.5 -323q-63 -360 -63 -549q0 -365 194 -441l-16 -38q-97 27 -172.5 99t-120.5 172.5t-67.5 216.5t-22.5 241q0 129 25 270z" />
    <glyph glyph-name="parenright" unicode=")" horiz-adv-x="645" 
d="M512 582q-38 -214 -138 -408t-247.5 -328.5t-308.5 -162.5l-2 45q76 18 137.5 64t108 114.5t85 168.5t67 214t54.5 264q64 366 64 549q0 364 -195 440l17 39q97 -27 172.5 -99t120.5 -172.5t67.5 -216.5t22.5 -241q0 -129 -25 -270z" />
    <glyph glyph-name="asterisk" unicode="*" horiz-adv-x="999" 
d="M915 1305l-323 -84l209 -72q39 -13 59.5 -27t20.5 -39t-18.5 -47t-39 -34t-51.5 -27l-186 213v-301q-58 -41 -103 -41q-26 0 -40.5 16t-14.5 39q0 24 27 80l100 209l-272 -215q-76 34 -76 86q0 62 84 86l266 76l-307 80q0 49 20.5 93t65.5 44q17 0 32.5 -7t23 -13.5
t30.5 -26.5l147 -138l-14 306q58 41 102 41q27 0 41.5 -13.5t14.5 -34.5q0 -28 -25 -90l-92 -211l170 138q59 49 111 49q51 0 51 -62q0 -29 -13 -73z" />
    <glyph glyph-name="plus" unicode="+" 
d="M1016 612h-430l-74 -424h-82l74 424h-418l14 74h418l70 399h82l-70 -399h430z" />
    <glyph glyph-name="comma" unicode="," horiz-adv-x="501" 
d="M23 -317l-35 47q223 151 223 276q0 22 -11 36t-30 15l-74 -63q-33 11 -56.5 44t-23.5 77q0 70 48.5 113.5t121.5 43.5q70 0 108 -48.5t38 -119.5q0 -67 -23 -126.5t-68.5 -111.5t-96 -94t-121.5 -89z" />
    <glyph glyph-name="hyphen" unicode="-" horiz-adv-x="690" 
d="M68 512l20 119h465l-21 -119h-464z" />
    <glyph glyph-name="period" unicode="." horiz-adv-x="468" 
d="M180 274q59 0 93 -29.5t34 -86.5q0 -78 -52 -128t-124 -50q-65 0 -95 34.5t-30 85.5q0 77 51 125.5t123 48.5z" />
    <glyph glyph-name="slash" unicode="/" horiz-adv-x="780" 
d="M-84 -199l907 1827h86l-905 -1827h-88z" />
    <glyph glyph-name="zero" unicode="0" horiz-adv-x="1146" 
d="M59 514q0 98 14.5 200.5t44.5 210t81 201.5t118 168.5t162 118t207 43.5q69 0 126.5 -17t106.5 -56t83.5 -98.5t53.5 -147.5t19 -199q0 -88 -9.5 -178t-31.5 -185.5t-55 -181t-83.5 -162.5t-113 -133t-147 -88.5t-182.5 -32.5q-130 0 -220.5 71t-132 190t-41.5 276z
M672 1393q-126 0 -221.5 -134t-144 -349.5t-48.5 -471.5q0 -152 23.5 -239.5t68 -121.5t119.5 -34q98 0 177.5 76.5t129.5 207.5t76.5 301t26.5 363q0 209 -51 305.5t-156 96.5z" />
    <glyph glyph-name="one" unicode="1" horiz-adv-x="849" 
d="M246 59l182 1174q-35 -10 -96 -6t-112 12t-83 16l10 43q296 -23 443 158h63l-215 -1397h197l-8 -59h-615l8 59h226z" />
    <glyph glyph-name="two" unicode="2" horiz-adv-x="1017" 
d="M504 1393q-77 0 -145 -42t-68 -110q0 -33 12 -61h66q4 -32 4 -52q0 -141 -133 -141q-52 0 -84.5 36.5t-32.5 102.5q0 81 42.5 146.5t111.5 104t149.5 59t163.5 20.5q93 0 163 -25.5t110 -70t59.5 -97.5t19.5 -114q0 -128 -65 -234.5t-193 -232.5q-144 -142 -557 -512h373
q138 0 196 44.5t101 168.5h45l-74 -383h-823l14 100l350 355q121 122 203 223t126 182.5t61.5 145.5t17.5 129q0 138 -50 198t-163 60z" />
    <glyph glyph-name="three" unicode="3" horiz-adv-x="1064" 
d="M922 1190q0 -73 -25 -130t-81.5 -105t-124 -85.5t-175.5 -83.5v-8q70 15 129 15q72 0 126.5 -25.5t86 -69t47 -96.5t15.5 -113q0 -106 -51.5 -202t-135.5 -163.5t-193.5 -107t-222.5 -39.5q-143 0 -232 56.5t-89 173.5q0 81 42.5 125.5t111.5 44.5q45 0 74 -18.5
t37.5 -47.5t4.5 -62t-20 -65h-78q-35 -64 8 -102.5t135 -38.5q181 0 290.5 112.5t109.5 327.5q0 115 -49 177.5t-125 62.5q-105 0 -250 -59l-13 69q77 25 137.5 51.5t119.5 65t97.5 82.5t62.5 103.5t24 129.5q0 228 -191 228q-87 0 -136.5 -32t-49.5 -85q0 -18 6 -39h57
q11 -37 11 -57q0 -53 -35 -87t-94 -34q-52 0 -82.5 32.5t-30.5 90.5q0 87 63 151t156.5 93.5t200.5 29.5q155 0 243.5 -75t88.5 -191z" />
    <glyph glyph-name="four" unicode="4" horiz-adv-x="1107" 
d="M115 434h508l55 363l213 73l-74 -436h187l-11 -67h-188l-51 -308h178l-8 -59h-564l9 59h192l51 308h-594l11 67q354 374 496.5 572.5t142.5 306.5q0 46 -25 98l70 53q86 -3 135 -42.5t49 -102.5q0 -91 -85 -191.5t-462 -463.5z" />
    <glyph glyph-name="five" unicode="5" horiz-adv-x="1038" 
d="M494 805q-153 0 -301 -100l-37 18l170 696l32 17q188 -62 344 -62q105 0 161.5 30t84.5 120l41 -8q-23 -166 -121.5 -248t-277.5 -82q-122 0 -234 41l-118 -439q54 35 141.5 63t173.5 28q172 0 259 -87.5t87 -228.5q0 -135 -50 -247.5t-134.5 -185.5t-194.5 -113
t-231 -40q-61 0 -115.5 12.5t-101.5 38.5t-75 71t-28 104q0 82 42.5 127t113.5 45q58 0 84.5 -30.5t25 -71t-19.5 -89.5h-72q-26 -44 -9 -75.5t60 -48.5t99 -17q82 0 151 29.5t123 89t84.5 157.5t30.5 226q0 130 -45 195t-143 65z" />
    <glyph glyph-name="six" unicode="6" horiz-adv-x="1054" 
d="M313 651q-61 -135 -61 -313q0 -293 194 -293q148 0 228 142t80 395q0 249 -168 249q-83 0 -161 -52.5t-112 -127.5zM752 1393q-319 0 -453 -658q55 73 150 121.5t190 48.5q143 0 228 -81.5t85 -245.5q0 -264 -149 -432.5t-379 -168.5q-170 0 -261 111.5t-91 333.5
q0 90 11.5 186.5t37.5 198t63.5 195t93.5 176.5t123.5 144.5t157 97.5t191.5 36q124 0 194 -56t70 -145q0 -86 -40 -127t-97 -41q-44 0 -72.5 22.5t-28.5 66.5q0 33 17 77l63 9q27 52 1 91.5t-105 39.5z" />
    <glyph glyph-name="seven" unicode="7" horiz-adv-x="929" 
d="M197 739l12 62h291q52 74 119.5 171.5t113.5 163.5t78 111h-524q-56 0 -78.5 -24t-58.5 -109l-44 8l87 338l26 8q53 -34 195 -34h579l8 -33q-115 -133 -376 -600h231l-12 -62h-252q-205 -385 -205 -542q0 -82 45 -146l-49 -65q-93 -2 -158 47t-65 141q0 84 62 200
t241 365h-266z" />
    <glyph glyph-name="eight" unicode="8" horiz-adv-x="1083" 
d="M471 754q-131 17 -206 94t-75 199q0 174 138 291.5t338 117.5q169 0 266.5 -79t97.5 -224q0 -159 -107 -269t-278 -130l-2 -9q160 -15 239 -92t79 -219q0 -210 -149.5 -333.5t-379.5 -123.5q-193 0 -299 84t-106 250q0 179 122 298.5t322 138.5v6zM549 715
q-63 0 -119.5 -24t-102.5 -70.5t-73 -123.5t-27 -175q0 -277 215 -277q141 0 229.5 100t88.5 301q0 269 -211 269zM659 1391q-132 0 -205 -104.5t-73 -268.5q0 -112 48.5 -171t133.5 -59q118 0 195.5 89t77.5 270q0 244 -177 244z" />
    <glyph glyph-name="nine" unicode="9" horiz-adv-x="1056" 
d="M471 602q85 0 149 39.5t101 109t54.5 153.5t17.5 183q0 155 -45 229.5t-144 74.5q-148 0 -230.5 -137.5t-82.5 -362.5q0 -139 45.5 -214t134.5 -75zM309 -23q-140 0 -210 64.5t-70 159.5q0 92 45.5 137t111.5 45q52 0 77.5 -30t24.5 -70.5t-20 -83.5h-63q-25 -32 -25 -62
q0 -94 135 -94q328 0 437 643q-59 -77 -150.5 -116.5t-191.5 -39.5q-143 0 -229.5 88t-86.5 259q0 259 147 419t382 160q169 0 258.5 -117t89.5 -344q0 -80 -9.5 -168.5t-33 -188.5t-58 -193t-88 -179t-119.5 -149.5t-157.5 -101.5t-196.5 -38z" />
    <glyph glyph-name="colon" unicode=":" horiz-adv-x="468" 
d="M180 274q59 0 93 -29.5t34 -86.5q0 -78 -52 -128t-124 -50q-65 0 -95 34.5t-30 85.5q0 77 51 125.5t123 48.5zM307 952q59 0 93 -29.5t34 -86.5q0 -78 -52 -128.5t-124 -50.5q-65 0 -95 35t-30 86q0 77 51 125.5t123 48.5z" />
    <glyph glyph-name="semicolon" unicode=";" horiz-adv-x="501" 
d="M14 -317l-34 47q223 151 223 276q0 22 -11 36t-30 15l-74 -63q-33 11 -56.5 44t-23.5 77q0 70 48.5 113.5t121.5 43.5q70 0 108 -48.5t38 -119.5q0 -66 -23.5 -126t-69 -112t-96 -94t-121.5 -89zM313 952q59 0 93 -29.5t34 -86.5q0 -78 -52 -128.5t-124 -50.5
q-65 0 -95 35t-30 86q0 77 51 125.5t123 48.5z" />
    <glyph glyph-name="less" unicode="&#x3c;" 
d="M918 176l-857 395l11 58l993 389l-14 -84l-871 -338l752 -344z" />
    <glyph glyph-name="equal" unicode="=" 
d="M973 383h-930l14 74h930zM113 776h929l-12 -74h-930z" />
    <glyph glyph-name="greater" unicode="&#x3e;" 
d="M1014 571l-996 -395l15 86l870 344l-751 338l14 74l858 -389z" />
    <glyph glyph-name="question" unicode="?" horiz-adv-x="1028" 
d="M408 236q51 0 80.5 -25.5t29.5 -75.5q0 -69 -45 -112t-108 -43q-57 0 -83 30t-26 74q0 68 44.5 110t107.5 42zM604 1407q-106 0 -158.5 -48.5t-33.5 -117.5h59q21 -70 -11 -119t-104 -49q-57 0 -88.5 33t-31.5 86q0 66 35.5 118.5t92 83t121.5 46.5t131 16
q165 0 258 -70.5t93 -185.5q0 -80 -34 -141.5t-88 -99t-119.5 -68t-131.5 -58t-120 -58.5t-88 -80.5t-34 -114.5q0 -76 44.5 -115t113.5 -39q161 0 231 203l52 -15q-17 -51 -39 -90.5t-57 -75.5t-87 -55.5t-118 -19.5q-130 0 -205.5 65t-75.5 176q0 80 33 140t85.5 96.5
t116 66t127 56.5t116 58.5t85.5 82t33 117.5q0 87 -55.5 131.5t-147.5 44.5z" />
    <glyph glyph-name="at" unicode="@" horiz-adv-x="1738" 
d="M930 809q117 0 190 -76l47 62h121l-131 -373q-72 -199 -72 -285q0 -50 23.5 -70t73.5 -20q45 0 94 21.5t98 68.5t88 113t63.5 163t24.5 210q0 226 -146.5 357.5t-414.5 131.5q-180 0 -336.5 -70.5t-265 -191t-171 -285.5t-62.5 -350q0 -137 48.5 -241t133.5 -166
t191 -92.5t231 -30.5q268 0 499 170l35 -50q-107 -86 -250 -133t-294 -47q-145 0 -266.5 37t-212.5 108.5t-142 184.5t-51 256q0 203 69.5 381t191 305.5t295.5 200.5t376 73q273 0 444.5 -146.5t171.5 -395.5q0 -130 -30 -239t-78.5 -182t-111.5 -124.5t-128.5 -74.5
t-130.5 -23q-196 0 -207 149q-52 -64 -125.5 -106.5t-153.5 -42.5q-114 0 -165.5 61t-51.5 162q0 78 21 161t63 161t99 140.5t136.5 100t168.5 37.5zM958 266l140 418q-59 72 -160 72q-67 0 -125 -39.5t-96 -100t-65.5 -135.5t-39.5 -144.5t-12 -127.5q0 -146 113 -146
q75 0 146.5 61t98.5 142z" />
    <glyph glyph-name="A" unicode="A" horiz-adv-x="1226" 
d="M803 59l-64 418h-442l-217 -418h178l-8 -59h-389l8 59h133l731 1397h51l242 -1397h135l-8 -59h-530l8 59h172zM637 1151l-311 -614h403z" />
    <glyph glyph-name="B" unicode="B" horiz-adv-x="1220" 
d="M233 1434h445q91 0 163 -9.5t132.5 -32t101 -58t62.5 -89.5t22 -125q0 -128 -102 -229t-273 -133l-2 -4q144 -22 237 -100.5t93 -209.5q0 -100 -39.5 -178.5t-104 -127.5t-155 -81t-184 -44.5t-199.5 -12.5h-436l6 59h166l221 1315h-166zM485 717l-114 -658h104
q194 0 307 96t113 289q0 141 -74 207t-233 66h-103zM592 1374l-100 -604h51q114 0 206 40.5t148.5 122t56.5 191.5q0 130 -72.5 190t-228.5 60h-61z" />
    <glyph glyph-name="C" unicode="C" horiz-adv-x="1249" 
d="M836 1397q-99 0 -182.5 -41t-142 -111.5t-102.5 -158t-69.5 -187t-38 -192t-12.5 -179.5q0 -221 88 -350t270 -129q157 0 279 97t188 298l55 -14q-27 -91 -68.5 -164t-91.5 -121t-103.5 -82.5t-110.5 -52.5t-105 -25.5t-96 -7.5q-253 0 -390.5 144t-137.5 424
q0 121 29.5 246.5t93 245t152 212.5t218.5 150t281 57q66 0 139 -15t124.5 -30.5t65.5 -15.5q15 0 25.5 6.5t15.5 12.5t17 24h41l-58 -428h-51q-17 387 -323 387z" />
    <glyph glyph-name="D" unicode="D" horiz-adv-x="1427" 
d="M1366 885q0 -196 -61.5 -358t-178.5 -279.5t-295 -182.5t-401 -65h-438l10 59h164l223 1315h-164l6 60h482q653 0 653 -549zM369 59h86q140 0 255 43t195.5 119t136 181.5t81.5 230.5t26 266q0 133 -31.5 225t-96.5 147t-156.5 79t-219.5 24h-51z" />
    <glyph glyph-name="E" unicode="E" horiz-adv-x="1224" 
d="M244 1434h952l-43 -385h-47q2 51 -1 91.5t-9.5 72.5t-19.5 56t-27 41t-37.5 29t-45.5 19t-56 10.5t-64.5 4.5t-75.5 1h-180l-103 -612h101q119 0 173 51t103 211h41l-102 -606h-43q3 70 -0.5 114.5t-15 78.5t-35.5 51.5t-59.5 25.5t-90.5 8h-82l-106 -637h204
q210 0 312.5 78.5t171.5 288.5h39l-84 -426h-1008l10 59h152l219 1315h-154z" />
    <glyph glyph-name="F" unicode="F" horiz-adv-x="1167" 
d="M244 1434h954l-45 -396h-47q2 76 -4.5 131t-26 92t-44.5 59.5t-68 34.5t-86.5 15.5t-110.5 3.5h-174l-105 -626h111q117 0 169 50.5t105 211.5h41l-102 -607h-45q1 61 -1 99.5t-9.5 72.5t-20.5 52.5t-35.5 32t-53.5 18t-77 4.5h-92l-104 -623h250l-11 -59h-606l10 59h152
l219 1315h-154z" />
    <glyph glyph-name="G" unicode="G" horiz-adv-x="1318" 
d="M823 1399q-85 0 -159 -30.5t-127.5 -82t-97 -122.5t-71.5 -148.5t-46.5 -163t-26.5 -163t-8 -152.5q0 -240 79 -369t244 -129q79 0 159 21.5t124 58.5l63 405h-176l11 60h505l-10 -60h-133l-66 -395q-81 -64 -227.5 -108t-273.5 -44q-246 0 -383 140t-137 407
q0 131 30 261.5t94 251.5t154 214t220 149t282 56q69 0 135 -15t113 -29.5t69 -14.5q21 0 31.5 8.5t26.5 32.5h36l-57 -428h-49q-12 203 -90.5 296t-237.5 93z" />
    <glyph glyph-name="H" unicode="H" horiz-adv-x="1542" 
d="M244 1434h512l-11 -60h-153l-100 -606h604l100 606h-154l11 60h512l-11 -60h-153l-219 -1315h153l-10 -59h-512l10 59h154l106 635h-604l-106 -635h153l-10 -59h-510l10 59h152l219 1315h-154z" />
    <glyph glyph-name="I" unicode="I" horiz-adv-x="731" 
d="M258 1434h498l-11 -60h-147l-231 -1315h147l-10 -59h-496l10 59h146l231 1315h-147z" />
    <glyph glyph-name="J" unicode="J" horiz-adv-x="1028" 
d="M518 1434h535l-11 -58h-143l-162 -966q-35 -216 -153 -324.5t-314 -108.5q-136 0 -205 55.5t-69 145.5q0 75 44.5 128.5t125.5 53.5q45 0 73.5 -17t38 -45.5t6 -63.5t-19.5 -74h-84q-16 -34 -16 -62t26.5 -46.5t75.5 -18.5q100 0 161 60t87 212l180 1069h-186z" />
    <glyph glyph-name="K" unicode="K" horiz-adv-x="1294" 
d="M250 1434h498l-11 -60h-145l-109 -643l82 33l578 610h-172l8 60h395l-8 -60h-133l-514 -549l379 -766h106l-8 -59h-481l8 59h149l-301 633l-100 -37l-100 -596h147l-10 -59h-496l11 59h145l219 1315h-145z" />
    <glyph glyph-name="L" unicode="L" horiz-adv-x="1161" 
d="M244 1434h563l-10 -60h-205l-221 -1315h147q152 0 244 36t153 120.5t111 243.5h43l-92 -459h-971l8 59h154l219 1315h-154z" />
    <glyph glyph-name="M" unicode="M" horiz-adv-x="1722" 
d="M1335 1434h402l-11 -60h-145l-221 -1315h147l-10 -59h-489l8 59h147l217 1307h-8l-649 -1366h-59l-203 1366h-8l-220 -1307h148l-10 -59h-359l11 59h143l221 1315h-147l10 60h407l162 -1092z" />
    <glyph glyph-name="N" unicode="N" horiz-adv-x="1431" 
d="M1309 1374l-234 -1388h-57l-574 1343l-213 -1270h146l-10 -59h-359l10 59h146l219 1315h-145l10 60h383l442 -1051l168 991h-145l10 60h358l-8 -60h-147z" />
    <glyph glyph-name="O" unicode="O" horiz-adv-x="1382" 
d="M592 43q86 0 158.5 32.5t124 87t92.5 129.5t66 156t41.5 171.5t23 170.5t6.5 158q0 226 -65.5 334.5t-229.5 108.5q-97 0 -177.5 -36.5t-136.5 -102t-98 -149.5t-66.5 -186t-36 -204.5t-11.5 -210.5q0 -101 16.5 -181.5t51.5 -144t96.5 -98.5t144.5 -35zM66 539
q0 124 29.5 251t93 247t151.5 213t215.5 149.5t275.5 56.5q236 0 363 -142.5t127 -410.5q0 -125 -27.5 -252t-88 -249t-146.5 -216t-213 -151.5t-277 -57.5q-242 0 -372.5 142.5t-130.5 419.5z" />
    <glyph glyph-name="P" unicode="P" horiz-adv-x="1232" 
d="M231 1434h494q508 0 508 -347q0 -106 -36.5 -190.5t-99 -141.5t-150.5 -95t-186.5 -55t-211.5 -17h-90l-88 -529h241l-8 -59h-612l8 59h166l221 1315h-166zM592 1374l-123 -733h72q218 0 343.5 120t125.5 322q0 159 -78.5 225t-229.5 66h-110z" />
    <glyph glyph-name="Q" unicode="Q" horiz-adv-x="1386" 
d="M66 539q0 124 29.5 251t93 247t151.5 213t215.5 149.5t275.5 56.5q236 0 363 -142.5t127 -410.5q0 -115 -20.5 -228.5t-68 -226.5t-116.5 -204t-174 -158.5t-233 -91.5v-8q145 -22 208 -60t130 -149q68 -113 105.5 -154t90.5 -41q37 0 69.5 24t71.5 72l43 -28
q-47 -69 -103.5 -108.5t-145.5 -39.5q-55 0 -99 9t-91 33.5t-88 74t-75 123.5q-28 61 -47.5 93.5t-41.5 59.5t-54.5 40.5t-70 23.5t-105.5 21q-213 17 -326.5 159t-113.5 400zM592 43q86 0 159 32.5t124.5 87t93 129.5t67 156t42.5 171.5t23.5 170.5t6.5 158
q0 225 -67.5 334t-231.5 109q-115 0 -207.5 -53t-151.5 -139.5t-98.5 -204t-56 -239.5t-16.5 -253q0 -100 17 -181t53 -144.5t98 -98.5t145 -35z" />
    <glyph glyph-name="R" unicode="R" horiz-adv-x="1316" 
d="M696 739v-6q130 -23 197 -83.5t76 -186.5l14 -205q3 -40 4 -54.5t5 -44.5t9.5 -41.5t15 -27.5t23.5 -21.5t33 -5.5q31 0 55.5 21t59.5 74l45 -29q-90 -152 -225 -152q-199 0 -215 213l-21 240q-4 55 -10 91t-21 75.5t-39.5 62t-66 37.5t-98.5 15h-56l-110 -652h202
l-6 -59h-573l6 59h166l225 1315h-166l8 60h461q77 0 140 -6t131 -25t114.5 -50t76.5 -86t30 -128q0 -95 -37.5 -168.5t-106 -121t-155 -74.5t-191.5 -36zM596 1374l-102 -610h41q86 0 160 23t132.5 67.5t92.5 117.5t34 167q0 126 -72 180.5t-235 54.5h-51z" />
    <glyph glyph-name="S" unicode="S" horiz-adv-x="1112" 
d="M502 37q62 0 118.5 18.5t103 54.5t74 97t27.5 139q0 71 -35 123t-90.5 83.5t-123 58.5t-135 59t-123 73.5t-90.5 113t-35 167.5q0 86 32.5 164t90.5 137.5t145.5 95t191.5 35.5q65 0 135 -20.5t120.5 -41t68.5 -20.5q21 0 33.5 14.5t27.5 49.5h31l-57 -418h-43
q-20 200 -100.5 289.5t-221.5 89.5q-53 0 -103 -14.5t-93.5 -44.5t-70 -83.5t-26.5 -123.5q0 -62 21.5 -110.5t58.5 -81t84.5 -59t100 -48.5t104.5 -45t99.5 -53t84.5 -68t58.5 -95t21.5 -129q0 -206 -140.5 -336.5t-344.5 -130.5q-71 0 -140 15t-111.5 33.5t-81.5 33.5
t-58 15q-21 0 -34.5 -17.5t-33.5 -64.5h-33l60 454h45q44 -409 387 -409z" />
    <glyph glyph-name="T" unicode="T" horiz-adv-x="1261" 
d="M1313 1434l-49 -412h-47q1 63 -3 111t-14.5 84.5t-22.5 62.5t-35.5 43.5t-45 27.5t-58.5 15t-68.5 6.5t-82.5 1.5h-27l-219 -1315h184l-8 -59h-575l10 59h184l221 1315h-28q-45 0 -74.5 -1t-64.5 -5t-58 -11t-50 -19.5t-46.5 -31t-41 -44.5t-39.5 -61t-36.5 -79
t-36.5 -100h-47l88 412h1090z" />
    <glyph glyph-name="U" unicode="U" horiz-adv-x="1411" 
d="M651 49q180 0 284.5 93t141.5 315l152 917h-170l8 60h395l-10 -60h-141l-152 -911q-40 -240 -168.5 -363t-382.5 -123q-93 0 -164.5 15t-127.5 48.5t-86 88t-41 132.5t8 183l157 930h-147l10 60h496l-8 -60h-148l-151 -907q-25 -145 -14.5 -238t72 -136.5t187.5 -43.5z
" />
    <glyph glyph-name="V" unicode="V" horiz-adv-x="1259" 
d="M625 293l559 1081h-197l8 60h402l-6 -60h-129l-734 -1394h-45l-245 1394h-129l6 60h542l-6 -60h-192z" />
    <glyph glyph-name="W" unicode="W" horiz-adv-x="1996" 
d="M612 283l447 753l-68 338h-137l8 60h561l-8 -60h-201l201 -1048l506 1048h-207l8 60h424l-8 -60h-135l-686 -1394h-47l-187 960l-575 -960h-47l-217 1394h-138l9 60h563l-8 -60h-201z" />
    <glyph glyph-name="X" unicode="X" horiz-adv-x="1234" 
d="M1118 0h-553l8 59h187l-209 562l-432 -562h196l-8 -59h-407l8 59h129l485 635l-266 680h-131l8 60h553l-8 -60h-191l197 -538l412 538h-187l9 60h397l-8 -60h-127l-465 -610l278 -705h133z" />
    <glyph glyph-name="Y" unicode="Y" horiz-adv-x="1138" 
d="M653 748l422 626h-196l8 60h403l-8 -60h-129l-479 -710l-103 -605h166l-10 -59h-534l10 59h164l102 605l-242 710h-131l8 60h545l-8 -60h-184z" />
    <glyph glyph-name="Z" unicode="Z" horiz-adv-x="1136" 
d="M1167 1434l-10 -60l-946 -1315h317q187 0 290.5 88.5t178.5 311.5h47l-102 -459h-987l8 51l955 1323h-281q-54 0 -88.5 -2t-75 -9.5t-67.5 -22.5t-57.5 -40t-54.5 -63t-49 -91t-50 -124h-43l90 412h925z" />
    <glyph glyph-name="bracketleft" unicode="[" horiz-adv-x="620" 
d="M406 -293l-9 -55h-385l338 1927h385l-8 -55h-113q-76 0 -100.5 -18.5t-36.5 -88.5l-282 -1601q-6 -33 -6 -51.5t3 -31.5t17.5 -18t31 -6.5t50.5 -1.5h115z" />
    <glyph glyph-name="backslash" unicode="\" horiz-adv-x="782" 
d="M262 1628l299 -1827h-82l-297 1827h80z" />
    <glyph glyph-name="bracketright" unicode="]" horiz-adv-x="620" 
d="M209 1526l8 55h385l-338 -1927h-385l8 55h113q76 0 100.5 18.5t36.5 88.5l283 1601q6 33 6 51.5t-3 31.5t-17.5 18t-31 6.5t-50.5 1.5h-115z" />
    <glyph glyph-name="asciicircum" unicode="^" horiz-adv-x="1146" 
d="M1038 614l-75 -30l-390 688l-358 -690l-78 32l387 746h101z" />
    <glyph glyph-name="underscore" unicode="_" horiz-adv-x="1036" 
d="M1030 -217h-1024v76h1024v-76z" />
    <glyph glyph-name="grave" unicode="`" horiz-adv-x="1024" 
d="M758 1497l94 -371l-33 -14l-207 266q-32 44 -32 80q0 41 43.5 61t83.5 1z" />
    <glyph glyph-name="a" unicode="a" horiz-adv-x="1134" 
d="M1026 141l41 -32q-82 -132 -207 -132q-61 0 -100.5 21.5t-55 60t-14 88t18.5 109.5l-11 2q-135 -281 -379 -281q-139 0 -213.5 93.5t-74.5 261.5q0 85 19.5 175t60.5 177.5t99 156.5t141.5 111.5t180.5 42.5q185 0 259 -161l38 139q71 0 166 12q-103 -511 -149 -819
q-8 -57 4.5 -86t54.5 -29q57 0 121 90zM385 63q77 0 146.5 61.5t114.5 154.5t71 198t26 195q0 260 -192 260q-89 0 -154.5 -55t-101 -146t-52 -191t-16.5 -208q0 -139 34.5 -204t123.5 -65z" />
    <glyph glyph-name="b" unicode="b" horiz-adv-x="1067" 
d="M293 711l10 -2q68 135 170.5 210.5t233.5 75.5q133 0 200.5 -92.5t67.5 -261.5q0 -92 -19.5 -183.5t-63 -178.5t-104.5 -154t-151 -107.5t-197 -40.5q-354 0 -354 336q0 34 2.5 68.5t8 76t9.5 67.5t13 77t12 70l143 811h-161l8 53h346zM444 41q72 0 130.5 36.5t95.5 95.5
t62 139.5t35.5 163.5t10.5 171q0 54 -2.5 90.5t-11.5 72.5t-25 56.5t-43.5 33.5t-66.5 13q-97 0 -184 -98.5t-136 -242.5t-49 -283q0 -43 3 -74.5t14.5 -66t31 -56.5t54 -36.5t81.5 -14.5z" />
    <glyph glyph-name="c" unicode="c" horiz-adv-x="946" 
d="M784 334l54 -17q-18 -67 -52 -125.5t-86.5 -108t-130.5 -78t-172 -28.5q-177 0 -268.5 103t-91.5 287q0 95 22.5 185.5t69 171t112 140.5t158 95.5t201.5 35.5q138 0 214.5 -68t76.5 -175q0 -76 -39 -124t-117 -48q-54 0 -88.5 25.5t-34.5 70.5q0 54 33 98h70
q32 77 0 124.5t-117 47.5q-97 0 -170 -48t-114.5 -131t-61 -181.5t-19.5 -212.5q0 -167 51 -243.5t167 -76.5q240 0 333 281z" />
    <glyph glyph-name="d" unicode="d" horiz-adv-x="1124" 
d="M1026 139l43 -30q-79 -132 -207 -132q-112 0 -150 73.5t-3 197.5l-13 2q-57 -123 -148.5 -198t-215.5 -75q-148 0 -224.5 94t-76.5 263q0 89 19.5 180t61.5 177.5t100 154t143 108.5t184 41q170 0 245 -143l97 631h-176l4 53h362l-221 -1352q-11 -70 2 -101.5t55 -31.5
q62 0 119 88zM381 63q82 0 153 63t115 158.5t69 201.5t25 198q0 116 -46.5 182t-143.5 66q-70 0 -126.5 -35t-93 -93t-61 -137.5t-35 -163t-10.5 -173.5q0 -139 33.5 -203t120.5 -64z" />
    <glyph glyph-name="e" unicode="e" horiz-adv-x="927" 
d="M784 336l56 -17q-45 -164 -163.5 -253t-283.5 -89q-172 0 -264 101t-92 284q0 121 40 235.5t110 202.5t172.5 141.5t218.5 53.5q126 0 197 -59t71 -172q0 -62 -23.5 -111.5t-58 -80.5t-89 -56t-99.5 -38t-105 -25q-127 -25 -238 -29v-57q0 -166 51.5 -239t168.5 -73
q234 0 331 281zM238 481q73 4 118 13q72 15 124 35.5t97 53t68 83.5t23 118q0 162 -125 162q-101 0 -190 -123t-115 -342z" />
    <glyph glyph-name="f" unicode="f" horiz-adv-x="655" 
d="M49 -166l195 1088h-156l8 53h156l24 149q35 212 148.5 335.5t300.5 123.5q109 0 173.5 -51t64.5 -135q0 -63 -37 -104.5t-105 -41.5q-52 0 -81 30t-29 77q0 21 6 45l67 6q13 29 13 51q0 35 -25 54.5t-67 19.5q-55 0 -96.5 -27.5t-67.5 -76.5t-40.5 -96.5t-25.5 -108.5
l-43 -250h291l-8 -53h-291l-178 -981q-40 -223 -137.5 -338t-274.5 -115q-115 0 -178.5 53t-63.5 135q0 65 38 108.5t106 43.5q51 0 81.5 -29.5t30.5 -79.5q0 -29 -8 -53l-73 -8q-25 -36 -25 -59q0 -28 26.5 -44t69.5 -16q40 0 70.5 14t51.5 37t38 63t28 80.5t23 100.5z" />
    <glyph glyph-name="g" unicode="g" horiz-adv-x="1093" 
d="M225 -326l-82 -10q-27 -49 5.5 -86t121.5 -37q73 0 126.5 21.5t94.5 71.5t70.5 116.5t61.5 171.5q12 41 45 180.5t37 155.5l-11 2q-52 -110 -143.5 -176t-210.5 -66q-149 0 -226 92t-77 263q0 84 19 170t59.5 167.5t97.5 144.5t140.5 101.5t181.5 38.5q91 0 154 -38.5
t102 -122.5l38 139q73 0 168 12q-30 -143 -98.5 -520.5t-85.5 -466.5q-99 -510 -551 -510q-140 0 -219.5 50.5t-79.5 144.5q0 68 40 110.5t112 42.5q57 0 90 -40t20 -122zM389 106q79 0 148 55.5t113.5 140.5t69.5 183t25 187q0 140 -49.5 200t-144.5 60q-88 0 -152.5 -49.5
t-99 -134t-50.5 -178t-16 -199.5q0 -135 35.5 -200t120.5 -65z" />
    <glyph glyph-name="h" unicode="h" horiz-adv-x="1142" 
d="M1028 137l39 -33q-84 -127 -221 -127q-91 0 -136.5 45t-45.5 128q0 64 22 161.5t58 225t51 198.5q21 104 4 144.5t-76 40.5q-77 0 -156 -68.5t-139 -171.5t-96 -221q-54 -177 -84 -453q-92 3 -201 -20l86 381l180 1116h-166l7 53h338l-187 -922l12 -6q193 387 445 387
q134 0 185 -92.5t7 -257.5q-13 -53 -39 -152.5t-45 -174.5t-30 -128q-9 -41 -9 -69q0 -39 16.5 -55.5t51.5 -16.5q56 0 129 88z" />
    <glyph glyph-name="i" unicode="i" horiz-adv-x="581" 
d="M362 1184q-108 0 -108 106q0 58 35 99t100 41q109 0 109 -105q0 -62 -35 -101.5t-101 -39.5zM455 143l43 -32q-44 -67 -95 -100.5t-118 -33.5q-191 0 -191 177q0 67 33 219q35 161 125 549h-164l8 53h340l-160 -772q-17 -88 -4.5 -121t58.5 -33q32 0 59.5 20.5t65.5 73.5
z" />
    <glyph glyph-name="j" unicode="j" horiz-adv-x="536" 
d="M-129 -336l-78 -10q-23 -56 -2 -87.5t74 -31.5q25 0 44.5 4.5t36 17t28.5 25t23 40.5t18.5 50.5t16.5 67t15 77.5t16 95l166 1010h-157l8 53h336l-158 -971q-14 -88 -31.5 -156t-49.5 -139t-74 -116.5t-107 -75t-148 -29.5q-96 0 -158.5 50.5t-62.5 129.5q0 64 36.5 107
t103.5 43q53 0 86.5 -40.5t17.5 -113.5zM334 1184q-111 0 -111 106q0 59 35 99.5t102 40.5q109 0 109 -105q0 -61 -35 -101t-100 -40z" />
    <glyph glyph-name="k" unicode="k" horiz-adv-x="1044" 
d="M932 143l41 -26q-83 -140 -209 -140q-118 0 -164 65t-16 175l32 119q19 69 -8.5 107t-99.5 38q-41 0 -101 -16.5t-108 -40.5l-66 -416q-84 0 -186 -26l94 436l158 1065h-168l8 53h342l-178 -1040l211 114q120 66 175 116.5t46 96.5l-76 29q-10 63 25.5 109.5t108.5 46.5
q60 0 94.5 -36.5t34.5 -88.5q0 -100 -115 -168q-142 -84 -311 -174l6 -11q58 9 108 9q118 0 161 -57t17 -154l-43 -162q-17 -54 -6.5 -87.5t60.5 -33.5q38 0 67.5 23t65.5 75z" />
    <glyph glyph-name="l" unicode="l" horiz-adv-x="569" 
d="M451 145l45 -30q-88 -138 -215 -138q-89 0 -137 47t-48 132q0 27 4 63t17.5 114t21.5 119t33 175q2 8 68 359.5t92 496.5h-164l8 53h344q-35 -159 -120 -623t-128 -712q-16 -65 -7 -108.5t52 -43.5q38 0 68.5 21.5t65.5 74.5z" />
    <glyph glyph-name="m" unicode="m" horiz-adv-x="1667" 
d="M1550 139l41 -35q-38 -59 -94 -93t-123 -34q-188 0 -188 170q0 65 23.5 163.5t61.5 227t54 199.5q21 100 0 142.5t-80 42.5q-49 0 -98.5 -38.5t-93 -107t-80.5 -148t-70 -175.5q-48 -137 -100 -449q-47 2 -191 -18q117 485 168 751q18 104 3 144.5t-68 40.5
q-59 0 -116.5 -41t-104 -111.5t-83 -146.5t-65.5 -162q-54 -160 -86 -455q-92 3 -201 -20l84 381l74 555h-164l8 53h340l-86 -361l13 -6q31 65 57 113t66 103t81.5 90t98 58t119.5 23q42 0 75.5 -10.5t59.5 -37.5t36.5 -67.5t1.5 -106t-42 -148.5l14 -7q96 207 184 292
t197 85q139 0 193 -95t14 -255q-13 -52 -58.5 -213t-60.5 -235q-16 -67 -5 -106.5t56 -39.5q72 0 135 88z" />
    <glyph glyph-name="n" unicode="n" horiz-adv-x="1157" 
d="M1040 139l41 -35q-92 -127 -221 -127q-91 0 -138.5 45t-47.5 128q0 61 24.5 164.5t60.5 233t50 197.5q20 97 3 136t-71 39q-79 0 -160.5 -70.5t-142 -174t-96.5 -220.5q-52 -172 -80 -449q-92 3 -201 -20l78 366l70 570h-156l6 53h338l-84 -363l13 -6q32 62 63.5 112.5
t74.5 104t88 90t101.5 59.5t116.5 23q134 0 186.5 -89t12.5 -249q-83 -321 -111 -434q-14 -58 -14 -104q0 -70 59 -70q65 0 137 90z" />
    <glyph glyph-name="o" unicode="o" horiz-adv-x="1034" 
d="M424 33q79 0 139 40.5t94.5 102t56.5 147t29 162t7 160.5q0 151 -46 226t-155 75q-73 0 -130.5 -39t-93.5 -100.5t-59.5 -144.5t-33 -165.5t-9.5 -168.5q0 -295 201 -295zM401 -23q-184 0 -277 102.5t-93 282.5q0 92 21.5 181.5t67 171.5t109 144t154 99t195.5 37
q185 0 276.5 -101t91.5 -280q0 -90 -21.5 -180t-67 -172.5t-108.5 -146t-153.5 -101t-194.5 -37.5z" />
    <glyph glyph-name="p" unicode="p" horiz-adv-x="1122" 
d="M420 -487h-547l10 53h125l219 1356h-164l11 53h334l-62 -266l10 -2q65 129 171 208.5t235 79.5q132 0 201 -93t69 -261q0 -89 -20 -181.5t-62 -179t-100.5 -154t-142 -108.5t-179.5 -41q-93 0 -160 39.5t-98 102.5l-86 -553h246zM516 43q67 0 121.5 34t91 91.5t61 136
t35.5 164t11 178.5q0 64 -5.5 106.5t-20.5 81t-45.5 57.5t-78.5 19q-98 0 -185 -93t-135.5 -233t-48.5 -282q0 -60 8 -103.5t29 -81t61.5 -56.5t100.5 -19z" />
    <glyph glyph-name="q" unicode="q" horiz-adv-x="1079" 
d="M924 -487h-541l8 53h197l121 682l-13 2q-56 -117 -149 -195t-215 -78q-148 0 -224.5 94t-76.5 263q0 90 19.5 181.5t61.5 178t100 153.5t143 107.5t184 40.5q179 0 266 -170l149 150h35l-227 -1409h170zM379 63q66 0 126 41.5t102.5 108.5t73.5 149.5t46.5 165.5
t15.5 156q0 113 -46.5 180.5t-143.5 67.5q-70 0 -126.5 -35t-93 -93t-61 -137.5t-35 -163t-10.5 -173.5q0 -137 33 -202t119 -65z" />
    <glyph glyph-name="r" unicode="r" horiz-adv-x="913" 
d="M53 -16l90 419l74 519h-164l10 53h334l-90 -389l12 -6q24 54 41 89t43.5 83t49 79t53.5 65t62.5 53.5t70.5 32.5t82 13q75 0 121.5 -35.5t46.5 -107.5q0 -67 -40.5 -100t-103.5 -35q-38 0 -65 8l-4 123q-21 16 -53 16q-56 -1 -115 -74t-105.5 -179t-83.5 -234
q-38 -130 -63 -367q-121 -7 -203 -26z" />
    <glyph glyph-name="s" unicode="s" horiz-adv-x="874" 
d="M223 180h-59q-25 -58 18.5 -98.5t151.5 -40.5q101 0 170 49.5t69 149.5q0 35 -13 62.5t-39.5 47.5t-52.5 33.5t-67 28.5q-114 42 -152 65q-118 68 -122 202v11q0 94 56.5 165t145 105.5t193.5 34.5q138 0 211.5 -51.5t73.5 -144.5q0 -66 -34 -107t-101 -41
q-46 0 -76.5 22.5t-30.5 61.5q0 48 31 84h59q22 53 -14 86t-117 33q-105 0 -177.5 -52.5t-72.5 -142.5q0 -26 10.5 -48t25.5 -37t42.5 -31.5t48.5 -26.5t58 -25q124 -51 172 -84q108 -75 108 -198q0 -138 -116.5 -227t-294.5 -89q-162 0 -241 64.5t-79 161.5
q0 66 37.5 108.5t104.5 42.5q44 0 73 -25t29 -65q0 -50 -29 -84z" />
    <glyph glyph-name="t" unicode="t" horiz-adv-x="677" 
d="M565 182l45 -35q-50 -77 -120.5 -123.5t-151.5 -46.5q-113 0 -172.5 56t-59.5 151q0 15 0.5 29.5t3.5 34.5t4 31t6.5 38.5t7.5 37t9.5 47t9.5 49.5l93 471h-148l10 53h146l41 252l192 51l-49 -303h215l-10 -53h-213l-127 -689q-17 -91 2.5 -133.5t79.5 -42.5
q55 0 96 29.5t90 95.5z" />
    <glyph glyph-name="u" unicode="u" horiz-adv-x="1163" 
d="M1051 141l41 -28q-88 -136 -207 -136q-227 0 -156 256l25 95l-13 4q-28 -58 -54 -102.5t-64.5 -94.5t-79.5 -82.5t-96.5 -54t-116.5 -21.5q-275 0 -217 324q11 62 31 162.5t47.5 237t44.5 221.5h-158l8 53h338l-143 -709q-11 -62 -13.5 -108.5t23.5 -74.5t84 -28
q112 0 210 133t160 351q61 211 84 430q90 -3 199 20q-131 -609 -164 -844q-6 -50 7.5 -74t54.5 -24q33 0 61 21.5t64 72.5z" />
    <glyph glyph-name="v" unicode="v" horiz-adv-x="1064" 
d="M811 823l-57 -80q-51 11 -79 46.5t-28 78.5q0 52 35.5 89.5t105.5 37.5q96 0 148.5 -72.5t52.5 -172.5q0 -66 -16.5 -147t-48 -168t-81.5 -168.5t-112.5 -146.5t-147 -104t-177.5 -39q-147 0 -215 83.5t-41 250.5q26 152 96 502q24 115 -37 115q-36 0 -71 -31t-89 -115
l-49 31q51 93 111.5 137.5t136.5 44.5q96 0 142.5 -56.5t25.5 -174.5q-15 -85 -41.5 -215t-44.5 -225q-25 -137 6 -196.5t131 -59.5q73 0 142.5 44.5t121 114.5t91.5 152.5t60.5 162t20.5 140.5q0 130 -92 141z" />
    <glyph glyph-name="w" unicode="w" horiz-adv-x="1617" 
d="M1366 825l-59 -82q-50 7 -78.5 44t-28.5 83q0 51 36 88t103 37q101 0 152 -73t51 -195q0 -61 -17 -138.5t-49.5 -162t-84 -164t-114.5 -143.5t-148.5 -103t-178.5 -39q-226 0 -262 179q-59 -75 -142.5 -127t-185.5 -52q-265 0 -217 306q16 95 56 292t53 273q5 34 -4 58
t-39 24q-35 0 -72.5 -34.5t-87.5 -111.5l-49 29q52 94 113.5 138t144.5 44q90 0 133.5 -53.5t20.5 -171.5q-57 -305 -86 -459q-27 -131 -8.5 -187t98.5 -56q45 0 82.5 13t70 40.5t54 52t53.5 66.5q48 195 151 731q101 -3 191 14q-93 -367 -150 -684q-23 -130 6.5 -182.5
t124.5 -52.5q87 0 173 62t146.5 154.5t98 200.5t37.5 199q0 129 -88 143z" />
    <glyph glyph-name="x" unicode="x" horiz-adv-x="1138" 
d="M991 188l49 -24q-81 -187 -225 -187q-79 0 -124 41t-81 129l-106 256l-156 -237q-65 -99 -113 -142.5t-120 -43.5q-65 0 -103.5 29.5t-38.5 86.5q0 54 33.5 86.5t81.5 32.5q37 0 62 -10l10 -94q33 -20 58.5 -3t70.5 85l186 278l-137 334q-26 64 -43 86t-45 22
q-30 0 -58.5 -28.5t-68.5 -98.5l-45 21q99 188 246 188q77 0 118 -43t80 -137l84 -209l125 199q58 95 113 142.5t133 47.5q62 0 98.5 -30.5t36.5 -90.5q0 -53 -35.5 -86.5t-83.5 -33.5q-36 0 -61 10l-10 98q-33 18 -59.5 0t-71.5 -86l-160 -244l155 -362q25 -55 44 -77.5
t47 -22.5q31 0 56 26.5t58 91.5z" />
    <glyph glyph-name="y" unicode="y" horiz-adv-x="1079" 
d="M94 -326l-84 -12q-32 -47 -17.5 -80t70.5 -33q194 0 449 410q-139 517 -233 819q-18 58 -36.5 77t-47.5 19q-34 0 -62.5 -37.5t-60.5 -125.5l-60 24q46 122 100 181t148 59q72 0 120 -46t79 -147q103 -345 178 -651q48 71 104 168t111 226t55 202q0 36 -17.5 62.5
t-45.5 27.5l-66 -82q-44 14 -69 46.5t-25 78.5q0 57 37.5 96t103.5 39q83 0 129.5 -60.5t46.5 -152.5q0 -221 -280 -647q-21 -32 -60.5 -93.5t-64 -99.5t-64 -95.5t-70 -95t-71 -83t-78 -74.5t-80 -55t-87.5 -38.5t-91 -12.5q-109 0 -174 57t-65 152q0 71 42.5 116.5
t110.5 45.5q71 0 108.5 -51.5t16.5 -133.5z" />
    <glyph glyph-name="z" unicode="z" horiz-adv-x="1013" 
d="M852 354l51 -10q-76 -367 -274 -367q-66 0 -107 15t-98 53l-182 123q-30 -102 -68.5 -146.5t-87.5 -44.5q-44 0 -72 27.5t-28 67.5q0 59 56.5 98.5t133.5 44.5q293 317 531 561q-38 4 -146 16.5t-170.5 18.5t-97.5 6q-64 0 -101.5 -33.5t-72.5 -134.5l-53 10
q45 182 110 259t166 77q55 0 95.5 -15.5t101.5 -53.5l188 -115q18 97 63.5 140.5t92.5 43.5q44 0 69 -26t25 -60q0 -51 -54.5 -95.5t-138.5 -53.5q-473 -497 -526 -551q266 -16 416 -16q78 0 113 30t65 131z" />
    <glyph glyph-name="braceleft" unicode="{" horiz-adv-x="686" 
d="M109 651q30 1 55 5.5t54.5 19t52 38t42 66.5t29.5 101q14 79 10 228t8 212q21 115 92.5 179.5t190.5 64.5q58 0 123 -25l-21 -43q-46 16 -83 16q-47 0 -80 -28t-47 -107q-12 -63 -14 -237t-13 -242q-10 -57 -32 -101.5t-45.5 -70.5t-61 -47t-64 -30t-69.5 -21v-2
q23 -8 39 -14.5t36.5 -16.5t34.5 -21t29 -26t23.5 -34.5t14.5 -42.5t5.5 -53t-6.5 -65q-13 -68 -75.5 -261.5t-72.5 -248.5q-14 -80 13.5 -110.5t82.5 -30.5q50 0 91 18l6 -45q-67 -26 -135 -26q-125 0 -179.5 66t-33.5 182q11 60 70 228.5t73 244.5q41 225 -152 229z" />
    <glyph glyph-name="bar" unicode="|" horiz-adv-x="665" 
d="M113 -260l317 1888h80l-317 -1888h-80z" />
    <glyph glyph-name="braceright" unicode="}" horiz-adv-x="686" 
d="M567 563q-30 -1 -55 -5t-54.5 -18.5t-52 -38.5t-42 -66.5t-29.5 -100.5q-14 -79 -10.5 -228t-8.5 -212q-21 -116 -92 -180t-190 -64q-61 0 -123 24l20 43q46 -16 84 -16q47 0 80 28t47 107q12 63 14 237t13 242q10 57 32 101.5t45.5 71t61 47.5t64.5 30t69 21v2
q-23 8 -39 14.5t-36.5 16t-34.5 21t-29 26.5t-23.5 34t-14.5 42t-5.5 53t6.5 65q13 68 75.5 261.5t72.5 248.5q14 80 -14 110.5t-83 30.5q-49 0 -90 -18l-6 45q70 27 135 27q125 0 179.5 -66t33.5 -182q-11 -60 -70 -228.5t-73 -244.5q-41 -226 151 -230z" />
    <glyph glyph-name="asciitilde" unicode="~" horiz-adv-x="1021" 
d="M780 608q-102 0 -278 45q-144 37 -215 37q-81 0 -125 -88l-35 12q64 201 215 201q82 0 238 -39q7 -2 39 -10l42 -10.5t37 -8.5t42 -8t36.5 -4t40.5 -2q44 0 72 18.5t53 69.5l39 -10q-71 -203 -201 -203z" />
    <glyph glyph-name="uni00A0" unicode="&#xa0;" horiz-adv-x="409" 
 />
    <glyph glyph-name="exclamdown" unicode="&#xa1;" horiz-adv-x="784" 
d="M442 610l-28 -174q-24 -148 -34 -288.5t-7.5 -220t1.5 -162.5t-7 -117q-11 -62 -47.5 -95.5t-96.5 -33.5q-58 0 -82.5 36.5t-13.5 102.5q7 51 35 132.5t59.5 162.5t68.5 213.5t60 271.5l29 172h63zM432 739q-51 0 -80.5 25.5t-29.5 75.5q0 69 45 112t108 43q57 0 83 -30
t26 -74q0 -68 -44.5 -110t-107.5 -42z" />
    <glyph glyph-name="cent" unicode="&#xa2;" horiz-adv-x="972" 
d="M455 203q-48 0 -84 8l-82 -225l-56 18l80 221q-98 35 -156.5 118t-58.5 206q0 163 70.5 284.5t188.5 182t266 59.5l71 195l58 -17l-68 -182q99 -13 157 -66t58 -124q0 -80 -43 -122t-102 -42q-43 0 -71 22.5t-28 57.5q0 36 27 88h63q25 54 3 88t-82 43l-265 -719
q43 -21 107 -21q101 0 165.5 51t119.5 167l49 -15q-17 -53 -47 -99t-76 -87.5t-114 -65.5t-150 -24zM299 571q0 -170 55 -235l248 684q-76 -4 -136.5 -47t-95.5 -109t-53 -141t-18 -152z" />
    <glyph glyph-name="sterling" unicode="&#xa3;" horiz-adv-x="1150" 
d="M72 694l12 66h197q-25 119 -25 196q0 115 44.5 210.5t120.5 158t174 97t206 34.5q156 0 240.5 -66.5t84.5 -170.5q0 -99 -45 -144t-112 -45q-49 0 -81 25t-32 69q0 40 21 90h79q38 76 2 127.5t-124 51.5t-151 -26.5t-103.5 -82t-63.5 -127t-37 -174.5l-30 -223h385
l-13 -66h-381l-8 -67q-19 -168 -65 -320q84 -19 192 -63t187 -76.5t114 -32.5q45 0 72.5 39.5t50.5 142.5l47 -4q-22 -168 -88.5 -252t-157.5 -84q-49 0 -117.5 23t-117 47t-123.5 65.5t-96 51.5q-73 -166 -240 -166q-83 0 -126.5 39.5t-43.5 101.5q0 66 39 112.5t90 65.5
t105 19q89 0 155 -14q17 79 16 171.5t-30 200.5h-223zM106 225q-52 0 -78 -22.5t-26 -59.5q0 -80 100 -80q108 0 168 123q-90 39 -164 39z" />
    <glyph glyph-name="currency" unicode="&#xa4;" horiz-adv-x="1085" 
d="M203 696q0 108 59 197l-158 182l39 37l185 -145q92 63 213 63q124 0 200 -61l185 141l35 -33l-154 -174q57 -85 57 -201q0 -110 -61 -204l153 -201l-36 -35l-193 158q-75 -60 -192 -60q-123 0 -203 56l-182 -152l-37 37l147 182q-57 83 -57 213zM283 696
q0 -122 60.5 -197t193.5 -75q118 0 182.5 77.5t64.5 194.5q0 124 -63 199.5t-189 75.5q-123 0 -186 -78.5t-63 -196.5z" />
    <glyph glyph-name="yen" unicode="&#xa5;" horiz-adv-x="1196" 
d="M172 717l12 67h281l-211 596h-123l8 54h539l-8 -54h-193l191 -565l344 565h-158l10 54h387l-8 -54h-135l-379 -596h291l-12 -67h-316l-30 -191h317l-12 -67h-316l-63 -400h164l-7 -59h-536l10 59h164l63 400h-313l10 67h314l30 191h-315z" />
    <glyph glyph-name="brokenbar" unicode="&#xa6;" horiz-adv-x="665" 
d="M299 844l131 784h80l-131 -784h-80zM113 -260l149 895h80l-149 -895h-80z" />
    <glyph glyph-name="section" unicode="&#xa7;" horiz-adv-x="1196" 
d="M387 1116q-29 -89 -29 -182q0 -138 50.5 -284.5t140.5 -266.5t199 -178q30 114 30 229q0 229 -111.5 418t-279.5 264zM350 -139q128 0 234 85.5t139 203.5q-120 61 -214.5 139t-151.5 154t-94.5 158t-51.5 150.5t-14 133.5q0 117 36.5 214.5t96.5 162.5t138 109.5
t159.5 64.5t163.5 20q131 0 206.5 -54t75.5 -159q0 -72 -38 -116t-103 -44q-38 0 -64.5 15t-37 39t-10 53t13.5 57l67 10q32 72 1 112t-105 40q-260 0 -389 -244q177 -63 303 -181t184.5 -257.5t58.5 -290.5q0 -119 -37.5 -223.5t-99 -177.5t-140 -125.5t-161 -77.5
t-160.5 -25q-134 0 -209 54t-75 159q0 71 40.5 115.5t106.5 44.5q46 0 73 -26.5t29.5 -64t-10.5 -79.5l-67 -10q-88 -139 106 -139z" />
    <glyph glyph-name="dieresis" unicode="&#xa8;" horiz-adv-x="1024" 
d="M420 1280q8 45 42.5 77t86.5 32q50 0 77 -27.5t17 -81.5q-8 -51 -42 -82t-87 -31q-58 0 -79.5 33t-14.5 80zM819 1280q8 45 42.5 77t86.5 32q50 0 77 -27.5t17 -81.5q-8 -51 -42 -82t-87 -31q-59 0 -80 32.5t-14 80.5z" />
    <glyph glyph-name="copyright" unicode="&#xa9;" horiz-adv-x="1599" 
d="M1456 655q0 -207 -86 -361.5t-239 -235.5t-353 -81q-165 0 -294.5 48.5t-212.5 135.5t-126 205t-43 261q0 155 53 283.5t145.5 214t216.5 132t265 46.5q312 0 493 -176t181 -472zM1389 643q0 191 -79.5 329t-215 206.5t-312.5 68.5q-174 0 -311 -72.5t-217 -214
t-80 -331.5q0 -277 161 -435.5t443 -158.5q280 0 445.5 163.5t165.5 444.5zM807 1016q-116 0 -174 -85.5t-58 -279.5q0 -186 58 -275t178 -89q80 0 138 57.5t83 161.5h25l-8 -244h-21q-1 3 -4 8.5t-5 8.5t-5 7t-6.5 5.5t-8.5 1.5q-1 0 -72.5 -21.5t-133.5 -21.5
q-166 0 -270.5 100.5t-104.5 300.5q0 186 112.5 294t270.5 108q54 0 121 -20.5t71 -20.5q5 0 8.5 1.5t6.5 5.5t5 6.5t5 8.5l4 8h18l7 -243h-29q-23 105 -78 161t-133 56z" />
    <glyph glyph-name="ordfeminine" unicode="&#xaa;" horiz-adv-x="868" 
d="M825 729l33 -22q-67 -101 -160 -101q-87 0 -113.5 52t-4.5 141l-9 2q-37 -83 -105 -139t-165 -56q-102 0 -154.5 64t-52.5 182q0 80 24 162t68 153.5t116.5 116.5t160.5 45q131 0 178 -112l29 96q82 0 147 8q-89 -367 -123 -578q-14 -79 41 -79q45 0 90 65zM358 672
q53 0 101.5 50.5t79.5 123.5t49 147.5t18 128.5q0 70 -32 109t-91 39t-105.5 -47.5t-72.5 -119.5t-39.5 -146t-13.5 -138q0 -74 24 -110.5t82 -36.5z" />
    <glyph glyph-name="guillemotleft" unicode="&#xab;" horiz-adv-x="1007" 
d="M109 526l411 293l27 -28l-295 -328l182 -340l-31 -23l-282 279q-43 43 -43 80q0 14 5 26.5t9.5 18.5zM469 526l412 293l26 -28l-295 -328l183 -340l-31 -23l-283 279q-43 43 -43 80q0 14 5 26.5t9.5 18.5z" />
    <glyph glyph-name="logicalnot" unicode="&#xac;" horiz-adv-x="1228" 
d="M1001 336v274h-851v74h929v-348h-78z" />
    <glyph glyph-name="uni00AD" unicode="&#xad;" horiz-adv-x="690" 
d="M94 512l21 119h465l-21 -119h-465z" />
    <glyph glyph-name="registered" unicode="&#xae;" horiz-adv-x="940" 
d="M909 983q0 -171 -108.5 -278t-280.5 -107q-186 0 -286.5 103t-100.5 268q0 175 111.5 281t277.5 106q178 0 282.5 -101.5t104.5 -271.5zM848 977q0 153 -92 240.5t-234 87.5q-145 0 -235 -90.5t-90 -243.5q0 -149 85 -234.5t240 -85.5q149 0 237.5 88.5t88.5 237.5z
M502 987h-27v-172h57v-22h-182v22h45v348h-45v23h148q40 0 67.5 -3.5t53 -12.5t38.5 -28t13 -48q0 -87 -123 -97v-2q59 -5 82.5 -26t23.5 -70v-47q0 -17 5.5 -25t21.5 -8t23.5 12t11.5 48l22 -2q-2 -20 -5 -33t-11 -28t-24 -22.5t-40 -7.5q-82 0 -82 68v68q0 65 -73 65z
M475 1163v-155h6q57 0 82 20.5t25 61.5q0 40 -22.5 56.5t-80.5 16.5h-10z" />
    <glyph glyph-name="macron" unicode="&#xaf;" horiz-adv-x="1024" 
d="M440 1210l19 107h557l-19 -107h-557z" />
    <glyph glyph-name="degree" unicode="&#xb0;" horiz-adv-x="673" 
d="M203 1284q0 -81 45 -130.5t131 -49.5q78 0 125 50.5t47 129.5q0 83 -47.5 131.5t-130.5 48.5q-78 0 -124 -49.5t-46 -130.5zM121 1284q0 104 69 175t191 71q120 0 185 -66t65 -176q0 -109 -68 -180.5t-188 -71.5q-124 0 -189 68.5t-65 179.5z" />
    <glyph glyph-name="plusminus" unicode="&#xb1;" 
d="M1012 612h-432l-68 -383h-82l68 383h-416l14 74h416l61 358h82l-61 -358h432zM905 0h-930l13 74h930z" />
    <glyph glyph-name="twosuperior" unicode="&#xb2;" horiz-adv-x="649" 
d="M461 1681q122 0 180.5 -54.5t58.5 -137.5q0 -57 -22.5 -107t-75 -104t-103.5 -95.5t-143 -111.5q-21 -16 -32 -24l-140 -107h226q103 0 141 23t65 94h29l-47 -250h-535l17 96l194 187q141 134 194.5 225t53.5 178q0 62 -31 97.5t-96 35.5q-46 0 -79 -28.5t-19 -71.5h45
q17 -53 -10 -90t-82 -37q-39 0 -60.5 24.5t-21.5 65.5q0 89 87.5 140.5t205.5 51.5z" />
    <glyph glyph-name="threesuperior" unicode="&#xb3;" horiz-adv-x="684" 
d="M477 1681q107 0 163 -44t56 -117q0 -44 -19.5 -79.5t-60.5 -63.5t-86.5 -49t-115.5 -46q0 -1 1 -3t1 -3q51 10 99.5 3.5t87 -24t62 -57.5t23.5 -98q0 -90 -58.5 -162t-147.5 -108.5t-187 -36.5q-96 0 -152.5 44t-56.5 115q0 51 30 83t79 32q40 0 61 -21t18.5 -49.5
t-14.5 -56.5h-49q-25 -40 -3 -65t79 -25q103 0 166 60t63 182q0 141 -115 141q-55 0 -131 -27l-12 51q64 20 108.5 40.5t84 50.5t59.5 70.5t20 92.5q0 62 -28 88.5t-84 26.5q-51 0 -80 -23.5t-8 -58.5h32q13 -55 -11.5 -88t-80.5 -33q-36 0 -56.5 23t-20.5 59q0 82 81 129
t203 47z" />
    <glyph glyph-name="acute" unicode="&#xb4;" horiz-adv-x="1024" 
d="M543 1128l190 367l76 14q33 8 60.5 -7.5t27.5 -49.5q0 -44 -57 -98l-271 -246z" />
    <glyph glyph-name="mu" unicode="&#xb5;" horiz-adv-x="1116" 
d="M379 985l-103 -641q-10 -69 -7.5 -123.5t38 -88.5t103.5 -34q108 0 185.5 78t98.5 215l94 576l187 18l-131 -827q-16 -107 61 -107q57 0 121 90l41 -32q-82 -132 -215 -132q-105 0 -144.5 61t-21.5 163l-10 2q-49 -95 -131.5 -160.5t-186.5 -65.5q-180 0 -221 195l-8 -6
q7 -57 17.5 -141.5t15.5 -128t11 -97t8.5 -89t2.5 -62.5q0 -48 -39.5 -71t-87.5 -13l-86 18l222 1385z" />
    <glyph glyph-name="paragraph" unicode="&#xb6;" horiz-adv-x="1263" 
d="M1184 1380l-193 -1165q-48 -285 -170 -411t-323 -126q-152 0 -252.5 70.5t-100.5 185.5q0 86 46.5 136.5t125.5 50.5q65 0 107.5 -51.5t26.5 -151.5l-99 -16q-25 -62 14.5 -110t141.5 -48q151 0 252.5 104.5t138.5 323.5l203 1208h-176l-148 -852h-137q-99 0 -180 24
t-143 72.5t-96 127.5t-34 182q0 109 31.5 194.5t86.5 142t135.5 94t173.5 53.5t204 16h506l-10 -54h-131z" />
    <glyph glyph-name="periodcentered" unicode="&#xb7;" horiz-adv-x="555" 
d="M301 801q59 0 93 -30t34 -87q0 -78 -52 -128t-124 -50q-65 0 -95 35t-30 86q0 77 51 125.5t123 48.5z" />
    <glyph glyph-name="cedilla" unicode="&#xb8;" horiz-adv-x="1024" 
d="M500 27h65l-114 -144q28 8 55 8q75 0 116.5 -38t41.5 -101q0 -94 -79.5 -148.5t-185.5 -54.5q-75 0 -116 33t-41 78q0 32 20.5 56t54.5 24q26 0 44 -18.5t20 -45.5l-43 -28q-8 -26 10 -43t55 -17q57 0 93 43t36 111q0 102 -90 102q-33 0 -63 -10l-6 31z" />
    <glyph glyph-name="onesuperior" unicode="&#xb9;" horiz-adv-x="550" 
d="M248 860l108 668q-44 -7 -95.5 -1.5t-86.5 13.5l10 43q93 -7 169 19.5t120 78.5h66l-133 -821h122l-10 -53h-420l11 53h139z" />
    <glyph glyph-name="ordmasculine" unicode="&#xba;" horiz-adv-x="798" 
d="M387 653q63 0 111.5 49t74.5 123.5t39 148t13 136.5q0 170 -129 170q-61 0 -109 -46t-74 -118t-39.5 -148t-13.5 -149q0 -166 127 -166zM373 606q-138 0 -206.5 70t-68.5 196q0 85 27.5 165.5t78 146t131.5 105.5t179 40q137 0 204.5 -70t67.5 -196q0 -83 -27 -163
t-77.5 -146.5t-131 -107t-177.5 -40.5z" />
    <glyph glyph-name="guillemotright" unicode="&#xbb;" horiz-adv-x="1009" 
d="M496 393l-412 -293l-27 29l295 332l-182 336l31 22l282 -278q43 -43 43 -80q0 -30 -30 -68zM856 393l-412 -293l-26 29l295 332l-183 336l31 22l283 -278q43 -43 43 -80q0 -14 -4.5 -26.5t-9.5 -19.5t-17 -22z" />
    <glyph glyph-name="onequarter" unicode="&#xbc;" horiz-adv-x="1843" 
d="M354 639l109 668q-44 -7 -95.5 -1.5t-86.5 13.5l10 43q93 -7 169 19.5t120 78.5h65l-133 -821h123l-10 -53h-420l10 53h139zM371 -23l1134 1479h86l-1132 -1479h-88zM1511 41h115l-10 -53h-397l8 53h127l28 158h-362l12 63q210 207 298.5 327t88.5 185q0 37 -14 62l39 30
q65 0 104 -25t39 -75q0 -41 -20.5 -77.5t-92 -106t-214.5 -183.5l-177 -141h308l34 207l168 43l-43 -250h113l-10 -59h-115z" />
    <glyph glyph-name="onehalf" unicode="&#xbd;" horiz-adv-x="1843" 
d="M317 639l109 668q-44 -7 -95.5 -1.5t-86.5 13.5l10 43q93 -7 169 19.5t120 78.5h65l-133 -821h123l-10 -53h-420l10 53h139zM313 -23l1135 1479h86l-1133 -1479h-88zM1499 862q122 0 181 -54.5t59 -137.5q0 -57 -20.5 -105.5t-80 -108t-99.5 -92t-146 -113.5
q-7 -6 -10.5 -8.5t-9.5 -7t-11 -8.5l-139 -106h225q103 0 141.5 23t65.5 94h28l-47 -250h-534l16 96l195 186q141 134 194.5 225t53.5 179q0 62 -31 97.5t-96 35.5q-46 0 -79.5 -28.5t-19.5 -71.5h45q17 -53 -10 -90t-82 -37q-39 0 -60.5 24.5t-21.5 65.5q0 89 87.5 140.5
t205.5 51.5z" />
    <glyph glyph-name="threequarters" unicode="&#xbe;" horiz-adv-x="1843" 
d="M522 1460q107 0 163 -44.5t56 -117.5q0 -44 -19.5 -79t-60.5 -63.5t-86.5 -49t-115.5 -45.5q0 -1 1 -3t1 -3q51 10 99.5 3.5t87 -24t62 -57.5t23.5 -98q0 -90 -58.5 -162t-147.5 -109t-187 -37q-96 0 -152.5 44.5t-56.5 115.5q0 51 30 83t79 32q40 0 61 -21t18.5 -49.5
t-14.5 -56.5h-49q-25 -40 -3 -65t79 -25q103 0 166 59.5t63 181.5q0 142 -115 142q-55 0 -131 -27l-12 51q64 20 108.5 40.5t84 50.5t59.5 70.5t20 92.5q0 62 -28 88.5t-84 26.5q-51 0 -80 -23.5t-8 -58.5h33q13 -55 -12 -88t-81 -33q-36 0 -56.5 23t-20.5 59q0 82 81 129
t203 47zM360 -23l1135 1479h86l-1132 -1479h-89zM1503 41h115l-10 -53h-398l9 53h127l28 158h-362l12 63q210 207 298.5 327t88.5 185q0 37 -14 62l39 30q65 0 104 -25t39 -75q0 -41 -21 -78t-92.5 -105.5t-214.5 -183.5l-176 -141h307l35 207l168 43l-43 -250h113l-10 -59
h-115z" />
    <glyph glyph-name="questiondown" unicode="&#xbf;" horiz-adv-x="1015" 
d="M569 739q-51 0 -80.5 25.5t-29.5 75.5q0 69 45 112t108 43q57 0 83 -30t26 -74q0 -68 -44.5 -110t-107.5 -42zM373 -432q106 0 158.5 48.5t33.5 117.5h-59q-21 70 11 119t104 49q57 0 88.5 -33t31.5 -86q0 -66 -35.5 -118.5t-92.5 -83t-122 -46.5t-131 -16
q-165 0 -257.5 70.5t-92.5 185.5q0 80 34 141.5t88 99t119.5 68t131.5 58t120 58.5t88 80.5t34 114.5q0 76 -44.5 115t-113.5 39q-161 0 -231 -203l-52 14q17 51 39 90.5t57 76t87 56t118 19.5q130 0 205.5 -65.5t75.5 -176.5q0 -80 -33 -140t-85.5 -96.5t-116 -66t-127 -56
t-116 -58t-85.5 -82t-33 -117.5q0 -87 55.5 -131.5t147.5 -44.5z" />
    <glyph glyph-name="Agrave" unicode="&#xc0;" horiz-adv-x="1226" 
d="M803 59l-64 418h-442l-217 -418h178l-8 -59h-389l8 59h133l731 1397h51l242 -1397h135l-8 -59h-530l8 59h172zM637 1151l-311 -614h403zM682 1835l264 -313l-26 -27l-304 164q-25 15 -36 22.5t-21 23.5t-10 36q0 31 24 53.5t58 30.5z" />
    <glyph glyph-name="Aacute" unicode="&#xc1;" horiz-adv-x="1226" 
d="M803 59l-64 418h-442l-217 -418h178l-8 -59h-389l8 59h133l731 1397h51l242 -1397h135l-8 -59h-530l8 59h172zM637 1151l-311 -614h403zM596 1526l338 315l59 -20q58 -16 58 -66q0 -35 -26 -59t-71 -45l-336 -154z" />
    <glyph glyph-name="Acircumflex" unicode="&#xc2;" horiz-adv-x="1226" 
d="M803 59l-64 418h-442l-217 -418h178l-8 -59h-389l8 59h133l731 1397h51l242 -1397h135l-8 -59h-530l8 59h172zM637 1151l-311 -614h403zM463 1518l299 286q34 17 63 17q25 0 43.5 -14.5t40.5 -47.5l160 -243l-29 -23l-235 174l-322 -180z" />
    <glyph glyph-name="Atilde" unicode="&#xc3;" horiz-adv-x="1226" 
d="M803 59l-64 418h-442l-217 -418h178l-8 -59h-389l8 59h133l731 1397h51l242 -1397h135l-8 -59h-530l8 59h172zM637 1151l-311 -614h403zM918 1575q-75 0 -175 47q-79 33 -116 33q-61 0 -113 -90l-37 14q48 105 97.5 154t132.5 49q18 0 35.5 -2t28.5 -4t28.5 -8.5t23 -9
t26 -12t25.5 -11.5q76 -31 115 -31q36 0 61.5 18.5t55.5 69.5l39 -12q-48 -109 -103.5 -157t-123.5 -48z" />
    <glyph glyph-name="Adieresis" unicode="&#xc4;" horiz-adv-x="1226" 
d="M803 59l-64 418h-442l-217 -418h178l-8 -59h-389l8 59h133l731 1397h51l242 -1397h135l-8 -59h-530l8 59h172zM637 1151l-311 -614h403zM485 1673q8 45 42.5 77t86.5 32q43 0 70 -21.5t27 -62.5q0 -60 -36 -98.5t-95 -38.5q-50 0 -73.5 24.5t-23.5 61.5q0 18 2 26z
M885 1673q8 45 42.5 77t86.5 32q43 0 69.5 -21.5t26.5 -62.5q0 -60 -36 -98.5t-95 -38.5q-50 0 -73 24t-23 62q0 18 2 26z" />
    <glyph glyph-name="Aring" unicode="&#xc5;" horiz-adv-x="1226" 
d="M803 59l-64 418h-442l-217 -418h178l-8 -59h-389l8 59h133l731 1397h51l242 -1397h135l-8 -59h-530l8 59h172zM637 1151l-311 -614h403zM809 1784q-57 0 -96 -39.5t-39 -97.5q0 -42 23.5 -71.5t72.5 -29.5q60 0 97.5 38.5t37.5 96.5q0 44 -24 73.5t-72 29.5zM600 1632
q0 91 63 150t162 59q75 0 115.5 -39t40.5 -102q0 -95 -61.5 -154t-161.5 -59q-80 0 -119 40t-39 105z" />
    <glyph glyph-name="AE" unicode="&#xc6;" horiz-adv-x="1947" 
d="M786 1374l9 60h1124l-43 -385h-47q2 51 -1 91.5t-9.5 72.5t-19.5 56t-27 41t-37.5 29t-45.5 19t-56 10.5t-64.5 4.5t-75.5 1h-180l-107 -633h101q118 0 172 51.5t104 211.5h41l-102 -607h-43q3 70 -0.5 114.5t-15 78.5t-35.5 51.5t-59.5 26t-90.5 8.5h-82l-102 -617h204
q210 0 312.5 78.5t171.5 288.5h39l-84 -426h-1008l10 59h152l102 617h-432l-414 -617h183l-13 -59h-399l12 59h125l908 1315h-177zM1110 1374h-68l-434 -633h396z" />
    <glyph glyph-name="Ccedilla" unicode="&#xc7;" horiz-adv-x="1249" 
d="M836 1397q-99 0 -182.5 -41t-142 -111.5t-102.5 -158t-69.5 -187t-38 -192t-12.5 -179.5q0 -221 88 -350t270 -129q157 0 279 97t188 298l55 -14q-28 -97 -74.5 -174t-98 -125t-113.5 -81t-116.5 -48t-111.5 -20l-77 -99q28 8 55 8q75 0 116.5 -38t41.5 -101
q0 -94 -79.5 -148.5t-185.5 -54.5q-75 0 -116 33t-41 78q0 32 20.5 56t54.5 24q26 0 44 -18.5t20 -45.5l-43 -28q-8 -26 10 -43t55 -17q57 0 93 43t36 111q0 102 -90 102q-33 0 -63 -10l-6 31l88 112q-250 2 -386 145.5t-136 422.5q0 121 29.5 246.5t93 245t152 212.5
t218.5 150t281 57q66 0 139 -15t124.5 -30.5t65.5 -15.5q15 0 25.5 6.5t15.5 12.5t17 24h41l-58 -428h-51q-17 387 -323 387z" />
    <glyph glyph-name="Egrave" unicode="&#xc8;" horiz-adv-x="1224" 
d="M244 1434h952l-43 -385h-47q2 51 -1 91.5t-9.5 72.5t-19.5 56t-27 41t-37.5 29t-45.5 19t-56 10.5t-64.5 4.5t-75.5 1h-180l-103 -612h101q119 0 173 51t103 211h41l-102 -606h-43q3 70 -0.5 114.5t-15 78.5t-35.5 51.5t-59.5 25.5t-90.5 8h-82l-106 -637h204
q210 0 312.5 78.5t171.5 288.5h39l-84 -426h-1008l10 59h152l219 1315h-154zM678 1835l264 -313l-27 -27l-303 164q-25 15 -36 22.5t-21 23.5t-10 36q0 31 24 53.5t58 30.5z" />
    <glyph glyph-name="Eacute" unicode="&#xc9;" horiz-adv-x="1224" 
d="M244 1434h952l-43 -385h-47q2 51 -1 91.5t-9.5 72.5t-19.5 56t-27 41t-37.5 29t-45.5 19t-56 10.5t-64.5 4.5t-75.5 1h-180l-103 -612h101q119 0 173 51t103 211h41l-102 -606h-43q3 70 -0.5 114.5t-15 78.5t-35.5 51.5t-59.5 25.5t-90.5 8h-82l-106 -637h204
q210 0 312.5 78.5t171.5 288.5h39l-84 -426h-1008l10 59h152l219 1315h-154zM582 1526l338 315l59 -20q57 -15 57 -66q0 -59 -96 -104l-336 -154z" />
    <glyph glyph-name="Ecircumflex" unicode="&#xca;" horiz-adv-x="1224" 
d="M244 1434h952l-43 -385h-47q2 51 -1 91.5t-9.5 72.5t-19.5 56t-27 41t-37.5 29t-45.5 19t-56 10.5t-64.5 4.5t-75.5 1h-180l-103 -612h101q119 0 173 51t103 211h41l-102 -606h-43q3 70 -0.5 114.5t-15 78.5t-35.5 51.5t-59.5 25.5t-90.5 8h-82l-106 -637h204
q210 0 312.5 78.5t171.5 288.5h39l-84 -426h-1008l10 59h152l219 1315h-154zM459 1518l299 286q34 17 63 17q25 0 43.5 -14.5t40.5 -47.5l160 -243l-29 -23l-235 174l-322 -180z" />
    <glyph glyph-name="Edieresis" unicode="&#xcb;" horiz-adv-x="1224" 
d="M244 1434h952l-43 -385h-47q2 51 -1 91.5t-9.5 72.5t-19.5 56t-27 41t-37.5 29t-45.5 19t-56 10.5t-64.5 4.5t-75.5 1h-180l-103 -612h101q119 0 173 51t103 211h41l-102 -606h-43q3 70 -0.5 114.5t-15 78.5t-35.5 51.5t-59.5 25.5t-90.5 8h-82l-106 -637h204
q210 0 312.5 78.5t171.5 288.5h39l-84 -426h-1008l10 59h152l219 1315h-154zM481 1673q8 45 42.5 77t86.5 32q43 0 70 -21.5t27 -62.5q0 -59 -36.5 -98t-95.5 -39q-50 0 -73 24t-23 62q0 18 2 26zM881 1673q8 45 42.5 77t86.5 32q43 0 69.5 -21.5t26.5 -62.5
q0 -60 -36 -98.5t-95 -38.5q-50 0 -73 24t-23 62q0 18 2 26z" />
    <glyph glyph-name="Igrave" unicode="&#xcc;" horiz-adv-x="731" 
d="M258 1434h498l-11 -60h-147l-231 -1315h147l-10 -59h-496l10 59h146l231 1315h-147zM430 1835l264 -313l-26 -27l-303 164q-26 15 -36.5 22.5t-21 23.5t-10.5 36q0 31 24 53.5t58 30.5z" />
    <glyph glyph-name="Iacute" unicode="&#xcd;" horiz-adv-x="731" 
d="M258 1434h498l-11 -60h-147l-231 -1315h147l-10 -59h-496l10 59h146l231 1315h-147zM334 1526l338 315l59 -20q57 -15 57 -66q0 -59 -96 -104l-336 -154z" />
    <glyph glyph-name="Icircumflex" unicode="&#xce;" horiz-adv-x="731" 
d="M258 1434h498l-11 -60h-147l-231 -1315h147l-10 -59h-496l10 59h146l231 1315h-147zM211 1518l299 286q34 17 63 17q25 0 43.5 -14.5t40.5 -47.5l160 -243l-29 -23l-235 174l-322 -180z" />
    <glyph glyph-name="Idieresis" unicode="&#xcf;" horiz-adv-x="731" 
d="M258 1434h498l-11 -60h-147l-231 -1315h147l-10 -59h-496l10 59h146l231 1315h-147zM233 1673q8 45 42.5 77t86.5 32q43 0 70 -21.5t27 -62.5q0 -60 -36 -98.5t-95 -38.5q-50 0 -73.5 24.5t-23.5 61.5q0 18 2 26zM633 1673q8 45 42.5 77t86.5 32q43 0 69.5 -21.5
t26.5 -62.5q0 -60 -36 -98.5t-95 -38.5q-50 0 -73 24t-23 62q0 18 2 26z" />
    <glyph glyph-name="Eth" unicode="&#xd0;" horiz-adv-x="1427" 
d="M1366 885q0 -196 -61.5 -358t-178.5 -279.5t-295 -182.5t-401 -65h-438l10 59h164l113 670h-185l8 59h187l100 586h-164l6 60h482q653 0 653 -549zM369 59h86q140 0 255 43t195.5 119t136 181.5t81.5 230.5t26 266q0 133 -31.5 225t-96.5 147t-156.5 79t-219.5 24h-51
l-100 -586h380l-8 -59h-383z" />
    <glyph glyph-name="Ntilde" unicode="&#xd1;" horiz-adv-x="1431" 
d="M1309 1374l-234 -1388h-57l-574 1343l-213 -1270h146l-10 -59h-359l10 59h146l219 1315h-145l10 60h383l442 -1051l168 991h-145l10 60h358l-8 -60h-147zM1012 1575q-74 0 -174 47q-79 33 -117 33q-61 0 -113 -90l-37 14q48 105 97.5 154t132.5 49q16 0 30 -1t27.5 -4
t22.5 -5.5t23 -8t20.5 -8t22.5 -10t22 -10.5q76 -31 114 -31q36 0 61.5 18.5t55.5 69.5l39 -12q-48 -109 -103.5 -157t-123.5 -48z" />
    <glyph glyph-name="Ograve" unicode="&#xd2;" horiz-adv-x="1382" 
d="M592 43q86 0 158.5 32.5t124 87t92.5 129.5t66 156t41.5 171.5t23 170.5t6.5 158q0 226 -65.5 334.5t-229.5 108.5q-97 0 -177.5 -36.5t-136.5 -102t-98 -149.5t-66.5 -186t-36 -204.5t-11.5 -210.5q0 -101 16.5 -181.5t51.5 -144t96.5 -98.5t144.5 -35zM66 539
q0 124 29.5 251t93 247t151.5 213t215.5 149.5t275.5 56.5q236 0 363 -142.5t127 -410.5q0 -125 -27.5 -252t-88 -249t-146.5 -216t-213 -151.5t-277 -57.5q-242 0 -372.5 142.5t-130.5 419.5zM750 1835l264 -313l-27 -27l-303 164q-26 15 -36.5 22.5t-21 23.5t-10.5 36
q0 31 24 53.5t58 30.5z" />
    <glyph glyph-name="Oacute" unicode="&#xd3;" horiz-adv-x="1382" 
d="M592 43q86 0 158.5 32.5t124 87t92.5 129.5t66 156t41.5 171.5t23 170.5t6.5 158q0 226 -65.5 334.5t-229.5 108.5q-97 0 -177.5 -36.5t-136.5 -102t-98 -149.5t-66.5 -186t-36 -204.5t-11.5 -210.5q0 -101 16.5 -181.5t51.5 -144t96.5 -98.5t144.5 -35zM66 539
q0 124 29.5 251t93 247t151.5 213t215.5 149.5t275.5 56.5q236 0 363 -142.5t127 -410.5q0 -125 -27.5 -252t-88 -249t-146.5 -216t-213 -151.5t-277 -57.5q-242 0 -372.5 142.5t-130.5 419.5zM653 1526l338 315l60 -20q57 -15 57 -66q0 -59 -96 -104l-336 -154z" />
    <glyph glyph-name="Ocircumflex" unicode="&#xd4;" horiz-adv-x="1382" 
d="M592 43q86 0 158.5 32.5t124 87t92.5 129.5t66 156t41.5 171.5t23 170.5t6.5 158q0 226 -65.5 334.5t-229.5 108.5q-97 0 -177.5 -36.5t-136.5 -102t-98 -149.5t-66.5 -186t-36 -204.5t-11.5 -210.5q0 -101 16.5 -181.5t51.5 -144t96.5 -98.5t144.5 -35zM66 539
q0 124 29.5 251t93 247t151.5 213t215.5 149.5t275.5 56.5q236 0 363 -142.5t127 -410.5q0 -125 -27.5 -252t-88 -249t-146.5 -216t-213 -151.5t-277 -57.5q-242 0 -372.5 142.5t-130.5 419.5zM530 1518l299 286q34 17 64 17q25 0 43.5 -14.5t40.5 -47.5l160 -243l-29 -23
l-236 174l-321 -180z" />
    <glyph glyph-name="Otilde" unicode="&#xd5;" horiz-adv-x="1382" 
d="M592 43q86 0 158.5 32.5t124 87t92.5 129.5t66 156t41.5 171.5t23 170.5t6.5 158q0 226 -65.5 334.5t-229.5 108.5q-97 0 -177.5 -36.5t-136.5 -102t-98 -149.5t-66.5 -186t-36 -204.5t-11.5 -210.5q0 -101 16.5 -181.5t51.5 -144t96.5 -98.5t144.5 -35zM66 539
q0 124 29.5 251t93 247t151.5 213t215.5 149.5t275.5 56.5q236 0 363 -142.5t127 -410.5q0 -125 -27.5 -252t-88 -249t-146.5 -216t-213 -151.5t-277 -57.5q-242 0 -372.5 142.5t-130.5 419.5zM985 1575q-74 0 -174 47q-79 33 -117 33q-60 0 -112 -90l-37 14q48 105 97 154
t132 49q16 0 30 -1t27.5 -4t22.5 -5.5t23 -8t20.5 -8t22.5 -10t22 -10.5q76 -31 115 -31q36 0 61.5 18.5t55.5 69.5l38 -12q-48 -109 -103.5 -157t-123.5 -48z" />
    <glyph glyph-name="Odieresis" unicode="&#xd6;" horiz-adv-x="1382" 
d="M592 43q86 0 158.5 32.5t124 87t92.5 129.5t66 156t41.5 171.5t23 170.5t6.5 158q0 226 -65.5 334.5t-229.5 108.5q-97 0 -177.5 -36.5t-136.5 -102t-98 -149.5t-66.5 -186t-36 -204.5t-11.5 -210.5q0 -101 16.5 -181.5t51.5 -144t96.5 -98.5t144.5 -35zM66 539
q0 124 29.5 251t93 247t151.5 213t215.5 149.5t275.5 56.5q236 0 363 -142.5t127 -410.5q0 -125 -27.5 -252t-88 -249t-146.5 -216t-213 -151.5t-277 -57.5q-242 0 -372.5 142.5t-130.5 419.5zM553 1673q8 45 42.5 77t86.5 32q43 0 69.5 -21.5t26.5 -62.5q0 -60 -36 -98.5
t-95 -38.5q-50 0 -73 24t-23 62q0 18 2 26zM952 1673q8 45 42.5 77t86.5 32q43 0 70 -21.5t27 -62.5q0 -60 -36 -98.5t-95 -38.5q-50 0 -73.5 24.5t-23.5 61.5q0 18 2 26z" />
    <glyph glyph-name="multiply" unicode="&#xd7;" 
d="M971 946l-359 -303l246 -301l-61 -49l-246 297l-352 -299l-43 51l352 301l-246 303l62 53l245 -303l359 303z" />
    <glyph glyph-name="Oslash" unicode="&#xd8;" horiz-adv-x="1382" 
d="M66 539q0 124 29.5 251t93 247t151.5 213t215.5 149.5t275.5 56.5q95 0 193 -31l78 154l65 -33l-75 -149q229 -128 229 -494q0 -125 -27.5 -252t-88 -249t-146.5 -216t-213 -151.5t-277 -57.5q-100 0 -186 25l-78 -154l-67 33l75 150q-247 123 -247 508zM283 502
q0 -242 88 -359l610 1200q-67 48 -172 48q-97 0 -177.5 -36.5t-136.5 -102t-98 -149.5t-66.5 -186t-36 -204.5t-11.5 -210.5zM592 43q86 0 158.5 32.5t124 87t92.5 129.5t66 156t41.5 171.5t23 170.5t6.5 158q0 234 -70 338l-606 -1196q65 -47 164 -47z" />
    <glyph glyph-name="Ugrave" unicode="&#xd9;" horiz-adv-x="1411" 
d="M653 49q180 0 284.5 93t141.5 315l152 917h-170l8 60h395l-10 -60h-141l-152 -911q-40 -240 -168.5 -363t-382.5 -123q-93 0 -164.5 15t-127.5 48.5t-86 88t-41 132.5t8 183l157 930h-147l10 60h496l-8 -60h-148l-151 -907q-25 -145 -14.5 -238t72 -136.5t187.5 -43.5z
M801 1835l264 -313l-27 -27l-303 164q-25 15 -36 22.5t-21 23.5t-10 36q0 31 24 53.5t58 30.5z" />
    <glyph glyph-name="Uacute" unicode="&#xda;" horiz-adv-x="1411" 
d="M653 49q-126 0 -187.5 43.5t-72 136.5t14.5 238l151 907h148l8 60h-496l-10 -60h147l-157 -930q-19 -105 -8 -183t41 -132.5t86 -88t127.5 -48.5t164.5 -15q254 0 382.5 123t168.5 363l152 911h141l10 60h-395l-8 -60h170l-152 -917q-37 -222 -141.5 -315t-284.5 -93z
M705 1526l337 315l60 -20q57 -15 57 -66q0 -59 -96 -104l-336 -154z" />
    <glyph glyph-name="Ucircumflex" unicode="&#xdb;" horiz-adv-x="1411" 
d="M653 49q-126 0 -187.5 43.5t-72 136.5t14.5 238l151 907h148l8 60h-496l-10 -60h147l-157 -930q-19 -105 -8 -183t41 -132.5t86 -88t127.5 -48.5t164.5 -15q254 0 382.5 123t168.5 363l152 911h141l10 60h-395l-8 -60h170l-152 -917q-37 -222 -141.5 -315t-284.5 -93z
M563 1518l299 286q34 17 64 17q25 0 43.5 -14.5t40.5 -47.5l159 -243l-28 -23l-236 174l-321 -180z" />
    <glyph glyph-name="Udieresis" unicode="&#xdc;" horiz-adv-x="1411" 
d="M653 49q180 0 284.5 93t141.5 315l152 917h-170l8 60h395l-10 -60h-141l-152 -911q-40 -240 -168.5 -363t-382.5 -123q-93 0 -164.5 15t-127.5 48.5t-86 88t-41 132.5t8 183l157 930h-147l10 60h496l-8 -60h-148l-151 -907q-25 -145 -14.5 -238t72 -136.5t187.5 -43.5z
M590 1673q8 45 42.5 77t86.5 32q43 0 69.5 -21.5t26.5 -62.5q0 -60 -36 -98.5t-95 -38.5q-50 0 -73 24t-23 62q0 18 2 26zM989 1673q8 45 42.5 77t86.5 32q43 0 69.5 -21.5t26.5 -62.5q0 -60 -36 -98.5t-95 -38.5q-50 0 -73 24t-23 62q0 18 2 26z" />
    <glyph glyph-name="Yacute" unicode="&#xdd;" horiz-adv-x="1138" 
d="M653 748l422 626h-196l8 60h403l-8 -60h-129l-479 -710l-103 -605h166l-10 -59h-534l10 59h164l102 605l-242 710h-131l8 60h545l-8 -60h-184zM547 1526l338 315l59 -20q57 -15 57 -66q0 -59 -96 -104l-336 -154z" />
    <glyph glyph-name="Thorn" unicode="&#xde;" horiz-adv-x="1232" 
d="M231 1434h592l-8 -60h-221l-39 -215h125q508 0 508 -346q0 -106 -36.5 -191t-99 -142t-150 -95t-186.5 -55t-212 -17h-90l-43 -254h241l-8 -59h-612l8 59h166l221 1315h-166zM547 1100l-123 -727h72q219 0 344 117t125 319q0 159 -78.5 225t-229.5 66h-110z" />
    <glyph glyph-name="germandbls" unicode="&#xdf;" horiz-adv-x="1251" 
d="M-180 -455q34 0 61.5 7.5t47.5 19t36.5 34t27.5 43.5t21.5 58t17 67t15.5 79l232 1261q21 109 58 191.5t97.5 146.5t151.5 97.5t211 33.5q84 0 144 -18t92 -50t46.5 -68t14.5 -79q0 -46 -19 -89t-48.5 -77t-66 -66.5t-73 -65.5t-66 -67t-48.5 -77t-19 -90q0 -41 21 -75
t55 -58.5t75 -48.5t82.5 -52.5t75.5 -62t55 -84.5t21 -115q0 -155 -104.5 -259t-270.5 -104q-161 0 -238 65.5t-77 164.5q0 70 38 116t105 46q72 0 98 -56.5t-14 -124.5h-72q-27 -61 16.5 -108t151.5 -47q100 0 164.5 57t64.5 156q0 50 -21.5 90t-56.5 67t-77 51t-83.5 49
t-76.5 55t-56.5 75t-21.5 102q0 55 20 106t52.5 91t71 78.5t77.5 77t71.5 78.5t52.5 91t20 107q0 172 -197 172q-47 0 -87.5 -12.5t-68.5 -31.5t-51.5 -50t-38 -58.5t-27 -67t-19 -66t-13.5 -64.5l-223 -1227q-85 -469 -445 -469q-110 0 -171.5 54t-61.5 137
q0 66 38.5 111.5t106.5 45.5q62 0 91 -45t12 -112l-74 -9q-32 -63 -8.5 -95t84.5 -32z" />
    <glyph glyph-name="agrave" unicode="&#xe0;" horiz-adv-x="1134" 
d="M1026 141l41 -32q-82 -132 -207 -132q-61 0 -100.5 21.5t-55 60t-14 88t18.5 109.5l-11 2q-135 -281 -379 -281q-139 0 -213.5 93.5t-74.5 261.5q0 85 19.5 175t60.5 177.5t99 156.5t141.5 111.5t180.5 42.5q185 0 259 -161l38 139q71 0 166 12q-103 -511 -149 -819
q-8 -57 4.5 -86t54.5 -29q57 0 121 90zM385 63q77 0 146.5 61.5t114.5 154.5t71 198t26 195q0 260 -192 260q-89 0 -154.5 -55t-101 -146t-52 -191t-16.5 -208q0 -139 34.5 -204t123.5 -65zM627 1497l94 -371l-33 -14l-207 266q-32 44 -32 80q0 41 43 61t83 1z" />
    <glyph glyph-name="aacute" unicode="&#xe1;" horiz-adv-x="1134" 
d="M1026 141l41 -32q-82 -132 -207 -132q-61 0 -100.5 21.5t-55 60t-14 88t18.5 109.5l-11 2q-135 -281 -379 -281q-139 0 -213.5 93.5t-74.5 261.5q0 85 19.5 175t60.5 177.5t99 156.5t141.5 111.5t180.5 42.5q185 0 259 -161l38 139q71 0 166 12q-103 -511 -149 -819
q-8 -57 4.5 -86t54.5 -29q57 0 121 90zM385 63q77 0 146.5 61.5t114.5 154.5t71 198t26 195q0 260 -192 260q-89 0 -154.5 -55t-101 -146t-52 -191t-16.5 -208q0 -139 34.5 -204t123.5 -65zM469 1128l190 367l76 14q33 8 60.5 -7.5t27.5 -49.5q0 -44 -57 -98l-270 -246z" />
    <glyph glyph-name="acircumflex" unicode="&#xe2;" horiz-adv-x="1134" 
d="M1026 141l41 -32q-82 -132 -207 -132q-61 0 -100.5 21.5t-55 60t-14 88t18.5 109.5l-11 2q-135 -281 -379 -281q-139 0 -213.5 93.5t-74.5 261.5q0 85 19.5 175t60.5 177.5t99 156.5t141.5 111.5t180.5 42.5q185 0 259 -161l38 139q71 0 166 12q-103 -511 -149 -819
q-8 -57 4.5 -86t54.5 -29q57 0 121 90zM385 63q77 0 146.5 61.5t114.5 154.5t71 198t26 195q0 260 -192 260q-89 0 -154.5 -55t-101 -146t-52 -191t-16.5 -208q0 -139 34.5 -204t123.5 -65zM334 1133l260 350q31 22 80 22q53 0 74 -63l108 -316l-35 -18l-178 240l-278 -242z
" />
    <glyph glyph-name="atilde" unicode="&#xe3;" horiz-adv-x="1134" 
d="M1026 141l41 -32q-82 -132 -207 -132q-61 0 -100.5 21.5t-55 60t-14 88t18.5 109.5l-11 2q-135 -281 -379 -281q-139 0 -213.5 93.5t-74.5 261.5q0 85 19.5 175t60.5 177.5t99 156.5t141.5 111.5t180.5 42.5q185 0 259 -161l38 139q71 0 166 12q-103 -511 -149 -819
q-8 -57 4.5 -86t54.5 -29q57 0 121 90zM385 63q77 0 146.5 61.5t114.5 154.5t71 198t26 195q0 260 -192 260q-89 0 -154.5 -55t-101 -146t-52 -191t-16.5 -208q0 -139 34.5 -204t123.5 -65zM725 1188q-74 0 -174 47q-79 33 -117 33q-60 0 -112 -90l-37 14q48 105 97 154
t132 49q16 0 30 -1t27.5 -4t22.5 -5.5t23 -8t20.5 -8t22.5 -10t22 -10.5q76 -31 115 -31q36 0 61 18.5t55 69.5l39 -12q-48 -109 -103.5 -157t-123.5 -48z" />
    <glyph glyph-name="adieresis" unicode="&#xe4;" horiz-adv-x="1134" 
d="M1026 141l41 -32q-82 -132 -207 -132q-61 0 -100.5 21.5t-55 60t-14 88t18.5 109.5l-11 2q-135 -281 -379 -281q-139 0 -213.5 93.5t-74.5 261.5q0 85 19.5 175t60.5 177.5t99 156.5t141.5 111.5t180.5 42.5q185 0 259 -161l38 139q71 0 166 12q-103 -511 -149 -819
q-8 -57 4.5 -86t54.5 -29q57 0 121 90zM385 63q77 0 146.5 61.5t114.5 154.5t71 198t26 195q0 260 -192 260q-89 0 -154.5 -55t-101 -146t-52 -191t-16.5 -208q0 -139 34.5 -204t123.5 -65zM299 1280q8 45 42.5 77t86.5 32q50 0 77 -27.5t17 -81.5q-8 -51 -42 -82t-87 -31
q-58 0 -79.5 33t-14.5 80zM698 1280q8 45 42.5 77t86.5 32q51 0 78 -27.5t17 -81.5q-8 -51 -42 -82t-87 -31q-59 0 -80.5 32.5t-14.5 80.5z" />
    <glyph glyph-name="aring" unicode="&#xe5;" horiz-adv-x="1134" 
d="M1026 141l41 -32q-82 -132 -207 -132q-61 0 -100.5 21.5t-55 60t-14 88t18.5 109.5l-11 2q-135 -281 -379 -281q-139 0 -213.5 93.5t-74.5 261.5q0 85 19.5 175t60.5 177.5t99 156.5t141.5 111.5t180.5 42.5q185 0 259 -161l38 139q71 0 166 12q-103 -511 -149 -819
q-8 -57 4.5 -86t54.5 -29q57 0 121 90zM385 63q77 0 146.5 61.5t114.5 154.5t71 198t26 195q0 260 -192 260q-89 0 -154.5 -55t-101 -146t-52 -191t-16.5 -208q0 -139 34.5 -204t123.5 -65zM639 1438q-57 0 -96 -40t-39 -98q0 -41 23.5 -70.5t72.5 -29.5q60 0 97.5 38.5
t37.5 96.5q0 44 -24 73.5t-72 29.5zM430 1286q0 91 63 150t162 59q75 0 115.5 -39t40.5 -102q0 -95 -61.5 -154t-161.5 -59q-80 0 -119 40t-39 105z" />
    <glyph glyph-name="ae" unicode="&#xe6;" horiz-adv-x="1589" 
d="M1446 336l55 -17q-45 -164 -163 -253t-283 -89q-152 0 -235.5 78.5t-98.5 227.5q-63 -130 -166.5 -218t-235.5 -88q-139 0 -213.5 93.5t-74.5 261.5q0 85 19.5 175t60.5 177.5t99 156.5t141.5 111.5t180.5 42.5q185 0 259 -161l38 139q59 0 154 12l-31 -102q53 54 132 83
t167 29q117 0 186.5 -59t69.5 -172q0 -62 -23.5 -111.5t-58 -80.5t-88.5 -56t-99 -38t-105 -25q-127 -25 -238 -29v-57q0 -166 51 -239t168 -73q235 0 332 281zM385 63q77 0 146.5 61.5t114.5 154.5t71 198t26 195q0 260 -192 260q-89 0 -154.5 -55t-101 -146t-52 -191
t-16.5 -208q0 -139 34.5 -204t123.5 -65zM899 481q74 4 119 13q72 15 124 35.5t96.5 53t67.5 83.5t23 118q0 162 -125 162q-101 0 -190 -123t-115 -342z" />
    <glyph glyph-name="ccedilla" unicode="&#xe7;" horiz-adv-x="946" 
d="M784 334l54 -17q-16 -60 -45 -113t-72.5 -99.5t-106.5 -78.5t-139 -42l-80 -101q28 8 56 8q75 0 116 -38t41 -101q0 -94 -79 -148.5t-185 -54.5q-75 0 -116.5 33t-41.5 78q0 32 21 56t55 24q26 0 44 -18.5t20 -45.5l-43 -28q-8 -26 10 -43t55 -17q57 0 93 43t36 111
q0 102 -90 102q-33 0 -63 -10l-7 31l89 112h-9q-177 0 -268.5 103t-91.5 287q0 95 22.5 185.5t69 171t112 140.5t158 95.5t201.5 35.5q138 0 214.5 -68t76.5 -175q0 -76 -39 -124t-117 -48q-54 0 -88.5 25.5t-34.5 70.5q0 54 33 98h70q32 77 0 124.5t-117 47.5
q-97 0 -170 -48t-114.5 -131t-61 -181.5t-19.5 -212.5q0 -167 51 -243.5t167 -76.5q240 0 333 281z" />
    <glyph glyph-name="egrave" unicode="&#xe8;" horiz-adv-x="927" 
d="M784 336l56 -17q-45 -164 -163.5 -253t-283.5 -89q-172 0 -264 101t-92 284q0 121 40 235.5t110 202.5t172.5 141.5t218.5 53.5q126 0 197 -59t71 -172q0 -62 -23.5 -111.5t-58 -80.5t-89 -56t-99.5 -38t-105 -25q-127 -25 -238 -29v-57q0 -166 51.5 -239t168.5 -73
q234 0 331 281zM238 481q73 4 118 13q72 15 124 35.5t97 53t68 83.5t23 118q0 162 -125 162q-101 0 -190 -123t-115 -342zM614 1497l95 -371l-33 -14l-207 266q-33 46 -33 80q0 41 43.5 61t83.5 1z" />
    <glyph glyph-name="eacute" unicode="&#xe9;" horiz-adv-x="927" 
d="M784 336l56 -17q-45 -164 -163.5 -253t-283.5 -89q-172 0 -264 101t-92 284q0 121 40 235.5t110 202.5t172.5 141.5t218.5 53.5q126 0 197 -59t71 -172q0 -62 -23.5 -111.5t-58 -80.5t-89 -56t-99.5 -38t-105 -25q-127 -25 -238 -29v-57q0 -166 51.5 -239t168.5 -73
q234 0 331 281zM238 481q73 4 118 13q72 15 124 35.5t97 53t68 83.5t23 118q0 162 -125 162q-101 0 -190 -123t-115 -342zM449 1128l190 367l76 14q33 8 60.5 -7.5t27.5 -49.5q0 -43 -58 -98l-270 -246z" />
    <glyph glyph-name="ecircumflex" unicode="&#xea;" horiz-adv-x="927" 
d="M784 336l56 -17q-45 -164 -163.5 -253t-283.5 -89q-172 0 -264 101t-92 284q0 121 40 235.5t110 202.5t172.5 141.5t218.5 53.5q126 0 197 -59t71 -172q0 -62 -23.5 -111.5t-58 -80.5t-89 -56t-99.5 -38t-105 -25q-127 -25 -238 -29v-57q0 -166 51.5 -239t168.5 -73
q234 0 331 281zM238 481q73 4 118 13q72 15 124 35.5t97 53t68 83.5t23 118q0 162 -125 162q-101 0 -190 -123t-115 -342zM307 1133l260 350q31 22 80 22q53 0 74 -63l108 -316l-34 -18l-179 240l-278 -242z" />
    <glyph glyph-name="edieresis" unicode="&#xeb;" horiz-adv-x="927" 
d="M784 336l56 -17q-45 -164 -163.5 -253t-283.5 -89q-172 0 -264 101t-92 284q0 121 40 235.5t110 202.5t172.5 141.5t218.5 53.5q126 0 197 -59t71 -172q0 -62 -23.5 -111.5t-58 -80.5t-89 -56t-99.5 -38t-105 -25q-127 -25 -238 -29v-57q0 -166 51.5 -239t168.5 -73
q234 0 331 281zM238 481q73 4 118 13q72 15 124 35.5t97 53t68 83.5t23 118q0 162 -125 162q-101 0 -190 -123t-115 -342zM287 1280q8 45 42.5 77t86.5 32q50 0 77 -27.5t17 -81.5q-8 -51 -42 -82t-87 -31q-58 0 -79.5 33t-14.5 80zM686 1280q8 45 42.5 77t86.5 32
q50 0 77 -27.5t17 -81.5q-8 -51 -42 -82t-87 -31q-59 0 -80 32.5t-14 80.5z" />
    <glyph glyph-name="igrave" unicode="&#xec;" horiz-adv-x="581" 
d="M455 143l43 -32q-44 -67 -95 -100.5t-118 -33.5q-191 0 -191 177q0 67 33 219q35 161 125 549h-164l8 53h340l-160 -772q-17 -88 -4.5 -121t58.5 -33q32 0 59.5 20.5t65.5 73.5zM358 1497l95 -371l-33 -14l-207 266q-33 46 -33 80q0 41 43.5 61t83.5 1z" />
    <glyph glyph-name="iacute" unicode="&#xed;" horiz-adv-x="581" 
d="M455 143l43 -32q-44 -67 -95 -100.5t-118 -33.5q-191 0 -191 177q0 67 33 219q35 161 125 549h-164l8 53h340l-160 -772q-17 -88 -4.5 -121t58.5 -33q32 0 59.5 20.5t65.5 73.5zM193 1128l190 367l76 14q33 8 60.5 -7.5t27.5 -49.5q0 -43 -58 -98l-270 -246z" />
    <glyph glyph-name="icircumflex" unicode="&#xee;" horiz-adv-x="581" 
d="M455 143l43 -32q-44 -67 -95 -100.5t-118 -33.5q-191 0 -191 177q0 67 33 219q35 161 125 549h-164l8 53h340l-160 -772q-17 -88 -4.5 -121t58.5 -33q32 0 59.5 20.5t65.5 73.5zM45 1133l260 350q31 22 80 22q53 0 74 -63l108 -316l-35 -18l-178 240l-278 -242z" />
    <glyph glyph-name="idieresis" unicode="&#xef;" horiz-adv-x="581" 
d="M455 143l43 -32q-44 -67 -95 -100.5t-118 -33.5q-191 0 -191 177q0 67 33 219q35 161 125 549h-164l8 53h340l-160 -772q-17 -88 -4.5 -121t58.5 -33q32 0 59.5 20.5t65.5 73.5zM31 1280q8 45 42.5 77t86.5 32q50 0 77 -27.5t17 -81.5q-8 -51 -42 -82t-87 -31
q-58 0 -79.5 33t-14.5 80zM430 1280q8 45 42.5 77t86.5 32q50 0 77 -27.5t17 -81.5q-8 -51 -42 -82t-87 -31q-59 0 -80 32.5t-14 80.5z" />
    <glyph glyph-name="eth" unicode="&#xf0;" horiz-adv-x="1067" 
d="M514 1157l-10 64l194 133q-136 119 -327 157l14 45q118 -1 238.5 -34t195.5 -84l225 147l15 -59l-191 -127q72 -80 109 -195.5t37 -316.5q0 -71 -9.5 -150.5t-32 -168.5t-56 -172.5t-84.5 -160t-113.5 -133.5t-148 -91t-183.5 -34q-167 0 -260.5 99.5t-93.5 281.5
q0 125 33 238t94.5 203t160 143t220.5 53q106 0 175.5 -58t102.5 -153q14 142 -4.5 287.5t-77.5 235.5zM553 942q-133 0 -230.5 -168t-97.5 -436q0 -90 16.5 -156.5t59 -109.5t109.5 -43q153 0 251.5 166.5t98.5 457.5q0 131 -57 210t-150 79z" />
    <glyph glyph-name="ntilde" unicode="&#xf1;" horiz-adv-x="1157" 
d="M1040 139l41 -35q-92 -127 -221 -127q-91 0 -138.5 45t-47.5 128q0 61 24.5 164.5t60.5 233t50 197.5q20 97 3 136t-71 39q-79 0 -160.5 -70.5t-142 -174t-96.5 -220.5q-52 -172 -80 -449q-92 3 -201 -20l78 366l70 570h-156l6 53h338l-84 -363l13 -6q32 62 63.5 112.5
t74.5 104t88 90t101.5 59.5t116.5 23q134 0 186.5 -89t12.5 -249q-83 -321 -111 -434q-14 -58 -14 -104q0 -70 59 -70q65 0 137 90zM745 1188q-74 0 -174 47q-79 33 -116 33q-61 0 -113 -90l-37 14q48 105 97.5 154t132.5 49q18 0 35.5 -2t28.5 -4t28.5 -8.5t23 -9t26 -12
t25.5 -11.5q76 -31 115 -31q36 0 61.5 18.5t55.5 69.5l39 -12q-48 -109 -103.5 -157t-124.5 -48z" />
    <glyph glyph-name="ograve" unicode="&#xf2;" horiz-adv-x="1034" 
d="M424 33q79 0 139 40.5t94.5 102t56.5 147t29 162t7 160.5q0 151 -46 226t-155 75q-73 0 -130.5 -39t-93.5 -100.5t-59.5 -144.5t-33 -165.5t-9.5 -168.5q0 -295 201 -295zM401 -23q-184 0 -277 102.5t-93 282.5q0 92 21.5 181.5t67 171.5t109 144t154 99t195.5 37
q185 0 276.5 -101t91.5 -280q0 -90 -21.5 -180t-67 -172.5t-108.5 -146t-153.5 -101t-194.5 -37.5zM627 1497l94 -371l-33 -14l-207 266q-32 44 -32 80q0 41 43 61t83 1z" />
    <glyph glyph-name="oacute" unicode="&#xf3;" horiz-adv-x="1034" 
d="M424 33q79 0 139 40.5t94.5 102t56.5 147t29 162t7 160.5q0 151 -46 226t-155 75q-73 0 -130.5 -39t-93.5 -100.5t-59.5 -144.5t-33 -165.5t-9.5 -168.5q0 -295 201 -295zM401 -23q-184 0 -277 102.5t-93 282.5q0 92 21.5 181.5t67 171.5t109 144t154 99t195.5 37
q185 0 276.5 -101t91.5 -280q0 -90 -21.5 -180t-67 -172.5t-108.5 -146t-153.5 -101t-194.5 -37.5zM461 1128l190 367l76 14q33 8 60.5 -7.5t27.5 -49.5q0 -44 -57 -98l-271 -246z" />
    <glyph glyph-name="ocircumflex" unicode="&#xf4;" horiz-adv-x="1034" 
d="M424 33q79 0 139 40.5t94.5 102t56.5 147t29 162t7 160.5q0 151 -46 226t-155 75q-73 0 -130.5 -39t-93.5 -100.5t-59.5 -144.5t-33 -165.5t-9.5 -168.5q0 -295 201 -295zM401 -23q-184 0 -277 102.5t-93 282.5q0 92 21.5 181.5t67 171.5t109 144t154 99t195.5 37
q185 0 276.5 -101t91.5 -280q0 -90 -21.5 -180t-67 -172.5t-108.5 -146t-153.5 -101t-194.5 -37.5zM319 1133l261 350q31 22 79 22q53 0 74 -63l109 -316l-35 -18l-178 240l-279 -242z" />
    <glyph glyph-name="otilde" unicode="&#xf5;" horiz-adv-x="1034" 
d="M424 33q79 0 139 40.5t94.5 102t56.5 147t29 162t7 160.5q0 151 -46 226t-155 75q-73 0 -130.5 -39t-93.5 -100.5t-59.5 -144.5t-33 -165.5t-9.5 -168.5q0 -295 201 -295zM401 -23q-184 0 -277 102.5t-93 282.5q0 92 21.5 181.5t67 171.5t109 144t154 99t195.5 37
q185 0 276.5 -101t91.5 -280q0 -90 -21.5 -180t-67 -172.5t-108.5 -146t-153.5 -101t-194.5 -37.5zM725 1188q-74 0 -174 47q-79 33 -117 33q-60 0 -112 -90l-37 14q48 105 97 154t132 49q16 0 30 -1t27.5 -4t22.5 -5.5t23 -8t20.5 -8t22.5 -10t22 -10.5q76 -31 115 -31
q36 0 61 18.5t55 69.5l39 -12q-48 -109 -103.5 -157t-123.5 -48z" />
    <glyph glyph-name="odieresis" unicode="&#xf6;" horiz-adv-x="1034" 
d="M424 33q79 0 139 40.5t94.5 102t56.5 147t29 162t7 160.5q0 151 -46 226t-155 75q-73 0 -130.5 -39t-93.5 -100.5t-59.5 -144.5t-33 -165.5t-9.5 -168.5q0 -295 201 -295zM401 -23q-184 0 -277 102.5t-93 282.5q0 92 21.5 181.5t67 171.5t109 144t154 99t195.5 37
q185 0 276.5 -101t91.5 -280q0 -90 -21.5 -180t-67 -172.5t-108.5 -146t-153.5 -101t-194.5 -37.5zM299 1280q8 45 42.5 77t86.5 32q50 0 77 -27.5t17 -81.5q-8 -51 -42 -82t-87 -31q-58 0 -79.5 33t-14.5 80zM698 1280q8 45 42.5 77t86.5 32q51 0 78 -27.5t17 -81.5
q-8 -51 -42 -82t-87 -31q-59 0 -80.5 32.5t-14.5 80.5z" />
    <glyph glyph-name="divide" unicode="&#xf7;" 
d="M643 1063q46 0 72 -21t26 -63q0 -63 -37.5 -103t-97.5 -40q-98 0 -98 88q0 60 40 99.5t95 39.5zM537 463q46 0 73 -21.5t27 -64.5q0 -62 -37.5 -101.5t-97.5 -39.5q-52 0 -75.5 24.5t-23.5 63.5q0 60 39.5 99.5t94.5 39.5zM1022 610h-930l12 74h930z" />
    <glyph glyph-name="oslash" unicode="&#xf8;" horiz-adv-x="1034" 
d="M401 -23q-53 0 -122 15l-74 -150l-58 29l70 141q-186 83 -186 350q0 92 21.5 181.5t67 171.5t109 144t154 99t195.5 37q68 0 120 -14l78 158l55 -25l-75 -151q95 -42 142.5 -132t47.5 -217q0 -90 -21.5 -180t-67 -172.5t-108.5 -146t-153.5 -101t-194.5 -37.5zM223 328
q0 -139 45 -213l396 798q-48 33 -115 33q-73 0 -130.5 -39t-93.5 -100.5t-59.5 -144.5t-33 -165.5t-9.5 -168.5zM424 33q79 0 139 40.5t94.5 102t56.5 147t29 162t7 160.5q0 146 -43 217l-394 -799q43 -30 111 -30z" />
    <glyph glyph-name="ugrave" unicode="&#xf9;" horiz-adv-x="1163" 
d="M1051 141l41 -28q-88 -136 -207 -136q-227 0 -156 256l25 95l-13 4q-28 -58 -54 -102.5t-64.5 -94.5t-79.5 -82.5t-96.5 -54t-116.5 -21.5q-275 0 -217 324q11 62 31 162.5t47.5 237t44.5 221.5h-158l8 53h338l-143 -709q-11 -62 -13.5 -108.5t23.5 -74.5t84 -28
q112 0 210 133t160 351q61 211 84 430q90 -3 199 20q-131 -609 -164 -844q-6 -50 7.5 -74t54.5 -24q33 0 61 21.5t64 72.5zM643 1497l94 -371l-32 -14l-207 266q-33 46 -33 80q0 41 43.5 61t83.5 1z" />
    <glyph glyph-name="uacute" unicode="&#xfa;" horiz-adv-x="1163" 
d="M1051 141l41 -28q-88 -136 -207 -136q-227 0 -156 256l25 95l-13 4q-28 -58 -54 -102.5t-64.5 -94.5t-79.5 -82.5t-96.5 -54t-116.5 -21.5q-275 0 -217 324q11 62 31 162.5t47.5 237t44.5 221.5h-158l8 53h338l-143 -709q-11 -62 -13.5 -108.5t23.5 -74.5t84 -28
q112 0 210 133t160 351q61 211 84 430q90 -3 199 20q-131 -609 -164 -844q-6 -50 7.5 -74t54.5 -24q33 0 61 21.5t64 72.5zM522 1128l191 367l75 14q33 8 61 -7.5t28 -49.5q0 -43 -58 -98l-270 -246z" />
    <glyph glyph-name="ucircumflex" unicode="&#xfb;" horiz-adv-x="1163" 
d="M1051 141l41 -28q-88 -136 -207 -136q-227 0 -156 256l25 95l-13 4q-28 -58 -54 -102.5t-64.5 -94.5t-79.5 -82.5t-96.5 -54t-116.5 -21.5q-275 0 -217 324q11 62 31 162.5t47.5 237t44.5 221.5h-158l8 53h338l-143 -709q-11 -62 -13.5 -108.5t23.5 -74.5t84 -28
q112 0 210 133t160 351q61 211 84 430q90 -3 199 20q-131 -609 -164 -844q-6 -50 7.5 -74t54.5 -24q33 0 61 21.5t64 72.5zM373 1133l260 350q31 22 80 22q26 0 44 -14t29 -49l109 -316l-35 -18l-178 240l-279 -242z" />
    <glyph glyph-name="udieresis" unicode="&#xfc;" horiz-adv-x="1163" 
d="M1051 141l41 -28q-88 -136 -207 -136q-227 0 -156 256l25 95l-13 4q-28 -58 -54 -102.5t-64.5 -94.5t-79.5 -82.5t-96.5 -54t-116.5 -21.5q-275 0 -217 324q11 62 31 162.5t47.5 237t44.5 221.5h-158l8 53h338l-143 -709q-11 -62 -13.5 -108.5t23.5 -74.5t84 -28
q112 0 210 133t160 351q61 211 84 430q90 -3 199 20q-131 -609 -164 -844q-6 -50 7.5 -74t54.5 -24q33 0 61 21.5t64 72.5zM352 1280q8 45 42.5 77t86.5 32q50 0 77 -27.5t17 -81.5q-8 -51 -42 -82t-87 -31q-58 0 -79.5 33t-14.5 80zM752 1280q8 45 42.5 77t86.5 32
q50 0 77 -27.5t17 -81.5q-8 -51 -42 -82t-87 -31q-59 0 -80 32.5t-14 80.5z" />
    <glyph glyph-name="yacute" unicode="&#xfd;" horiz-adv-x="1079" 
d="M94 -326l-84 -12q-32 -47 -17.5 -80t70.5 -33q194 0 449 410q-139 517 -233 819q-18 58 -36.5 77t-47.5 19q-34 0 -62.5 -37.5t-60.5 -125.5l-60 24q46 122 100 181t148 59q72 0 120 -46t79 -147q103 -345 178 -651q48 71 104 168t111 226t55 202q0 36 -17.5 62.5
t-45.5 27.5l-66 -82q-44 14 -69 46.5t-25 78.5q0 57 37.5 96t103.5 39q83 0 129.5 -60.5t46.5 -152.5q0 -221 -280 -647q-21 -32 -60.5 -93.5t-64 -99.5t-64 -95.5t-70 -95t-71 -83t-78 -74.5t-80 -55t-87.5 -38.5t-91 -12.5q-109 0 -174 57t-65 152q0 71 42.5 116.5
t110.5 45.5q71 0 108.5 -51.5t16.5 -133.5zM465 1128l190 367l76 14q33 8 60.5 -7.5t27.5 -49.5q0 -44 -57 -98l-270 -246z" />
    <glyph glyph-name="thorn" unicode="&#xfe;" horiz-adv-x="1067" 
d="M975 641q0 -89 -20 -181.5t-62 -179t-100.5 -154t-142 -108.5t-179.5 -41q-93 0 -160 39.5t-98 102.5l-86 -553h246l-11 -53h-546l10 53h125l317 1917h-162l9 53h346l-168 -825l10 -2q68 135 170.5 210.5t233.5 75.5q133 0 200.5 -92.5t67.5 -261.5zM260 297q0 -57 8 -99
t29 -79t61.5 -56.5t100.5 -19.5q83 0 146.5 51t100 138.5t54.5 192t18 222.5q0 52 -3 89t-12.5 72.5t-25.5 56.5t-43 33.5t-65 12.5q-98 0 -184.5 -92t-135.5 -233.5t-49 -288.5z" />
    <glyph glyph-name="ydieresis" unicode="&#xff;" horiz-adv-x="1079" 
d="M94 -326l-84 -12q-32 -47 -17.5 -80t70.5 -33q194 0 449 410q-139 517 -233 819q-18 58 -36.5 77t-47.5 19q-34 0 -62.5 -37.5t-60.5 -125.5l-60 24q46 122 100 181t148 59q72 0 120 -46t79 -147q103 -345 178 -651q48 71 104 168t111 226t55 202q0 36 -17.5 62.5
t-45.5 27.5l-66 -82q-44 14 -69 46.5t-25 78.5q0 57 37.5 96t103.5 39q83 0 129.5 -60.5t46.5 -152.5q0 -221 -280 -647q-21 -32 -60.5 -93.5t-64 -99.5t-64 -95.5t-70 -95t-71 -83t-78 -74.5t-80 -55t-87.5 -38.5t-91 -12.5q-109 0 -174 57t-65 152q0 71 42.5 116.5
t110.5 45.5q71 0 108.5 -51.5t16.5 -133.5zM303 1280q8 45 42.5 77t86.5 32q50 0 77 -27.5t17 -81.5q-8 -51 -42 -82t-87 -31q-58 0 -79.5 33t-14.5 80zM702 1280q8 45 42.5 77t86.5 32q51 0 78 -27.5t17 -81.5q-8 -51 -42 -82t-87 -31q-59 0 -80.5 32.5t-14.5 80.5z" />
    <glyph glyph-name="Amacron" unicode="&#x100;" horiz-adv-x="1226" 
d="M803 59l-64 418h-442l-217 -418h178l-8 -59h-389l8 59h133l731 1397h51l242 -1397h135l-8 -59h-530l8 59h172zM637 1151l-311 -614h403zM500 1591l18 107h557l-18 -107h-557z" />
    <glyph glyph-name="amacron" unicode="&#x101;" horiz-adv-x="1134" 
d="M1026 141l41 -32q-82 -132 -207 -132q-61 0 -100.5 21.5t-55 60t-14 88t18.5 109.5l-11 2q-135 -281 -379 -281q-139 0 -213.5 93.5t-74.5 261.5q0 85 19.5 175t60.5 177.5t99 156.5t141.5 111.5t180.5 42.5q185 0 259 -161l38 139q71 0 166 12q-103 -511 -149 -819
q-8 -57 4.5 -86t54.5 -29q57 0 121 90zM385 63q77 0 146.5 61.5t114.5 154.5t71 198t26 195q0 260 -192 260q-89 0 -154.5 -55t-101 -146t-52 -191t-16.5 -208q0 -139 34.5 -204t123.5 -65zM319 1210l19 107h557l-18 -107h-558z" />
    <glyph glyph-name="Abreve" unicode="&#x102;" horiz-adv-x="1226" 
d="M803 59l-64 418h-442l-217 -418h178l-8 -59h-389l8 59h133l731 1397h51l242 -1397h135l-8 -59h-530l8 59h172zM637 1151l-311 -614h403zM537 1757l49 10q13 -76 59 -112.5t150 -36.5q105 0 162.5 33t91.5 110l47 -6q-72 -258 -324 -258q-248 0 -235 260z" />
    <glyph glyph-name="abreve" unicode="&#x103;" horiz-adv-x="1134" 
d="M1026 141l41 -32q-82 -132 -207 -132q-61 0 -100.5 21.5t-55 60t-14 88t18.5 109.5l-11 2q-135 -281 -379 -281q-139 0 -213.5 93.5t-74.5 261.5q0 85 19.5 175t60.5 177.5t99 156.5t141.5 111.5t180.5 42.5q185 0 259 -161l38 139q71 0 166 12q-103 -511 -149 -819
q-8 -57 4.5 -86t54.5 -29q57 0 121 90zM385 63q77 0 146.5 61.5t114.5 154.5t71 198t26 195q0 260 -192 260q-89 0 -154.5 -55t-101 -146t-52 -191t-16.5 -208q0 -139 34.5 -204t123.5 -65zM354 1415l47 8q15 -97 60 -145.5t145 -48.5q51 0 90.5 14t69 42.5t50 60t42.5 79.5
l45 -10q-12 -54 -35 -103t-60 -95t-95 -73.5t-129 -27.5q-247 0 -230 299z" />
    <glyph glyph-name="Aogonek" unicode="&#x104;" horiz-adv-x="1202" 
d="M791 59l-64 418h-442l-217 -418h178l-8 -59h-390l9 59h133l731 1397h51l242 -1397h135l-8 -59h-187q-198 -132 -198 -285q0 -86 69 -86q25 0 47.5 13t35 26.5t34.5 40.5l35 -24q-16 -25 -29.5 -42t-41 -42.5t-65.5 -39.5t-83 -14q-80 0 -123 37t-43 99q0 167 285 317
h-267l8 59h173zM625 1151l-312 -614h404z" />
    <glyph glyph-name="aogonek" unicode="&#x105;" horiz-adv-x="1134" 
d="M1026 141l41 -32q-44 -69 -106 -107q-88 -53 -145.5 -127t-57.5 -160t69 -86q25 0 47.5 13t35 26.5t34.5 40.5l35 -24q-16 -25 -29.5 -42t-41 -42.5t-65.5 -39.5t-83 -14q-80 0 -123 37t-43 99q0 153 244 297q-72 5 -109.5 43t-38.5 97t19 136l-11 2q-135 -281 -379 -281
q-139 0 -213.5 93.5t-74.5 261.5q0 85 19.5 175t60.5 177.5t99 156.5t141.5 111.5t180.5 42.5q185 0 259 -161l38 139q71 0 166 12q-103 -511 -149 -819q-8 -57 4.5 -86t54.5 -29q57 0 121 90zM385 63q77 0 146.5 61.5t114.5 154.5t71 198t26 195q0 260 -192 260
q-89 0 -154.5 -55t-101 -146t-52 -191t-16.5 -208q0 -139 34.5 -204t123.5 -65z" />
    <glyph glyph-name="Cacute" unicode="&#x106;" horiz-adv-x="1249" 
d="M836 1397q-99 0 -182.5 -41t-142 -111.5t-102.5 -158t-69.5 -187t-38 -192t-12.5 -179.5q0 -221 88 -350t270 -129q157 0 279 97t188 298l55 -14q-27 -91 -68.5 -164t-91.5 -121t-103.5 -82.5t-110.5 -52.5t-105 -25.5t-96 -7.5q-253 0 -390.5 144t-137.5 424
q0 121 29.5 246.5t93 245t152 212.5t218.5 150t281 57q66 0 139 -15t124.5 -30.5t65.5 -15.5q15 0 25.5 6.5t15.5 12.5t17 24h41l-58 -428h-51q-17 387 -323 387zM659 1526l338 315l60 -20q57 -15 57 -66q0 -59 -96 -104l-336 -154z" />
    <glyph glyph-name="cacute" unicode="&#x107;" horiz-adv-x="946" 
d="M784 334l54 -17q-18 -67 -52 -125.5t-86.5 -108t-130.5 -78t-172 -28.5q-177 0 -268.5 103t-91.5 287q0 95 22.5 185.5t69 171t112 140.5t158 95.5t201.5 35.5q138 0 214.5 -68t76.5 -175q0 -76 -39 -124t-117 -48q-54 0 -88.5 25.5t-34.5 70.5q0 54 33 98h70
q32 77 0 124.5t-117 47.5q-97 0 -170 -48t-114.5 -131t-61 -181.5t-19.5 -212.5q0 -167 51 -243.5t167 -76.5q240 0 333 281zM467 1128l190 367l76 14q33 8 60.5 -7.5t27.5 -49.5q0 -44 -57 -98l-270 -246z" />
    <glyph glyph-name="Ccircumflex" unicode="&#x108;" horiz-adv-x="1249" 
d="M836 1397q-99 0 -182.5 -41t-142 -111.5t-102.5 -158t-69.5 -187t-38 -192t-12.5 -179.5q0 -221 88 -350t270 -129q157 0 279 97t188 298l55 -14q-27 -91 -68.5 -164t-91.5 -121t-103.5 -82.5t-110.5 -52.5t-105 -25.5t-96 -7.5q-253 0 -390.5 144t-137.5 424
q0 121 29.5 246.5t93 245t152 212.5t218.5 150t281 57q66 0 139 -15t124.5 -30.5t65.5 -15.5q15 0 25.5 6.5t15.5 12.5t17 24h41l-58 -428h-51q-17 387 -323 387zM537 1518l299 286q34 17 63 17q25 0 43.5 -14.5t40.5 -47.5l160 -243l-29 -23l-235 174l-322 -180z" />
    <glyph glyph-name="ccircumflex" unicode="&#x109;" horiz-adv-x="946" 
d="M784 334l54 -17q-18 -67 -52 -125.5t-86.5 -108t-130.5 -78t-172 -28.5q-177 0 -268.5 103t-91.5 287q0 95 22.5 185.5t69 171t112 140.5t158 95.5t201.5 35.5q138 0 214.5 -68t76.5 -175q0 -76 -39 -124t-117 -48q-54 0 -88.5 25.5t-34.5 70.5q0 54 33 98h70
q32 77 0 124.5t-117 47.5q-97 0 -170 -48t-114.5 -131t-61 -181.5t-19.5 -212.5q0 -167 51 -243.5t167 -76.5q240 0 333 281zM305 1133l260 350q31 22 80 22q53 0 74 -63l108 -316l-34 -18l-179 240l-278 -242z" />
    <glyph glyph-name="Cdotaccent" unicode="&#x10a;" horiz-adv-x="1249" 
d="M836 1397q-99 0 -182.5 -41t-142 -111.5t-102.5 -158t-69.5 -187t-38 -192t-12.5 -179.5q0 -221 88 -350t270 -129q157 0 279 97t188 298l55 -14q-27 -91 -68.5 -164t-91.5 -121t-103.5 -82.5t-110.5 -52.5t-105 -25.5t-96 -7.5q-253 0 -390.5 144t-137.5 424
q0 121 29.5 246.5t93 245t152 212.5t218.5 150t281 57q66 0 139 -15t124.5 -30.5t65.5 -15.5q15 0 25.5 6.5t15.5 12.5t17 24h41l-58 -428h-51q-17 387 -323 387zM854 1556q-109 0 -109 107q0 58 35.5 98.5t100.5 40.5q108 0 108 -104q0 -62 -34.5 -102t-100.5 -40z" />
    <glyph glyph-name="cdotaccent" unicode="&#x10b;" horiz-adv-x="946" 
d="M784 334l54 -17q-18 -67 -52 -125.5t-86.5 -108t-130.5 -78t-172 -28.5q-177 0 -268.5 103t-91.5 287q0 95 22.5 185.5t69 171t112 140.5t158 95.5t201.5 35.5q138 0 214.5 -68t76.5 -175q0 -76 -39 -124t-117 -48q-54 0 -88.5 25.5t-34.5 70.5q0 54 33 98h70
q32 77 0 124.5t-117 47.5q-97 0 -170 -48t-114.5 -131t-61 -181.5t-19.5 -212.5q0 -167 51 -243.5t167 -76.5q240 0 333 281zM588 1184q-109 0 -109 106q0 58 35 99t100 41q109 0 109 -105q0 -62 -34.5 -101.5t-100.5 -39.5z" />
    <glyph glyph-name="Ccaron" unicode="&#x10c;" horiz-adv-x="1249" 
d="M836 1397q-99 0 -182.5 -41t-142 -111.5t-102.5 -158t-69.5 -187t-38 -192t-12.5 -179.5q0 -221 88 -350t270 -129q157 0 279 97t188 298l55 -14q-27 -91 -68.5 -164t-91.5 -121t-103.5 -82.5t-110.5 -52.5t-105 -25.5t-96 -7.5q-253 0 -390.5 144t-137.5 424
q0 121 29.5 246.5t93 245t152 212.5t218.5 150t281 57q66 0 139 -15t124.5 -30.5t65.5 -15.5q15 0 25.5 6.5t15.5 12.5t17 24h41l-58 -428h-51q-17 387 -323 387zM1208 1815l-307 -287q-28 -12 -59 -12q-26 0 -41 11.5t-39 45.5l-168 246l29 26l247 -182l316 182z" />
    <glyph glyph-name="ccaron" unicode="&#x10d;" horiz-adv-x="946" 
d="M784 334l54 -17q-18 -67 -52 -125.5t-86.5 -108t-130.5 -78t-172 -28.5q-177 0 -268.5 103t-91.5 287q0 95 22.5 185.5t69 171t112 140.5t158 95.5t201.5 35.5q138 0 214.5 -68t76.5 -175q0 -76 -39 -124t-117 -48q-54 0 -88.5 25.5t-34.5 70.5q0 54 33 98h70
q32 77 0 124.5t-117 47.5q-97 0 -170 -48t-114.5 -131t-61 -181.5t-19.5 -212.5q0 -167 51 -243.5t167 -76.5q240 0 333 281zM500 1147l-140 348l33 18l195 -241l280 248l27 -25l-221 -311q-45 -60 -101 -60q-45 0 -73 23z" />
    <glyph glyph-name="Dcaron" unicode="&#x10e;" horiz-adv-x="1427" 
d="M1366 885q0 -196 -61.5 -358t-178.5 -279.5t-295 -182.5t-401 -65h-438l10 59h164l223 1315h-164l6 60h482q653 0 653 -549zM369 59h86q140 0 255 43t195.5 119t136 181.5t81.5 230.5t26 266q0 133 -31.5 225t-96.5 147t-156.5 79t-219.5 24h-51zM1145 1815l-307 -287
q-28 -12 -60 -12q-26 0 -41 11.5t-39 45.5l-168 246l29 26l248 -182l315 182z" />
    <glyph glyph-name="dcaron" unicode="&#x10f;" horiz-adv-x="1255" 
d="M1026 139l43 -30q-79 -132 -207 -132q-112 0 -150 73.5t-3 197.5l-13 2q-57 -123 -148.5 -198t-215.5 -75q-148 0 -224.5 94t-76.5 263q0 89 19.5 180t61.5 177.5t100 154t143 108.5t184 41q170 0 245 -143l97 631h-176l4 53h362l-221 -1352q-11 -70 2 -101.5t55 -31.5
q62 0 119 88zM381 63q82 0 153 63t115 158.5t69 201.5t25 198q0 116 -46.5 182t-143.5 66q-70 0 -126.5 -35t-93 -93t-61 -137.5t-35 -163t-10.5 -173.5q0 -139 33.5 -203t120.5 -64zM1100 1081l-29 35q53 42 92 96t39 111q0 70 -69 127l47 49q43 43 88 43t67.5 -30
t22.5 -76q0 -175 -258 -355z" />
    <glyph glyph-name="Dcroat" unicode="&#x110;" horiz-adv-x="1427" 
d="M1366 885q0 -196 -61.5 -358t-178.5 -279.5t-295 -182.5t-401 -65h-438l10 59h164l113 670h-185l8 59h187l100 586h-164l6 60h482q653 0 653 -549zM369 59h86q140 0 255 43t195.5 119t136 181.5t81.5 230.5t26 266q0 133 -31.5 225t-96.5 147t-156.5 79t-219.5 24h-51
l-100 -586h380l-8 -59h-383z" />
    <glyph glyph-name="dcroat" unicode="&#x111;" horiz-adv-x="1124" 
d="M1026 139l43 -30q-79 -132 -207 -132q-112 0 -150 73.5t-3 197.5l-13 2q-57 -123 -148.5 -198t-215.5 -75q-148 0 -224.5 94t-76.5 263q0 89 19.5 180t61.5 177.5t100 154t143 108.5t184 41q170 0 245 -143l52 342h-383l8 53h383l37 236h-176l4 53h362l-47 -289h152
l-9 -53h-153l-164 -1010q-11 -70 2 -101.5t55 -31.5q62 0 119 88zM381 63q82 0 153 63t115 158.5t69 201.5t25 198q0 116 -46.5 182t-143.5 66q-70 0 -126.5 -35t-93 -93t-61 -137.5t-35 -163t-10.5 -173.5q0 -139 33.5 -203t120.5 -64z" />
    <glyph glyph-name="Emacron" unicode="&#x112;" horiz-adv-x="1224" 
d="M244 1434h952l-43 -385h-47q2 51 -1 91.5t-9.5 72.5t-19.5 56t-27 41t-37.5 29t-45.5 19t-56 10.5t-64.5 4.5t-75.5 1h-180l-103 -612h101q119 0 173 51t103 211h41l-102 -606h-43q3 70 -0.5 114.5t-15 78.5t-35.5 51.5t-59.5 25.5t-90.5 8h-82l-106 -637h204
q210 0 312.5 78.5t171.5 288.5h39l-84 -426h-1008l10 59h152l219 1315h-154zM496 1591l18 107h557l-18 -107h-557z" />
    <glyph glyph-name="emacron" unicode="&#x113;" horiz-adv-x="927" 
d="M784 336l56 -17q-45 -164 -163.5 -253t-283.5 -89q-172 0 -264 101t-92 284q0 121 40 235.5t110 202.5t172.5 141.5t218.5 53.5q126 0 197 -59t71 -172q0 -62 -23.5 -111.5t-58 -80.5t-89 -56t-99.5 -38t-105 -25q-127 -25 -238 -29v-57q0 -166 51.5 -239t168.5 -73
q234 0 331 281zM238 481q73 4 118 13q72 15 124 35.5t97 53t68 83.5t23 118q0 162 -125 162q-101 0 -190 -123t-115 -342zM307 1210l19 107h557l-19 -107h-557z" />
    <glyph glyph-name="Ebreve" unicode="&#x114;" horiz-adv-x="1224" 
d="M244 1434h952l-43 -385h-47q2 51 -1 91.5t-9.5 72.5t-19.5 56t-27 41t-37.5 29t-45.5 19t-56 10.5t-64.5 4.5t-75.5 1h-180l-103 -612h101q119 0 173 51t103 211h41l-102 -606h-43q3 70 -0.5 114.5t-15 78.5t-35.5 51.5t-59.5 25.5t-90.5 8h-82l-106 -637h204
q210 0 312.5 78.5t171.5 288.5h39l-84 -426h-1008l10 59h152l219 1315h-154zM532 1757l50 10q13 -76 59 -112.5t150 -36.5q105 0 161.5 33t91.5 110l48 -6q-72 -258 -324 -258q-249 0 -236 260z" />
    <glyph glyph-name="ebreve" unicode="&#x115;" horiz-adv-x="927" 
d="M784 336l56 -17q-45 -164 -163.5 -253t-283.5 -89q-172 0 -264 101t-92 284q0 121 40 235.5t110 202.5t172.5 141.5t218.5 53.5q126 0 197 -59t71 -172q0 -62 -23.5 -111.5t-58 -80.5t-89 -56t-99.5 -38t-105 -25q-127 -25 -238 -29v-57q0 -166 51.5 -239t168.5 -73
q234 0 331 281zM238 481q73 4 118 13q72 15 124 35.5t97 53t68 83.5t23 118q0 162 -125 162q-101 0 -190 -123t-115 -342zM342 1415l47 8q15 -97 60 -145.5t145 -48.5q51 0 90.5 14t69 42.5t50 60t42.5 79.5l45 -10q-12 -54 -35 -103t-60.5 -95t-95.5 -73.5t-129 -27.5
q-246 0 -229 299z" />
    <glyph glyph-name="Edotaccent" unicode="&#x116;" horiz-adv-x="1224" 
d="M244 1434h952l-43 -385h-47q2 51 -1 91.5t-9.5 72.5t-19.5 56t-27 41t-37.5 29t-45.5 19t-56 10.5t-64.5 4.5t-75.5 1h-180l-103 -612h101q119 0 173 51t103 211h41l-102 -606h-43q3 70 -0.5 114.5t-15 78.5t-35.5 51.5t-59.5 25.5t-90.5 8h-82l-106 -637h204
q210 0 312.5 78.5t171.5 288.5h39l-84 -426h-1008l10 59h152l219 1315h-154zM776 1556q-108 0 -108 107q0 58 35 98.5t100 40.5q108 0 108 -104q0 -62 -34.5 -102t-100.5 -40z" />
    <glyph glyph-name="edotaccent" unicode="&#x117;" horiz-adv-x="927" 
d="M784 336l56 -17q-45 -164 -163.5 -253t-283.5 -89q-172 0 -264 101t-92 284q0 121 40 235.5t110 202.5t172.5 141.5t218.5 53.5q126 0 197 -59t71 -172q0 -62 -23.5 -111.5t-58 -80.5t-89 -56t-99.5 -38t-105 -25q-127 -25 -238 -29v-57q0 -166 51.5 -239t168.5 -73
q234 0 331 281zM238 481q73 4 118 13q72 15 124 35.5t97 53t68 83.5t23 118q0 162 -125 162q-101 0 -190 -123t-115 -342zM569 1184q-108 0 -108 106q0 58 35 99t100 41q109 0 109 -105q0 -62 -35 -101.5t-101 -39.5z" />
    <glyph glyph-name="Eogonek" unicode="&#x118;" horiz-adv-x="1224" 
d="M244 1434h952l-43 -385h-47q2 51 -1 91.5t-9.5 72.5t-19.5 56t-27 41t-37.5 29t-45.5 19t-56 10.5t-64.5 4.5t-75.5 1h-180l-103 -612h101q119 0 173 51t103 211h41l-102 -606h-43q3 70 -0.5 114.5t-15 78.5t-35.5 51.5t-59.5 25.5t-90.5 8h-82l-106 -637h204
q210 0 312.5 78.5t171.5 288.5h39l-84 -426h-135q-199 -133 -199 -285q0 -39 17.5 -62.5t52.5 -23.5q25 0 47.5 13.5t34 26t34.5 40.5l35 -24q-16 -25 -29.5 -42t-41 -42.5t-65.5 -39.5t-83 -14q-80 0 -123 37t-43 99q0 167 285 317h-795l10 59h152l219 1315h-154z" />
    <glyph glyph-name="eogonek" unicode="&#x119;" horiz-adv-x="927" 
d="M784 336l56 -17q-59 -206 -246 -305q-92 -49 -156.5 -129.5t-64.5 -169.5q0 -86 69 -86q25 0 47.5 13t35 26.5t34.5 40.5l35 -24q-16 -25 -29.5 -42t-41 -42.5t-65.5 -39.5t-83 -14q-80 0 -123 37t-43 99q0 158 250 299q-57 -5 -66 -5q-172 0 -264 101t-92 284
q0 121 40 235.5t110 202.5t172.5 141.5t218.5 53.5q126 0 197 -59t71 -172q0 -62 -23.5 -111.5t-58 -80.5t-89 -56t-99.5 -38t-105 -25q-127 -25 -238 -29v-57q0 -166 51.5 -239t168.5 -73q234 0 331 281zM238 481q73 4 118 13q72 15 124 35.5t97 53t68 83.5t23 118
q0 162 -125 162q-101 0 -190 -123t-115 -342z" />
    <glyph glyph-name="Ecaron" unicode="&#x11a;" horiz-adv-x="1224" 
d="M244 1434h952l-43 -385h-47q2 51 -1 91.5t-9.5 72.5t-19.5 56t-27 41t-37.5 29t-45.5 19t-56 10.5t-64.5 4.5t-75.5 1h-180l-103 -612h101q119 0 173 51t103 211h41l-102 -606h-43q3 70 -0.5 114.5t-15 78.5t-35.5 51.5t-59.5 25.5t-90.5 8h-82l-106 -637h204
q210 0 312.5 78.5t171.5 288.5h39l-84 -426h-1008l10 59h152l219 1315h-154zM1130 1815l-307 -287q-28 -12 -59 -12q-26 0 -41 11.5t-39 45.5l-168 246l29 26l248 -182l315 182z" />
    <glyph glyph-name="ecaron" unicode="&#x11b;" horiz-adv-x="927" 
d="M784 336l56 -17q-45 -164 -163.5 -253t-283.5 -89q-172 0 -264 101t-92 284q0 121 40 235.5t110 202.5t172.5 141.5t218.5 53.5q126 0 197 -59t71 -172q0 -62 -23.5 -111.5t-58 -80.5t-89 -56t-99.5 -38t-105 -25q-127 -25 -238 -29v-57q0 -166 51.5 -239t168.5 -73
q234 0 331 281zM238 481q73 4 118 13q72 15 124 35.5t97 53t68 83.5t23 118q0 162 -125 162q-101 0 -190 -123t-115 -342zM494 1147l-140 348l33 18l195 -241l280 248l27 -25l-221 -311q-45 -60 -101 -60q-45 0 -73 23z" />
    <glyph glyph-name="Gcircumflex" unicode="&#x11c;" horiz-adv-x="1318" 
d="M823 1399q-85 0 -159 -30.5t-127.5 -82t-97 -122.5t-71.5 -148.5t-46.5 -163t-26.5 -163t-8 -152.5q0 -240 79 -369t244 -129q79 0 159 21.5t124 58.5l63 405h-176l11 60h505l-10 -60h-133l-66 -395q-81 -64 -227.5 -108t-273.5 -44q-246 0 -383 140t-137 407
q0 131 30 261.5t94 251.5t154 214t220 149t282 56q69 0 135 -15t113 -29.5t69 -14.5q21 0 31.5 8.5t26.5 32.5h36l-57 -428h-49q-12 203 -90.5 296t-237.5 93zM541 1518l299 286q34 17 63 17q25 0 43.5 -14.5t40.5 -47.5l160 -243l-29 -23l-235 174l-322 -180z" />
    <glyph glyph-name="gcircumflex" unicode="&#x11d;" horiz-adv-x="1093" 
d="M225 -326l-82 -10q-27 -49 5.5 -86t121.5 -37q73 0 126.5 21.5t94.5 71.5t70.5 116.5t61.5 171.5q12 41 45 180.5t37 155.5l-11 2q-52 -110 -143.5 -176t-210.5 -66q-149 0 -226 92t-77 263q0 84 19 170t59.5 167.5t97.5 144.5t140.5 101.5t181.5 38.5q91 0 154 -38.5
t102 -122.5l38 139q73 0 168 12q-30 -143 -98.5 -520.5t-85.5 -466.5q-99 -510 -551 -510q-140 0 -219.5 50.5t-79.5 144.5q0 68 40 110.5t112 42.5q57 0 90 -40t20 -122zM389 106q79 0 148 55.5t113.5 140.5t69.5 183t25 187q0 140 -49.5 200t-144.5 60q-88 0 -152.5 -49.5
t-99 -134t-50.5 -178t-16 -199.5q0 -135 35.5 -200t120.5 -65zM319 1133l261 350q31 22 79 22q53 0 74 -63l109 -316l-35 -18l-178 240l-279 -242z" />
    <glyph glyph-name="Gbreve" unicode="&#x11e;" horiz-adv-x="1318" 
d="M823 1399q-85 0 -159 -30.5t-127.5 -82t-97 -122.5t-71.5 -148.5t-46.5 -163t-26.5 -163t-8 -152.5q0 -240 79 -369t244 -129q79 0 159 21.5t124 58.5l63 405h-176l11 60h505l-10 -60h-133l-66 -395q-81 -64 -227.5 -108t-273.5 -44q-246 0 -383 140t-137 407
q0 131 30 261.5t94 251.5t154 214t220 149t282 56q69 0 135 -15t113 -29.5t69 -14.5q21 0 31.5 8.5t26.5 32.5h36l-57 -428h-49q-12 203 -90.5 296t-237.5 93zM614 1757l50 10q13 -77 58.5 -113t149.5 -36q105 0 162.5 33t91.5 110l48 -6q-72 -258 -324 -258
q-249 0 -236 260z" />
    <glyph glyph-name="gbreve" unicode="&#x11f;" horiz-adv-x="1093" 
d="M225 -326l-82 -10q-27 -49 5.5 -86t121.5 -37q73 0 126.5 21.5t94.5 71.5t70.5 116.5t61.5 171.5q12 41 45 180.5t37 155.5l-11 2q-52 -110 -143.5 -176t-210.5 -66q-149 0 -226 92t-77 263q0 84 19 170t59.5 167.5t97.5 144.5t140.5 101.5t181.5 38.5q91 0 154 -38.5
t102 -122.5l38 139q73 0 168 12q-30 -143 -98.5 -520.5t-85.5 -466.5q-99 -510 -551 -510q-140 0 -219.5 50.5t-79.5 144.5q0 68 40 110.5t112 42.5q57 0 90 -40t20 -122zM389 106q79 0 148 55.5t113.5 140.5t69.5 183t25 187q0 140 -49.5 200t-144.5 60q-88 0 -152.5 -49.5
t-99 -134t-50.5 -178t-16 -199.5q0 -135 35.5 -200t120.5 -65zM362 1415l48 8q15 -97 59.5 -145.5t144.5 -48.5q51 0 90.5 14t69 42.5t50 60t42.5 79.5l45 -10q-12 -54 -35 -103t-60 -95t-95 -73.5t-129 -27.5q-247 0 -230 299z" />
    <glyph glyph-name="Gdotaccent" unicode="&#x120;" horiz-adv-x="1318" 
d="M823 1399q-85 0 -159 -30.5t-127.5 -82t-97 -122.5t-71.5 -148.5t-46.5 -163t-26.5 -163t-8 -152.5q0 -240 79 -369t244 -129q79 0 159 21.5t124 58.5l63 405h-176l11 60h505l-10 -60h-133l-66 -395q-81 -64 -227.5 -108t-273.5 -44q-246 0 -383 140t-137 407
q0 131 30 261.5t94 251.5t154 214t220 149t282 56q69 0 135 -15t113 -29.5t69 -14.5q21 0 31.5 8.5t26.5 32.5h36l-57 -428h-49q-12 203 -90.5 296t-237.5 93zM858 1556q-108 0 -108 107q0 58 35 98.5t100 40.5q108 0 108 -104q0 -62 -34.5 -102t-100.5 -40z" />
    <glyph glyph-name="gdotaccent" unicode="&#x121;" horiz-adv-x="1093" 
d="M225 -326l-82 -10q-27 -49 5.5 -86t121.5 -37q73 0 126.5 21.5t94.5 71.5t70.5 116.5t61.5 171.5q12 41 45 180.5t37 155.5l-11 2q-52 -110 -143.5 -176t-210.5 -66q-149 0 -226 92t-77 263q0 84 19 170t59.5 167.5t97.5 144.5t140.5 101.5t181.5 38.5q91 0 154 -38.5
t102 -122.5l38 139q73 0 168 12q-30 -143 -98.5 -520.5t-85.5 -466.5q-99 -510 -551 -510q-140 0 -219.5 50.5t-79.5 144.5q0 68 40 110.5t112 42.5q57 0 90 -40t20 -122zM389 106q79 0 148 55.5t113.5 140.5t69.5 183t25 187q0 140 -49.5 200t-144.5 60q-88 0 -152.5 -49.5
t-99 -134t-50.5 -178t-16 -199.5q0 -135 35.5 -200t120.5 -65zM596 1184q-109 0 -109 106q0 58 35.5 99t100.5 41q108 0 108 -105q0 -62 -34.5 -101.5t-100.5 -39.5z" />
    <glyph glyph-name="Gcommaaccent" unicode="&#x122;" horiz-adv-x="1318" 
d="M823 1399q-85 0 -159 -30.5t-127.5 -82t-97 -122.5t-71.5 -148.5t-46.5 -163t-26.5 -163t-8 -152.5q0 -240 79 -369t244 -129q79 0 159 21.5t124 58.5l63 405h-176l11 60h505l-10 -60h-133l-66 -395q-81 -64 -227.5 -108t-273.5 -44q-246 0 -383 140t-137 407
q0 131 30 261.5t94 251.5t154 214t220 149t282 56q69 0 135 -15t113 -29.5t69 -14.5q21 0 31.5 8.5t26.5 32.5h36l-57 -428h-49q-12 203 -90.5 296t-237.5 93zM520 -561l-33 45q51 35 98.5 89t47.5 93t-37 49l-53 -47q-22 13 -39 36t-17 54q0 49 36 82t89 33
q62 0 92.5 -36.5t30.5 -90.5q0 -92 -57 -163t-158 -144z" />
    <glyph glyph-name="gcommaaccent" unicode="&#x123;" horiz-adv-x="1093" 
d="M225 -326l-82 -10q-27 -49 5.5 -86t121.5 -37q73 0 126.5 21.5t94.5 71.5t70.5 116.5t61.5 171.5q12 41 45 180.5t37 155.5l-11 2q-52 -110 -143.5 -176t-210.5 -66q-149 0 -226 92t-77 263q0 84 19 170t59.5 167.5t97.5 144.5t140.5 101.5t181.5 38.5q91 0 154 -38.5
t102 -122.5l38 139q73 0 168 12q-30 -143 -98.5 -520.5t-85.5 -466.5q-99 -510 -551 -510q-140 0 -219.5 50.5t-79.5 144.5q0 68 40 110.5t112 42.5q57 0 90 -40t20 -122zM389 106q79 0 148 55.5t113.5 140.5t69.5 183t25 187q0 140 -49.5 200t-144.5 60q-88 0 -152.5 -49.5
t-99 -134t-50.5 -178t-16 -199.5q0 -135 35.5 -200t120.5 -65zM729 1579l33 -45q-51 -35 -98.5 -89t-47.5 -93t37 -49l54 47q55 -31 55 -90q0 -49 -36 -82t-89 -33q-62 0 -92.5 36.5t-30.5 90.5q0 92 57 163t158 144z" />
    <glyph glyph-name="Hcircumflex" unicode="&#x124;" horiz-adv-x="1542" 
d="M244 1434h512l-11 -60h-153l-100 -606h604l100 606h-154l11 60h512l-11 -60h-153l-219 -1315h153l-10 -59h-512l10 59h154l106 635h-604l-106 -635h153l-10 -59h-510l10 59h152l219 1315h-154zM592 1518l299 286q34 17 63 17q25 0 43.5 -14.5t40.5 -47.5l160 -243
l-29 -23l-235 174l-322 -180z" />
    <glyph glyph-name="hcircumflex" unicode="&#x125;" horiz-adv-x="1142" 
d="M1028 137l39 -33q-84 -127 -221 -127q-91 0 -136.5 45t-45.5 128q0 64 22 161.5t58 225t51 198.5q21 104 4 144.5t-76 40.5q-77 0 -156 -68.5t-139 -171.5t-96 -221q-54 -177 -84 -453q-92 3 -201 -20l86 381l180 1116h-166l7 53h338l-187 -922l12 -6q193 387 445 387
q134 0 185 -92.5t7 -257.5q-13 -53 -39 -152.5t-45 -174.5t-30 -128q-9 -41 -9 -69q0 -39 16.5 -55.5t51.5 -16.5q56 0 129 88zM33 1606l299 286q34 17 63 17q25 0 43.5 -14.5t40.5 -47.5l160 -243l-29 -23l-235 174l-322 -180z" />
    <glyph glyph-name="Hbar" unicode="&#x126;" horiz-adv-x="1542" 
d="M244 1434h512l-11 -60h-153l-45 -272h604l45 272h-154l11 60h512l-11 -60h-153l-45 -272h157l-10 -60h-157l-164 -983h153l-10 -59h-512l10 59h154l106 635h-604l-106 -635h153l-10 -59h-510l10 59h152l164 983h-158l10 60h158l45 272h-154zM492 768h604l45 274h-604z
" />
    <glyph glyph-name="hbar" unicode="&#x127;" horiz-adv-x="1142" 
d="M1028 137l39 -33q-84 -127 -221 -127q-91 0 -136.5 45t-45.5 128q0 64 22 161.5t58 225t51 198.5q21 104 4 144.5t-76 40.5q-77 0 -156 -68.5t-139 -171.5t-96 -221q-54 -177 -84 -453q-92 3 -201 -20l86 381l133 827h-157l8 53h157l39 236h-166l7 53h338l-60 -289h408
l-9 -53h-409l-117 -580l12 -6q193 387 445 387q134 0 185 -92.5t7 -257.5q-13 -53 -39 -152.5t-45 -174.5t-30 -128q-9 -41 -9 -69q0 -39 16.5 -55.5t51.5 -16.5q56 0 129 88z" />
    <glyph glyph-name="Itilde" unicode="&#x128;" horiz-adv-x="731" 
d="M258 1434h498l-11 -60h-147l-231 -1315h147l-10 -59h-496l10 59h146l231 1315h-147zM657 1575q-74 0 -174 47q-79 33 -116 33q-61 0 -113 -90l-37 14q48 105 97 154t132 49q16 0 30 -1t27.5 -4t22.5 -5.5t23 -8t20.5 -8t22.5 -10t22 -10.5q76 -31 115 -31q36 0 61.5 18.5
t55.5 69.5l39 -12q-48 -109 -103.5 -157t-124.5 -48z" />
    <glyph glyph-name="itilde" unicode="&#x129;" horiz-adv-x="581" 
d="M455 143l43 -32q-44 -67 -95 -100.5t-118 -33.5q-191 0 -191 177q0 67 33 219q35 161 125 549h-164l8 53h340l-160 -772q-17 -88 -4.5 -121t58.5 -33q32 0 59.5 20.5t65.5 73.5zM457 1188q-74 0 -174 47q-79 33 -117 33q-61 0 -113 -90l-37 14q48 105 97.5 154t132.5 49
q16 0 30 -1t27.5 -4t22.5 -5.5t23 -8t20.5 -8t22.5 -10t22 -10.5q76 -31 114 -31q36 0 61.5 18.5t55.5 69.5l39 -12q-48 -109 -103.5 -157t-123.5 -48z" />
    <glyph glyph-name="Imacron" unicode="&#x12a;" horiz-adv-x="731" 
d="M258 1434h498l-11 -60h-147l-231 -1315h147l-10 -59h-496l10 59h146l231 1315h-147zM248 1591l18 107h557l-18 -107h-557z" />
    <glyph glyph-name="imacron" unicode="&#x12b;" horiz-adv-x="581" 
d="M455 143l43 -32q-44 -67 -95 -100.5t-118 -33.5q-191 0 -191 177q0 67 33 219q35 161 125 549h-164l8 53h340l-160 -772q-17 -88 -4.5 -121t58.5 -33q32 0 59.5 20.5t65.5 73.5zM51 1210l19 107h557l-19 -107h-557z" />
    <glyph glyph-name="Ibreve" unicode="&#x12c;" horiz-adv-x="731" 
d="M258 1434h498l-11 -60h-147l-231 -1315h147l-10 -59h-496l10 59h146l231 1315h-147zM285 1757l49 10q13 -76 59 -112.5t150 -36.5q105 0 162.5 33t91.5 110l47 -6q-72 -258 -324 -258q-248 0 -235 260z" />
    <glyph glyph-name="ibreve" unicode="&#x12d;" horiz-adv-x="581" 
d="M455 143l43 -32q-44 -67 -95 -100.5t-118 -33.5q-191 0 -191 177q0 67 33 219q35 161 125 549h-164l8 53h340l-160 -772q-17 -88 -4.5 -121t58.5 -33q32 0 59.5 20.5t65.5 73.5zM86 1415l47 8q15 -97 60 -145.5t145 -48.5q51 0 90.5 14t69 42.5t50 60t42.5 79.5l45 -10
q-12 -54 -35 -103t-60.5 -95t-95.5 -73.5t-129 -27.5q-246 0 -229 299z" />
    <glyph glyph-name="Iogonek" unicode="&#x12e;" horiz-adv-x="731" 
d="M258 1434h498l-11 -60h-147l-231 -1315h147l-10 -59h-170q-199 -133 -199 -285q0 -39 17.5 -62.5t52.5 -23.5q25 0 47.5 13t35 26.5t34.5 40.5l34 -24q-16 -25 -29.5 -42t-41 -42.5t-65.5 -39.5t-83 -14q-80 0 -123 37t-43 99q0 167 285 317h-248l10 59h146l231 1315
h-147z" />
    <glyph glyph-name="iogonek" unicode="&#x12f;" horiz-adv-x="581" 
d="M455 143l43 -32q-51 -76 -109 -111q-87 -51 -145 -125t-58 -160q0 -39 17.5 -62.5t52.5 -23.5q25 0 47.5 13t35 26.5t34.5 40.5l35 -24q-16 -25 -30 -42t-41.5 -42.5t-65.5 -39.5t-83 -14q-80 0 -122.5 37t-42.5 99q0 157 243 294q-172 9 -172 177q0 67 33 219
q35 161 125 549h-164l8 53h340l-160 -772q-17 -88 -4.5 -121t58.5 -33q32 0 59.5 20.5t65.5 73.5zM362 1184q-108 0 -108 106q0 58 35 99t100 41q109 0 109 -105q0 -62 -35 -101.5t-101 -39.5z" />
    <glyph glyph-name="Idotaccent" unicode="&#x130;" horiz-adv-x="731" 
d="M258 1434h498l-11 -60h-147l-231 -1315h147l-10 -59h-496l10 59h146l231 1315h-147zM528 1556q-108 0 -108 107q0 58 35 98.5t100 40.5q109 0 109 -104q0 -62 -35 -102t-101 -40z" />
    <glyph glyph-name="dotlessi" unicode="&#x131;" horiz-adv-x="581" 
d="M455 143l43 -32q-44 -67 -95 -100.5t-118 -33.5q-191 0 -191 177q0 67 33 219q35 161 125 549h-164l8 53h340l-160 -772q-17 -88 -4.5 -121t58.5 -33q32 0 59.5 20.5t65.5 73.5z" />
    <glyph glyph-name="IJ" unicode="&#x132;" horiz-adv-x="1716" 
d="M258 1434h498l-11 -60h-147l-231 -1315h147l-10 -59h-496l10 59h146l231 1315h-147zM1262 1434h534l-10 -58h-144l-161 -966q-35 -216 -153 -324.5t-314 -108.5q-136 0 -205.5 55.5t-69.5 145.5q0 75 44.5 128.5t125.5 53.5q60 0 90.5 -29.5t29 -74t-20.5 -96.5h-84
q-16 -34 -16 -62t26.5 -46.5t75.5 -18.5q100 0 160.5 60t86.5 212l181 1069h-187z" />
    <glyph glyph-name="Jcircumflex" unicode="&#x134;" horiz-adv-x="1028" 
d="M518 1434h535l-11 -58h-143l-162 -966q-35 -216 -153 -324.5t-314 -108.5q-136 0 -205 55.5t-69 145.5q0 75 44.5 128.5t125.5 53.5q45 0 73.5 -17t38 -45.5t6 -63.5t-19.5 -74h-84q-16 -34 -16 -62t26.5 -46.5t75.5 -18.5q100 0 161 60t87 212l180 1069h-186zM494 1518
l299 286q34 17 63 17q25 0 43.5 -14.5t40.5 -47.5l160 -243l-29 -23l-235 174l-322 -180z" />
    <glyph glyph-name="jcircumflex" unicode="&#x135;" horiz-adv-x="536" 
d="M-129 -336l-78 -10q-23 -56 -2 -87.5t74 -31.5q25 0 44.5 4.5t36 17t28.5 25t23 40.5t18.5 50.5t16.5 67t15 77.5t16 95l166 1010h-157l8 53h336l-158 -971q-14 -88 -31.5 -156t-49.5 -139t-74 -116.5t-107 -75t-148 -29.5q-96 0 -158.5 50.5t-62.5 129.5q0 64 36.5 107
t103.5 43q53 0 86.5 -40.5t17.5 -113.5zM8 1133l260 350q31 22 80 22q53 0 74 -63l108 -316l-34 -18l-179 240l-278 -242z" />
    <glyph glyph-name="Kcommaaccent" unicode="&#x136;" horiz-adv-x="1294" 
d="M250 1434h498l-11 -60h-145l-109 -643l82 33l578 610h-172l8 60h395l-8 -60h-133l-514 -549l379 -766h106l-8 -59h-481l8 59h149l-301 633l-100 -37l-100 -596h147l-10 -59h-496l11 59h145l219 1315h-145zM477 -561l-33 45q51 35 98.5 89t47.5 93t-37 49l-53 -47
q-22 13 -39 36t-17 54q0 49 36 82t89 33q62 0 92.5 -36.5t30.5 -90.5q0 -92 -57 -163t-158 -144z" />
    <glyph glyph-name="kcommaaccent" unicode="&#x137;" horiz-adv-x="1044" 
d="M932 143l41 -26q-83 -140 -209 -140q-118 0 -164 65t-16 175l32 119q19 69 -8.5 107t-99.5 38q-41 0 -101 -16.5t-108 -40.5l-66 -416q-84 0 -186 -26l94 436l158 1065h-168l8 53h342l-178 -1040l211 114q120 66 175 116.5t46 96.5l-76 29q-10 63 25.5 109.5t108.5 46.5
q60 0 94.5 -36.5t34.5 -88.5q0 -100 -115 -168q-142 -84 -311 -174l6 -11q58 9 108 9q118 0 161 -57t17 -154l-43 -162q-17 -54 -6.5 -87.5t60.5 -33.5q38 0 67.5 23t65.5 75zM311 -561l-32 45q51 35 98 89t47 93t-37 49l-53 -47q-55 31 -55 90q0 49 35.5 82t88.5 33
q62 0 92.5 -36.5t30.5 -90.5q0 -92 -57 -163t-158 -144z" />
    <glyph glyph-name="kgreenlandic" unicode="&#x138;" horiz-adv-x="1044" 
d="M932 143l41 -26q-83 -140 -209 -140q-118 0 -164 65t-16 175l32 119q19 69 -8.5 107t-99.5 38q-41 0 -101 -16.5t-108 -40.5l-66 -416q-84 0 -186 -26l94 436l66 504h-168l8 53h338l-82 -479l211 114q120 66 175 116.5t46 96.5l-76 29q-10 63 25.5 109.5t108.5 46.5
q60 0 94.5 -36.5t34.5 -88.5q0 -100 -115 -168q-142 -84 -311 -174l6 -11q58 9 108 9q118 0 161 -57t17 -154l-43 -162q-17 -54 -6.5 -87.5t60.5 -33.5q38 0 67.5 23t65.5 75z" />
    <glyph glyph-name="Lacute" unicode="&#x139;" horiz-adv-x="1161" 
d="M244 1434h563l-10 -60h-205l-221 -1315h147q152 0 244 36t153 120.5t111 243.5h43l-92 -459h-971l8 59h154l219 1315h-154zM332 1526l338 315l59 -20q57 -15 57 -66q0 -59 -96 -104l-336 -154z" />
    <glyph glyph-name="lacute" unicode="&#x13a;" horiz-adv-x="569" 
d="M451 145l45 -30q-88 -138 -215 -138q-89 0 -137 47t-48 132q0 27 4 63t17.5 114t21.5 119t33 175q2 8 68 359.5t92 496.5h-164l8 53h344q-35 -159 -120 -623t-128 -712q-16 -65 -7 -108.5t52 -43.5q38 0 68.5 21.5t65.5 74.5zM162 1618l338 315l59 -20q57 -15 57 -66
q0 -59 -96 -104l-336 -154z" />
    <glyph glyph-name="Lcommaaccent" unicode="&#x13b;" horiz-adv-x="1161" 
d="M244 1434h563l-10 -60h-205l-221 -1315h147q152 0 244 36t153 120.5t111 243.5h43l-92 -459h-971l8 59h154l219 1315h-154zM434 -561l-33 45q51 35 98.5 89t47.5 93t-37 49l-53 -47q-22 13 -39 36t-17 54q0 49 36 82t89 33q62 0 92.5 -36.5t30.5 -90.5q0 -92 -57 -163
t-158 -144z" />
    <glyph glyph-name="lcommaaccent" unicode="&#x13c;" horiz-adv-x="569" 
d="M451 145l45 -30q-88 -138 -215 -138q-89 0 -137 47t-48 132q0 27 4 63t17.5 114t21.5 119t33 175q2 8 68 359.5t92 496.5h-164l8 53h344q-35 -159 -120 -623t-128 -712q-16 -65 -7 -108.5t52 -43.5q38 0 68.5 21.5t65.5 74.5zM147 -561l-32 45q51 35 98 89t47 93t-37 49
l-53 -47q-55 31 -55 90q0 49 36 82t89 33q62 0 92 -36t30 -91q0 -92 -57 -163t-158 -144z" />
    <glyph glyph-name="Lcaron" unicode="&#x13d;" horiz-adv-x="1161" 
d="M244 1434h563l-10 -60h-205l-221 -1315h147q152 0 244 36t153 120.5t111 243.5h43l-92 -459h-971l8 59h154l219 1315h-154zM930 993l-29 35q53 42 92 96t39 111q0 70 -69 127l47 49q43 43 88 43t67.5 -30t22.5 -76q0 -175 -258 -355z" />
    <glyph glyph-name="lcaron" unicode="&#x13e;" horiz-adv-x="688" 
d="M451 145l45 -30q-88 -138 -215 -138q-89 0 -137 47t-48 132q0 27 4 63t17.5 114t21.5 119t33 175q2 8 68 359.5t92 496.5h-164l8 53h344q-35 -159 -120 -623t-128 -712q-16 -65 -7 -108.5t52 -43.5q38 0 68.5 21.5t65.5 74.5zM532 1081l-28 35q53 42 92 96t39 111
q0 69 -70 127l47 49q43 43 88 43t68 -30t23 -76q0 -174 -259 -355z" />
    <glyph glyph-name="Ldot" unicode="&#x13f;" horiz-adv-x="1161" 
d="M244 1434h563l-10 -60h-205l-221 -1315h147q152 0 244 36t153 120.5t111 243.5h43l-92 -459h-971l8 59h154l219 1315h-154zM963 694q-109 0 -109 107q0 58 35 98.5t100 40.5q109 0 109 -104q0 -62 -34.5 -102t-100.5 -40z" />
    <glyph glyph-name="ldot" unicode="&#x140;" horiz-adv-x="638" 
d="M451 145l45 -30q-88 -138 -215 -138q-89 0 -137 47t-48 132q0 27 4 63t17.5 114t21.5 119t33 175q2 8 68 359.5t92 496.5h-164l8 53h344q-35 -159 -120 -623t-128 -712q-16 -65 -7 -108.5t52 -43.5q38 0 68.5 21.5t65.5 74.5zM602 709q-108 0 -108 106q0 58 35 98.5
t100 40.5q108 0 108 -104q0 -62 -34.5 -101.5t-100.5 -39.5z" />
    <glyph glyph-name="Lslash" unicode="&#x141;" horiz-adv-x="1161" 
d="M244 1434h563l-10 -60h-205l-103 -602l459 207l21 -64l-492 -221l-106 -635h147q152 0 244 36t153 120.5t111 243.5h43l-92 -459h-971l8 59h154l92 555l-209 -94l-22 66l245 110l113 678h-154z" />
    <glyph glyph-name="lslash" unicode="&#x142;" horiz-adv-x="569" 
d="M0 659l-23 60l232 106q22 113 123 658h-164l8 53h344q-39 -170 -123 -637l193 90l24 -61l-231 -109l-111 -618q-16 -65 -7 -108.5t52 -43.5q38 0 68.5 21.5t65.5 74.5l45 -30q-88 -138 -215 -138q-89 0 -137 47t-48 132q0 27 4 63t17.5 114t21.5 119t33 175l23 121z" />
    <glyph glyph-name="Nacute" unicode="&#x143;" horiz-adv-x="1431" 
d="M1309 1374l-234 -1388h-57l-574 1343l-213 -1270h146l-10 -59h-359l10 59h146l219 1315h-145l10 60h383l442 -1051l168 991h-145l10 60h358l-8 -60h-147zM657 1526l338 315l60 -20q57 -15 57 -66q0 -59 -96 -104l-336 -154z" />
    <glyph glyph-name="nacute" unicode="&#x144;" horiz-adv-x="1157" 
d="M1040 139l41 -35q-92 -127 -221 -127q-91 0 -138.5 45t-47.5 128q0 61 24.5 164.5t60.5 233t50 197.5q20 97 3 136t-71 39q-79 0 -160.5 -70.5t-142 -174t-96.5 -220.5q-52 -172 -80 -449q-92 3 -201 -20l78 366l70 570h-156l6 53h338l-84 -363l13 -6q32 62 63.5 112.5
t74.5 104t88 90t101.5 59.5t116.5 23q134 0 186.5 -89t12.5 -249q-83 -321 -111 -434q-14 -58 -14 -104q0 -70 59 -70q65 0 137 90zM502 1128l190 367l76 14q33 8 60.5 -7.5t27.5 -49.5q0 -44 -57 -98l-271 -246z" />
    <glyph glyph-name="Ncommaaccent" unicode="&#x145;" horiz-adv-x="1431" 
d="M1309 1374l-234 -1388h-57l-574 1343l-213 -1270h146l-10 -59h-359l10 59h146l219 1315h-145l10 60h383l442 -1051l168 991h-145l10 60h358l-8 -60h-147zM494 -561l-33 45q51 35 98 89t47 93t-37 49l-53 -47q-55 31 -55 90q0 49 36 82t89 33q62 0 92.5 -36.5t30.5 -90.5
q0 -92 -57 -163t-158 -144z" />
    <glyph glyph-name="ncommaaccent" unicode="&#x146;" horiz-adv-x="1157" 
d="M1040 139l41 -35q-92 -127 -221 -127q-91 0 -138.5 45t-47.5 128q0 61 24.5 164.5t60.5 233t50 197.5q20 97 3 136t-71 39q-79 0 -160.5 -70.5t-142 -174t-96.5 -220.5q-52 -172 -80 -449q-92 3 -201 -20l78 366l70 570h-156l6 53h338l-84 -363l13 -6q32 62 63.5 112.5
t74.5 104t88 90t101.5 59.5t116.5 23q134 0 186.5 -89t12.5 -249q-83 -321 -111 -434q-14 -58 -14 -104q0 -70 59 -70q65 0 137 90zM356 -561l-32 45q51 35 98 89t47 93t-37 49l-53 -47q-55 31 -55 90q0 49 36 82t89 33q62 0 92 -36t30 -91q0 -92 -57 -163t-158 -144z" />
    <glyph glyph-name="Ncaron" unicode="&#x147;" horiz-adv-x="1431" 
d="M1309 1374l-234 -1388h-57l-574 1343l-213 -1270h146l-10 -59h-359l10 59h146l219 1315h-145l10 60h383l442 -1051l168 991h-145l10 60h358l-8 -60h-147zM1206 1815l-307 -287q-28 -12 -59 -12q-26 0 -41 11.5t-39 45.5l-168 246l29 26l247 -182l316 182z" />
    <glyph glyph-name="ncaron" unicode="&#x148;" horiz-adv-x="1157" 
d="M1040 139l41 -35q-92 -127 -221 -127q-91 0 -138.5 45t-47.5 128q0 61 24.5 164.5t60.5 233t50 197.5q20 97 3 136t-71 39q-79 0 -160.5 -70.5t-142 -174t-96.5 -220.5q-52 -172 -80 -449q-92 3 -201 -20l78 366l70 570h-156l6 53h338l-84 -363l13 -6q32 62 63.5 112.5
t74.5 104t88 90t101.5 59.5t116.5 23q134 0 186.5 -89t12.5 -249q-83 -321 -111 -434q-14 -58 -14 -104q0 -70 59 -70q65 0 137 90zM551 1147l-139 348l32 18l195 -241l281 248l26 -25l-221 -311q-45 -60 -100 -60q-46 0 -74 23z" />
    <glyph glyph-name="napostrophe" unicode="&#x149;" horiz-adv-x="1228" 
d="M1112 139l41 -35q-92 -127 -221 -127q-91 0 -139 45t-48 128q0 81 63.5 317t72.5 278q20 97 3 136t-71 39q-79 0 -160.5 -70.5t-142 -174t-96.5 -220.5q-52 -172 -80 -449q-92 3 -201 -20l78 366l70 570h-156l6 53h338l-84 -363l12 -6q32 62 63.5 112.5t75 104t88.5 90
t101.5 59.5t116.5 23q133 0 185.5 -89t12.5 -249q-68 -260 -110 -434q-15 -63 -15 -104q0 -70 60 -70q65 0 137 90zM2 944l-33 45q51 35 98.5 89t47.5 93q0 40 -37 50l-53 -47q-22 13 -39 36t-17 54q0 49 36 81.5t89 32.5q62 0 92.5 -36.5t30.5 -90.5q0 -92 -57 -163
t-158 -144z" />
    <glyph glyph-name="Eng" unicode="&#x14a;" horiz-adv-x="1431" 
d="M1309 1374l-176 -1044l-50 -303q-32 -216 -140 -324.5t-286 -108.5q-126 0 -190 55.5t-64 145.5q0 76 42.5 129t123.5 53q60 0 91.5 -29.5t31 -74t-19.5 -96.5h-84q-23 -49 -7 -88t72 -39q92 0 147.5 60t80.5 212l45 277l-482 1130l-213 -1270h146l-10 -59h-359l10 59
h146l219 1315h-145l10 60h383l442 -1051l168 991h-145l10 60h358l-8 -60h-147z" />
    <glyph glyph-name="eng" unicode="&#x14b;" horiz-adv-x="1140" 
d="M666 -88l147 858q14 80 -3 115t-69 35q-79 0 -160.5 -70.5t-142 -174t-96.5 -220.5q-52 -172 -80 -449q-92 3 -201 -20l78 366l70 570h-156l6 53h338l-84 -363l13 -6q32 62 63.5 112.5t74.5 104t88 90t101.5 59.5t116.5 23q128 0 179 -76t30 -200l-119 -715
q-14 -89 -31.5 -156.5t-49 -138.5t-73.5 -116.5t-107 -75t-148 -29.5q-96 0 -159 50.5t-63 129.5q0 64 36.5 107t103.5 43q53 0 86.5 -40.5t17.5 -113.5l-78 -10q-23 -56 -2 -87.5t74 -31.5q93 0 126 74t73 303z" />
    <glyph glyph-name="Omacron" unicode="&#x14c;" horiz-adv-x="1382" 
d="M592 43q86 0 158.5 32.5t124 87t92.5 129.5t66 156t41.5 171.5t23 170.5t6.5 158q0 226 -65.5 334.5t-229.5 108.5q-97 0 -177.5 -36.5t-136.5 -102t-98 -149.5t-66.5 -186t-36 -204.5t-11.5 -210.5q0 -101 16.5 -181.5t51.5 -144t96.5 -98.5t144.5 -35zM66 539
q0 124 29.5 251t93 247t151.5 213t215.5 149.5t275.5 56.5q236 0 363 -142.5t127 -410.5q0 -125 -27.5 -252t-88 -249t-146.5 -216t-213 -151.5t-277 -57.5q-242 0 -372.5 142.5t-130.5 419.5zM567 1591l19 107h557l-19 -107h-557z" />
    <glyph glyph-name="omacron" unicode="&#x14d;" horiz-adv-x="1034" 
d="M424 33q79 0 139 40.5t94.5 102t56.5 147t29 162t7 160.5q0 151 -46 226t-155 75q-73 0 -130.5 -39t-93.5 -100.5t-59.5 -144.5t-33 -165.5t-9.5 -168.5q0 -295 201 -295zM401 -23q-184 0 -277 102.5t-93 282.5q0 92 21.5 181.5t67 171.5t109 144t154 99t195.5 37
q185 0 276.5 -101t91.5 -280q0 -90 -21.5 -180t-67 -172.5t-108.5 -146t-153.5 -101t-194.5 -37.5zM319 1210l19 107h557l-18 -107h-558z" />
    <glyph glyph-name="Obreve" unicode="&#x14e;" horiz-adv-x="1382" 
d="M592 43q86 0 158.5 32.5t124 87t92.5 129.5t66 156t41.5 171.5t23 170.5t6.5 158q0 226 -65.5 334.5t-229.5 108.5q-97 0 -177.5 -36.5t-136.5 -102t-98 -149.5t-66.5 -186t-36 -204.5t-11.5 -210.5q0 -101 16.5 -181.5t51.5 -144t96.5 -98.5t144.5 -35zM66 539
q0 124 29.5 251t93 247t151.5 213t215.5 149.5t275.5 56.5q236 0 363 -142.5t127 -410.5q0 -125 -27.5 -252t-88 -249t-146.5 -216t-213 -151.5t-277 -57.5q-242 0 -372.5 142.5t-130.5 419.5zM604 1757l49 10q13 -76 59 -112.5t150 -36.5q105 0 162.5 33t91.5 110l47 -6
q-72 -258 -323 -258q-249 0 -236 260z" />
    <glyph glyph-name="obreve" unicode="&#x14f;" horiz-adv-x="1034" 
d="M424 33q79 0 139 40.5t94.5 102t56.5 147t29 162t7 160.5q0 151 -46 226t-155 75q-73 0 -130.5 -39t-93.5 -100.5t-59.5 -144.5t-33 -165.5t-9.5 -168.5q0 -295 201 -295zM401 -23q-184 0 -277 102.5t-93 282.5q0 92 21.5 181.5t67 171.5t109 144t154 99t195.5 37
q185 0 276.5 -101t91.5 -280q0 -90 -21.5 -180t-67 -172.5t-108.5 -146t-153.5 -101t-194.5 -37.5zM369 1415l47 8q15 -97 60 -145.5t145 -48.5q51 0 90.5 14t68.5 42.5t49.5 60t42.5 79.5l46 -10q-12 -54 -35 -103t-60.5 -95t-95.5 -73.5t-129 -27.5q-246 0 -229 299z" />
    <glyph glyph-name="Ohungarumlaut" unicode="&#x150;" horiz-adv-x="1382" 
d="M592 43q86 0 158.5 32.5t124 87t92.5 129.5t66 156t41.5 171.5t23 170.5t6.5 158q0 226 -65.5 334.5t-229.5 108.5q-97 0 -177.5 -36.5t-136.5 -102t-98 -149.5t-66.5 -186t-36 -204.5t-11.5 -210.5q0 -101 16.5 -181.5t51.5 -144t96.5 -98.5t144.5 -35zM66 539
q0 124 29.5 251t93 247t151.5 213t215.5 149.5t275.5 56.5q236 0 363 -142.5t127 -410.5q0 -125 -27.5 -252t-88 -249t-146.5 -216t-213 -151.5t-277 -57.5q-242 0 -372.5 142.5t-130.5 419.5zM915 1532l277 340l76 -6q30 -3 46.5 -18.5t16.5 -41.5q0 -33 -19.5 -56
t-62.5 -50l-311 -193zM606 1528l258 352h74q72 0 72 -57q0 -24 -12 -44.5t-24 -30.5t-38 -30l-301 -215z" />
    <glyph glyph-name="ohungarumlaut" unicode="&#x151;" horiz-adv-x="1034" 
d="M424 33q79 0 139 40.5t94.5 102t56.5 147t29 162t7 160.5q0 151 -46 226t-155 75q-73 0 -130.5 -39t-93.5 -100.5t-59.5 -144.5t-33 -165.5t-9.5 -168.5q0 -295 201 -295zM401 -23q-184 0 -277 102.5t-93 282.5q0 92 21.5 181.5t67 171.5t109 144t154 99t195.5 37
q185 0 276.5 -101t91.5 -280q0 -90 -21.5 -180t-67 -172.5t-108.5 -146t-153.5 -101t-194.5 -37.5zM692 1141l193 385l71 12q36 8 60 -8t24 -51q0 -42 -57 -99l-260 -258zM387 1141l191 381l73 12q37 6 60.5 -7.5t23.5 -47.5q0 -28 -14 -49t-43 -48l-258 -260z" />
    <glyph glyph-name="OE" unicode="&#x152;" horiz-adv-x="2009" 
d="M66 555q0 185 57 349t160 286.5t259 194t343 71.5q140 0 217 -22h878l-43 -385h-47q2 51 -1 91.5t-9.5 72.5t-19.5 56t-27 41t-37.5 29t-45.5 19t-56 10.5t-64.5 4.5t-75.5 1h-180l-102 -612h100q119 0 173.5 51.5t103.5 210.5h41l-103 -606h-43q3 70 -0.5 114.5
t-15 78.5t-35.5 51.5t-59.5 25.5t-90.5 8h-81l-107 -637h205q210 0 312 78.5t171 288.5h39l-84 -426h-866q-153 -23 -301 -23q-122 0 -223 34.5t-178.5 103.5t-120.5 181.5t-43 258.5zM279 549q0 -510 395 -510q172 0 284 55l205 1243q-112 56 -274 56q-123 0 -226.5 -52
t-173 -137t-118 -196t-70.5 -227t-22 -232z" />
    <glyph glyph-name="oe" unicode="&#x153;" horiz-adv-x="1607" 
d="M1464 336l56 -17q-45 -163 -162.5 -252.5t-276.5 -89.5q-117 0 -195.5 54.5t-107.5 142.5q-149 -197 -377 -197q-184 0 -277 102.5t-93 282.5q0 92 21.5 181.5t67 171.5t109 144t154 99t195.5 37q224 0 307 -200q161 200 372 200q126 0 197.5 -59t71.5 -172
q0 -62 -23.5 -111.5t-58 -80.5t-89 -56t-99.5 -38t-105 -25q-127 -25 -238 -29v-57q0 -166 51.5 -239t168.5 -73q234 0 331 281zM424 33q79 0 139 40.5t94.5 102t56.5 147t29 162t7 160.5q0 151 -46 226t-155 75q-73 0 -130.5 -39t-93.5 -100.5t-59.5 -144.5t-33 -165.5
t-9.5 -168.5q0 -295 201 -295zM918 481q73 4 118 13q72 15 124 35.5t97 53t68 83.5t23 118q0 162 -125 162q-101 0 -190 -123t-115 -342z" />
    <glyph glyph-name="Racute" unicode="&#x154;" horiz-adv-x="1316" 
d="M696 739v-6q130 -23 197 -83.5t76 -186.5l14 -205q3 -40 4 -54.5t5 -44.5t9.5 -41.5t15 -27.5t23.5 -21.5t33 -5.5q31 0 55.5 21t59.5 74l45 -29q-90 -152 -225 -152q-199 0 -215 213l-21 240q-4 55 -10 91t-21 75.5t-39.5 62t-66 37.5t-98.5 15h-56l-110 -652h202
l-6 -59h-573l6 59h166l225 1315h-166l8 60h461q77 0 140 -6t131 -25t114.5 -50t76.5 -86t30 -128q0 -95 -37.5 -168.5t-106 -121t-155 -74.5t-191.5 -36zM596 1374l-102 -610h41q86 0 160 23t132.5 67.5t92.5 117.5t34 167q0 126 -72 180.5t-235 54.5h-51zM551 1526l338 315
l59 -20q58 -16 58 -66q0 -35 -26 -59t-71 -45l-336 -154z" />
    <glyph glyph-name="racute" unicode="&#x155;" horiz-adv-x="913" 
d="M53 -16l90 419l74 519h-164l10 53h334l-90 -389l12 -6q24 54 41 89t43.5 83t49 79t53.5 65t62.5 53.5t70.5 32.5t82 13q75 0 121.5 -35.5t46.5 -107.5q0 -67 -40.5 -100t-103.5 -35q-38 0 -65 8l-4 123q-21 16 -53 16q-56 -1 -115 -74t-105.5 -179t-83.5 -234
q-38 -130 -63 -367q-121 -7 -203 -26zM397 1128l191 367l76 14q33 8 60.5 -7.5t27.5 -49.5q0 -43 -58 -98l-270 -246z" />
    <glyph glyph-name="Rcommaaccent" unicode="&#x156;" horiz-adv-x="1316" 
d="M696 739v-6q130 -23 197 -83.5t76 -186.5l14 -205q3 -40 4 -54.5t5 -44.5t9.5 -41.5t15 -27.5t23.5 -21.5t33 -5.5q31 0 55.5 21t59.5 74l45 -29q-90 -152 -225 -152q-199 0 -215 213l-21 240q-4 55 -10 91t-21 75.5t-39.5 62t-66 37.5t-98.5 15h-56l-110 -652h202
l-6 -59h-573l6 59h166l225 1315h-166l8 60h461q77 0 140 -6t131 -25t114.5 -50t76.5 -86t30 -128q0 -95 -37.5 -168.5t-106 -121t-155 -74.5t-191.5 -36zM596 1374l-102 -610h41q86 0 160 23t132.5 67.5t92.5 117.5t34 167q0 126 -72 180.5t-235 54.5h-51zM467 -561l-33 45
q51 35 98.5 89t47.5 93t-37 49l-54 -47q-55 31 -55 90q0 49 36 82t89 33q62 0 92.5 -36.5t30.5 -90.5q0 -92 -57 -163t-158 -144z" />
    <glyph glyph-name="rcommaaccent" unicode="&#x157;" horiz-adv-x="913" 
d="M53 -16l90 419l74 519h-164l10 53h334l-90 -389l12 -6q24 54 41 89t43.5 83t49 79t53.5 65t62.5 53.5t70.5 32.5t82 13q75 0 121.5 -35.5t46.5 -107.5q0 -67 -40.5 -100t-103.5 -35q-38 0 -65 8l-4 123q-21 16 -53 16q-56 -1 -115 -74t-105.5 -179t-83.5 -234
q-38 -130 -63 -367q-121 -7 -203 -26zM41 -561l-33 45q51 35 98.5 89t47.5 93t-37 49l-54 -47q-55 31 -55 90q0 49 36 82t89 33q62 0 92.5 -36.5t30.5 -90.5q0 -92 -57 -163t-158 -144z" />
    <glyph glyph-name="Rcaron" unicode="&#x158;" horiz-adv-x="1316" 
d="M696 739v-6q130 -23 197 -83.5t76 -186.5l14 -205q3 -40 4 -54.5t5 -44.5t9.5 -41.5t15 -27.5t23.5 -21.5t33 -5.5q31 0 55.5 21t59.5 74l45 -29q-90 -152 -225 -152q-199 0 -215 213l-21 240q-4 55 -10 91t-21 75.5t-39.5 62t-66 37.5t-98.5 15h-56l-110 -652h202
l-6 -59h-573l6 59h166l225 1315h-166l8 60h461q77 0 140 -6t131 -25t114.5 -50t76.5 -86t30 -128q0 -95 -37.5 -168.5t-106 -121t-155 -74.5t-191.5 -36zM596 1374l-102 -610h41q86 0 160 23t132.5 67.5t92.5 117.5t34 167q0 126 -72 180.5t-235 54.5h-51zM1085 1815
l-307 -287q-28 -12 -59 -12q-26 0 -41 11.5t-39 45.5l-168 246l29 26l248 -182l315 182z" />
    <glyph glyph-name="rcaron" unicode="&#x159;" horiz-adv-x="913" 
d="M53 -16l90 419l74 519h-164l10 53h334l-90 -389l12 -6q24 54 41 89t43.5 83t49 79t53.5 65t62.5 53.5t70.5 32.5t82 13q75 0 121.5 -35.5t46.5 -107.5q0 -67 -40.5 -100t-103.5 -35q-38 0 -65 8l-4 123q-21 16 -53 16q-56 -1 -115 -74t-105.5 -179t-83.5 -234
q-38 -130 -63 -367q-121 -7 -203 -26zM455 1147l-140 348l33 18l195 -241l280 248l27 -25l-221 -311q-45 -60 -101 -60q-45 0 -73 23z" />
    <glyph glyph-name="Sacute" unicode="&#x15a;" horiz-adv-x="1112" 
d="M502 37q62 0 118.5 18.5t103 54.5t74 97t27.5 139q0 71 -35 123t-90.5 83.5t-123 58.5t-135 59t-123 73.5t-90.5 113t-35 167.5q0 86 32.5 164t90.5 137.5t145.5 95t191.5 35.5q65 0 135 -20.5t120.5 -41t68.5 -20.5q21 0 33.5 14.5t27.5 49.5h31l-57 -418h-43
q-20 200 -100.5 289.5t-221.5 89.5q-53 0 -103 -14.5t-93.5 -44.5t-70 -83.5t-26.5 -123.5q0 -62 21.5 -110.5t58.5 -81t84.5 -59t100 -48.5t104.5 -45t99.5 -53t84.5 -68t58.5 -95t21.5 -129q0 -206 -140.5 -336.5t-344.5 -130.5q-71 0 -140 15t-111.5 33.5t-81.5 33.5
t-58 15q-21 0 -34.5 -17.5t-33.5 -64.5h-33l60 454h45q44 -409 387 -409zM481 1526l338 315l60 -20q57 -15 57 -66q0 -59 -96 -104l-336 -154z" />
    <glyph glyph-name="sacute" unicode="&#x15b;" horiz-adv-x="874" 
d="M223 180h-59q-25 -58 18.5 -98.5t151.5 -40.5q101 0 170 49.5t69 149.5q0 35 -13 62.5t-39.5 47.5t-52.5 33.5t-67 28.5q-114 42 -152 65q-118 68 -122 202v11q0 94 56.5 165t145 105.5t193.5 34.5q138 0 211.5 -51.5t73.5 -144.5q0 -66 -34 -107t-101 -41
q-46 0 -76.5 22.5t-30.5 61.5q0 48 31 84h59q22 53 -14 86t-117 33q-105 0 -177.5 -52.5t-72.5 -142.5q0 -26 10.5 -48t25.5 -37t42.5 -31.5t48.5 -26.5t58 -25q124 -51 172 -84q108 -75 108 -198q0 -138 -116.5 -227t-294.5 -89q-162 0 -241 64.5t-79 161.5
q0 66 37.5 108.5t104.5 42.5q44 0 73 -25t29 -65q0 -50 -29 -84zM408 1128l190 367l76 14q33 8 60.5 -7.5t27.5 -49.5q0 -44 -57 -98l-271 -246z" />
    <glyph glyph-name="Scircumflex" unicode="&#x15c;" horiz-adv-x="1112" 
d="M502 37q62 0 118.5 18.5t103 54.5t74 97t27.5 139q0 71 -35 123t-90.5 83.5t-123 58.5t-135 59t-123 73.5t-90.5 113t-35 167.5q0 86 32.5 164t90.5 137.5t145.5 95t191.5 35.5q65 0 135 -20.5t120.5 -41t68.5 -20.5q21 0 33.5 14.5t27.5 49.5h31l-57 -418h-43
q-20 200 -100.5 289.5t-221.5 89.5q-53 0 -103 -14.5t-93.5 -44.5t-70 -83.5t-26.5 -123.5q0 -62 21.5 -110.5t58.5 -81t84.5 -59t100 -48.5t104.5 -45t99.5 -53t84.5 -68t58.5 -95t21.5 -129q0 -206 -140.5 -336.5t-344.5 -130.5q-71 0 -140 15t-111.5 33.5t-81.5 33.5
t-58 15q-21 0 -34.5 -17.5t-33.5 -64.5h-33l60 454h45q44 -409 387 -409zM362 1518l300 286q34 17 63 17q25 0 43.5 -14.5t40.5 -47.5l160 -243l-29 -23l-235 174l-322 -180z" />
    <glyph glyph-name="scircumflex" unicode="&#x15d;" horiz-adv-x="874" 
d="M223 180h-59q-25 -58 18.5 -98.5t151.5 -40.5q101 0 170 49.5t69 149.5q0 35 -13 62.5t-39.5 47.5t-52.5 33.5t-67 28.5q-114 42 -152 65q-118 68 -122 202v11q0 94 56.5 165t145 105.5t193.5 34.5q138 0 211.5 -51.5t73.5 -144.5q0 -66 -34 -107t-101 -41
q-46 0 -76.5 22.5t-30.5 61.5q0 48 31 84h59q22 53 -14 86t-117 33q-105 0 -177.5 -52.5t-72.5 -142.5q0 -26 10.5 -48t25.5 -37t42.5 -31.5t48.5 -26.5t58 -25q124 -51 172 -84q108 -75 108 -198q0 -138 -116.5 -227t-294.5 -89q-162 0 -241 64.5t-79 161.5
q0 66 37.5 108.5t104.5 42.5q44 0 73 -25t29 -65q0 -50 -29 -84zM266 1133l260 350q31 22 80 22q53 0 74 -63l108 -316l-34 -18l-179 240l-278 -242z" />
    <glyph glyph-name="Scedilla" unicode="&#x15e;" horiz-adv-x="1103" 
d="M504 37q62 0 118.5 18.5t103 54.5t74 97t27.5 139q0 71 -35 123t-90.5 83.5t-123 58.5t-135 59t-123 73.5t-90.5 113t-35 167.5q0 86 32.5 164t90.5 137.5t145.5 95t191.5 35.5q65 0 135 -20.5t120.5 -41t68.5 -20.5q21 0 33.5 14.5t27.5 49.5h31l-57 -418h-43
q-20 200 -100.5 289.5t-221.5 89.5q-53 0 -103 -14.5t-93.5 -44.5t-70 -83.5t-26.5 -123.5q0 -62 21.5 -110.5t58.5 -81t84.5 -59t100 -48.5t104.5 -45t99.5 -53t84.5 -68t58.5 -95t21.5 -129q0 -136 -64.5 -243t-173 -164.5t-239.5 -59.5l-76 -94q28 8 56 8q75 0 116 -38
t41 -101q0 -94 -79 -148.5t-185 -54.5q-75 0 -116.5 33t-41.5 78q0 32 21 56t55 24q26 0 44 -18.5t20 -45.5l-43 -28q-8 -26 10 -43t55 -17q57 0 93 43t36 111q0 102 -90 102q-33 0 -63 -10l-7 31l91 117q-76 6 -148.5 29t-119.5 43t-68 20t-34.5 -17.5t-33.5 -64.5h-33
l60 454h45q44 -409 387 -409z" />
    <glyph glyph-name="scedilla" unicode="&#x15f;" horiz-adv-x="874" 
d="M223 180h-59q-25 -58 18.5 -98.5t151.5 -40.5q101 0 170 49.5t69 149.5q0 35 -13 62.5t-39.5 47.5t-52.5 33.5t-67 28.5q-114 42 -152 65q-118 68 -122 202v11q0 94 56.5 165t145 105.5t193.5 34.5q138 0 211.5 -51.5t73.5 -144.5q0 -66 -34 -107t-101 -41
q-46 0 -76.5 22.5t-30.5 61.5q0 48 31 84h59q22 53 -14 86t-117 33q-105 0 -177.5 -52.5t-72.5 -142.5q0 -26 10.5 -48t25.5 -37t42.5 -31.5t48.5 -26.5t58 -25q124 -51 172 -84q108 -75 108 -198q0 -125 -98 -211t-252 -100l-78 -99q28 8 56 8q75 0 116 -38t41 -101
q0 -94 -79 -148.5t-185 -54.5q-75 0 -116.5 33t-41.5 78q0 32 21 56t55 24q26 0 44 -18.5t20 -45.5l-43 -28q-8 -26 10 -43t55 -17q57 0 93 43t36 111q0 102 -90 102q-33 0 -63 -10l-7 31l89 112q-160 1 -237 65.5t-77 160.5q0 66 37.5 108.5t104.5 42.5q44 0 73 -25t29 -65
q0 -50 -29 -84z" />
    <glyph glyph-name="Scaron" unicode="&#x160;" horiz-adv-x="1112" 
d="M502 37q62 0 118.5 18.5t103 54.5t74 97t27.5 139q0 71 -35 123t-90.5 83.5t-123 58.5t-135 59t-123 73.5t-90.5 113t-35 167.5q0 86 32.5 164t90.5 137.5t145.5 95t191.5 35.5q65 0 135 -20.5t120.5 -41t68.5 -20.5q21 0 33.5 14.5t27.5 49.5h31l-57 -418h-43
q-20 200 -100.5 289.5t-221.5 89.5q-53 0 -103 -14.5t-93.5 -44.5t-70 -83.5t-26.5 -123.5q0 -62 21.5 -110.5t58.5 -81t84.5 -59t100 -48.5t104.5 -45t99.5 -53t84.5 -68t58.5 -95t21.5 -129q0 -206 -140.5 -336.5t-344.5 -130.5q-71 0 -140 15t-111.5 33.5t-81.5 33.5
t-58 15q-21 0 -34.5 -17.5t-33.5 -64.5h-33l60 454h45q44 -409 387 -409zM1034 1815l-307 -287q-28 -12 -59 -12q-26 0 -41 11.5t-39 45.5l-168 246l29 26l247 -182l316 182z" />
    <glyph glyph-name="scaron" unicode="&#x161;" horiz-adv-x="874" 
d="M223 180h-59q-25 -58 18.5 -98.5t151.5 -40.5q101 0 170 49.5t69 149.5q0 35 -13 62.5t-39.5 47.5t-52.5 33.5t-67 28.5q-114 42 -152 65q-118 68 -122 202v11q0 94 56.5 165t145 105.5t193.5 34.5q138 0 211.5 -51.5t73.5 -144.5q0 -66 -34 -107t-101 -41
q-46 0 -76.5 22.5t-30.5 61.5q0 48 31 84h59q22 53 -14 86t-117 33q-105 0 -177.5 -52.5t-72.5 -142.5q0 -26 10.5 -48t25.5 -37t42.5 -31.5t48.5 -26.5t58 -25q124 -51 172 -84q108 -75 108 -198q0 -138 -116.5 -227t-294.5 -89q-162 0 -241 64.5t-79 161.5
q0 66 37.5 108.5t104.5 42.5q44 0 73 -25t29 -65q0 -50 -29 -84zM465 1147l-139 348l32 18l195 -241l281 248l26 -25l-221 -311q-45 -60 -100 -60q-46 0 -74 23z" />
    <glyph glyph-name="uni0162" unicode="&#x162;" horiz-adv-x="1261" 
d="M1313 1434l-49 -412h-47q1 63 -3 111t-14.5 84.5t-22.5 62.5t-35.5 43.5t-45 27.5t-58.5 15t-68.5 6.5t-82.5 1.5h-27l-219 -1315h184l-8 -59h-237l-93 -117q28 8 56 8q75 0 116 -38t41 -101q0 -94 -79 -148.5t-185 -54.5q-75 0 -116 33t-41 78q0 32 20.5 56t54.5 24
q26 0 44 -18.5t20 -45.5l-43 -28q-8 -26 10 -43t55 -17q57 0 93 43t36 111q0 102 -90 102q-33 0 -63 -10l-6 31l106 135h-274l10 59h184l221 1315h-28q-45 0 -74.5 -1t-64.5 -5t-58 -11t-50 -19.5t-46.5 -31t-41 -44.5t-39.5 -61t-36.5 -79t-36.5 -100h-47l88 412h1090z" />
    <glyph glyph-name="uni0163" unicode="&#x163;" horiz-adv-x="677" 
d="M565 182l45 -35q-103 -155 -254 -167l-75 -97q28 8 55 8q75 0 116.5 -38t41.5 -101q0 -94 -79.5 -148.5t-185.5 -54.5q-75 0 -116 33t-41 78q0 32 20.5 56t54.5 24q26 0 44 -18.5t20 -45.5l-43 -28q-8 -26 10 -43t55 -17q57 0 93 43t36 111q0 102 -90 102q-33 0 -63 -10
l-6 31l90 115q-92 12 -139.5 65.5t-47.5 138.5q0 15 0.5 29.5t3.5 34.5t4 31t6.5 38.5t7.5 37t9.5 47t9.5 49.5l93 471h-148l10 53h146l41 252l192 51l-49 -303h215l-10 -53h-213l-127 -689q-17 -91 2.5 -133.5t79.5 -42.5q55 0 96 29.5t90 95.5z" />
    <glyph glyph-name="Tcaron" unicode="&#x164;" horiz-adv-x="1261" 
d="M1313 1434l-49 -412h-47q1 63 -3 111t-14.5 84.5t-22.5 62.5t-35.5 43.5t-45 27.5t-58.5 15t-68.5 6.5t-82.5 1.5h-27l-219 -1315h184l-8 -59h-575l10 59h184l221 1315h-28q-45 0 -74.5 -1t-64.5 -5t-58 -11t-50 -19.5t-46.5 -31t-41 -44.5t-39.5 -61t-36.5 -79
t-36.5 -100h-47l88 412h1090zM1145 1815l-307 -287q-28 -12 -60 -12q-26 0 -41 11.5t-39 45.5l-168 246l29 26l248 -182l315 182z" />
    <glyph glyph-name="tcaron" unicode="&#x165;" horiz-adv-x="686" 
d="M565 182l45 -35q-50 -77 -120.5 -123.5t-151.5 -46.5q-113 0 -172.5 56t-59.5 151q0 15 0.5 29.5t3.5 34.5t4 31t6.5 38.5t7.5 37t9.5 47t9.5 49.5l93 471h-148l10 53h146l41 252l192 51l-49 -303h215l-10 -53h-213l-127 -689q-17 -91 2.5 -133.5t79.5 -42.5
q55 0 96 29.5t90 95.5zM551 1081l-29 35q53 42 92 96t39 111q0 70 -69 127l47 49q43 43 88 43t67.5 -30t22.5 -76q0 -175 -258 -355z" />
    <glyph glyph-name="Tbar" unicode="&#x166;" horiz-adv-x="1261" 
d="M1313 1434l-49 -412h-47q1 63 -3 111t-14.5 84.5t-22.5 62.5t-35.5 43.5t-45 27.5t-58.5 15t-68.5 6.5t-82.5 1.5h-27l-98 -590h342l-10 -59h-342l-111 -666h184l-8 -59h-575l10 59h184l111 666h-332l10 59h332l100 590h-28q-45 0 -74.5 -1t-64.5 -5t-58 -11t-50 -19.5
t-46.5 -31t-41 -44.5t-39.5 -61t-36.5 -79t-36.5 -100h-47l88 412h1090z" />
    <glyph glyph-name="tbar" unicode="&#x167;" horiz-adv-x="677" 
d="M565 182l45 -35q-50 -77 -120.5 -123.5t-151.5 -46.5q-113 0 -172.5 56t-59.5 151q0 15 0.5 29.5t3.5 34.5t4 31t6.5 38.5t7.5 37t9.5 47t9.5 49.5l25 127h-141l8 53h143l58 291h-148l10 53h146l41 252l192 51l-49 -303h215l-10 -53h-213l-53 -291h219l-8 -53h-222
l-63 -345q-17 -91 2.5 -133.5t79.5 -42.5q55 0 96 29.5t90 95.5z" />
    <glyph glyph-name="Utilde" unicode="&#x168;" horiz-adv-x="1411" 
d="M653 49q-126 0 -187.5 43.5t-72 136.5t14.5 238l151 907h148l8 60h-496l-10 -60h147l-157 -930q-19 -105 -8 -183t41 -132.5t86 -88t127.5 -48.5t164.5 -15q254 0 382.5 123t168.5 363l152 911h141l10 60h-395l-8 -60h170l-152 -917q-37 -222 -141.5 -315t-284.5 -93z
M1018 1575q-74 0 -174 47q-79 33 -117 33q-61 0 -113 -90l-36 14q48 105 97 154t132 49q16 0 30 -1t27.5 -4t22.5 -5.5t23 -8t20.5 -8t22.5 -10t22 -10.5q76 -31 115 -31q36 0 61 18.5t55 69.5l39 -12q-48 -109 -103.5 -157t-123.5 -48z" />
    <glyph glyph-name="utilde" unicode="&#x169;" horiz-adv-x="1163" 
d="M1051 141l41 -28q-88 -136 -207 -136q-227 0 -156 256l25 95l-13 4q-28 -58 -54 -102.5t-64.5 -94.5t-79.5 -82.5t-96.5 -54t-116.5 -21.5q-275 0 -217 324q11 62 31 162.5t47.5 237t44.5 221.5h-158l8 53h338l-143 -709q-11 -62 -13.5 -108.5t23.5 -74.5t84 -28
q112 0 210 133t160 351q61 211 84 430q90 -3 199 20q-131 -609 -164 -844q-6 -50 7.5 -74t54.5 -24q33 0 61 21.5t64 72.5zM774 1188q-74 0 -174 47q-79 33 -117 33q-60 0 -112 -90l-37 14q48 105 97 154t132 49q16 0 30 -1t27.5 -4t22.5 -5.5t23 -8t20.5 -8t22.5 -10
t22 -10.5q76 -31 115 -31q36 0 61.5 18.5t55.5 69.5l38 -12q-48 -109 -103.5 -157t-123.5 -48z" />
    <glyph glyph-name="Umacron" unicode="&#x16a;" horiz-adv-x="1411" 
d="M653 49q-126 0 -187.5 43.5t-72 136.5t14.5 238l151 907h148l8 60h-496l-10 -60h147l-157 -930q-19 -105 -8 -183t41 -132.5t86 -88t127.5 -48.5t164.5 -15q254 0 382.5 123t168.5 363l152 911h141l10 60h-395l-8 -60h170l-152 -917q-37 -222 -141.5 -315t-284.5 -93z
M612 1591l19 107h557l-19 -107h-557z" />
    <glyph glyph-name="umacron" unicode="&#x16b;" horiz-adv-x="1163" 
d="M1051 141l41 -28q-88 -136 -207 -136q-227 0 -156 256l25 95l-13 4q-28 -58 -54 -102.5t-64.5 -94.5t-79.5 -82.5t-96.5 -54t-116.5 -21.5q-275 0 -217 324q11 62 31 162.5t47.5 237t44.5 221.5h-158l8 53h338l-143 -709q-11 -62 -13.5 -108.5t23.5 -74.5t84 -28
q112 0 210 133t160 351q61 211 84 430q90 -3 199 20q-131 -609 -164 -844q-6 -50 7.5 -74t54.5 -24q33 0 61 21.5t64 72.5zM367 1210l18 107h557l-18 -107h-557z" />
    <glyph glyph-name="Ubreve" unicode="&#x16c;" horiz-adv-x="1411" 
d="M653 49q180 0 284.5 93t141.5 315l152 917h-170l8 60h395l-10 -60h-141l-152 -911q-40 -240 -168.5 -363t-382.5 -123q-93 0 -164.5 15t-127.5 48.5t-86 88t-41 132.5t8 183l157 930h-147l10 60h496l-8 -60h-148l-151 -907q-25 -145 -14.5 -238t72 -136.5t187.5 -43.5z
M645 1757l49 10q13 -76 59 -112.5t150 -36.5q105 0 162.5 33t91.5 110l47 -6q-72 -258 -323 -258q-249 0 -236 260z" />
    <glyph glyph-name="ubreve" unicode="&#x16d;" horiz-adv-x="1163" 
d="M1051 141l41 -28q-88 -136 -207 -136q-227 0 -156 256l25 95l-13 4q-28 -58 -54 -102.5t-64.5 -94.5t-79.5 -82.5t-96.5 -54t-116.5 -21.5q-275 0 -217 324q11 62 31 162.5t47.5 237t44.5 221.5h-158l8 53h338l-143 -709q-11 -62 -13.5 -108.5t23.5 -74.5t84 -28
q112 0 210 133t160 351q61 211 84 430q90 -3 199 20q-131 -609 -164 -844q-6 -50 7.5 -74t54.5 -24q33 0 61 21.5t64 72.5zM397 1415l47 8q15 -97 60 -145.5t145 -48.5q51 0 90.5 14t69 42.5t50 60t42.5 79.5l45 -10q-12 -54 -35 -103t-60 -95t-95 -73.5t-129 -27.5
q-247 0 -230 299z" />
    <glyph glyph-name="Uring" unicode="&#x16e;" horiz-adv-x="1411" 
d="M653 49q-126 0 -187.5 43.5t-72 136.5t14.5 238l151 907h148l8 60h-496l-10 -60h147l-157 -930q-19 -105 -8 -183t41 -132.5t86 -88t127.5 -48.5t164.5 -15q254 0 382.5 123t168.5 363l152 911h141l10 60h-395l-8 -60h170l-152 -917q-37 -222 -141.5 -315t-284.5 -93z
M920 1819q-57 0 -96.5 -40t-39.5 -98q0 -41 24 -70.5t73 -29.5q60 0 97.5 38.5t37.5 96.5q0 44 -24 73.5t-72 29.5zM711 1667q0 91 63 150t162 59q75 0 115.5 -39t40.5 -102q0 -95 -62 -154t-162 -59q-80 0 -118.5 40t-38.5 105z" />
    <glyph glyph-name="uring" unicode="&#x16f;" horiz-adv-x="1163" 
d="M1051 141l41 -28q-88 -136 -207 -136q-227 0 -156 256l25 95l-13 4q-28 -58 -54 -102.5t-64.5 -94.5t-79.5 -82.5t-96.5 -54t-116.5 -21.5q-275 0 -217 324q11 62 31 162.5t47.5 237t44.5 221.5h-158l8 53h338l-143 -709q-11 -62 -13.5 -108.5t23.5 -74.5t84 -28
q112 0 210 133t160 351q61 211 84 430q90 -3 199 20q-131 -609 -164 -844q-6 -50 7.5 -74t54.5 -24q33 0 61 21.5t64 72.5zM690 1438q-57 0 -96 -40t-39 -98q0 -41 23.5 -70.5t72.5 -29.5q60 0 97.5 38.5t37.5 96.5q0 44 -24 73.5t-72 29.5zM481 1286q0 91 63.5 150
t162.5 59q75 0 115 -39t40 -102q0 -95 -61.5 -154t-161.5 -59q-80 0 -119 40t-39 105z" />
    <glyph glyph-name="Uhungarumlaut" unicode="&#x170;" horiz-adv-x="1411" 
d="M653 49q-126 0 -187.5 43.5t-72 136.5t14.5 238l151 907h148l8 60h-496l-10 -60h147l-157 -930q-19 -105 -8 -183t41 -132.5t86 -88t127.5 -48.5t164.5 -15q254 0 382.5 123t168.5 363l152 911h141l10 60h-395l-8 -60h170l-152 -917q-37 -222 -141.5 -315t-284.5 -93z
M961 1532l276 340l76 -6q30 -3 46.5 -18.5t16.5 -41.5q0 -33 -19.5 -56t-62.5 -50l-311 -193zM651 1528l258 352h74q72 0 72 -57q0 -24 -12 -44.5t-24 -30.5t-38 -30l-301 -215z" />
    <glyph glyph-name="uhungarumlaut" unicode="&#x171;" horiz-adv-x="1163" 
d="M1051 141l41 -28q-88 -136 -207 -136q-227 0 -156 256l25 95l-13 4q-28 -58 -54 -102.5t-64.5 -94.5t-79.5 -82.5t-96.5 -54t-116.5 -21.5q-275 0 -217 324q11 62 31 162.5t47.5 237t44.5 221.5h-158l8 53h338l-143 -709q-11 -62 -13.5 -108.5t23.5 -74.5t84 -28
q112 0 210 133t160 351q61 211 84 430q90 -3 199 20q-131 -609 -164 -844q-6 -50 7.5 -74t54.5 -24q33 0 61 21.5t64 72.5zM723 1141l192 385l72 12q36 8 60 -8t24 -51q0 -42 -57 -99l-260 -258zM418 1141l190 381l74 12q37 6 60.5 -7.5t23.5 -47.5q0 -28 -14 -49t-43 -48
l-258 -260z" />
    <glyph glyph-name="Uogonek" unicode="&#x172;" horiz-adv-x="1411" 
d="M653 49q180 0 284.5 93t141.5 315l152 917h-170l8 60h395l-10 -60h-141l-152 -911q-29 -178 -104.5 -284t-222.5 -175q-89 -41 -154.5 -121t-65.5 -168q0 -39 17.5 -62.5t52.5 -23.5q25 0 47.5 13t35 26.5t34.5 40.5l35 -24q-16 -25 -30 -42t-41.5 -42.5t-65.5 -39.5
t-83 -14q-80 0 -122.5 37t-42.5 99q0 159 249 299q-72 -5 -90 -5q-93 0 -164.5 15t-127.5 48.5t-86 88t-41 132.5t8 183l157 930h-147l10 60h496l-8 -60h-148l-151 -907q-25 -145 -14.5 -238t72 -136.5t187.5 -43.5z" />
    <glyph glyph-name="uogonek" unicode="&#x173;" horiz-adv-x="1163" 
d="M1051 141l41 -28q-56 -85 -121 -119q-82 -44 -138.5 -120t-56.5 -159q0 -39 17.5 -62.5t52.5 -23.5q25 0 47.5 13t35 26.5t34.5 40.5l34 -24q-16 -25 -29.5 -42t-41 -42.5t-65.5 -39.5t-83 -14q-80 0 -123 37t-43 99q0 154 246 297q-196 14 -129 253l25 95l-13 4
q-28 -58 -54 -102.5t-64.5 -94.5t-79.5 -82.5t-96.5 -54t-116.5 -21.5q-275 0 -217 324q11 62 31 162.5t47.5 237t44.5 221.5h-158l8 53h338l-143 -709q-11 -62 -13.5 -108.5t23.5 -74.5t84 -28q112 0 210 133t160 351q61 211 84 430q90 -3 199 20q-131 -609 -164 -844
q-6 -50 7.5 -74t54.5 -24q33 0 61 21.5t64 72.5z" />
    <glyph glyph-name="Wcircumflex" unicode="&#x174;" horiz-adv-x="1996" 
d="M612 283l447 753l-68 338h-137l8 60h561l-8 -60h-201l201 -1048l506 1048h-207l8 60h424l-8 -60h-135l-686 -1394h-47l-187 960l-575 -960h-47l-217 1394h-138l9 60h563l-8 -60h-201zM825 1518l299 286q34 17 64 17q25 0 43.5 -14.5t40.5 -47.5l160 -243l-29 -23
l-236 174l-321 -180z" />
    <glyph glyph-name="wcircumflex" unicode="&#x175;" horiz-adv-x="1617" 
d="M1366 825l-59 -82q-50 7 -78.5 44t-28.5 83q0 51 36 88t103 37q101 0 152 -73t51 -195q0 -61 -17 -138.5t-49.5 -162t-84 -164t-114.5 -143.5t-148.5 -103t-178.5 -39q-226 0 -262 179q-59 -75 -142.5 -127t-185.5 -52q-265 0 -217 306q16 95 56 292t53 273q5 34 -4 58
t-39 24q-35 0 -72.5 -34.5t-87.5 -111.5l-49 29q52 94 113.5 138t144.5 44q90 0 133.5 -53.5t20.5 -171.5q-57 -305 -86 -459q-27 -131 -8.5 -187t98.5 -56q45 0 82.5 13t70 40.5t54 52t53.5 66.5q48 195 151 731q101 -3 191 14q-93 -367 -150 -684q-23 -130 6.5 -182.5
t124.5 -52.5q87 0 173 62t146.5 154.5t98 200.5t37.5 199q0 129 -88 143zM678 1133l260 350q31 22 80 22q53 0 74 -63l108 -316l-35 -18l-178 240l-278 -242z" />
    <glyph glyph-name="Ycircumflex" unicode="&#x176;" horiz-adv-x="1138" 
d="M653 748l422 626h-196l8 60h403l-8 -60h-129l-479 -710l-103 -605h166l-10 -59h-534l10 59h164l102 605l-242 710h-131l8 60h545l-8 -60h-184zM420 1518l299 286q34 17 63 17q25 0 43.5 -14.5t40.5 -47.5l160 -243l-29 -23l-235 174l-322 -180z" />
    <glyph glyph-name="ycircumflex" unicode="&#x177;" horiz-adv-x="1079" 
d="M94 -326l-84 -12q-32 -47 -17.5 -80t70.5 -33q194 0 449 410q-139 517 -233 819q-18 58 -36.5 77t-47.5 19q-34 0 -62.5 -37.5t-60.5 -125.5l-60 24q46 122 100 181t148 59q72 0 120 -46t79 -147q103 -345 178 -651q48 71 104 168t111 226t55 202q0 36 -17.5 62.5
t-45.5 27.5l-66 -82q-44 14 -69 46.5t-25 78.5q0 57 37.5 96t103.5 39q83 0 129.5 -60.5t46.5 -152.5q0 -221 -280 -647q-21 -32 -60.5 -93.5t-64 -99.5t-64 -95.5t-70 -95t-71 -83t-78 -74.5t-80 -55t-87.5 -38.5t-91 -12.5q-109 0 -174 57t-65 152q0 71 42.5 116.5
t110.5 45.5q71 0 108.5 -51.5t16.5 -133.5zM324 1133l260 350q31 22 80 22q26 0 44 -14t29 -49l109 -316l-35 -18l-178 240l-279 -242z" />
    <glyph glyph-name="Ydieresis" unicode="&#x178;" horiz-adv-x="1138" 
d="M653 748l422 626h-196l8 60h403l-8 -60h-129l-479 -710l-103 -605h166l-10 -59h-534l10 59h164l102 605l-242 710h-131l8 60h545l-8 -60h-184zM440 1673q8 45 42.5 77t86.5 32q43 0 70 -21.5t27 -62.5q0 -60 -36 -98.5t-95 -38.5q-50 0 -73.5 24.5t-23.5 61.5q0 18 2 26z
M840 1673q8 45 42.5 77t86.5 32q43 0 69.5 -21.5t26.5 -62.5q0 -60 -36 -98.5t-95 -38.5q-50 0 -73 24t-23 62q0 18 2 26z" />
    <glyph glyph-name="Zacute" unicode="&#x179;" horiz-adv-x="1136" 
d="M1167 1434l-10 -60l-946 -1315h317q187 0 290.5 88.5t178.5 311.5h47l-102 -459h-987l8 51l955 1323h-281q-54 0 -88.5 -2t-75 -9.5t-67.5 -22.5t-57.5 -40t-54.5 -63t-49 -91t-50 -124h-43l90 412h925zM496 1526l338 315l59 -20q57 -15 57 -66q0 -59 -96 -104l-336 -154
z" />
    <glyph glyph-name="zacute" unicode="&#x17a;" horiz-adv-x="1013" 
d="M852 354l51 -10q-76 -367 -274 -367q-66 0 -107 15t-98 53l-182 123q-30 -102 -68.5 -146.5t-87.5 -44.5q-44 0 -72 27.5t-28 67.5q0 59 56.5 98.5t133.5 44.5q293 317 531 561q-38 4 -146 16.5t-170.5 18.5t-97.5 6q-64 0 -101.5 -33.5t-72.5 -134.5l-53 10
q45 182 110 259t166 77q55 0 95.5 -15.5t101.5 -53.5l188 -115q18 97 63.5 140.5t92.5 43.5q44 0 69 -26t25 -60q0 -51 -54.5 -95.5t-138.5 -53.5q-473 -497 -526 -551q266 -16 416 -16q78 0 113 30t65 131zM440 1128l191 367l76 14q33 8 60.5 -7.5t27.5 -49.5
q0 -43 -58 -98l-270 -246z" />
    <glyph glyph-name="Zdotaccent" unicode="&#x17b;" horiz-adv-x="1136" 
d="M1167 1434l-10 -60l-946 -1315h317q187 0 290.5 88.5t178.5 311.5h47l-102 -459h-987l8 51l955 1323h-281q-54 0 -88.5 -2t-75 -9.5t-67.5 -22.5t-57.5 -40t-54.5 -63t-49 -91t-50 -124h-43l90 412h925zM688 1556q-108 0 -108 107q0 58 35 98.5t100 40.5q108 0 108 -104
q0 -62 -34.5 -102t-100.5 -40z" />
    <glyph glyph-name="zdotaccent" unicode="&#x17c;" horiz-adv-x="1013" 
d="M852 354l51 -10q-76 -367 -274 -367q-66 0 -107 15t-98 53l-182 123q-30 -102 -68.5 -146.5t-87.5 -44.5q-44 0 -72 27.5t-28 67.5q0 59 56.5 98.5t133.5 44.5q293 317 531 561q-38 4 -146 16.5t-170.5 18.5t-97.5 6q-64 0 -101.5 -33.5t-72.5 -134.5l-53 10
q45 182 110 259t166 77q55 0 95.5 -15.5t101.5 -53.5l188 -115q18 97 63.5 140.5t92.5 43.5q44 0 69 -26t25 -60q0 -51 -54.5 -95.5t-138.5 -53.5q-473 -497 -526 -551q266 -16 416 -16q78 0 113 30t65 131zM567 1184q-108 0 -108 106q0 58 35 99t100 41q108 0 108 -105
q0 -62 -34.5 -101.5t-100.5 -39.5z" />
    <glyph glyph-name="Zcaron" unicode="&#x17d;" horiz-adv-x="1136" 
d="M1167 1434l-10 -60l-946 -1315h317q187 0 290.5 88.5t178.5 311.5h47l-102 -459h-987l8 51l955 1323h-281q-54 0 -88.5 -2t-75 -9.5t-67.5 -22.5t-57.5 -40t-54.5 -63t-49 -91t-50 -124h-43l90 412h925zM1044 1815l-307 -287q-28 -12 -59 -12q-26 0 -41 11.5t-39 45.5
l-168 246l29 26l248 -182l315 182z" />
    <glyph glyph-name="zcaron" unicode="&#x17e;" horiz-adv-x="1013" 
d="M852 354l51 -10q-76 -367 -274 -367q-66 0 -107 15t-98 53l-182 123q-30 -102 -68.5 -146.5t-87.5 -44.5q-44 0 -72 27.5t-28 67.5q0 59 56.5 98.5t133.5 44.5q293 317 531 561q-38 4 -146 16.5t-170.5 18.5t-97.5 6q-64 0 -101.5 -33.5t-72.5 -134.5l-53 10
q45 182 110 259t166 77q55 0 95.5 -15.5t101.5 -53.5l188 -115q18 97 63.5 140.5t92.5 43.5q44 0 69 -26t25 -60q0 -51 -54.5 -95.5t-138.5 -53.5q-473 -497 -526 -551q266 -16 416 -16q78 0 113 30t65 131zM485 1147l-139 348l33 18l194 -241l281 248l27 -25l-222 -311
q-45 -60 -100 -60q-46 0 -74 23z" />
    <glyph glyph-name="longs" unicode="&#x17f;" horiz-adv-x="692" 
d="M49 -166l227 1290q35 212 148.5 335.5t300.5 123.5q109 0 173.5 -51t64.5 -135q0 -63 -37 -104.5t-105 -41.5q-52 0 -81 30t-29 77q0 21 6 45l67 6q24 59 1 92t-80 33q-55 0 -96.5 -27.5t-67.5 -76.5t-40.5 -96.5t-25.5 -108.5l-229 -1284q-40 -224 -136.5 -338.5
t-273.5 -114.5q-116 0 -180 53t-64 135q0 65 38 108.5t106 43.5q65 0 96 -46t8 -116l-73 -8q-27 -38 -19 -64.5t36.5 -40.5t68.5 -14q50 0 82 13.5t53 57.5t28.5 72t23.5 109q2 9 3 14.5t3 13.5t3 15z" />
    <glyph glyph-name="florin" unicode="&#x192;" horiz-adv-x="999" 
d="M791 831l-13 -67h-270l-127 -725q-39 -226 -149.5 -347.5t-294.5 -121.5q-110 0 -172 53.5t-62 136.5q0 66 38.5 112t106.5 46q65 0 94.5 -44.5t8.5 -125.5l-74 -8q-32 -54 -11.5 -87.5t77.5 -33.5q47 0 83.5 16.5t60 42t42 69t28.5 84.5t21 101l146 832h-172l12 67h172
l26 156q39 221 147 345t294 124q108 0 170.5 -50.5t62.5 -137.5q0 -66 -37 -109t-106 -43q-51 0 -80 30t-29 77q0 19 7 47l69 6q24 46 17 74.5t-32 41.5t-65 13q-45 0 -79 -18t-54.5 -43.5t-37.5 -71.5t-25 -82t-19 -96l-45 -263h271z" />
    <glyph glyph-name="Aringacute" unicode="&#x1fa;" horiz-adv-x="1226" 
d="M803 59l-64 418h-442l-217 -418h178l-8 -59h-389l8 59h133l731 1397h51l242 -1397h135l-8 -59h-530l8 59h172zM637 1151l-311 -614h403zM801 1735q-57 0 -96 -40t-39 -98q0 -41 23.5 -70.5t72.5 -29.5q60 0 97.5 38.5t37.5 96.5q0 44 -24 73.5t-72 29.5zM592 1583
q0 91 63 150t162 59q75 0 115.5 -39t40.5 -102q0 -95 -61.5 -154t-161.5 -59q-80 0 -119 40t-39 105zM666 1845l338 316l59 -21q57 -15 57 -65q0 -60 -96 -105l-336 -153z" />
    <glyph glyph-name="aringacute" unicode="&#x1fb;" horiz-adv-x="1134" 
d="M1026 141l41 -32q-82 -132 -207 -132q-61 0 -100.5 21.5t-55 60t-14 88t18.5 109.5l-11 2q-135 -281 -379 -281q-139 0 -213.5 93.5t-74.5 261.5q0 85 19.5 175t60.5 177.5t99 156.5t141.5 111.5t180.5 42.5q185 0 259 -161l38 139q71 0 166 12q-103 -511 -149 -819
q-8 -57 4.5 -86t54.5 -29q57 0 121 90zM385 63q77 0 146.5 61.5t114.5 154.5t71 198t26 195q0 260 -192 260q-89 0 -154.5 -55t-101 -146t-52 -191t-16.5 -208q0 -139 34.5 -204t123.5 -65zM623 1368q-57 0 -96.5 -39.5t-39.5 -97.5q0 -41 24 -71t73 -30q60 0 97.5 39
t37.5 97q0 43 -24 72.5t-72 29.5zM414 1217q0 91 63 149.5t162 58.5q75 0 115.5 -39t40.5 -102q0 -95 -62 -154t-162 -59q-80 0 -118.5 40.5t-38.5 105.5zM477 1503l338 316l59 -21q58 -16 58 -65q0 -60 -96 -105l-336 -153z" />
    <glyph glyph-name="AEacute" unicode="&#x1fc;" horiz-adv-x="1947" 
d="M786 1374l9 60h1124l-43 -385h-47q2 51 -1 91.5t-9.5 72.5t-19.5 56t-27 41t-37.5 29t-45.5 19t-56 10.5t-64.5 4.5t-75.5 1h-180l-107 -633h101q118 0 172 51.5t104 211.5h41l-102 -607h-43q3 70 -0.5 114.5t-15 78.5t-35.5 51.5t-59.5 26t-90.5 8.5h-82l-102 -617h204
q210 0 312.5 78.5t171.5 288.5h39l-84 -426h-1008l10 59h152l102 617h-432l-414 -617h183l-13 -59h-399l12 59h125l908 1315h-177zM1110 1374h-68l-434 -633h396zM1233 1526l338 315l59 -20q58 -16 58 -66q0 -35 -26 -59t-71 -45l-336 -154z" />
    <glyph glyph-name="aeacute" unicode="&#x1fd;" horiz-adv-x="1589" 
d="M1446 336l55 -17q-45 -164 -163 -253t-283 -89q-152 0 -235.5 78.5t-98.5 227.5q-63 -130 -166.5 -218t-235.5 -88q-139 0 -213.5 93.5t-74.5 261.5q0 85 19.5 175t60.5 177.5t99 156.5t141.5 111.5t180.5 42.5q185 0 259 -161l38 139q59 0 154 12l-31 -102q53 54 132 83
t167 29q117 0 186.5 -59t69.5 -172q0 -62 -23.5 -111.5t-58 -80.5t-88.5 -56t-99 -38t-105 -25q-127 -25 -238 -29v-57q0 -166 51 -239t168 -73q235 0 332 281zM385 63q77 0 146.5 61.5t114.5 154.5t71 198t26 195q0 260 -192 260q-89 0 -154.5 -55t-101 -146t-52 -191
t-16.5 -208q0 -139 34.5 -204t123.5 -65zM899 481q74 4 119 13q72 15 124 35.5t96.5 53t67.5 83.5t23 118q0 162 -125 162q-101 0 -190 -123t-115 -342zM797 1128l190 367l76 14q33 8 60.5 -7.5t27.5 -49.5q0 -44 -57 -98l-271 -246z" />
    <glyph glyph-name="Oslashacute" unicode="&#x1fe;" horiz-adv-x="1382" 
d="M66 539q0 124 29.5 251t93 247t151.5 213t215.5 149.5t275.5 56.5q95 0 193 -31l78 154l65 -33l-75 -149q229 -128 229 -494q0 -125 -27.5 -252t-88 -249t-146.5 -216t-213 -151.5t-277 -57.5q-100 0 -186 25l-78 -154l-67 33l75 150q-247 123 -247 508zM283 502
q0 -242 88 -359l610 1200q-67 48 -172 48q-97 0 -177.5 -36.5t-136.5 -102t-98 -149.5t-66.5 -186t-36 -204.5t-11.5 -210.5zM592 43q86 0 158.5 32.5t124 87t92.5 129.5t66 156t41.5 171.5t23 170.5t6.5 158q0 234 -70 338l-606 -1196q65 -47 164 -47zM692 1526l338 315
l60 -20q57 -15 57 -66q0 -59 -96 -104l-336 -154z" />
    <glyph glyph-name="oslashacute" unicode="&#x1ff;" horiz-adv-x="1034" 
d="M401 -23q-53 0 -122 15l-74 -150l-58 29l70 141q-186 83 -186 350q0 92 21.5 181.5t67 171.5t109 144t154 99t195.5 37q68 0 120 -14l78 158l55 -25l-75 -151q95 -42 142.5 -132t47.5 -217q0 -90 -21.5 -180t-67 -172.5t-108.5 -146t-153.5 -101t-194.5 -37.5zM223 328
q0 -139 45 -213l396 798q-48 33 -115 33q-73 0 -130.5 -39t-93.5 -100.5t-59.5 -144.5t-33 -165.5t-9.5 -168.5zM424 33q79 0 139 40.5t94.5 102t56.5 147t29 162t7 160.5q0 146 -43 217l-394 -799q43 -30 111 -30zM442 1128l191 367l76 14q33 8 60.5 -7.5t27.5 -49.5
q0 -43 -58 -98l-270 -246z" />
    <glyph glyph-name="Scommaaccent" unicode="&#x218;" horiz-adv-x="1112" 
d="M502 37q62 0 118.5 18.5t103 54.5t74 97t27.5 139q0 71 -35 123t-90.5 83.5t-123 58.5t-135 59t-123 73.5t-90.5 113t-35 167.5q0 86 32.5 164t90.5 137.5t145.5 95t191.5 35.5q65 0 135 -20.5t120.5 -41t68.5 -20.5q21 0 33.5 14.5t27.5 49.5h31l-57 -418h-43
q-20 200 -100.5 289.5t-221.5 89.5q-53 0 -103 -14.5t-93.5 -44.5t-70 -83.5t-26.5 -123.5q0 -62 21.5 -110.5t58.5 -81t84.5 -59t100 -48.5t104.5 -45t99.5 -53t84.5 -68t58.5 -95t21.5 -129q0 -206 -140.5 -336.5t-344.5 -130.5q-71 0 -140 15t-111.5 33.5t-81.5 33.5
t-58 15q-21 0 -34.5 -17.5t-33.5 -64.5h-33l60 454h45q44 -409 387 -409zM373 -561l-33 45q51 35 98 89t47 93q0 40 -36 49l-54 -47q-55 31 -55 90q0 49 36 82t89 33q62 0 92.5 -36.5t30.5 -90.5q0 -92 -57 -163t-158 -144z" />
    <glyph glyph-name="scommaaccent" unicode="&#x219;" horiz-adv-x="874" 
d="M223 180h-59q-25 -58 18.5 -98.5t151.5 -40.5q101 0 170 49.5t69 149.5q0 35 -13 62.5t-39.5 47.5t-52.5 33.5t-67 28.5q-114 42 -152 65q-118 68 -122 202v11q0 94 56.5 165t145 105.5t193.5 34.5q138 0 211.5 -51.5t73.5 -144.5q0 -66 -34 -107t-101 -41
q-46 0 -76.5 22.5t-30.5 61.5q0 48 31 84h59q22 53 -14 86t-117 33q-105 0 -177.5 -52.5t-72.5 -142.5q0 -26 10.5 -48t25.5 -37t42.5 -31.5t48.5 -26.5t58 -25q124 -51 172 -84q108 -75 108 -198q0 -138 -116.5 -227t-294.5 -89q-162 0 -241 64.5t-79 161.5
q0 66 37.5 108.5t104.5 42.5q44 0 73 -25t29 -65q0 -50 -29 -84zM250 -561l-33 45q51 35 98 89t47 93q0 40 -36 49l-54 -47q-55 31 -55 90q0 49 36 82t89 33q62 0 92.5 -36.5t30.5 -90.5q0 -92 -57 -163t-158 -144z" />
    <glyph glyph-name="uni021A" unicode="&#x21a;" horiz-adv-x="1261" 
d="M1313 1434l-49 -412h-47q1 63 -3 111t-14.5 84.5t-22.5 62.5t-35.5 43.5t-45 27.5t-58.5 15t-68.5 6.5t-82.5 1.5h-27l-219 -1315h184l-8 -59h-575l10 59h184l221 1315h-28q-45 0 -74.5 -1t-64.5 -5t-58 -11t-50 -19.5t-46.5 -31t-41 -44.5t-39.5 -61t-36.5 -79
t-36.5 -100h-47l88 412h1090zM416 -561l-33 45q51 35 98 89t47 93q0 40 -36 49l-54 -47q-55 31 -55 90q0 49 36 82t89 33q62 0 92.5 -36.5t30.5 -90.5q0 -92 -57 -163t-158 -144z" />
    <glyph glyph-name="uni021B" unicode="&#x21b;" horiz-adv-x="677" 
d="M565 182l45 -35q-50 -77 -120.5 -123.5t-151.5 -46.5q-113 0 -172.5 56t-59.5 151q0 15 0.5 29.5t3.5 34.5t4 31t6.5 38.5t7.5 37t9.5 47t9.5 49.5l93 471h-148l10 53h146l41 252l192 51l-49 -303h215l-10 -53h-213l-127 -689q-17 -91 2.5 -133.5t79.5 -42.5
q55 0 96 29.5t90 95.5zM213 -561l-33 45q51 35 98.5 89t47.5 93t-37 49l-53 -47q-22 13 -39 36t-17 54q0 49 36 82t89 33q62 0 92.5 -36.5t30.5 -90.5q0 -92 -57 -163t-158 -144z" />
    <glyph glyph-name="dotlessj" unicode="&#x237;" horiz-adv-x="536" 
d="M-129 -336l-78 -10q-23 -56 -2 -87.5t74 -31.5q25 0 44.5 4.5t36 17t28.5 25t23 40.5t18.5 50.5t16.5 67t15 77.5t16 95l166 1010h-157l8 53h336l-158 -971q-14 -88 -31.5 -156t-49.5 -139t-74 -116.5t-107 -75t-148 -29.5q-96 0 -158.5 50.5t-62.5 129.5q0 64 36.5 107
t103.5 43q53 0 86.5 -40.5t17.5 -113.5z" />
    <glyph glyph-name="apostrophe" unicode="&#x2bc;" horiz-adv-x="432" 
d="M117 1020l-33 45q51 35 98 89t47 93q0 40 -36 49l-54 -47q-55 31 -55 90q0 49 36 82t89 33q62 0 92.5 -36.5t30.5 -90.5q0 -92 -57 -163t-158 -144z" />
    <glyph glyph-name="circumflex" unicode="&#x2c6;" horiz-adv-x="1024" 
d="M442 1133l260 350q31 22 80 22q53 0 74 -63l109 -316l-35 -18l-178 240l-279 -242z" />
    <glyph glyph-name="caron" unicode="&#x2c7;" horiz-adv-x="1024" 
d="M631 1147l-139 348l32 18l195 -241l280 248l27 -25l-221 -311q-45 -60 -100 -60q-46 0 -74 23z" />
    <glyph glyph-name="uni02C9" unicode="&#x2c9;" horiz-adv-x="1024" 
d="M440 1210l19 107h557l-19 -107h-557z" />
    <glyph glyph-name="breve" unicode="&#x2d8;" horiz-adv-x="1024" 
d="M475 1415l47 8q15 -97 60 -145.5t145 -48.5q51 0 90.5 14t69 42.5t50 60t42.5 79.5l45 -10q-12 -54 -35 -103t-60 -95t-95 -73.5t-129 -27.5q-247 0 -230 299z" />
    <glyph glyph-name="dotaccent" unicode="&#x2d9;" horiz-adv-x="1024" 
d="M715 1184q-109 0 -109 106q0 58 35 99t100 41q109 0 109 -105q0 -62 -34.5 -101.5t-100.5 -39.5z" />
    <glyph glyph-name="ring" unicode="&#x2da;" horiz-adv-x="1024" 
d="M756 1438q-57 0 -96 -40t-39 -98q0 -41 23.5 -70.5t72.5 -29.5q60 0 97.5 38.5t37.5 96.5q0 44 -24 73.5t-72 29.5zM547 1286q0 91 63 150t162 59q75 0 115.5 -39t40.5 -102q0 -95 -61.5 -154t-161.5 -59q-80 0 -119 40t-39 105z" />
    <glyph glyph-name="ogonek" unicode="&#x2db;" horiz-adv-x="1024" 
d="M578 25l34 -2l13 -13q-215 -138 -215 -295q0 -86 69 -86q25 0 47.5 13t35 26.5t34.5 40.5l35 -24q-16 -25 -29.5 -42t-41 -42.5t-65.5 -39.5t-83 -14q-80 0 -123 37t-43 99q0 47 23.5 93.5t56 80t83 69t86 55.5t83.5 44z" />
    <glyph glyph-name="tilde" unicode="&#x2dc;" horiz-adv-x="1024" 
d="M840 1188q-74 0 -174 47q-79 33 -117 33q-61 0 -113 -90l-37 14q48 105 97.5 154t132.5 49q16 0 30 -1t27.5 -4t22.5 -5.5t23 -8t20.5 -8t22.5 -10t22 -10.5q76 -31 114 -31q36 0 61.5 18.5t55.5 69.5l39 -12q-48 -109 -103.5 -157t-123.5 -48z" />
    <glyph glyph-name="hungarumlaut" unicode="&#x2dd;" horiz-adv-x="1024" 
d="M721 1141l192 385l72 12q36 8 60 -8t24 -51q0 -42 -57 -99l-260 -258zM416 1141l190 381l74 12q37 6 60.5 -7.5t23.5 -47.5q0 -28 -14 -49t-43 -48l-258 -260z" />
    <glyph glyph-name="uni0394" unicode="&#x394;" horiz-adv-x="1163" 
d="M879 0h-1102l784 1466h51zM465 1159l-565 -1065h737z" />
    <glyph glyph-name="uni03A9" unicode="&#x3a9;" horiz-adv-x="1579" 
d="M641 0l21 133q85 79 138.5 136t113 138.5t92.5 160.5t55 186.5t22 232.5q0 80 -13.5 147t-45.5 128t-94.5 96t-151.5 35q-95 0 -174.5 -31.5t-134.5 -87t-96 -125.5t-64.5 -152t-35 -161.5t-11.5 -159.5q0 -299 158 -541l-21 -135h-565l45 426h53q2 -86 17 -138.5
t52.5 -85t93.5 -44t149 -11.5h112q-149 98 -233 238.5t-84 298.5q0 165 58.5 309.5t160 245.5t242 159t299.5 58q100 0 183.5 -29t142 -79.5t99 -119t60 -147.5t19.5 -166q0 -94 -24 -182.5t-58 -155t-88.5 -131.5t-99 -106t-107 -85t-93.5 -63t-77 -45h114q180 0 261 55.5
t141 223.5h51l-92 -426h-590z" />
    <glyph glyph-name="uni03BC" unicode="&#x3bc;" horiz-adv-x="1116" 
d="M262 985l-102 -641q-10 -69 -7.5 -123.5t37.5 -88.5t103 -34q108 0 186 78t99 215l94 576l186 18l-131 -827q-16 -107 61 -107q57 0 121 90l41 -32q-82 -132 -215 -132q-105 0 -144.5 61t-21.5 163l-10 2q-49 -95 -131 -160.5t-186 -65.5q-181 0 -222 195l-8 -6
q8 -67 21 -172t19 -153t11 -104t5 -89q0 -48 -39.5 -71t-87.5 -13l-86 18l221 1385z" />
    <glyph glyph-name="pi" unicode="&#x3c0;" horiz-adv-x="1161" 
d="M883 825h-76q-98 -356 -98 -514q0 -30 4.5 -57t15.5 -52.5t33 -41t53 -15.5q51 0 92 31t76 117l41 -12q-35 -129 -111 -216.5t-176 -87.5q-151 0 -151 170q0 49 8 93q9 57 25.5 123.5t32 120t47.5 159.5t55 186l-330 23q-90 -533 -145 -696q-32 -97 -77.5 -138t-92.5 -41
q-42 0 -65.5 24.5t-16.5 74.5q2 15 6.5 27.5t15.5 29t19 27t30.5 38.5t36.5 46q88 113 141.5 251t100.5 361q-15 0 -45.5 1t-34.5 1q-47 0 -80.5 -17.5t-66.5 -68.5l-37 14q54 128 113 194.5t139 66.5q49 0 301.5 -15.5t302.5 -15.5q38 0 67 17.5t56 66.5l36 -13
q-53 -133 -112.5 -197.5t-132.5 -64.5z" />
    <glyph glyph-name="Wgrave" unicode="&#x1e80;" horiz-adv-x="1996" 
d="M612 283l447 753l-68 338h-137l8 60h561l-8 -60h-201l201 -1048l506 1048h-207l8 60h424l-8 -60h-135l-686 -1394h-47l-187 960l-575 -960h-47l-217 1394h-138l9 60h563l-8 -60h-201zM1059 1835l264 -313l-27 -27l-303 164q-25 15 -36 22.5t-21 23.5t-10 36q0 31 24 53.5
t58 30.5z" />
    <glyph glyph-name="wgrave" unicode="&#x1e81;" horiz-adv-x="1617" 
d="M1366 825l-59 -82q-50 7 -78.5 44t-28.5 83q0 51 36 88t103 37q101 0 152 -73t51 -195q0 -61 -17 -138.5t-49.5 -162t-84 -164t-114.5 -143.5t-148.5 -103t-178.5 -39q-226 0 -262 179q-59 -75 -142.5 -127t-185.5 -52q-265 0 -217 306q16 95 56 292t53 273q5 34 -4 58
t-39 24q-35 0 -72.5 -34.5t-87.5 -111.5l-49 29q52 94 113.5 138t144.5 44q90 0 133.5 -53.5t20.5 -171.5q-57 -305 -86 -459q-27 -131 -8.5 -187t98.5 -56q45 0 82.5 13t70 40.5t54 52t53.5 66.5q48 195 151 731q101 -3 191 14q-93 -367 -150 -684q-23 -130 6.5 -182.5
t124.5 -52.5q87 0 173 62t146.5 154.5t98 200.5t37.5 199q0 129 -88 143zM985 1497l94 -371l-32 -14l-207 266q-33 46 -33 80q0 41 43.5 61t83.5 1z" />
    <glyph glyph-name="Wacute" unicode="&#x1e82;" horiz-adv-x="1996" 
d="M612 283l447 753l-68 338h-137l8 60h561l-8 -60h-201l201 -1048l506 1048h-207l8 60h424l-8 -60h-135l-686 -1394h-47l-187 960l-575 -960h-47l-217 1394h-138l9 60h563l-8 -60h-201zM948 1526l338 315l60 -20q57 -15 57 -66q0 -59 -96 -104l-336 -154z" />
    <glyph glyph-name="wacute" unicode="&#x1e83;" horiz-adv-x="1617" 
d="M1366 825l-59 -82q-50 7 -78.5 44t-28.5 83q0 51 36 88t103 37q101 0 152 -73t51 -195q0 -61 -17 -138.5t-49.5 -162t-84 -164t-114.5 -143.5t-148.5 -103t-178.5 -39q-226 0 -262 179q-59 -75 -142.5 -127t-185.5 -52q-265 0 -217 306q16 95 56 292t53 273q5 34 -4 58
t-39 24q-35 0 -72.5 -34.5t-87.5 -111.5l-49 29q52 94 113.5 138t144.5 44q90 0 133.5 -53.5t20.5 -171.5q-57 -305 -86 -459q-27 -131 -8.5 -187t98.5 -56q45 0 82.5 13t70 40.5t54 52t53.5 66.5q48 195 151 731q101 -3 191 14q-93 -367 -150 -684q-23 -130 6.5 -182.5
t124.5 -52.5q87 0 173 62t146.5 154.5t98 200.5t37.5 199q0 129 -88 143zM819 1128l191 367l75 14q33 8 61 -7.5t28 -49.5q0 -43 -58 -98l-270 -246z" />
    <glyph glyph-name="Wdieresis" unicode="&#x1e84;" horiz-adv-x="1996" 
d="M612 283l447 753l-68 338h-137l8 60h561l-8 -60h-201l201 -1048l506 1048h-207l8 60h424l-8 -60h-135l-686 -1394h-47l-187 960l-575 -960h-47l-217 1394h-138l9 60h563l-8 -60h-201zM862 1673q8 45 42.5 77t86.5 32q43 0 69.5 -21.5t26.5 -62.5q0 -60 -36 -98.5
t-95 -38.5q-50 0 -73 24t-23 62q0 18 2 26zM1262 1673q8 45 42.5 77t86.5 32q43 0 69.5 -21.5t26.5 -62.5q0 -60 -36 -98.5t-95 -38.5q-50 0 -73 24t-23 62q0 18 2 26z" />
    <glyph glyph-name="wdieresis" unicode="&#x1e85;" horiz-adv-x="1617" 
d="M1366 825l-59 -82q-50 7 -78.5 44t-28.5 83q0 51 36 88t103 37q101 0 152 -73t51 -195q0 -61 -17 -138.5t-49.5 -162t-84 -164t-114.5 -143.5t-148.5 -103t-178.5 -39q-226 0 -262 179q-59 -75 -142.5 -127t-185.5 -52q-265 0 -217 306q16 95 56 292t53 273q5 34 -4 58
t-39 24q-35 0 -72.5 -34.5t-87.5 -111.5l-49 29q52 94 113.5 138t144.5 44q90 0 133.5 -53.5t20.5 -171.5q-57 -305 -86 -459q-27 -131 -8.5 -187t98.5 -56q45 0 82.5 13t70 40.5t54 52t53.5 66.5q48 195 151 731q101 -3 191 14q-93 -367 -150 -684q-23 -130 6.5 -182.5
t124.5 -52.5q87 0 173 62t146.5 154.5t98 200.5t37.5 199q0 129 -88 143zM657 1280q8 45 42.5 77t86.5 32q51 0 78 -27.5t17 -81.5q-8 -51 -42 -82t-87 -31q-58 0 -80 33t-15 80zM1057 1280q8 45 42.5 77t86.5 32q50 0 77 -27.5t17 -81.5q-8 -51 -42 -82t-87 -31
q-59 0 -80 32.5t-14 80.5z" />
    <glyph glyph-name="Ygrave" unicode="&#x1ef2;" horiz-adv-x="1138" 
d="M653 748l422 626h-196l8 60h403l-8 -60h-129l-479 -710l-103 -605h166l-10 -59h-534l10 59h164l102 605l-242 710h-131l8 60h545l-8 -60h-184zM592 1835l264 -313l-27 -27l-303 164q-25 15 -36 22.5t-21 23.5t-10 36q0 31 24 53.5t58 30.5z" />
    <glyph glyph-name="ygrave" unicode="&#x1ef3;" horiz-adv-x="1079" 
d="M94 -326l-84 -12q-32 -47 -17.5 -80t70.5 -33q194 0 449 410q-139 517 -233 819q-18 58 -36.5 77t-47.5 19q-34 0 -62.5 -37.5t-60.5 -125.5l-60 24q46 122 100 181t148 59q72 0 120 -46t79 -147q103 -345 178 -651q48 71 104 168t111 226t55 202q0 36 -17.5 62.5
t-45.5 27.5l-66 -82q-44 14 -69 46.5t-25 78.5q0 57 37.5 96t103.5 39q83 0 129.5 -60.5t46.5 -152.5q0 -221 -280 -647q-21 -32 -60.5 -93.5t-64 -99.5t-64 -95.5t-70 -95t-71 -83t-78 -74.5t-80 -55t-87.5 -38.5t-91 -12.5q-109 0 -174 57t-65 152q0 71 42.5 116.5
t110.5 45.5q71 0 108.5 -51.5t16.5 -133.5zM598 1497l94 -371l-33 -14l-206 266q-33 46 -33 80q0 41 43.5 61t83.5 1z" />
    <glyph glyph-name="thinspace" unicode="&#x2009;" horiz-adv-x="102" 
 />
    <glyph glyph-name="endash" unicode="&#x2013;" horiz-adv-x="1024" 
d="M16 537l13 75h942l-13 -75h-942z" />
    <glyph glyph-name="emdash" unicode="&#x2014;" horiz-adv-x="2048" 
d="M16 537l15 75h1966l-15 -75h-1966z" />
    <glyph glyph-name="quoteleft" unicode="&#x2018;" horiz-adv-x="430" 
d="M485 1524l25 -43q-77 -41 -142 -106t-65 -120q0 -32 23 -55l73 60q64 -45 64 -113q0 -54 -38.5 -91.5t-107.5 -37.5q-62 0 -97.5 41t-35.5 102q0 60 25.5 114t74.5 100.5t93 78.5t108 70z" />
    <glyph glyph-name="quoteright" unicode="&#x2019;" horiz-adv-x="430" 
d="M156 948l-25 43q77 41 142 106t65 120q0 32 -23 55l-73 -60q-64 45 -64 113q0 54 38.5 91.5t107.5 37.5q62 0 97.5 -41t35.5 -102q0 -60 -25.5 -114t-74.5 -100.5t-93 -78.5t-108 -70z" />
    <glyph glyph-name="quotesinglbase" unicode="&#x201a;" horiz-adv-x="460" 
d="M-8 -279l-25 43q77 41 142 106t65 120q0 33 -22 55l-74 -59q-64 45 -64 112q0 54 38.5 91.5t107.5 37.5q62 0 97.5 -41t35.5 -102q0 -60 -25.5 -114t-74.5 -100.5t-93 -78.5t-108 -70z" />
    <glyph glyph-name="quotedblleft" unicode="&#x201c;" horiz-adv-x="774" 
d="M485 1524l25 -43q-77 -41 -142 -106t-65 -120q0 -32 23 -55l73 60q64 -45 64 -113q0 -54 -38.5 -91.5t-107.5 -37.5q-62 0 -97.5 41t-35.5 102q0 60 25.5 114t74.5 100.5t93 78.5t108 70zM829 1524l25 -43q-77 -41 -142 -106t-65 -120q0 -32 23 -55l73 60q64 -45 64 -113
q0 -54 -38 -91.5t-107 -37.5q-62 0 -98 41t-36 102q0 60 25.5 114t74.5 100.5t93 78.5t108 70z" />
    <glyph glyph-name="quotedblright" unicode="&#x201d;" horiz-adv-x="768" 
d="M156 948l-25 43q77 41 142 106t65 120q0 32 -23 55l-73 -60q-64 45 -64 113q0 54 38.5 91.5t107.5 37.5q62 0 97.5 -41t35.5 -102q0 -60 -25.5 -114t-74.5 -100.5t-93 -78.5t-108 -70zM494 948l-25 43q77 41 142 106t65 120q0 32 -23 55l-73 -60q-64 45 -64 113
q0 54 38.5 91.5t107.5 37.5q62 0 97.5 -41t35.5 -102q0 -60 -25.5 -114t-74.5 -100.5t-93 -78.5t-108 -70z" />
    <glyph glyph-name="quotedblbase" unicode="&#x201e;" horiz-adv-x="798" 
d="M-8 -279l-25 43q77 41 142 106t65 120q0 33 -22 55l-74 -59q-64 45 -64 112q0 54 38.5 91.5t107.5 37.5q62 0 97.5 -41t35.5 -102q0 -60 -25.5 -114t-74.5 -100.5t-93 -78.5t-108 -70zM330 -279l-25 43q77 41 142 106t65 120q0 32 -23 55l-73 -59q-64 45 -64 112
q0 54 38.5 91.5t107.5 37.5q62 0 97.5 -41t35.5 -102q0 -60 -25.5 -114t-74.5 -100.5t-93 -78.5t-108 -70z" />
    <glyph glyph-name="dagger" unicode="&#x2020;" horiz-adv-x="1026" 
d="M670 727l-2 -12q-32 -44 -49.5 -71t-42.5 -77t-44 -116t-36 -154l-107 -543h-53l88 541q18 117 18 188q0 40 -5.5 78.5t-9.5 56.5t-16 58t-14 45l2 12q45 47 94 123.5t70 136.5q-56 -3 -154 -36t-139 -33t-69.5 18t-28.5 53q0 56 34.5 84.5t84.5 28.5q42 0 131 -40
t149 -42q6 68 -16.5 153.5t-22.5 125.5q0 65 38.5 107t105.5 42q42 0 63 -29.5t21 -70.5q0 -46 -19.5 -88.5t-44.5 -71.5t-51.5 -74.5t-36.5 -93.5q58 4 155 43t144 39q36 0 63 -20.5t27 -55.5q0 -54 -36.5 -81t-86.5 -27q-40 0 -129.5 33t-142.5 36v-14q0 -58 20.5 -134.5
t47.5 -117.5z" />
    <glyph glyph-name="daggerdbl" unicode="&#x2021;" horiz-adv-x="1026" 
d="M680 788l-2 -12q-77 -77 -137 -174q29 -98 75 -168l-2 -12q-39 -40 -61 -65t-49 -65.5t-41 -78.5q54 3 156 37.5t143 34.5q90 0 90 -84q0 -48 -36.5 -74.5t-86.5 -26.5q-42 0 -128 40t-146 42q-2 -14 -2 -41q0 -44 18 -119t18 -118q0 -57 -37 -103.5t-98 -46.5
q-47 0 -68.5 28t-21.5 71q0 46 19.5 88t44 71t51 75t37.5 95q-58 -4 -152 -43t-141 -39q-37 0 -66.5 20.5t-29.5 55.5q0 55 36.5 82t86.5 27q40 0 129 -34.5t143 -37.5q0 85 -78 207l2 12q94 90 137 172q-13 71 -75 172l2 12q112 98 151 207q-54 -3 -152 -37t-139 -34
t-69.5 18t-28.5 53q0 56 35 83.5t86 27.5q42 0 129 -39t147 -41q4 73 -16.5 154t-20.5 120q0 65 39 109.5t105 44.5q42 0 63 -29.5t21 -70.5q0 -46 -19.5 -88.5t-44.5 -71.5t-51.5 -74.5t-36.5 -93.5q58 4 155 42t144 38q37 0 63.5 -20.5t26.5 -59.5q0 -54 -36 -78t-87 -24
q-40 0 -129 34t-143 37q0 -95 78 -207z" />
    <glyph glyph-name="bullet" unicode="&#x2022;" horiz-adv-x="702" 
d="M387 874q88 0 139.5 -44.5t51.5 -129.5q0 -117 -75.5 -192.5t-189.5 -75.5q-98 0 -143 52t-45 128q0 114 75.5 188t186.5 74z" />
    <glyph glyph-name="ellipsis" unicode="&#x2026;" horiz-adv-x="1554" 
d="M180 274q59 0 93 -29.5t34 -86.5q0 -78 -52 -128t-124 -50q-65 0 -95 34.5t-30 85.5q0 77 51 125.5t123 48.5zM723 274q59 0 93 -29.5t34 -86.5q0 -78 -52 -128t-124 -50q-65 0 -95 34.5t-30 85.5q0 77 51 125.5t123 48.5zM1266 274q59 0 93 -29.5t34 -86.5
q0 -78 -52 -128t-124 -50q-65 0 -95 34.5t-30 85.5q0 77 51 125.5t123 48.5z" />
    <glyph glyph-name="perthousand" unicode="&#x2030;" horiz-adv-x="2109" 
d="M1327 223q0 174 101.5 283.5t269.5 109.5q113 0 180.5 -59.5t67.5 -185.5q0 -97 -33 -175t-86.5 -124t-116.5 -70.5t-127 -24.5q-129 0 -192.5 66t-63.5 180zM1688 573q-64 0 -109.5 -38.5t-67.5 -101.5t-31.5 -123.5t-9.5 -123.5q0 -166 119 -166q96 0 154.5 96
t58.5 292q0 86 -27.5 125.5t-86.5 39.5zM627 223q0 174 101 283.5t269 109.5q113 0 180.5 -59.5t67.5 -185.5q0 -97 -33 -175t-86.5 -124t-116 -70.5t-126.5 -24.5q-129 0 -192.5 66t-63.5 180zM987 573q-52 0 -91.5 -26.5t-62.5 -67t-38 -94.5t-20 -102t-5 -97
q0 -166 119 -166q96 0 154.5 96t58.5 292q0 86 -28 125.5t-87 39.5zM190 1063q0 174 101.5 283.5t269.5 109.5q113 0 180.5 -60t67.5 -186q0 -97 -33 -174.5t-86.5 -124t-116 -70.5t-127.5 -24q-129 0 -192.5 66t-63.5 180zM551 1413q-52 0 -91.5 -26.5t-62.5 -67t-38 -94.5
t-20 -102t-5 -97q0 -166 119 -166q97 0 155 95.5t58 291.5q0 86 -28 126t-87 40zM72 0l1175 1434h88l-1173 -1434h-90z" />
    <glyph glyph-name="guilsinglleft" unicode="&#x2039;" horiz-adv-x="647" 
d="M109 526l411 293l27 -28l-295 -328l182 -340l-31 -23l-282 279q-43 43 -43 80q0 14 5 26.5t9.5 18.5z" />
    <glyph glyph-name="guilsinglright" unicode="&#x203a;" horiz-adv-x="649" 
d="M496 393l-412 -293l-27 29l295 332l-182 336l31 22l282 -278q43 -43 43 -80q0 -30 -30 -68z" />
    <glyph glyph-name="fraction" unicode="&#x2044;" horiz-adv-x="409" 
d="M-420 -23l1135 1479h86l-1133 -1479h-88z" />
    <glyph glyph-name="zerosuperior" unicode="&#x2070;" horiz-adv-x="737" 
d="M123 1114q0 74 13.5 150t45.5 151.5t78.5 134t117.5 95t157 36.5q121 0 191.5 -75t70.5 -238q0 -76 -13.5 -152t-45 -153t-77.5 -135.5t-117.5 -95.5t-158.5 -37q-129 0 -195.5 86.5t-66.5 232.5zM526 1624q-53 0 -94.5 -32t-66.5 -87.5t-42 -116.5t-24.5 -134.5
t-10.5 -124.5t-3 -103q0 -172 112 -172q60 0 105.5 45.5t70.5 110.5t40 150.5t19.5 150t4.5 125.5q0 33 -1 51.5t-6.5 48.5t-16.5 46t-33 29t-54 13z" />
    <glyph glyph-name="foursuperior" unicode="&#x2074;" horiz-adv-x="708" 
d="M588 860h114l-10 -53h-397l8 53h127l29 158h-363l13 63q210 207 298.5 327t88.5 185q0 35 -15 62l39 31q65 0 104.5 -25.5t39.5 -75.5q0 -30 -10.5 -56t-44.5 -67t-99 -98.5t-174 -144.5l-176 -142h307l35 207l168 43l-43 -250h112l-10 -59h-115z" />
    <glyph glyph-name="fivesuperior" unicode="&#x2075;" horiz-adv-x="661" 
d="M285 850q102 0 162.5 73.5t60.5 204.5q0 77 -26.5 113.5t-84.5 36.5q-85 0 -170 -57l-30 16l110 428l25 6q112 -41 231 -41q66 0 103.5 20t54.5 70l27 -4q-24 -221 -269 -221q-79 0 -149 25l-70 -232q86 53 209 53q106 0 159.5 -51t53.5 -137q0 -163 -115.5 -261.5
t-281.5 -98.5q-90 0 -145.5 44.5t-55.5 112.5q0 53 29 86t82 33q39 0 58 -20.5t18 -47.5t-15 -57h-47q-28 -41 -5 -67.5t81 -26.5z" />
    <glyph glyph-name="sixsuperior" unicode="&#x2076;" horiz-adv-x="688" 
d="M588 1626q-199 0 -277 -377q34 44 91 73.5t120 29.5q88 0 142.5 -51.5t54.5 -151.5q0 -161 -98.5 -258.5t-247.5 -97.5q-112 0 -175 68.5t-63 209.5q0 78 15.5 159.5t50.5 163t85.5 145t127 103t168.5 39.5q81 0 127.5 -40.5t46.5 -108.5q0 -35 -23.5 -67.5t-66.5 -32.5
q-52 0 -70.5 35.5t2.5 78.5l43 2q20 37 5 57.5t-58 20.5zM473 1288q-91 0 -142.5 -81.5t-51.5 -209.5q0 -147 102 -147q83 0 133.5 80.5t50.5 230.5q0 127 -92 127z" />
    <glyph glyph-name="sevensuperior" unicode="&#x2077;" horiz-adv-x="614" 
d="M639 1231h-164q-106 -191 -106 -291q0 -60 30 -106l-28 -37q-73 -4 -118.5 28t-45.5 88q0 58 34 117t144 201h-160l15 51h176q23 28 96.5 124t105.5 132h-305q-54 0 -72 -16t-44 -80l-31 2l59 239l19 7q33 -23 125 -23h383l6 -22q-44 -45 -123 -156.5t-135 -206.5h153z
" />
    <glyph glyph-name="eightsuperior" unicode="&#x2078;" horiz-adv-x="694" 
d="M393 1262q-87 7 -137.5 54.5t-50.5 121.5q0 106 87.5 174.5t225.5 68.5q113 0 177.5 -48t64.5 -138q0 -92 -71 -157.5t-183 -75.5v-5q209 -20 209 -190q0 -127 -97.5 -200.5t-246.5 -73.5q-125 0 -196 53.5t-71 154.5q0 103 78 175t209 81q0 1 1 2.5t1 2.5zM553 1085
q0 35 -7 64.5t-31.5 54.5t-65.5 25q-81 0 -131 -70.5t-50 -167.5q0 -141 111 -141q80 0 127 61t47 174zM510 1626q-72 0 -110 -57t-38 -150q0 -65 24 -99t69 -34q64 0 105.5 53.5t41.5 149.5q0 27 -3 47t-11.5 42.5t-28 35t-49.5 12.5z" />
    <glyph glyph-name="ninesuperior" unicode="&#x2079;" horiz-adv-x="690" 
d="M295 850q195 0 262 364q-33 -42 -88 -66t-117 -24q-88 0 -145 54t-57 161q0 158 94.5 250t244.5 92q242 0 242 -301q0 -68 -13.5 -143t-46.5 -155.5t-81 -143.5t-125.5 -104t-171.5 -41q-91 0 -137.5 45.5t-46.5 107.5q0 55 30.5 86t77.5 31q37 0 58 -20.5t20.5 -48
t-12.5 -54.5h-43q-31 -31 -15 -60.5t70 -29.5zM401 1186q61 0 104.5 41t63 104.5t19.5 143.5q0 151 -103 151q-83 0 -131.5 -76.5t-48.5 -197.5q0 -26 1 -44t6.5 -43t15 -40.5t28.5 -27t45 -11.5z" />
    <glyph glyph-name="zeroinferior" unicode="&#x2080;" horiz-adv-x="737" 
d="M-59 31q0 74 13.5 149.5t45.5 151.5t78 134.5t117 95t157 36.5q121 0 191.5 -75t70.5 -238q0 -76 -13 -152.5t-44.5 -153t-77.5 -135.5t-117.5 -96t-158.5 -37q-129 0 -195.5 86.5t-66.5 233.5zM344 541q-63 0 -110 -47.5t-71 -113.5t-39 -156t-18.5 -153.5t-3.5 -127.5
q0 -172 113 -172q50 0 90.5 31t65.5 83.5t43 113t26 130t11.5 122t3.5 101.5q0 33 -1 51.5t-6.5 48.5t-16.5 46.5t-33 29.5t-54 13z" />
    <glyph glyph-name="oneinferior" unicode="&#x2081;" horiz-adv-x="550" 
d="M74 -223l108 667q-45 -6 -95.5 -1t-86.5 14l10 43q93 -7 169 19.5t120 78.5h66l-134 -821h123l-10 -53h-420l10 53h140z" />
    <glyph glyph-name="twoinferior" unicode="&#x2082;" horiz-adv-x="649" 
d="M285 598q122 0 180.5 -54.5t58.5 -137.5q0 -57 -20.5 -105.5t-80 -108t-99.5 -92t-146 -113.5q-20 -16 -31 -24l-139 -106h225q103 0 141.5 22.5t65.5 93.5h29l-47 -249h-535l17 96l194 186q141 134 194.5 225t53.5 179q0 62 -31 97.5t-96 35.5q-46 0 -79 -29t-19 -72h45
q17 -53 -10 -90t-82 -37q-39 0 -60.5 25t-21.5 66q0 89 87.5 140.5t205.5 51.5z" />
    <glyph glyph-name="threeinferior" unicode="&#x2083;" horiz-adv-x="684" 
d="M301 598q107 0 163 -44.5t56 -117.5q0 -44 -19.5 -79t-60.5 -63.5t-86.5 -49t-115.5 -45.5q0 -1 1 -3t1 -3q51 10 99.5 3.5t87 -24.5t62 -58t23.5 -98q0 -90 -58.5 -162t-147.5 -108.5t-187 -36.5q-96 0 -152.5 44.5t-56.5 115.5q0 51 29.5 83t78.5 32q40 0 61 -21
t19 -49.5t-14 -56.5h-49q-25 -40 -3 -65t79 -25q103 0 166 59.5t63 181.5q0 142 -115 142q-55 0 -131 -27l-12 51q64 20 108.5 40.5t84 50.5t59.5 70.5t20 92.5q0 62 -28 88.5t-84 26.5q-51 0 -80 -23.5t-8 -58.5h32q13 -55 -11.5 -88t-80.5 -33q-36 0 -57 23t-21 59
q0 82 81.5 129t203.5 47z" />
    <glyph glyph-name="fourinferior" unicode="&#x2084;" horiz-adv-x="708" 
d="M414 -223h114l-10 -53h-397l8 53h127l29 157h-363l12 64q210 207 299 327.5t89 184.5q0 34 -15 61l39 31q65 0 104 -25t39 -75q0 -41 -20.5 -77.5t-92 -106t-214.5 -183.5l-176 -141h307l35 207l168 43l-43 -250h112l-10 -60h-115z" />
    <glyph glyph-name="fiveinferior" unicode="&#x2085;" horiz-adv-x="661" 
d="M109 -233q102 0 162.5 73.5t60.5 204.5q0 77 -26.5 113.5t-84.5 36.5q-84 0 -170 -58l-31 17l111 428l25 6q112 -41 231 -41q66 0 103.5 20t54.5 70l26 -4q-24 -221 -268 -221q-82 0 -149 24l-70 -231q86 53 209 53q106 0 159.5 -51t53.5 -137q0 -163 -115.5 -262
t-281.5 -99q-90 0 -145.5 45t-55.5 113q0 53 29 86t81 33q40 0 58.5 -20.5t17.5 -47.5t-14 -57h-47q-28 -41 -5 -67.5t81 -26.5z" />
    <glyph glyph-name="sixinferior" unicode="&#x2086;" horiz-adv-x="688" 
d="M408 543q-199 0 -277 -377q34 44 91 73t120 29q88 0 142.5 -51t54.5 -151q0 -161 -98.5 -259t-247.5 -98q-112 0 -175 69t-63 210q0 78 15.5 159.5t50.5 163t85 145t126.5 103t168.5 39.5q81 0 127.5 -40.5t46.5 -108.5q0 -35 -23.5 -68t-66.5 -33q-52 0 -70 36t3 79
l43 2q20 37 5 57.5t-58 20.5zM293 205q-91 0 -143 -81.5t-52 -209.5q0 -147 103 -147q83 0 133.5 80.5t50.5 230.5q0 127 -92 127z" />
    <glyph glyph-name="seveninferior" unicode="&#x2087;" horiz-adv-x="614" 
d="M459 147h-164q-58 -104 -82.5 -170.5t-24.5 -119.5q0 -59 31 -107l-29 -37q-73 -4 -118 28.5t-45 88.5q0 57 34 115.5t144 201.5h-160l14 52h177q23 28 96.5 124t105.5 132h-305q-54 0 -72.5 -16.5t-44.5 -80.5l-30 2l59 240l18 6q31 -22 125 -22h383l7 -23
q-44 -46 -124 -157t-135 -205h154z" />
    <glyph glyph-name="eightinferior" unicode="&#x2088;" horiz-adv-x="694" 
d="M205 178q-88 7 -138.5 54.5t-50.5 121.5q0 106 88 175t226 69q113 0 177 -47.5t64 -138.5q0 -92 -71 -158t-183 -76v-4q209 -20 209 -190q0 -127 -97.5 -201t-246.5 -74q-125 0 -195.5 54t-70.5 155q0 103 78 175t209 81q0 1 1 2t1 2zM365 2q0 35 -7 64t-32 54t-66 25
q-81 0 -130.5 -70t-49.5 -167q0 -141 110 -141q80 0 127.5 61t47.5 174zM322 543q-72 0 -110 -57t-38 -150q0 -133 92 -133q64 0 106 53.5t42 149.5q0 27 -3 47t-11.5 42.5t-28 35t-49.5 12.5z" />
    <glyph glyph-name="nineinferior" unicode="&#x2089;" horiz-adv-x="690" 
d="M119 -233q195 0 262 364q-33 -42 -88 -66t-117 -24q-88 0 -145.5 54t-57.5 161q0 158 95 250t245 92q242 0 242 -301q0 -68 -13.5 -143t-46.5 -155.5t-81 -144t-125.5 -104.5t-171.5 -41q-91 0 -138 46t-47 108q0 55 30.5 86t78.5 31q37 0 57.5 -20.5t20 -48t-12.5 -54.5
h-43q-31 -31 -14.5 -60.5t70.5 -29.5zM225 102q61 0 104.5 41t63 104.5t19.5 143.5q0 152 -103 152q-83 0 -131.5 -77t-48.5 -198q0 -26 1 -44t6.5 -43t15 -40.5t28.5 -27t45 -11.5z" />
    <glyph glyph-name="Euro" unicode="&#x20ac;" horiz-adv-x="1255" 
d="M895 1399q-160 0 -268 -137t-164 -383h459l-17 -68h-456q-9 -55 -23 -162h412l-17 -67h-401q-1 -49 0.5 -90t8 -99.5t18 -104.5t33.5 -95t53 -81.5t78 -53.5t106 -21q97 0 151.5 42t36.5 124h-63q-21 84 15.5 138t111.5 54q61 0 91 -36.5t30 -92.5q0 -62 -25.5 -112.5
t-66 -82.5t-92 -54t-101.5 -31t-98 -9q-252 0 -378 154t-126 451h-144l15 67h131q8 98 22 162h-139l16 68h136q33 120 86 220t129.5 182t184.5 128.5t237 46.5q149 0 237 -71.5t88 -174.5q0 -74 -38.5 -121t-110.5 -47q-48 0 -79.5 24t-31.5 67q0 54 31 96h67
q26 69 -13.5 119.5t-131.5 50.5z" />
    <glyph glyph-name="afii61352" unicode="&#x2116;" horiz-adv-x="2064" 
d="M1403 1092l-197 -1106h-63l-502 1233l-158 -889q-62 -350 -315 -350q-85 0 -142 38t-57 115q0 94 49.5 144.5t114.5 50.5q51 0 81 -25.5t30 -71.5q0 -34 -23 -88h-84q-18 -35 -18 -61q0 -43 71 -43q49 0 87 21.5t64 64t43 95t30 124.5l168 952l-37 78h-123l10 60h367
l407 -1047l127 719q10 55 22.5 100t36.5 93.5t56 81t81.5 54t110.5 21.5q87 0 148 -42.5t61 -129.5q0 -83 -50.5 -129.5t-115.5 -46.5q-50 0 -80 24.5t-30 69.5q0 38 22 90h84q19 34 19 60q0 45 -72 45q-96 0 -146.5 -78t-76.5 -227zM1430 571q0 83 25 159t70 136t116 95.5
t157 35.5q105 0 171.5 -57.5t66.5 -179.5q0 -102 -31.5 -185.5t-83.5 -135.5t-116.5 -79.5t-133.5 -27.5q-118 0 -179.5 62t-61.5 177zM1788 952q-61 0 -106 -46.5t-67.5 -118t-33 -138.5t-10.5 -127q0 -80 28 -114.5t84 -34.5q48 0 86.5 32t61 80t37 109.5t19.5 114
t5 100.5q0 78 -26 110.5t-78 32.5zM1401 180l12 66h492l-13 -66h-491z" />
    <glyph glyph-name="trademark" unicode="&#x2122;" horiz-adv-x="1912" 
d="M827 1327l11 -233h-33q-12 64 -28.5 103.5t-44 60t-59 27.5t-83.5 7h-15v-680h105v-43h-348v43h106v680h-14q-51 0 -83.5 -7t-59.5 -28t-43.5 -60t-28.5 -103h-35l12 233h641zM1569 1327h262v-41h-82v-678h82v-39h-301v39h80v676l-236 -715h-55l-287 701v-662h74v-39
h-203v39h70v678h-70v41h262l217 -557z" />
    <glyph glyph-name="Omega" unicode="&#x2126;" horiz-adv-x="1712" 
d="M836 0l20 133q85 79 138.5 136t113 138.5t93 160.5t55.5 186.5t22 232.5q0 80 -13.5 147t-45.5 128t-94.5 96t-151.5 35q-95 0 -174.5 -31.5t-134.5 -87t-96 -125.5t-64.5 -152t-35 -161.5t-11.5 -159.5q0 -300 157 -541l-20 -135h-565l45 426h53q2 -87 17 -139t52 -84.5
t93 -44t149 -11.5h113q-149 98 -233.5 238.5t-84.5 298.5q0 165 58.5 309.5t160 245.5t242 159t299.5 58q100 0 183.5 -29t142 -79.5t99 -119t60 -147.5t19.5 -166q0 -94 -24 -182.5t-58 -155t-88.5 -131.5t-99 -106t-107 -85t-93.5 -63t-77 -45h115q180 0 260.5 55.5
t140.5 223.5h52l-93 -426h-589z" />
    <glyph glyph-name="onethird" unicode="&#x2153;" horiz-adv-x="1843" 
d="M289 639l108 668q-44 -7 -95.5 -1.5t-86.5 13.5l10 43q93 -7 169 19.5t120 78.5h66l-134 -821h123l-10 -53h-420l11 53h139zM285 -23l1134 1479h86l-1132 -1479h-88zM1475 862q107 0 163 -44.5t56 -117.5q0 -44 -19.5 -79t-61 -63.5t-87 -49t-115.5 -45.5q0 -1 1 -3t1 -3
q51 10 100 3.5t87.5 -24t62 -57.5t23.5 -98q0 -90 -58.5 -162t-148 -109t-187.5 -37q-96 0 -152.5 44.5t-56.5 115.5q0 51 30 83t79 32q40 0 61 -21t18.5 -49.5t-14.5 -56.5h-49q-25 -40 -3 -65t79 -25q103 0 166 59.5t63 181.5q0 142 -114 142q-55 0 -131 -27l-13 51
q64 20 108.5 40.5t84.5 50.5t60 70.5t20 92.5q0 62 -28.5 88.5t-84.5 26.5q-51 0 -80 -23.5t-8 -58.5h33q13 -55 -11.5 -88t-80.5 -33q-36 0 -57 23t-21 59q0 82 81.5 129t203.5 47z" />
    <glyph glyph-name="twothirds" unicode="&#x2154;" horiz-adv-x="1843" 
d="M522 1460q122 0 181 -54.5t59 -137.5q0 -57 -20.5 -105.5t-80 -108t-99.5 -92t-146 -113.5q-7 -6 -10.5 -8.5t-9.5 -7t-11 -8.5l-139 -106h225q103 0 141.5 23t65.5 94h29l-48 -250h-534l16 96l195 186q141 134 194.5 225t53.5 179q0 62 -31 97.5t-96 35.5
q-46 0 -79.5 -28.5t-19.5 -71.5h45q17 -53 -10 -90t-82 -37q-39 0 -60.5 24.5t-21.5 65.5q0 89 87.5 140.5t205.5 51.5zM344 -23l1135 1479h86l-1133 -1479h-88zM1534 862q107 0 163 -44.5t56 -117.5q0 -44 -19.5 -79t-61 -63.5t-87 -49t-115.5 -45.5q0 -1 1.5 -3t1.5 -3
q51 10 99.5 3.5t87 -24t62 -57.5t23.5 -98q0 -90 -58.5 -162t-147.5 -109t-187 -37q-96 0 -152.5 44.5t-56.5 115.5q0 51 29.5 83t78.5 32q40 0 61 -21t19 -49.5t-14 -56.5h-49q-25 -40 -3 -65t78 -25q103 0 166.5 60t63.5 181q0 142 -115 142q-55 0 -131 -27l-12 51
q64 20 108.5 40.5t84 50.5t59.5 70.5t20 92.5q0 62 -28 88.5t-84 26.5q-51 0 -80.5 -23.5t-8.5 -58.5h33q13 -55 -11.5 -88t-80.5 -33q-36 0 -57 23t-21 59q0 82 81.5 129t203.5 47z" />
    <glyph glyph-name="oneeighth" unicode="&#x215b;" horiz-adv-x="1843" 
d="M332 639l108 668q-44 -7 -95.5 -1.5t-86.5 13.5l10 43q93 -7 169 19.5t120 78.5h66l-134 -821h123l-10 -53h-420l11 53h139zM289 -23l1134 1479h86l-1132 -1479h-88zM1352 442q-88 7 -138.5 54.5t-50.5 121.5q0 106 88 175t226 69q113 0 177 -47.5t64 -138.5
q0 -92 -71 -158t-183 -76v-4q209 -20 209 -190q0 -127 -97.5 -201t-246.5 -74q-125 0 -195.5 54t-70.5 155q0 103 78 175t209 81q0 1 1 2t1 2zM1511 266q0 35 -7 64.5t-31.5 54.5t-65.5 25q-81 0 -130.5 -70.5t-49.5 -167.5q0 -141 110 -141q80 0 127 61t47 174zM1468 807
q-72 0 -109.5 -57t-37.5 -150q0 -133 92 -133q64 0 106 53.5t42 149.5q0 137 -93 137z" />
    <glyph glyph-name="threeeighths" unicode="&#x215c;" horiz-adv-x="1843" 
d="M559 1460q107 0 163 -44.5t56 -117.5q0 -44 -19.5 -79t-60.5 -63.5t-86.5 -49t-115.5 -45.5q0 -1 1 -3t1 -3q51 10 99.5 3.5t87 -24t62 -57.5t23.5 -98q0 -90 -58.5 -162t-147.5 -109t-187 -37q-96 0 -152.5 44.5t-56.5 115.5q0 51 29.5 83t78.5 32q40 0 61 -21t19 -49.5
t-14 -56.5h-49q-25 -40 -3 -65t79 -25q103 0 166 59.5t63 181.5q0 142 -115 142q-55 0 -131 -27l-12 51q64 20 108.5 40.5t84 50.5t59.5 70.5t20 92.5q0 62 -28 88.5t-84 26.5q-51 0 -80 -23.5t-8 -58.5h32q13 -55 -11.5 -88t-80.5 -33q-36 0 -57 23t-21 59q0 82 81.5 129
t203.5 47zM319 -23l1135 1479h86l-1132 -1479h-89zM1376 442q-87 7 -137.5 54.5t-50.5 121.5q0 106 88 175t225 69q113 0 177.5 -48t64.5 -138q0 -92 -71 -158t-183 -76v-4q209 -20 209 -190q0 -127 -97.5 -201t-246.5 -74q-125 0 -196 54t-71 155q0 103 78 175t209 81
q0 1 1 2t1 2zM1536 266q0 35 -7 64.5t-31.5 54.5t-65.5 25q-81 0 -131 -70.5t-50 -167.5q0 -141 111 -141q80 0 127 61t47 174zM1493 807q-72 0 -109.5 -57t-37.5 -150q0 -133 92 -133q64 0 105.5 53.5t41.5 149.5q0 27 -3 47t-11.5 42.5t-28 35t-49.5 12.5z" />
    <glyph glyph-name="fiveeighths" unicode="&#x215d;" horiz-adv-x="1843" 
d="M301 629q102 0 162.5 73.5t60.5 204.5q0 77 -26 113.5t-84 36.5q-84 0 -170 -58l-31 17l111 428l24 6q112 -41 232 -41q66 0 103 19.5t54 70.5l27 -4q-24 -221 -268 -221q-83 0 -150 24l-70 -231q86 53 209 53q106 0 159.5 -51t53.5 -137q0 -163 -115.5 -262t-281.5 -99
q-90 0 -145.5 45t-55.5 113q0 53 29 86t82 33q39 0 58 -20.5t18 -47.5t-15 -57h-47q-28 -41 -5 -67.5t81 -26.5zM274 -23l1135 1479h86l-1133 -1479h-88zM1364 442q-87 7 -137.5 54.5t-50.5 121.5q0 106 88 175t225 69q113 0 177.5 -48t64.5 -138q0 -92 -71 -158t-183 -76
v-4q209 -20 209 -190q0 -127 -98 -201t-247 -74q-125 0 -195.5 54t-70.5 155q0 103 78 175t209 81q0 1 1 2t1 2zM1524 266q0 35 -7 64.5t-32 54.5t-66 25q-81 0 -130.5 -70.5t-49.5 -167.5q0 -141 111 -141q80 0 127 61t47 174zM1481 807q-72 0 -110 -57t-38 -150
q0 -133 92 -133q64 0 106 53.5t42 149.5q0 27 -3 47t-11.5 42.5t-28 35t-49.5 12.5z" />
    <glyph glyph-name="seveneighths" unicode="&#x215e;" horiz-adv-x="1843" 
d="M717 1010h-164q-57 -104 -82 -170.5t-25 -120.5q0 -59 31 -107l-28 -37q-73 -4 -118.5 28.5t-45.5 88.5q0 58 34 117t144 201h-160l14 51h177q23 28 96.5 124t105.5 132h-305q-54 0 -72.5 -16t-44.5 -80l-30 2l59 239l19 6q31 -22 124 -22h383l7 -23q-44 -45 -123 -156.5
t-135 -205.5h153zM238 -23l1134 1479h86l-1132 -1479h-88zM1374 442q-87 7 -137.5 54.5t-50.5 121.5q0 106 88 175t225 69q113 0 177.5 -48t64.5 -138q0 -92 -71 -158t-183 -76v-4q209 -20 209 -190q0 -127 -97.5 -201t-246.5 -74q-125 0 -196 54t-71 155q0 103 78 175
t209 81q0 1 1 2t1 2zM1534 266q0 35 -7 64.5t-31.5 54.5t-65.5 25q-81 0 -131 -70.5t-50 -167.5q0 -141 111 -141q80 0 127 61t47 174zM1491 807q-72 0 -110 -57t-38 -150q0 -65 24 -99t69 -34q64 0 105.5 53.5t41.5 149.5q0 27 -3 47t-11.5 42.5t-28 35t-49.5 12.5z" />
    <glyph glyph-name="partialdiff" unicode="&#x2202;" horiz-adv-x="1044" 
d="M487 750q-74 0 -128.5 -40.5t-83.5 -107t-42.5 -136.5t-13.5 -144q0 -281 166 -281q75 0 134.5 40t93 104.5t50.5 137.5t17 148q0 131 -49 205t-144 74zM485 1317q-70 0 -109.5 -33.5t-23.5 -103.5l60 -15q2 -70 -29 -109.5t-94 -39.5q-46 0 -76.5 31t-30.5 88
q0 56 24 99.5t60 69t84 42t90 22.5t84 6q187 0 291.5 -142.5t104.5 -428.5q0 -81 -7.5 -159t-25.5 -161t-45 -155.5t-70.5 -138t-98 -112t-130 -73.5t-164.5 -27q-175 0 -263.5 97t-88.5 268q0 211 119 350t311 139q189 0 260 -180q24 178 24 264q0 402 -256 402z" />
    <glyph glyph-name="Delta" unicode="&#x2206;" horiz-adv-x="1189" 
d="M1022 0h-1102l785 1466h51zM608 1159l-565 -1065h737z" />
    <glyph glyph-name="product" unicode="&#x220f;" horiz-adv-x="1492" 
d="M197 1434h1321l-13 -60h-153l-285 -1624h154l-13 -59h-512l13 59h153l285 1624h-604l-285 -1624h154l-13 -59h-510l13 59h151l285 1624h-154z" />
    <glyph glyph-name="summation" unicode="&#x2211;" horiz-adv-x="1138" 
d="M924 -309h-1039l-10 37l645 778l-364 899l24 29h981l-53 -385h-51q-1 104 -15 166t-52 98.5t-93.5 48.5t-151.5 12h-333l301 -747l-637 -764h420q151 0 239.5 31t141 97t98.5 195h51z" />
    <glyph glyph-name="minus" unicode="&#x2212;" 
d="M1014 610h-930l12 74h930z" />
    <glyph glyph-name="uni2215" unicode="&#x2215;" horiz-adv-x="409" 
d="M-285 -20l889 1476h86l-887 -1476h-88z" />
    <glyph glyph-name="uni2219" unicode="&#x2219;" horiz-adv-x="555" 
d="M123 653q0 64 39 106t108 42q68 0 109 -37t41 -109q0 -68 -39 -108.5t-109 -40.5q-78 0 -113.5 42.5t-35.5 104.5z" />
    <glyph glyph-name="radical" unicode="&#x221a;" horiz-adv-x="1120" 
d="M1223 1524l-613 -1524h-143l-227 774l-158 -67l-14 59l358 162l197 -731l538 1341z" />
    <glyph glyph-name="infinity" unicode="&#x221e;" horiz-adv-x="1318" 
d="M1217 504q0 -124 -73 -193t-173 -69q-86 0 -166.5 41.5t-173.5 132.5q-139 -174 -295 -174q-106 0 -170 67.5t-64 177.5q0 65 24.5 118t64.5 84.5t87.5 48t96.5 16.5q70 0 142 -36.5t167 -129.5q133 153 297 153q104 0 170 -61.5t66 -175.5zM1135 508q0 70 -42 120
t-120 50q-62 0 -129.5 -35t-122.5 -100q95 -102 145 -138t117 -36t109.5 34.5t42.5 104.5zM350 305q124 0 242 154q-104 97 -154.5 132.5t-103.5 35.5q-66 0 -112 -42t-46 -112q0 -74 49 -121t125 -47z" />
    <glyph glyph-name="integral" unicode="&#x222b;" horiz-adv-x="874" 
d="M195 -383q83 0 138.5 82.5t55.5 222.5q0 62 -8 142t-17 141.5t-25 162t-24 158.5q-41 284 -41 471q0 155 43 256q46 111 133 181.5t214 70.5q103 0 164 -51t61 -137q0 -67 -31.5 -109.5t-93.5 -42.5q-49 0 -79 30.5t-30 76.5q0 19 7 47l57 6q10 27 10 47q0 41 -23.5 62.5
t-62.5 21.5q-211 -3 -203 -285q2 -66 30 -252t38 -272q4 -42 18.5 -159.5t23.5 -218t9 -179.5q0 -164 -39 -264q-43 -110 -133.5 -184t-212.5 -74q-103 0 -164 51t-61 137q0 67 31.5 109.5t93.5 42.5q49 0 78.5 -30t29.5 -77q0 -23 -6 -47l-57 -6q-10 -27 -10 -47
q0 -41 23.5 -62.5t62.5 -21.5z" />
    </font>
</defs>
</svg>
