<?xml version="1.0" standalone="no"?>
<!DOCTYPE svg PUBLIC "-//W3C//DTD SVG 1.1//EN" "http://www.w3.org/Graphics/SVG/1.1/DTD/svg11.dtd" >
<svg xmlns="http://www.w3.org/2000/svg" xmlns:xlink="http://www.w3.org/1999/xlink" version="1.1">
<metadata>
Created by FontForge 20170731 at Wed Feb 17 08:57:47 2021
 By Aleksey,,,
Copyright (c) 2011 by TypeTogether. All rights reserved.
</metadata>
<defs>
<font id="AbrilDisplay-Regular" horiz-adv-x="1126" >
  <font-face 
    font-family="Abril Display"
    font-weight="400"
    font-stretch="normal"
    units-per-em="2048"
    panose-1="2 0 5 3 0 0 0 2 0 3"
    ascent="1536"
    descent="-512"
    x-height="975"
    cap-height="1434"
    bbox="-444 -944 2826 2122"
    underline-thickness="102"
    underline-position="-307"
    unicode-range="U+0020-FB06"
  />
<missing-glyph horiz-adv-x="409" 
 />
    <glyph glyph-name="ij" unicode="ij" horiz-adv-x="1210" 
d="M170 1311q0 52 32.5 86.5t90.5 34.5q57 0 91 -29.5t34 -91.5q0 -57 -32 -91t-91 -34q-65 0 -95 36.5t-30 88.5zM57 975h351v-922h155v-53h-506v53h154v869h-154v53zM1006 975v-901q0 -91 -12 -174t-40 -159t-69 -131.5t-103 -88.5t-139 -33q-56 0 -96 16t-60 43.5t-29 57
t-9 63.5q0 67 34.5 105.5t87.5 38.5q45 0 73 -25.5t28 -77.5q0 -27 -13 -74h-59q-6 -18 -6 -36q0 -60 80 -60q32 0 55 10t37.5 34t23.5 49t13 70.5t5 83t1 99.5v1037h-154v53h351zM760 1309q0 54 32.5 88.5t92.5 34.5q56 0 89.5 -29.5t33.5 -91.5q0 -57 -32.5 -91t-92.5 -34
q-62 0 -92.5 36.5t-30.5 86.5z" />
    <glyph glyph-name="ff" unicode="ff" horiz-adv-x="1345" 
d="M1325 975v-53h-250v-869h246v-53h-596v53h154v869h-478v-869h185v-53h-535v53h154v869h-160v53h160v72q0 228 113.5 358.5t322.5 130.5q111 0 189 -49.5t85 -138.5q85 235 351 235q113 0 188.5 -56.5t75.5 -156.5q0 -63 -31 -100t-86 -37t-87 28.5t-32 81.5q0 28 13 72
h55q28 119 -111 119q-45 0 -78 -16t-51.5 -41t-29.5 -64.5t-14 -76.5t-3 -87v-274h250zM401 1202v-227h478v119q0 87 10 143q-30 -37 -88 -37q-55 0 -87 29t-32 82q0 17 12 57h56q13 56 -22.5 87.5t-109.5 31.5q-112 0 -164.5 -77t-52.5 -208z" />
    <glyph glyph-name="fi" unicode="fi" horiz-adv-x="1269" 
d="M401 975h672v-922h156v-53h-504v53h154v869h-478v-869h201v-53h-553v53h156v869h-162v53h162v92q0 243 134 379.5t370 136.5q138 0 230.5 -65.5t92.5 -184.5q0 -70 -36.5 -110.5t-106.5 -40.5q-65 0 -99 37.5t-34 101.5q0 25 2 37l80 10q10 29 10 62q0 106 -156 106
q-151 0 -221 -95t-70 -263v-203z" />
    <glyph glyph-name="fl" unicode="fl" horiz-adv-x="1277" 
d="M651 975v-53h-250v-869h226v-53h-576v53h154v869h-160v53h160v119q0 226 115 357.5t319 131.5q179 0 240 -125l194 78v-1483h154v-53h-504v53h154v1118l12 150q-12 -37 -40.5 -57.5t-68.5 -20.5q-55 0 -86.5 29t-31.5 82q0 30 12 71h55q21 50 -4 79.5t-92 29.5
q-118 0 -175 -76.5t-57 -208.5v-274h250z" />
    <glyph glyph-name="ffi" unicode="ffi" horiz-adv-x="1943" 
d="M1073 975h674v-922h156v-53h-504v53h153v869h-479v-869h223v-53h-575v53h156v869h-476v-869h185v-53h-535v53h154v869h-160v53h160v72q0 227 117 358t327 131q118 0 197.5 -55t79.5 -152v-8q57 127 173.5 194.5t280.5 67.5q138 0 231 -65.5t93 -184.5q0 -70 -36.5 -110.5
t-106.5 -40.5q-65 0 -99.5 37.5t-34.5 101.5q0 19 3 37l79 10q11 32 11 62q0 106 -156 106q-151 0 -221 -95t-70 -263v-203zM401 1202v-227h476v92q0 97 20 170q-30 -37 -88 -37q-55 0 -87 29t-32 82q0 17 12 57h56q4 20 4 29q0 43 -36 66.5t-99 23.5q-112 0 -169 -78
t-57 -207z" />
    <glyph glyph-name="ffl" unicode="ffl" horiz-adv-x="1951" 
d="M1325 975v-53h-250v-869h225v-53h-575v53h154v869h-478v-869h185v-53h-535v53h154v869h-160v53h160v72q0 226 118 357.5t328 131.5q109 0 183.5 -48.5t91.5 -137.5q50 112 145.5 172.5t231.5 60.5q87 0 153 -32t96 -93l195 78v-1483h154v-53h-504v53h153v1118l13 150
q-12 -37 -40.5 -57.5t-68.5 -20.5q-55 0 -87 29t-32 82q0 27 13 71h55q4 24 4 35q0 74 -111 74q-221 0 -221 -285v-274h250zM401 1200v-225h478v119q0 76 18 147q-28 -41 -90 -41q-54 0 -84.5 28.5t-30.5 82.5q0 13 13 57h55q6 18 6 35q0 84 -129 84q-119 0 -177.5 -76
t-58.5 -211z" />
    <glyph glyph-name="f_k" unicode="fk" horiz-adv-x="1832" 
d="M1343 0v53h146l-318 459l-96 -20v-439h133v-53h-483v53h154v1118l12 150q-12 -37 -40.5 -57.5t-68.5 -20.5q-55 0 -86.5 29t-31.5 82q0 30 12 71h55q13 57 -11.5 83t-92.5 26q-226 0 -226 -285v-274h250v-53h-250v-869h226v-53h-576v53h154v869h-160v53h160v119
q0 227 112.5 358t315.5 131q87 0 152.5 -32t95.5 -93l194 78v-981l78 18l381 349h-182v53h415v-53h-139l-311 -289l403 -580h103v-53h-480z" />
    <glyph glyph-name="f_b" unicode="fb" horiz-adv-x="1865" 
d="M1075 817q113 178 332 178q185 0 286 -126t101 -371q0 -250 -115.5 -384t-316.5 -134q-113 0 -191 34.5t-133 104.5l-114 -137h-45v1189l12 150q-12 -37 -40.5 -57.5t-68.5 -20.5q-55 0 -86.5 29t-31.5 82q0 30 12 71h55q13 57 -11.5 83t-92.5 26q-226 0 -226 -285v-274
h250v-53h-250v-869h226v-53h-576v53h154v869h-160v53h160v119q0 227 112.5 358t315.5 131q87 0 152.5 -32t95.5 -93l194 78v-719zM1352 918q-109 0 -196 -82t-87 -207v-316q0 -122 72 -196t196 -74q128 0 185 104.5t57 341.5q0 105 -9.5 178.5t-34 133t-70 88.5t-113.5 29z
" />
    <glyph glyph-name="f_h" unicode="fh" horiz-adv-x="1929" 
d="M725 53h154v1118l12 150q-12 -37 -40.5 -57.5t-68.5 -20.5q-55 0 -86.5 29t-31.5 82q0 30 12 71h55q13 57 -11.5 83t-92.5 26q-226 0 -226 -285v-274h250v-53h-250v-869h226v-53h-576v53h154v869h-160v53h160v119q0 227 112.5 358t315.5 131q87 0 152.5 -32t95.5 -93
l194 78v-754q19 41 48 76t72 67.5t105 51t136 18.5q147 0 225 -81t78 -261v-600h155v-53h-505v53h153v621q0 132 -36 190t-130 58q-122 0 -211.5 -93.5t-89.5 -232.5v-543h156v-53h-506v53z" />
    <glyph glyph-name="f_t" unicode="ft" horiz-adv-x="1478" 
d="M866 223v699h-465v-869h246v-53h-596v53h154v869h-160v53h160v119q0 233 94 361t293 128q113 0 188.5 -56.5t75.5 -156.5q0 -63 -31 -100t-86 -37t-86.5 28.5t-31.5 81.5q0 31 12 72h55q4 14 4 39q0 80 -114 80q-45 0 -78 -16t-52 -41t-29.5 -64.5t-14 -77t-3.5 -86.5
v-274h465v223l197 53v-276h287v-53h-287v-674q0 -93 29.5 -132.5t107.5 -39.5q82 0 124 54t56 163l47 -6q-7 -66 -23.5 -116.5t-49 -96t-89 -70t-135.5 -24.5q-264 0 -264 243z" />
    <glyph glyph-name="f_j" unicode="fj" horiz-adv-x="1255" 
d="M1073 975v-901q0 -115 -20 -216t-61.5 -186t-113.5 -134.5t-167 -49.5q-56 0 -96 16t-60.5 43.5t-29.5 57t-9 63.5q0 67 35 105.5t88 38.5q45 0 72.5 -25.5t27.5 -77.5q0 -31 -12 -74h-59q-6 -18 -6 -36q0 -60 79 -60q32 0 55.5 10.5t38.5 33t24.5 49.5t14 70.5t6 83
t1.5 99.5v1037h-480v-869h224v-53h-576v53h156v869h-162v53h162v92q0 243 134 379.5t370 136.5q138 0 230.5 -65.5t92.5 -184.5q0 -68 -37 -109.5t-100 -41.5q-68 0 -106.5 40.5t-38.5 108.5q0 3 1 10.5t1 10.5l86 16q10 33 10 55q0 54 -41.5 83.5t-114.5 29.5
q-151 0 -221 -95t-70 -263v-203h672z" />
    <glyph glyph-name="f_f_j" unicode="ffj" horiz-adv-x="1927" 
d="M1745 975v-901q0 -91 -12 -174t-40 -159t-69 -131.5t-103 -88.5t-139 -33q-56 0 -96 16t-60 43.5t-29 57t-9 63.5q0 67 35 105.5t88 38.5q45 0 72.5 -25.5t27.5 -77.5q0 -31 -12 -74h-60q-6 -18 -6 -36q0 -60 80 -60q32 0 55 10t38 33.5t24.5 50t14 70t6 83t1.5 99.5
v1037h-479v-869h223v-53h-575v53h156v869h-476v-869h185v-53h-535v53h154v869h-160v53h160v72q0 228 113.5 358.5t322.5 130.5q119 0 202 -55t83 -152v-8q57 127 173.5 194.5t280.5 67.5q138 0 231 -65.5t93 -184.5q0 -68 -37 -109.5t-100 -41.5q-68 0 -107 40.5t-39 108.5
q0 3 1 10.5t1 10.5l86 16q11 37 11 55q0 54 -41.5 83.5t-114.5 29.5q-151 0 -221 -95t-70 -263v-203h672zM401 1202v-227h476v92q0 97 20 170q-30 -37 -88 -37q-55 0 -87 29t-32 82q0 17 12 57h56q4 16 4 27q0 44 -39 68t-105 24q-112 0 -164.5 -77t-52.5 -208z" />
    <glyph glyph-name="f_f_k" unicode="ffk" horiz-adv-x="2504" 
d="M2015 0v53h146l-318 459l-96 -20v-439h133v-53h-483v53h153v1118l13 150q-12 -37 -40.5 -57.5t-68.5 -20.5q-55 0 -87 29t-32 82q0 27 13 71h55q13 57 -12 83t-93 26q-225 0 -225 -285v-274h250v-53h-250v-869h225v-53h-575v53h154v869h-476v-869h185v-53h-535v53h154
v869h-160v53h160v72q0 228 113.5 358.5t322.5 130.5q110 0 187.5 -50t95.5 -140q51 112 148.5 174.5t232.5 62.5q87 0 152 -31.5t95 -93.5l195 78v-981l78 18l381 349h-183v53h416v-53h-139l-311 -289l403 -580h102v-53h-479zM401 1202v-227h476v119q0 75 14 141
q-27 -35 -84 -35q-54 0 -84.5 28.5t-30.5 82.5q0 13 13 57h55q14 67 -21.5 93t-107.5 26q-120 0 -175 -76.5t-55 -208.5z" />
    <glyph glyph-name="f_f_b" unicode="ffb" horiz-adv-x="2537" 
d="M1550 1171l13 150q-12 -37 -40.5 -57.5t-68.5 -20.5q-55 0 -87 29t-32 82q0 27 13 71h55q13 57 -12 83t-93 26q-225 0 -225 -285v-274h250v-53h-250v-869h225v-53h-575v53h154v869h-476v-869h185v-53h-535v53h154v869h-160v53h160v72q0 228 113.5 358.5t322.5 130.5
q110 0 187.5 -50t95.5 -140q51 112 148.5 174.5t232.5 62.5q87 0 152 -31.5t95 -93.5l195 78v-719q113 178 332 178q185 0 286 -126t101 -371q0 -250 -115.5 -384t-316.5 -134q-113 0 -191 34.5t-133 104.5l-115 -137h-45v1189zM2023 918q-109 0 -195.5 -82t-86.5 -207v-316
q0 -122 72 -196t196 -74q128 0 185 104.5t57 341.5q0 83 -6 145.5t-21 118t-40.5 90.5t-65.5 55t-95 20zM401 1202v-227h476v119q0 90 10 137q-24 -31 -80 -31q-54 0 -84.5 28.5t-30.5 82.5q0 13 13 57h55q14 67 -21.5 93t-107.5 26q-120 0 -175 -76.5t-55 -208.5z" />
    <glyph glyph-name="f_f_h" unicode="ffh" horiz-adv-x="2603" 
d="M1747 1536v-756q20 41 49 76t72 68t105 52t136 19q147 0 225.5 -81.5t78.5 -260.5v-600h155v-53h-506v53h154v621q0 132 -36 190t-130 58q-122 0 -211.5 -93.5t-89.5 -232.5v-543h156v-53h-508v53h153v1118l13 150q-12 -37 -40.5 -57.5t-68.5 -20.5q-55 0 -87 29t-32 82
q0 27 13 71h55q13 57 -12 83t-93 26q-225 0 -225 -285v-274h250v-53h-250v-869h225v-53h-575v53h154v869h-476v-869h185v-53h-535v53h154v869h-160v53h160v72q0 228 113.5 358.5t322.5 130.5q110 0 187.5 -50t95.5 -140q51 112 148.5 174.5t232.5 62.5q87 0 152 -31.5
t95 -93.5zM401 1202v-227h476v119q0 90 10 137q-24 -31 -80 -31q-54 0 -84.5 28.5t-30.5 82.5q0 13 13 57h55q14 67 -21.5 93t-107.5 26q-120 0 -175 -76.5t-55 -208.5z" />
    <glyph glyph-name="f_f_t" unicode="fft" horiz-adv-x="2150" 
d="M1538 223v699h-465v-869h246v-53h-596v53h154v869h-476v-869h185v-53h-535v53h154v869h-160v53h160v72q0 228 113.5 358.5t322.5 130.5q104 0 182.5 -45.5t96.5 -124.5q92 217 344 217q113 0 188.5 -56.5t75.5 -156.5q0 -63 -31 -100t-86 -37t-87 28.5t-32 81.5
q0 28 13 72h55q4 14 4 39q0 80 -115 80q-45 0 -78 -16t-51.5 -41t-29.5 -64.5t-14 -76.5t-3 -87v-274h465v223l197 53v-276h286v-53h-286v-674q0 -93 29.5 -132.5t107.5 -39.5q82 0 124 54t56 163l47 -6q-7 -66 -23.5 -116.5t-49 -96t-89 -70t-135.5 -24.5q-264 0 -264 243z
M401 1202v-227h476v119q0 74 14 143q-27 -37 -82 -37t-86 29t-31 82q0 13 13 57h55q14 57 -18 88t-107 31q-122 0 -178 -76.5t-56 -208.5z" />
    <glyph glyph-name="f_iacute" unicode="f&#xed;" horiz-adv-x="1269" 
d="M401 975h672v-922h156v-53h-506v53h154v869h-476v-869h205v-53h-555v53h154v869h-160v53h160v119q0 233 94 361t293 128q104 0 174 -50.5t70 -148.5q0 -63 -31 -100t-86 -37t-87 29t-32 82q0 32 12 72h56q22 46 -6 75t-84 29q-45 0 -78 -16t-52 -41t-29.5 -64.5t-14 -77
t-3.5 -86.5v-274zM862 1126l142 379l49 11q8 2 26 2q31 0 50.5 -16.5t19.5 -49.5t-41 -84l-215 -258z" />
    <glyph glyph-name="t_t.alt" unicode="tt" horiz-adv-x="1490" 
d="M879 223v699h-488v-674q0 -93 29.5 -132.5t107.5 -39.5q82 0 124.5 54.5t56.5 162.5l47 -6q-7 -66 -23.5 -116.5t-49 -96t-89 -70t-135.5 -24.5q-264 0 -264 243v699h-154v53h154v264l196 53v-317h488v264l196 53v-317h287v-53h-287v-674q0 -93 29.5 -132.5t107.5 -39.5
q82 0 124.5 54.5t56.5 162.5l47 -6q-7 -66 -23.5 -116.5t-49 -96t-89 -70t-135.5 -24.5q-264 0 -264 243z" />
    <glyph glyph-name=".notdef" horiz-adv-x="409" 
 />
    <glyph glyph-name=".null" horiz-adv-x="0" 
 />
    <glyph glyph-name="nonmarkingreturn" horiz-adv-x="682" 
 />
    <glyph glyph-name="space" unicode=" " horiz-adv-x="409" 
 />
    <glyph glyph-name="exclam" unicode="!" horiz-adv-x="772" 
d="M354 365v196q0 175 -20.5 336.5t-41 270t-20.5 155.5q0 62 33 97.5t92 35.5q57 0 86 -35t29 -96q0 -48 -14.5 -127t-32.5 -158.5t-32.5 -210.5t-14.5 -270v-194h-64zM256 109q0 56 34 92.5t95 36.5q60 0 95.5 -32t35.5 -95q0 -60 -33.5 -95.5t-95.5 -35.5
q-68 0 -99.5 37.5t-31.5 91.5z" />
    <glyph glyph-name="quotedbl" unicode="&#x22;" horiz-adv-x="753" 
d="M193 1092l-50 434q60 49 103 49q30 0 45.5 -18t15.5 -48q0 -33 -8 -88l-57 -329h-49zM496 1092l-50 434q60 49 103 49q30 0 45.5 -18t15.5 -48q0 -33 -8 -88l-57 -329h-49z" />
    <glyph glyph-name="numbersign" unicode="#" horiz-adv-x="1214" 
d="M356 0h-92l45 285h-246l19 86h240l61 362h-246l17 88h239l39 266h94l-41 -266h312l39 266h94l-41 -266h248l-15 -88h-243l-58 -362h244l-14 -86h-240l-47 -285h-92l47 285h-316zM786 733h-311l-61 -362h315z" />
    <glyph glyph-name="dollar" unicode="$" horiz-adv-x="1157" 
d="M457 -145v176q-54 8 -124.5 29.5t-88.5 21.5q-21 0 -30 -10.5t-22 -41.5q-3 -7 -4 -10h-34l-21 447h45q39 -161 103.5 -253.5t175.5 -121.5v576q-148 46 -222.5 128.5t-74.5 219.5q0 136 76.5 244.5t220.5 142.5v174h63v-164q7 0 22 1t23 1q39 0 76 -6v168h64v-180
q27 -7 61.5 -19t58 -19t41.5 -7q21 0 31 8.5t21 32.5h30l10 -381h-45q-35 138 -81.5 215t-126.5 108v-499q73 -24 126 -53t101 -74t73 -111t25 -152q0 -155 -85.5 -266.5t-239.5 -146.5v-178h-64v168q-35 -3 -66 -3q-11 0 -29 1.5t-26 1.5v-168h-63zM913 365q0 88 -51 141
t-157 90v-502q98 29 153 100t55 171zM571 78q47 0 70 4v534q-27 9 -121 35v-571q16 -2 51 -2zM602 866l39 -10v496q-34 6 -70 6q-35 0 -51 -2v-467q53 -17 82 -23zM287 1128q0 -81 43.5 -131.5t126.5 -85.5v432q-82 -23 -126 -79.5t-44 -135.5z" />
    <glyph glyph-name="percent" unicode="%" horiz-adv-x="1556" 
d="M817 317q0 163 97.5 259t232.5 96q63 0 118 -19.5t100.5 -58.5t72 -106.5t26.5 -155.5t-27 -157.5t-73 -111t-103 -62.5t-120 -21q-156 0 -240 90.5t-84 246.5zM975 317q0 -154 41.5 -223t126.5 -69q89 0 126.5 71.5t37.5 231.5q0 162 -40 229.5t-122 67.5
q-85 0 -127.5 -71.5t-42.5 -236.5zM92 1102q0 163 97.5 258.5t232.5 95.5q63 0 118 -19.5t100.5 -58.5t72 -106.5t26.5 -155.5t-27 -157.5t-73 -111t-103 -62.5t-120 -21q-156 0 -240 90.5t-84 247.5zM250 1102q0 -154 41.5 -223.5t126.5 -69.5q89 0 126.5 71.5t37.5 231.5
q0 162 -40 229.5t-122 67.5q-85 0 -127.5 -71t-42.5 -236zM305 0l862 1434h82l-860 -1434h-84z" />
    <glyph glyph-name="ampersand" unicode="&#x26;" horiz-adv-x="1562" 
d="M977 -362q120 0 180 75t60 201q0 153 -109 295q-166 -232 -475 -232q-106 0 -194.5 23.5t-158 70.5t-108.5 125.5t-39 182.5q0 126 66 214.5t190 162.5q-59 62 -95 145.5t-36 171.5q0 119 60.5 208t154 132t201.5 43q137 0 213 -66t76 -182q0 -119 -87.5 -210.5
t-246.5 -168.5q77 -55 276 -180q154 -96 252 -182q44 132 57 299h-149v53h356v-53h-139q-23 -199 -72 -346q176 -195 176 -397q0 -194 -115 -317.5t-296 -123.5q-120 0 -177 57t-57 130q0 71 34.5 109t88.5 38q46 0 73.5 -25.5t27.5 -76.5q0 -27 -13 -74h-61q-8 -28 -8 -39
q0 -63 94 -63zM686 66q237 0 373 198q-80 87 -281 217q-20 13 -88.5 54.5t-97.5 60t-75 51.5t-79 62q-54 -52 -76 -114t-22 -169q0 -179 93 -269.5t253 -90.5zM438 1169q0 -89 41.5 -168.5t112.5 -140.5q123 61 184.5 154t61.5 198q0 100 -49.5 149.5t-124.5 49.5
q-92 0 -159 -61.5t-67 -180.5z" />
    <glyph glyph-name="quotesingle" unicode="'" horiz-adv-x="450" 
d="M193 1092l-50 434q60 49 103 49q30 0 45.5 -18t15.5 -48q0 -33 -8 -88l-57 -329h-49z" />
    <glyph glyph-name="parenleft" unicode="(" horiz-adv-x="628" 
d="M113 666q0 160 38 318.5t105 289.5t167.5 221t217.5 111l8 -39q-72 -18 -125.5 -69.5t-86.5 -125.5t-52.5 -183t-27 -226t-7.5 -269q0 -178 7 -305t26 -241.5t52.5 -190t86.5 -130t127 -81.5l-10 -39q-131 33 -234 128.5t-165.5 229.5t-94.5 287.5t-32 313.5z" />
    <glyph glyph-name="parenright" unicode=")" horiz-adv-x="630" 
d="M516 651q0 -160 -38 -318.5t-105 -289.5t-167.5 -221t-217.5 -111l-8 39q72 18 125.5 69.5t86.5 125.5t52.5 183t27 226t7.5 269q0 178 -7 305t-26 241.5t-52.5 190t-86.5 130t-127 81.5l10 39q131 -33 234 -128.5t165.5 -229.5t94.5 -287.5t32 -313.5z" />
    <glyph glyph-name="asterisk" unicode="*" horiz-adv-x="999" 
d="M831 1305l-311 -82l228 -72q43 -12 65.5 -30t22.5 -50q0 -54 -91 -96l-225 215l53 -303q-52 -41 -96 -41q-31 0 -47 16.5t-16 44.5q0 32 12 74l63 211l-233 -217q-92 40 -92 96q0 57 72 76l251 76l-319 80q-2 12 -2 40q0 40 15.5 68.5t49.5 28.5q42 0 95 -47l168 -144
l-64 312q52 41 96 41q31 0 48.5 -18t17.5 -44q0 -32 -12 -76l-60 -215l150 142q52 49 102 49q64 0 64 -92q0 -8 -5 -43z" />
    <glyph glyph-name="plus" unicode="+" 
d="M1028 612h-430v-424h-82v424h-418v74h418v399h82v-399h430v-74z" />
    <glyph glyph-name="comma" unicode="," horiz-adv-x="518" 
d="M182 -317l-32 38q56 50 92 93.5t50.5 78t18.5 55.5t4 46q0 61 -43 67l-69 -65q-40 14 -70.5 50t-30.5 89q0 62 41.5 99.5t98.5 37.5q89 0 131.5 -60t42.5 -153q0 -104 -54.5 -191.5t-179.5 -184.5z" />
    <glyph glyph-name="hyphen" unicode="-" horiz-adv-x="677" 
d="M96 512v119h486v-119h-486z" />
    <glyph glyph-name="period" unicode="." horiz-adv-x="542" 
d="M123 127q0 64 38.5 105.5t108.5 41.5q68 0 109 -36.5t41 -108.5q0 -68 -39 -108.5t-109 -40.5q-78 0 -113.5 42.5t-35.5 104.5z" />
    <glyph glyph-name="slash" unicode="/" horiz-adv-x="718" 
d="M16 -199l605 1827h81l-602 -1827h-84z" />
    <glyph glyph-name="zero" unicode="0" horiz-adv-x="1167" 
d="M68 719q0 156 27.5 281.5t74.5 209.5t113 140t141 81t160 25q87 0 162 -24.5t141 -80t112.5 -139.5t73.5 -209.5t27 -283.5q0 -157 -27.5 -283t-75 -210t-114 -140.5t-140.5 -81t-159 -24.5q-128 0 -227 55t-162 154.5t-95 233.5t-32 296zM293 715q0 -362 67 -517
t224 -155q161 0 225.5 153.5t64.5 518.5q0 355 -69.5 516.5t-220.5 161.5q-149 0 -220 -162.5t-71 -515.5z" />
    <glyph glyph-name="one" unicode="1" horiz-adv-x="800" 
d="M326 1364l-263 -18l-6 57l410 53h72v-1397h209v-59h-658v59h236v1305z" />
    <glyph glyph-name="two" unicode="2" horiz-adv-x="1030" 
d="M449 1393q-97 0 -162.5 -42.5t-65.5 -105.5q0 -26 12 -53h68q16 -53 16 -100q0 -49 -32.5 -79t-85.5 -30q-60 0 -92.5 41t-32.5 113q0 80 35.5 142.5t96.5 100.5t136.5 57t161.5 19q213 0 313.5 -94.5t100.5 -251.5q0 -83 -18 -143.5t-90 -165t-207.5 -249t-377.5 -382.5
h402q100 0 155 21.5t79.5 64.5t41.5 127h37l-14 -383h-860v88l313 367q96 113 157 202.5t92.5 168.5t42.5 143.5t11 146.5q0 152 -52.5 214.5t-180.5 62.5z" />
    <glyph glyph-name="three" unicode="3" horiz-adv-x="1036" 
d="M420 43q309 0 309 356q0 79 -18.5 139.5t-53.5 101t-73.5 66t-91.5 46.5q-94 -23 -199 -33l-6 59q72 5 125.5 16t104.5 35t83.5 61.5t52 96.5t19.5 139q0 147 -57 207t-171 60q-88 0 -142 -33t-54 -80q0 -11 4 -27h76q18 -61 18 -94q0 -52 -32 -81t-91 -29
q-60 0 -91.5 40.5t-31.5 98.5q0 68 34.5 121.5t91.5 84.5t125 46.5t141 15.5q177 0 286 -85t109 -230q0 -235 -326 -357q198 -30 297.5 -129t99.5 -249q0 -193 -150 -309.5t-388 -116.5q-105 0 -188.5 26.5t-138 87.5t-54.5 148q0 68 35.5 109.5t95.5 41.5q53 0 87 -30
t34 -80q0 -43 -17 -99h-69q-10 -20 -10 -34q0 -46 64 -76.5t161 -30.5z" />
    <glyph glyph-name="four" unicode="4" horiz-adv-x="1116" 
d="M428 0v59h193v308h-578v67l610 1000h183v-1000h186v160h55v-379h-55v152h-188v-308h143v-59h-549zM119 434h502v826z" />
    <glyph glyph-name="five" unicode="5" horiz-adv-x="1058" 
d="M477 809q-141 0 -287 -90l-36 18v674l32 25q138 -20 338 -44t242 -24q34 0 52 19.5t30 66.5l41 -6q-27 -167 -58 -224t-92 -57q-58 0 -170 41l-344 111l-10 -514q162 74 313 74q112 0 196.5 -36.5t132.5 -98.5t71.5 -135.5t23.5 -157.5q0 -218 -144.5 -344.5
t-375.5 -126.5q-169 0 -276 69.5t-107 202.5q0 69 34.5 109t96.5 40q53 0 86 -30t33 -82q0 -34 -16 -96h-68q-12 -18 -12 -37q0 -47 65 -80t156 -33q154 0 226.5 103.5t72.5 320.5q0 179 -56 260.5t-190 81.5z" />
    <glyph glyph-name="six" unicode="6" horiz-adv-x="1062" 
d="M322 653q-17 -72 -17 -196q0 -213 55.5 -313.5t186.5 -100.5q133 0 187 100t54 299q0 210 -50 299.5t-156 89.5q-89 0 -164.5 -51.5t-95.5 -126.5zM635 1393q-66 0 -115 -17.5t-91 -61.5t-69 -117t-42.5 -186t-16.5 -266q101 158 309 158q175 0 285.5 -109.5
t110.5 -324.5q0 -224 -123 -356.5t-342 -132.5q-111 0 -194 35.5t-143.5 111.5t-91 202t-30.5 302q0 397 151.5 611t401.5 214q151 0 239.5 -63t88.5 -174q0 -70 -39 -108t-95 -38q-53 0 -92 31t-39 94q0 24 7 59h65q21 71 -20 103.5t-115 32.5z" />
    <glyph glyph-name="seven" unicode="7" horiz-adv-x="944" 
d="M248 176q0 117 98.5 319t378.5 658l74 121h-455q-51 0 -83 -2.5t-59 -12t-41.5 -21t-27.5 -38t-20 -55t-17 -78.5h-41l15 367h864v-68l-92 -176q-117 -223 -194 -397t-110.5 -288.5t-45 -182.5t-11.5 -132q0 -82 33 -149l-61 -64q-205 8 -205 199z" />
    <glyph glyph-name="eight" unicode="8" horiz-adv-x="1103" 
d="M465 754q-166 28 -256 116t-90 226q0 166 118 263t316 97q194 0 315 -97t121 -263q0 -141 -90.5 -230.5t-251.5 -111.5v-6q189 -23 289 -120t100 -255q0 -190 -129.5 -291.5t-353.5 -101.5q-226 0 -355.5 102t-129.5 289q0 163 103.5 260.5t293.5 116.5v6zM553 715
q-270 0 -270 -344q0 -171 68 -249.5t202 -78.5q133 0 200.5 80t67.5 254q0 170 -70 254t-198 84zM322 1096q0 -155 62.5 -231.5t168.5 -76.5q231 0 231 308q0 295 -231 295t-231 -295z" />
    <glyph glyph-name="nine" unicode="9" horiz-adv-x="1062" 
d="M483 602q81 0 137.5 29.5t98.5 89.5q24 33 32.5 77t8.5 138q0 235 -55 345t-187 110q-133 0 -187.5 -95t-54.5 -284q0 -220 50.5 -315t156.5 -95zM440 -20q-153 0 -241 76.5t-88 176.5q0 73 36.5 112.5t98.5 39.5q55 0 85.5 -30t30.5 -91q0 -36 -8 -67h-69
q-13 -29 -13 -52q0 -49 43 -75.5t123 -26.5q111 0 181.5 61.5t107.5 205t37 378.5q-101 -158 -309 -158q-84 0 -155 27.5t-126 81.5t-86 142.5t-31 203.5q0 215 124 342t343 127q222 0 339.5 -167t117.5 -513q0 -397 -143.5 -595.5t-397.5 -198.5z" />
    <glyph glyph-name="colon" unicode=":" horiz-adv-x="542" 
d="M123 127q0 64 38.5 105.5t108.5 41.5q68 0 109 -36.5t41 -108.5q0 -68 -39 -108.5t-109 -40.5q-78 0 -113.5 42.5t-35.5 104.5zM123 805q0 64 38.5 105.5t108.5 41.5q68 0 109 -36.5t41 -108.5q0 -68 -39 -109t-109 -41q-78 0 -113.5 43t-35.5 105z" />
    <glyph glyph-name="semicolon" unicode=";" horiz-adv-x="522" 
d="M182 -317l-32 38q56 50 92 93.5t50.5 78t18.5 55.5t4 46q0 61 -43 67l-69 -65q-40 14 -70.5 50t-30.5 89q0 62 41.5 99.5t98.5 37.5q89 0 131.5 -60t42.5 -153q0 -104 -54.5 -191.5t-179.5 -184.5zM123 805q0 64 38.5 105.5t108.5 41.5q68 0 109 -36.5t41 -108.5
q0 -68 -39 -109t-109 -41q-78 0 -113.5 43t-35.5 105z" />
    <glyph glyph-name="less" unicode="&#x3c;" 
d="M1026 176l-926 395v58l926 389v-78l-811 -338l811 -344v-82z" />
    <glyph glyph-name="equal" unicode="=" 
d="M1028 383h-930v74h930v-74zM98 776h930v-74h-930v74z" />
    <glyph glyph-name="greater" unicode="&#x3e;" 
d="M1026 571l-926 -395v82l811 344l-811 338v78l926 -389v-58z" />
    <glyph glyph-name="question" unicode="?" horiz-adv-x="1058" 
d="M506 1456q180 0 284.5 -94t104.5 -234q0 -143 -133 -268l-283 -268v-238h-51v414q0 34 23 57l155 162q57 60 79 108t22 107q0 98 -67.5 151.5t-174.5 53.5q-93 0 -150 -29t-57 -82q0 -20 4 -30h57q17 -46 17 -80q0 -54 -32.5 -85.5t-84.5 -31.5q-50 0 -78 35t-28 94
q0 113 111 185.5t282 72.5zM324 109q0 56 34 92.5t95 36.5q60 0 95.5 -32t35.5 -95q0 -60 -33.5 -95.5t-95.5 -35.5q-68 0 -99.5 37.5t-31.5 91.5z" />
    <glyph glyph-name="at" unicode="@" horiz-adv-x="1738" 
d="M881 809q118 0 204 -76l35 62h121l-65 -373q-25 -154 -25 -217q0 -91 27 -124.5t90 -33.5q50 0 97.5 28t87 81t63.5 138.5t24 190.5q0 300 -163 462.5t-476 162.5q-147 0 -274 -50t-221.5 -143.5t-148.5 -238t-54 -322.5q0 -146 39 -261.5t104 -190.5t157 -124.5t192 -70
t214 -20.5q280 0 471 161l39 -43q-91 -85 -230.5 -133.5t-281.5 -48.5q-129 0 -244 26.5t-214.5 84t-171.5 141t-113 204t-41 267.5q0 237 94 422.5t275 293t423 107.5q153 0 281.5 -44.5t222 -128t145.5 -211t52 -287.5q0 -126 -30.5 -226.5t-83 -162t-119.5 -93.5
t-142 -32q-104 0 -162.5 41.5t-74.5 109.5q-40 -64 -105 -105.5t-145 -41.5q-58 0 -104 17t-75 45.5t-48 69t-27 84.5t-8 95q0 129 34 230t91 160t124 88.5t140 29.5zM1006 266l65 418q-72 72 -172 72q-84 0 -140 -60.5t-80 -157t-24 -225.5q0 -132 31.5 -195t110.5 -63
q74 0 135.5 64.5t73.5 146.5z" />
    <glyph glyph-name="A" unicode="A" horiz-adv-x="1361" 
d="M985 59l-143 418h-465l-152 -418h187v-59h-412v59h143l521 1397h55l502 -1397h141v-59h-557v59h180zM616 1151l-219 -614h424z" />
    <glyph glyph-name="B" unicode="B" horiz-adv-x="1269" 
d="M72 1434h469q133 0 232 -17t175 -55.5t115 -106t39 -163.5q0 -276 -309 -330v-4q178 -25 279.5 -116.5t101.5 -235.5q0 -96 -32 -167.5t-87 -116.5t-138.5 -73t-176 -38.5t-210.5 -10.5h-458v59h174v1315h-174v60zM461 717v-658h96q215 0 297 72.5t82 263.5
q0 173 -83 247.5t-284 74.5h-108zM461 1374v-604h53q202 0 284.5 73t82.5 242q0 163 -79 226t-276 63h-65z" />
    <glyph glyph-name="C" unicode="C" horiz-adv-x="1329" 
d="M752 1399q-435 0 -435 -678q0 -326 112.5 -505t330.5 -179q329 0 424 401h45l-15 -436h-30q-12 23 -22.5 32t-31.5 9q-23 0 -83.5 -15.5t-143.5 -31.5t-160 -16q-153 0 -272.5 42.5t-207.5 130.5t-134.5 231t-46.5 335q0 178 51.5 319.5t142.5 232t212 138t264 47.5
q69 0 145.5 -16t133.5 -31.5t81 -15.5q21 0 31 9t22 32h31l14 -424h-45q-46 196 -146.5 292.5t-266.5 96.5z" />
    <glyph glyph-name="D" unicode="D" horiz-adv-x="1462" 
d="M1370 741q0 -169 -43 -298.5t-117.5 -212.5t-184.5 -135.5t-233 -73.5t-274 -21h-448v59h176v1315h-176v60h505q192 0 335 -37t248 -117.5t158.5 -215.5t53.5 -323zM461 59h90q299 0 440.5 169t141.5 501q0 156 -25 267.5t-71.5 185t-124 116t-172 59.5t-226.5 17h-53
v-1315z" />
    <glyph glyph-name="E" unicode="E" horiz-adv-x="1261" 
d="M84 1434h1003l21 -385h-49q-8 57 -19 101.5t-27.5 78t-34.5 57.5t-45.5 40t-53.5 25.5t-66 14.5t-75.5 6.5t-88.5 1.5h-188v-612h106q124 0 170.5 51t71.5 211h43v-606h-47q-12 73 -23.5 116t-29 78t-44.5 51.5t-65 24.5t-96 8h-86v-637h215q220 0 314.5 78.5
t129.5 288.5h41l-14 -426h-1063v59h162v1315h-162v60z" />
    <glyph glyph-name="F" unicode="F" horiz-adv-x="1200" 
d="M84 1434h1006l20 -396h-49q-10 76 -26.5 131t-43.5 92t-57 59.5t-78 34.5t-94.5 15.5t-116.5 3.5h-184v-626h117q124 0 170 50.5t71 211.5h43v-607h-47q-10 61 -19 99.5t-23 72.5t-30.5 52.5t-43.5 32t-60.5 18t-81.5 4.5h-96v-623h264v-59h-641v59h162v1315h-162v60z
" />
    <glyph glyph-name="G" unicode="G" horiz-adv-x="1445" 
d="M752 1399q-435 0 -435 -684q0 -322 112.5 -500t330.5 -178q80 0 154 40t110 105v342h-188v60h538v-60h-135v-522h-31q-9 17 -15.5 26t-21.5 17t-36 8q-25 0 -87 -18.5t-145 -36.5t-160 -18q-152 0 -272 42.5t-208 129.5t-134.5 228t-46.5 329q0 181 53.5 325t146.5 235
t216 139t266 48q69 0 142.5 -16t127.5 -31.5t78 -15.5q21 0 31 9t22 32h31l14 -424h-45q-46 196 -146.5 292.5t-266.5 96.5z" />
    <glyph glyph-name="H" unicode="H" horiz-adv-x="1558" 
d="M84 1434h539v-60h-162v-606h637v606h-162v60h539v-60h-162v-1315h162v-59h-539v59h162v635h-637v-635h162v-59h-539v59h162v1315h-162v60z" />
    <glyph glyph-name="I" unicode="I" horiz-adv-x="706" 
d="M92 1434h522v-60h-153v-1315h153v-59h-522v59h154v1315h-154v60z" />
    <glyph glyph-name="J" unicode="J" horiz-adv-x="921" 
d="M317 1434h564v-60h-154v-921q0 -217 -99 -345t-288 -128q-140 0 -214.5 54.5t-74.5 151.5q0 76 38.5 117t98.5 41q50 0 80.5 -29t30.5 -88q0 -38 -14 -84h-66q-4 -20 -4 -26q0 -38 32.5 -61t96.5 -23q99 0 133.5 49t34.5 170v1122h-195v60z" />
    <glyph glyph-name="K" unicode="K" horiz-adv-x="1329" 
d="M92 1434h522v-60h-153v-643l78 21l501 622h-182v60h416v-60h-139l-433 -538l535 -777h111v-59h-529v59h158l-428 617l-88 -21v-596h153v-59h-522v59h154v1315h-154v60z" />
    <glyph glyph-name="L" unicode="L" horiz-adv-x="1200" 
d="M84 1434h594v-60h-217v-1315h155q120 0 197.5 18.5t133 65.5t85.5 121.5t49 194.5h45l-18 -459h-1024v59h162v1315h-162v60z" />
    <glyph glyph-name="M" unicode="M" horiz-adv-x="1748" 
d="M1229 1434h428v-60h-154v-1315h154v-59h-522v59h153v1307h-8l-438 -1366h-62l-454 1366h-9v-1307h154v-59h-379v59h154v1315h-154v60h436l357 -1082z" />
    <glyph glyph-name="N" unicode="N" horiz-adv-x="1445" 
d="M1221 1374v-1388h-62l-842 1337v-1264h154v-59h-379v59h154v1315h-154v60h410l647 -1035v975h-154v60h379v-60h-153z" />
    <glyph glyph-name="O" unicode="O" horiz-adv-x="1460" 
d="M1139 723q0 123 -9.5 217.5t-36.5 182.5t-70.5 145t-115 91t-168.5 34q-102 0 -177.5 -34t-121.5 -91t-73.5 -146.5t-37.5 -185t-10 -221.5q0 -116 10 -209.5t38 -182.5t73 -148.5t119.5 -95.5t173.5 -36q97 0 169 34t117 92t72 146.5t37.5 185.5t10.5 222zM82 713
q0 336 184 539.5t479 203.5q292 0 462.5 -192.5t170.5 -532.5q0 -353 -168.5 -552t-480.5 -199t-479.5 190t-167.5 543z" />
    <glyph glyph-name="P" unicode="P" horiz-adv-x="1280" 
d="M72 1434h520q107 0 193 -11.5t163 -40t128.5 -73t81.5 -114.5t30 -161q0 -105 -33.5 -184.5t-91 -129.5t-142 -81.5t-177 -44t-205.5 -12.5h-78v-523h256v-59h-645v59h174v1315h-174v60zM461 1374v-733h104q203 0 294 92t91 291q0 196 -86.5 273t-285.5 77h-117z" />
    <glyph glyph-name="Q" unicode="Q" horiz-adv-x="1460" 
d="M82 713q0 336 184 539.5t479 203.5q292 0 462.5 -192.5t170.5 -532.5q0 -322 -141.5 -514t-407.5 -221v-12q74 -14 110 -54.5t62 -117.5q37 -110 57 -138q26 -36 66 -36q41 0 63.5 32.5t29.5 114.5l45 -4q-14 -232 -199 -232q-63 0 -108 17t-74 53.5t-46 75.5t-34 102
q-24 88 -43.5 119t-48.5 31q-24 0 -54 -19.5t-82 -62.5l-26 29q71 64 125 86v8q-287 17 -438.5 202.5t-151.5 522.5zM1139 723q0 123 -9.5 217.5t-36.5 182.5t-70.5 145t-115 91t-168.5 34q-102 0 -177.5 -34t-121.5 -91t-73.5 -146.5t-37.5 -185t-10 -221.5
q0 -116 10 -209.5t38 -182.5t73 -148.5t119.5 -95.5t173.5 -36q97 0 169 34t117 92t72 146.5t37.5 185.5t10.5 222z" />
    <glyph glyph-name="R" unicode="R" horiz-adv-x="1337" 
d="M600 707h-139v-648h215v-59h-604v59h174v1315h-174v60h485q103 0 180.5 -7t154 -28.5t125.5 -58t79 -99t30 -147.5q0 -89 -28.5 -154t-84 -104.5t-127 -60t-167.5 -27.5v-7q191 -22 267.5 -98.5t76.5 -253.5v-182q0 -67 16 -97t72 -30q34 0 54.5 22.5t28.5 50.5t23 99
q1 5 1.5 8t1.5 7.5t2 8.5l45 -10q-2 -12 -8 -44.5t-9.5 -49.5t-12 -46.5t-18.5 -46t-27 -38.5t-38 -33t-52 -19.5t-69 -8.5q-129 0 -180 59t-51 188v277q0 106 -52 154.5t-190 48.5zM461 1374v-610h43q205 0 295 75t90 248q0 87 -21 143t-69.5 88t-114.5 44t-168 12h-55z
" />
    <glyph glyph-name="S" unicode="S" horiz-adv-x="1157" 
d="M580 37q162 0 260 84.5t98 220.5q0 58 -20.5 101.5t-43 69.5t-88 53t-102.5 37.5t-140 37.5q-7 2 -12 3.5t-10 2.5q-65 17 -111.5 32.5t-92.5 38t-76 50.5t-53.5 66.5t-34.5 89t-11 114.5q0 80 27 153t78 133t134 96t187 36q69 0 135.5 -16t113.5 -31.5t71 -15.5
q21 0 31 9t22 32h31l14 -414h-45q-24 101 -52.5 168t-72 116.5t-105.5 72t-149 22.5q-140 0 -216.5 -70.5t-76.5 -191.5q0 -48 18.5 -86.5t46 -64t75.5 -48.5t90 -37t106 -31q73 -19 112.5 -31.5t101.5 -37t96 -53.5t70.5 -72t52.5 -103t16 -135q0 -203 -124 -330.5
t-345 -127.5q-83 0 -159 15t-127.5 30.5t-74.5 15.5q-5 0 -9 -1t-7 -1.5t-6 -3.5t-5 -4.5t-5 -6t-4.5 -6.5t-4 -8t-3.5 -8.5t-4.5 -10.5t-4.5 -11h-35l-20 466h45q19 -81 42.5 -142t58 -113t78.5 -85t104 -51t135 -18z" />
    <glyph glyph-name="T" unicode="T" horiz-adv-x="1290" 
d="M1219 1434l20 -412h-49q-12 72 -28 125t-33.5 91t-45.5 63t-54 39.5t-69.5 22t-81 9.5t-98.5 2h-26v-1315h194v-59h-604v59h195v1315h-29q-61 0 -98.5 -2t-81 -9.5t-69.5 -22t-54 -39.5t-45.5 -63t-33.5 -91t-28 -125h-49l21 412h1147z" />
    <glyph glyph-name="U" unicode="U" horiz-adv-x="1454" 
d="M778 49q176 0 275.5 102t99.5 291v932h-154v60h383v-60h-153v-905q0 -117 -25.5 -204.5t-82 -153t-152.5 -98.5t-230 -33q-252 0 -383 109.5t-131 361.5v923h-153v60h522v-60h-154v-938q0 -67 9 -122t33 -105.5t61.5 -85t97 -54.5t137.5 -20z" />
    <glyph glyph-name="V" unicode="V" horiz-adv-x="1349" 
d="M739 295l394 1079h-207v60h424v-60h-136l-524 -1394h-47l-506 1394h-137v60h573v-60h-200z" />
    <glyph glyph-name="W" unicode="W" horiz-adv-x="2056" 
d="M705 293l309 743l-129 338h-137v60h573v-60h-201l383 -1057l336 1057h-207v60h424v-60h-135l-463 -1394h-47l-358 952l-404 -952h-47l-465 1394h-137v60h573v-60h-200z" />
    <glyph glyph-name="X" unicode="X" horiz-adv-x="1337" 
d="M1317 0h-582v59h197l-332 570l-334 -570h207v-59h-424v59h137l371 643l-405 672h-138v60h582v-60h-201l316 -547l325 547h-196v60h420v-60h-136l-368 -618l422 -697h139v-59z" />
    <glyph glyph-name="Y" unicode="Y" horiz-adv-x="1247" 
d="M698 748l332 626h-207v60h424v-60h-135l-379 -710v-605h174v-59h-563v59h174v605l-381 710h-137v60h573v-60h-194z" />
    <glyph glyph-name="Z" unicode="Z" horiz-adv-x="1284" 
d="M1120 1434v-60l-753 -1315h333q198 0 291 88.5t131 311.5h49l-24 -459h-1038v51l759 1323h-297q-57 0 -92.5 -2t-76.5 -9.5t-67 -22.5t-53.5 -40t-45.5 -63t-34.5 -91t-29.5 -124h-47l20 412h975z" />
    <glyph glyph-name="bracketleft" unicode="[" horiz-adv-x="608" 
d="M567 -262v-55h-385v1927h385v-56h-112q-76 0 -97.5 -18t-21.5 -88v-1602q0 -27 1.5 -44t7 -30t12 -19t22 -10t30.5 -4.5t44 -0.5h114z" />
    <glyph glyph-name="backslash" unicode="\" horiz-adv-x="718" 
d="M100 1628l605 -1827h-87l-602 1827h84z" />
    <glyph glyph-name="bracketright" unicode="]" horiz-adv-x="608" 
d="M43 -317v55h115q78 0 97 16t19 92v1602q0 70 -21 88t-97 18h-113v56h385v-1927h-385z" />
    <glyph glyph-name="asciicircum" unicode="^" horiz-adv-x="1077" 
d="M989 614l-76 -30l-389 688l-358 -690l-78 32l387 746h100z" />
    <glyph glyph-name="underscore" unicode="_" horiz-adv-x="1024" 
d="M1024 -217h-1024v76h1024v-76z" />
    <glyph glyph-name="grave" unicode="`" horiz-adv-x="1024" 
d="M504 1505l141 -379l-31 -16l-215 258q-41 51 -41 84t19.5 49.5t50.5 16.5q19 0 27 -2z" />
    <glyph glyph-name="a" unicode="a" horiz-adv-x="1060" 
d="M512 489h123v150q0 152 -46.5 229.5t-166.5 77.5q-69 0 -116.5 -22t-47.5 -70q0 -9 4 -29h57q17 -46 17 -80q0 -54 -32.5 -85t-84.5 -31q-50 0 -78 35t-28 94q0 110 102.5 173.5t251.5 63.5q191 0 277.5 -86t86.5 -301v-415q0 -61 17.5 -87t52.5 -26q42 0 63 38t29 154
l47 -4q-6 -153 -55.5 -220.5t-155.5 -67.5q-82 0 -129.5 37.5t-58.5 109.5q-38 -70 -113.5 -108.5t-171.5 -38.5q-60 0 -109.5 12.5t-89.5 39.5t-62.5 74t-22.5 111q0 76 31.5 129.5t91.5 84.5t137.5 44.5t179.5 13.5zM428 57q84 0 145.5 55.5t61.5 145.5v180h-76
q-276 0 -276 -219q0 -77 36 -119.5t109 -42.5z" />
    <glyph glyph-name="b" unicode="b" horiz-adv-x="1189" 
d="M676 918q-109 0 -196 -82t-87 -207v-316q0 -122 72.5 -196t196.5 -74q128 0 184.5 104.5t56.5 341.5q0 105 -9.5 178.5t-34 133t-70 88.5t-113.5 29zM399 1536v-719q113 178 332 178q185 0 286 -126t101 -371q0 -250 -115.5 -384t-316.5 -134q-113 0 -191 34.5
t-133 104.5l-114 -137h-45v1501h-166v53h362z" />
    <glyph glyph-name="c" unicode="c" horiz-adv-x="972" 
d="M573 946q-149 0 -217.5 -106t-68.5 -334q0 -234 67 -344.5t211 -110.5q72 0 126 24.5t85 66.5t48.5 85.5t25.5 94.5l59 -11q-6 -31 -13 -57.5t-21.5 -61.5t-33 -63t-49 -57t-67.5 -48.5t-90.5 -31.5t-116.5 -12q-214 0 -330 127t-116 362q0 257 132 391.5t357 134.5
q163 0 252.5 -69.5t89.5 -190.5q0 -75 -34 -112t-91 -37q-54 0 -86.5 33t-32.5 92q0 35 11 75h55q6 24 6 48q0 112 -158 112z" />
    <glyph glyph-name="d" unicode="d" horiz-adv-x="1183" 
d="M807 0l-16 158q-113 -178 -322 -178q-186 0 -291.5 126.5t-105.5 370.5q0 251 115 384.5t317 133.5q196 0 287 -143v631h-193v53h389v-1483h166v-53h-346zM514 57q112 0 197.5 81.5t85.5 207.5v322q0 59 -30 118.5t-91 102.5t-137 43q-131 0 -191.5 -110t-60.5 -337
q0 -104 10.5 -178.5t35.5 -133t70 -87.5t111 -29z" />
    <glyph glyph-name="e" unicode="e" horiz-adv-x="987" 
d="M72 477q0 131 35.5 231.5t100 162.5t150 93t189.5 31q194 0 289 -118t86 -349h-635v-28q0 -232 65 -341.5t226 -109.5q119 0 191 67.5t97 182.5l60 -8q-65 -311 -398 -311q-229 0 -342.5 132t-113.5 365zM289 584h428q10 177 -33.5 269.5t-155.5 92.5q-217 0 -239 -362z
" />
    <glyph glyph-name="f" unicode="f" horiz-adv-x="671" 
d="M651 975v-53h-250v-869h246v-53h-596v53h154v869h-160v53h160v119q0 233 94 361t293 128q113 0 188.5 -56.5t75.5 -156.5q0 -63 -31 -100t-86 -37t-86.5 28.5t-31.5 81.5q0 31 12 72h55q4 14 4 39q0 80 -114 80q-45 0 -78 -16t-52 -41t-29.5 -64.5t-14 -77t-3.5 -86.5
v-274h250z" />
    <glyph glyph-name="g" unicode="g" horiz-adv-x="1026" 
d="M860 1042l43 50q-6 45 -51 45q-34 0 -64 -44t-30 -126q0 -31 6 -72q90 -97 90 -233q0 -159 -97.5 -254t-264.5 -95q-67 0 -144 15q-127 -85 -127 -123q0 -18 16 -25.5t58 -7.5h280q76 0 134 -7t112 -26.5t88.5 -52.5t55 -87t20.5 -128q0 -383 -557 -383q-210 0 -317 62
t-107 178q0 133 152 163l53 -43q-23 -47 -23 -102q0 -95 73 -150t228 -55q192 0 294 72t102 192q0 97 -70.5 138t-226.5 41h-264q-105 0 -156 37.5t-51 101.5q0 50 40.5 99t135.5 122q-180 70 -180 303q0 69 23.5 130t69.5 110.5t123 78.5t175 29q126 0 215 -63q-2 14 -2 41
q0 101 53 167t147 66q60 0 98 -33.5t38 -89.5q0 -41 -27.5 -68.5t-71.5 -27.5q-33 0 -58.5 17t-33.5 38zM309 651q0 -156 44.5 -220t135.5 -64q82 0 126 64t44 222q0 157 -42 225t-130 68q-86 0 -132 -67t-46 -228z" />
    <glyph glyph-name="h" unicode="h" horiz-adv-x="1253" 
d="M49 1536h350v-754q19 41 48 76t72 67.5t105 51t136 18.5q147 0 225 -81t78 -261v-600h156v-53h-506v53h153v621q0 132 -36 190t-130 58q-122 0 -211.5 -93.5t-89.5 -232.5v-543h156v-53h-506v53h154v1430h-154v53z" />
    <glyph glyph-name="i" unicode="i" horiz-adv-x="604" 
d="M170 1311q0 52 32.5 86.5t90.5 34.5q57 0 91 -29.5t34 -91.5q0 -57 -32 -91t-91 -34q-65 0 -95 36.5t-30 88.5zM57 975h351v-922h155v-53h-506v53h154v869h-154v53z" />
    <glyph glyph-name="j" unicode="j" horiz-adv-x="583" 
d="M401 975v-901q0 -115 -20 -216t-61.5 -186t-113.5 -134.5t-167 -49.5q-56 0 -96 16t-60.5 43.5t-29.5 57t-9 63.5q0 67 35 105.5t88 38.5q45 0 73 -25.5t28 -77.5q0 -27 -13 -74h-59q-6 -18 -6 -36q0 -60 80 -60q32 0 55 10t37.5 34t23.5 49t13 70.5t5 83t1 99.5v1037
h-154v53h350zM156 1309q0 54 32.5 88.5t92.5 34.5q56 0 89 -29.5t33 -91.5q0 -57 -32 -91t-92 -34q-62 0 -92.5 36.5t-30.5 86.5z" />
    <glyph glyph-name="k" unicode="k" horiz-adv-x="1157" 
d="M668 0v53h145l-317 459l-97 -20v-439h133v-53h-483v53h154v1430h-154v53h350v-981l78 18l381 349h-182v53h416v-53h-140l-311 -289l403 -580h103v-53h-479z" />
    <glyph glyph-name="l" unicode="l" horiz-adv-x="606" 
d="M51 1536h350v-1483h154v-53h-504v53h154v1430h-154v53z" />
    <glyph glyph-name="m" unicode="m" horiz-adv-x="1843" 
d="M49 975h350v-187q21 41 45 73t62.5 65t95.5 51t129 18q238 0 285 -227q107 227 344 227q136 0 214.5 -81t78.5 -261v-600h155v-53h-505v53h153v649q0 119 -32.5 169.5t-118.5 50.5q-119 0 -199 -93t-80 -233v-543h156v-53h-506v53h153v639q0 125 -32.5 177.5t-118.5 52.5
q-119 0 -199 -93t-80 -233v-543h156v-53h-506v53h154v869h-154v53z" />
    <glyph glyph-name="n" unicode="n" horiz-adv-x="1253" 
d="M49 975h350v-193q19 41 48 76t72 67.5t105 51t136 18.5q147 0 225 -81t78 -261v-600h156v-53h-506v53h153v633q0 120 -36.5 178t-127.5 58q-123 0 -213 -93.5t-90 -232.5v-543h156v-53h-506v53h154v869h-154v53z" />
    <glyph glyph-name="o" unicode="o" horiz-adv-x="1067" 
d="M780 494q0 100 -10 175t-35 141t-75 101t-123 35q-61 0 -106 -23.5t-72.5 -62.5t-43.5 -98.5t-22 -121.5t-6 -142q0 -81 6 -145.5t22.5 -127t44 -104t72.5 -67t105 -25.5q58 0 101.5 23t70 62t43 99.5t22.5 127t6 153.5zM72 483q0 243 127 377.5t342 134.5
q220 0 337 -124t117 -377q0 -240 -121.5 -377t-341.5 -137q-218 0 -339 132t-121 371z" />
    <glyph glyph-name="p" unicode="p" horiz-adv-x="1185" 
d="M670 918q-104 0 -190.5 -82.5t-86.5 -206.5v-316q0 -66 31.5 -126.5t96.5 -102t149 -41.5q131 0 182 101.5t51 344.5q0 107 -9 179t-33.5 132t-71.5 89t-119 29zM399 975v-158q113 178 332 178q185 0 286 -126t101 -371q0 -252 -109.5 -385t-308.5 -133q-208 0 -301 137
v-551h265v-53h-639v53h178v1356h-166v53h362z" />
    <glyph glyph-name="q" unicode="q" horiz-adv-x="1185" 
d="M514 57q114 0 198.5 84t84.5 189v309q0 128 -77.5 210.5t-189.5 82.5q-57 0 -100 -22t-76 -71t-50 -134.5t-17 -206.5q0 -228 51 -334.5t176 -106.5zM1124 -487h-551v53h218v588q-105 -174 -332 -174q-185 0 -286 128.5t-101 370.5q0 249 117 382.5t319 133.5
q104 0 181.5 -41.5t111.5 -111.5v133h323v-53h-137v-1356h137v-53z" />
    <glyph glyph-name="r" unicode="r" horiz-adv-x="878" 
d="M621 918q-88 0 -155 -112.5t-67 -252.5v-500h217v-53h-567v53h154v869h-154v53h350v-197q30 107 96 162t156 55q94 0 150.5 -51.5t56.5 -134.5t-37 -121.5t-94 -38.5q-53 0 -84 34t-31 95q0 29 6 56h64q4 12 4 32q0 52 -65 52z" />
    <glyph glyph-name="s" unicode="s" horiz-adv-x="874" 
d="M76 -20v339h53q9 -131 104.5 -201.5t227.5 -70.5q244 0 244 184q0 32 -9 57t-30 43t-41.5 30t-56.5 22t-61 15.5t-69 13.5q-49 9 -72 13.5t-67 16t-66.5 23t-53.5 32.5t-46.5 46t-27 61.5t-11.5 81.5q0 131 94 220t244 89q99 0 201 -47q33 -14 57 -14q14 0 20 15t9 50h45
v-303h-51q-27 120 -99.5 181t-181.5 61q-99 0 -160 -42t-61 -116q0 -91 97 -130q44 -18 165 -40q45 -8 71.5 -14t67.5 -18.5t66 -26.5t54.5 -37.5t46 -52.5t27.5 -70.5t11 -91.5q0 -142 -95 -230.5t-263 -88.5q-149 0 -273 69q-18 12 -30 12q-14 0 -21 -16t-14 -65h-45z" />
    <glyph glyph-name="t" unicode="t" horiz-adv-x="806" 
d="M195 223v699h-154v53h154v264l196 53v-317h287v-53h-287v-674q0 -93 29.5 -132.5t107.5 -39.5q82 0 124.5 54.5t56.5 162.5l47 -6q-7 -66 -23.5 -116.5t-49 -96t-89 -70t-135.5 -24.5q-264 0 -264 243z" />
    <glyph glyph-name="u" unicode="u" horiz-adv-x="1236" 
d="M1198 0h-336l-12 190q-19 -41 -47 -75.5t-69.5 -66.5t-100.5 -50t-129 -18q-307 0 -307 342v600h-156v53h352v-676q0 -127 35 -186.5t135 -59.5q71 0 137 46t105 118.5t39 147.5v557h-156v53h352v-922h158v-53z" />
    <glyph glyph-name="v" unicode="v" horiz-adv-x="1015" 
d="M0 922v53h479v-53h-168l264 -684l256 684h-161v53h346v-53h-103l-370 -942h-54l-397 942h-92z" />
    <glyph glyph-name="w" unicode="w" horiz-adv-x="1562" 
d="M592 922v53h430v-53h-131l276 -674l211 674h-161v53h346v-53h-103l-321 -942h-54l-282 688l-287 -688h-53l-371 942h-92v53h451v-53h-148l250 -689l207 517l-70 172h-98z" />
    <glyph glyph-name="x" unicode="x" horiz-adv-x="1083" 
d="M1083 53v-53h-516v53h162l-250 355l-274 -355h182v-53h-364v53h102l315 410l-329 459h-111v53h500v-53h-164l233 -332l269 332h-162v53h346v-53h-102l-314 -383l350 -486h127z" />
    <glyph glyph-name="y" unicode="y" horiz-adv-x="1015" 
d="M0 922v53h471v-53h-168l270 -705l258 705h-161v53h346v-53h-103l-421 -1088q-78 -200 -147.5 -273t-184.5 -73q-110 0 -164.5 58t-54.5 130q0 70 37.5 110t91.5 40q46 0 77 -28t31 -79q0 -29 -12 -73h-70q-8 -28 -8 -41q0 -62 82 -62q44 0 80 21.5t67.5 67.5t57 102
t55.5 139l45 125l-383 924h-92z" />
    <glyph glyph-name="z" unicode="z" horiz-adv-x="1019" 
d="M913 975v-53l-583 -869h291q53 0 91.5 11.5t65 30t48.5 57.5t37 79t36 109h39l-20 -340h-816v47l592 875h-270q-44 0 -69.5 -2t-53 -11t-43.5 -24.5t-35.5 -45t-35.5 -69.5t-37 -102h-44l21 307h786z" />
    <glyph glyph-name="braceleft" unicode="{" horiz-adv-x="673" 
d="M102 696q39 1 68.5 9t60 30.5t47.5 70.5t17 120q0 80 -29.5 228t-29.5 212q0 115 60 179.5t179 64.5q58 0 127 -25l-12 -43q-53 17 -88 17q-46 0 -74.5 -28.5t-28.5 -107.5q0 -61 29 -235t29 -244q0 -48 -8.5 -86.5t-26.5 -65.5t-36.5 -45.5t-48 -33t-50.5 -22t-54 -17.5
v-2q40 -13 66.5 -24t59.5 -32.5t52 -48.5t32.5 -70t13.5 -98q0 -69 -29 -262.5t-29 -247.5q0 -80 33 -110.5t88 -30.5q48 0 88 19l15 -46q-63 -26 -131 -26q-125 0 -190.5 66t-65.5 182q0 60 29.5 228.5t29.5 244.5q0 225 -193 229v51z" />
    <glyph glyph-name="bar" unicode="|" horiz-adv-x="718" 
d="M287 -260v1888h80v-1888h-80z" />
    <glyph glyph-name="braceright" unicode="}" horiz-adv-x="673" 
d="M571 696v-51q-192 -4 -192 -229q0 -76 29.5 -244.5t29.5 -228.5q0 -116 -65.5 -182t-190.5 -66q-68 0 -131 26l15 46q40 -19 88 -19q55 0 87.5 30.5t32.5 110.5q0 54 -28.5 247.5t-28.5 262.5q0 55 13.5 98t32.5 70t51.5 48.5t59 32.5t66.5 24v2q-40 12 -64.5 21
t-58.5 30t-53 47t-33 70.5t-14 101.5q0 70 28.5 244t28.5 235q0 80 -28 108t-74 28q-35 0 -88 -17l-12 43q69 25 127 25q119 0 179 -64.5t60 -179.5q0 -64 -29.5 -212t-29.5 -228q0 -58 12 -100.5t30 -66.5t45 -38.5t51 -19t54 -5.5z" />
    <glyph glyph-name="asciitilde" unicode="~" horiz-adv-x="952" 
d="M702 608q-102 0 -278 45q-144 37 -215 37q-81 0 -125 -88l-35 12q64 201 215 201q82 0 238 -39q7 -2 39 -10l42 -10.5t37 -8.5t42 -8t36.5 -4t40.5 -2q44 0 72 18.5t53 69.5l39 -10q-71 -203 -201 -203z" />
    <glyph glyph-name="uni00A0" unicode="&#xa0;" horiz-adv-x="409" 
 />
    <glyph glyph-name="exclamdown" unicode="&#xa1;" horiz-adv-x="772" 
d="M354 414v196h64v-194q0 -139 14.5 -270t32.5 -210.5t32.5 -158.5t14.5 -127q0 -61 -29 -96t-86 -35q-59 0 -92 35.5t-33 97.5q0 47 20.5 155.5t41 270t20.5 336.5zM256 866q0 54 31.5 91.5t99.5 37.5q62 0 95.5 -35.5t33.5 -95.5q0 -63 -35.5 -95t-95.5 -32
q-61 0 -95 36.5t-34 92.5z" />
    <glyph glyph-name="cent" unicode="&#xa2;" horiz-adv-x="1003" 
d="M338 -41l55 246q-131 35 -201.5 140.5t-70.5 268.5q0 223 126 344t335 121h12l51 221l57 -14l-49 -211q122 -15 190 -80.5t68 -165.5q0 -69 -31 -104t-83 -35q-54 0 -80.5 34t-26.5 85q0 34 8 61h56q4 14 4 43q0 99 -115 113l-170 -739q47 -23 117 -23q48 0 88 13t66 32
t48.5 49.5t35 56.5t26.5 62l57 -12q-15 -46 -29 -79t-43.5 -74t-66 -66t-96.5 -42.5t-135 -17.5q-41 0 -88 7l-58 -250zM330 651q0 -235 92 -327l162 706q-130 -5 -192 -96.5t-62 -282.5z" />
    <glyph glyph-name="sterling" unicode="&#xa3;" horiz-adv-x="1155" 
d="M274 199q58 111 58 241q0 64 -29 164h-229v64h209q-24 70 -36 107.5t-25 106.5t-13 134q0 201 124.5 320.5t328.5 119.5q181 0 271.5 -70.5t90.5 -195.5q0 -78 -37 -117t-98 -39q-57 0 -93 31t-36 88q0 33 8 66h84q6 21 6 43q0 61 -47 96t-127 35q-134 0 -191 -89
t-57 -270v-366h426v-64h-426v-117q0 -167 -96 -292l2 -2q42 24 96.5 39.5t93.5 15.5q56 0 119.5 -21t108.5 -45.5t91.5 -45.5t72.5 -21q52 0 73 39t29 149l51 -2q-1 -167 -58 -253.5t-163 -86.5q-55 0 -99.5 12.5t-111.5 42.5l-311 131q-55 -170 -162 -170q-37 0 -61.5 19
t-24.5 51q0 51 54 95.5t134 56.5z" />
    <glyph glyph-name="currency" unicode="&#xa4;" horiz-adv-x="1085" 
d="M203 696q0 108 59 197l-158 182l39 37l185 -145q92 63 213 63q124 0 200 -61l185 141l35 -33l-154 -174q57 -85 57 -201q0 -110 -61 -204l153 -201l-36 -35l-193 158q-75 -60 -192 -60q-123 0 -203 56l-182 -152l-37 37l147 182q-57 83 -57 213zM283 696
q0 -122 60.5 -197t193.5 -75q118 0 182.5 77.5t64.5 194.5q0 124 -63 199.5t-189 75.5q-123 0 -186 -78.5t-63 -196.5z" />
    <glyph glyph-name="yen" unicode="&#xa5;" horiz-adv-x="1247" 
d="M186 717v61h299l-317 602h-137v54h563v-54h-184l288 -571l301 571h-196v54h414v-54h-136l-317 -602h301v-61h-332v-154h332v-61h-332v-443h174v-59h-563v59h174v443h-332v61h332v154h-332z" />
    <glyph glyph-name="brokenbar" unicode="&#xa6;" horiz-adv-x="718" 
d="M285 844v784h80v-784h-80zM285 -260v895h80v-895h-80z" />
    <glyph glyph-name="section" unicode="&#xa7;" horiz-adv-x="1228" 
d="M696 1409q-298 0 -372 -319q125 -22 236.5 -60.5t212.5 -100.5t174 -140.5t116 -185.5t43 -230q0 -143 -49 -263.5t-132 -201t-192.5 -125.5t-230.5 -45q-58 0 -113 12t-106.5 37.5t-83 73.5t-31.5 112q0 57 37.5 99.5t97.5 42.5q55 0 86 -31.5t31 -87.5q0 -27 -4 -43
l-68 -16q-8 -21 -8 -48q0 -104 170 -104q315 0 383 371q-128 21 -239.5 55.5t-214.5 92t-176.5 132.5t-117 180t-43.5 230q0 138 49 254t132 193t192 120t230 43q58 0 113 -12t106.5 -37.5t82.5 -73.5t31 -112q0 -58 -33.5 -98t-93.5 -40q-57 0 -91 30.5t-34 84.5q0 23 5 43
l67 16q6 24 6 46q0 54 -40.5 80t-127.5 26zM909 352q0 283 -149.5 452.5t-444.5 239.5q-12 -76 -12 -165q0 -538 596 -678q10 78 10 151z" />
    <glyph glyph-name="dieresis" unicode="&#xa8;" horiz-adv-x="1024" 
d="M201 1280q0 45 29 77t81 32q50 0 81.5 -27.5t31.5 -81.5q0 -51 -29 -82t-82 -31q-58 0 -85 33t-27 80zM600 1280q0 45 29.5 77t81.5 32q50 0 81 -27.5t31 -81.5q0 -51 -28.5 -82t-81.5 -31q-59 0 -86 32.5t-27 80.5z" />
    <glyph glyph-name="copyright" unicode="&#xa9;" horiz-adv-x="1599" 
d="M1477 655q0 -207 -86 -361.5t-239 -235.5t-353 -81q-165 0 -294.5 48.5t-212.5 135.5t-126 205t-43 261q0 155 53 283.5t145.5 214t216.5 132t265 46.5q312 0 493 -176t181 -472zM1409 643q0 191 -79 329t-214.5 206.5t-312.5 68.5q-174 0 -311 -72.5t-217 -214
t-80 -331.5q0 -277 161 -435.5t443 -158.5q280 0 445 163.5t165 444.5zM827 1016q-116 0 -173.5 -85.5t-57.5 -279.5q0 -186 57.5 -275t177.5 -89q80 0 138.5 57.5t83.5 161.5h24l-8 -244h-20q-1 3 -4 8.5t-5 8.5t-5 7t-6.5 5.5t-8.5 1.5q-1 0 -73 -21.5t-134 -21.5
q-166 0 -270.5 100.5t-104.5 300.5q0 186 112.5 294t270.5 108q54 0 121.5 -20.5t71.5 -20.5q5 0 8.5 1.5t6 5t4.5 6.5t4.5 8.5t4.5 8.5h19l6 -243h-29q-23 105 -78 161t-133 56z" />
    <glyph glyph-name="ordfeminine" unicode="&#xaa;" horiz-adv-x="858" 
d="M399 979h105v94q0 106 -34.5 156.5t-125.5 50.5q-117 0 -117 -66q0 -2 4 -22h45q13 -39 13 -59q0 -39 -26 -62.5t-66 -23.5t-65.5 27.5t-25.5 70.5q0 82 80.5 132t192.5 50q143 0 213 -61.5t70 -212.5v-289q0 -80 51 -80q31 0 43.5 23t21.5 106l39 -2q-3 -111 -43 -158
t-117 -47q-134 0 -149 105q-57 -105 -205 -105q-100 0 -160.5 41t-60.5 133q0 199 317 199zM352 674q62 0 107 39t45 102v117h-58q-111 0 -153.5 -38.5t-42.5 -109.5q0 -51 25.5 -80.5t76.5 -29.5z" />
    <glyph glyph-name="guillemotleft" unicode="&#xab;" horiz-adv-x="980" 
d="M106 524l355 297l31 -24l-228 -324l223 -348l-28 -25l-320 279q-53 42 -53 78q0 31 20 67zM467 524l354 297l31 -24l-227 -324l223 -348l-29 -25l-319 279q-54 42 -54 78q0 29 21 67z" />
    <glyph glyph-name="logicalnot" unicode="&#xac;" horiz-adv-x="1228" 
d="M1001 336v274h-851v74h929v-348h-78z" />
    <glyph glyph-name="uni00AD" unicode="&#xad;" horiz-adv-x="751" 
d="M94 492v120h563v-120h-563z" />
    <glyph glyph-name="registered" unicode="&#xae;" horiz-adv-x="940" 
d="M858 983q0 -171 -108.5 -278t-280.5 -107q-186 0 -286.5 103t-100.5 268q0 175 111.5 281t277.5 106q178 0 282.5 -101.5t104.5 -271.5zM797 977q0 153 -92 240.5t-234 87.5q-145 0 -235.5 -90.5t-90.5 -243.5q0 -149 85.5 -234.5t240.5 -85.5q149 0 237.5 88.5
t88.5 237.5zM451 987h-27v-172h57v-22h-182v22h45v348h-45v23h147q40 0 67.5 -3.5t53 -12.5t38.5 -28t13 -48q0 -48 -31.5 -70t-90.5 -27v-2q59 -5 82.5 -26t23.5 -70v-47q0 -17 5.5 -25t21.5 -8t23.5 12t11.5 48l22 -2q-2 -20 -5 -33t-11 -28t-24 -22.5t-40 -7.5
q-82 0 -82 68v68q0 65 -73 65zM424 1163v-155h6q57 0 82 20.5t25 61.5q0 40 -22.5 56.5t-80.5 16.5h-10z" />
    <glyph glyph-name="macron" unicode="&#xaf;" horiz-adv-x="1024" 
d="M233 1210v107h558v-107h-558z" />
    <glyph glyph-name="degree" unicode="&#xb0;" horiz-adv-x="569" 
d="M150 1208q0 -68 34 -107.5t103 -39.5q64 0 98.5 40t34.5 107q0 69 -35.5 107.5t-101.5 38.5q-64 0 -98.5 -40t-34.5 -106zM70 1208q0 88 58 147.5t161 59.5q101 0 156 -55t55 -148q0 -92 -57 -152.5t-158 -60.5q-106 0 -160.5 57.5t-54.5 151.5z" />
    <glyph glyph-name="plusminus" unicode="&#xb1;" 
d="M1028 612h-432v-383h-82v383h-416v74h416v358h82v-358h432v-74zM1028 0h-930v74h930v-74z" />
    <glyph glyph-name="twosuperior" unicode="&#xb2;" horiz-adv-x="677" 
d="M45 807v94l180 180q124 126 167.5 209t43.5 189q0 78 -31.5 111.5t-107.5 33.5q-62 0 -95.5 -18t-33.5 -47q0 -21 8 -37h39q10 -27 10 -58q0 -33 -24.5 -54t-63.5 -21q-44 0 -68 28t-24 72q0 89 79.5 140.5t205.5 51.5q141 0 210.5 -55t69.5 -153q0 -52 -12.5 -89.5
t-61 -97.5t-134 -138t-240.5 -208h244q90 0 125 30.5t51 106.5h45l-11 -270h-571z" />
    <glyph glyph-name="threesuperior" unicode="&#xb3;" horiz-adv-x="692" 
d="M330 1681q129 0 198.5 -51t69.5 -141q0 -156 -207 -215q128 -17 191 -74.5t63 -148.5q0 -116 -98 -186t-258 -70q-51 0 -95 9.5t-81 29.5t-58.5 56t-21.5 85q0 44 24 72t68 28q39 0 63.5 -21.5t24.5 -56.5q0 -12 -10 -57h-41q-6 -15 -6 -35q0 -23 32.5 -38t98.5 -15
q178 0 178 195q0 83 -35 130t-96 74q-64 -15 -131 -20l-6 53q120 10 175.5 51t55.5 148q0 73 -32.5 107t-96.5 34q-53 0 -85 -18t-32 -41q0 -15 6 -27h37q8 -21 8 -53q0 -34 -22 -54t-59 -20q-41 0 -63.5 25.5t-22.5 66.5q0 86 74 132t190 46z" />
    <glyph glyph-name="acute" unicode="&#xb4;" horiz-adv-x="1024" 
d="M358 1126l142 379l49 11q8 2 26 2q31 0 50.5 -16.5t19.5 -49.5t-41 -84l-215 -258z" />
    <glyph glyph-name="mu" unicode="&#xb5;" horiz-adv-x="1210" 
d="M983 -20q-90 0 -140 55.5t-50 163.5q-41 -107 -119.5 -163t-163.5 -56q-180 0 -246 161l-8 -6q33 -145 73.5 -300.5t47.5 -186.5q10 -48 -28.5 -71t-92.5 -13l-92 18v1383l194 18v-598q0 -124 46 -195t141 -71q50 0 91 14t77.5 46.5t57 95.5t20.5 151v539l194 18v-790
q0 -61 17.5 -87t52.5 -26q42 0 63 38t29 154l47 -4q-6 -153 -55.5 -220.5t-155.5 -67.5z" />
    <glyph glyph-name="paragraph" unicode="&#xb6;" horiz-adv-x="1396" 
d="M745 18v510h-30q-87 0 -162 14.5t-143 48.5t-116 85t-76 129t-28 176q0 114 41 201.5t115.5 142t173.5 82t221 27.5h465v-54h-133v-1220q0 -132 -25 -221.5t-83 -150t-152.5 -87.5t-234.5 -27q-168 0 -255 74.5t-87 183.5q0 91 45.5 140t115.5 49q62 0 101 -33t39 -104
q0 -33 -17 -103h-86q-14 -32 -14 -51q0 -44 40 -72t118 -28q95 0 131 65t36 223zM815 -4q0 -92 -13.5 -152t-53.5 -96q67 15 115 44t76 65t43.5 89.5t20.5 106t5 125.5v1202h-193v-1384z" />
    <glyph glyph-name="periodcentered" unicode="&#xb7;" horiz-adv-x="542" 
d="M123 653q0 64 39 106t108 42q68 0 109 -37t41 -109q0 -68 -39 -108.5t-109 -40.5q-78 0 -113.5 42.5t-35.5 104.5z" />
    <glyph glyph-name="cedilla" unicode="&#xb8;" horiz-adv-x="1024" 
d="M500 27h59l-82 -140q28 4 49 4q82 0 127 -43.5t45 -113.5q0 -77 -59 -131t-164 -54q-74 0 -123 36.5t-49 84.5q0 33 17 48.5t42 15.5q22 0 41.5 -13.5t26.5 -37.5l-35 -33q0 -26 20 -44t58 -18q98 0 98 131q0 64 -23.5 94.5t-76.5 30.5q-28 0 -61 -8l-7 25z" />
    <glyph glyph-name="onesuperior" unicode="&#xb9;" horiz-adv-x="542" 
d="M201 1606l-158 -13l-6 54l272 34h66v-821h123v-53h-443v53h146v746z" />
    <glyph glyph-name="ordmasculine" unicode="&#xba;" horiz-adv-x="839" 
d="M598 971q0 71 -7 122.5t-25.5 96t-54.5 67.5t-89 23q-54 0 -90.5 -22t-55 -66t-25.5 -95t-7 -122q0 -72 7.5 -126.5t26.5 -100.5t55 -70.5t89 -24.5q52 0 87.5 21.5t54.5 65.5t26.5 99t7.5 132zM72 965q0 172 96.5 267t257.5 95q165 0 253.5 -88.5t88.5 -267.5
q0 -170 -91.5 -267.5t-256.5 -97.5q-164 0 -256 94.5t-92 264.5z" />
    <glyph glyph-name="guillemotright" unicode="&#xbb;" horiz-adv-x="980" 
d="M514 397l-354 -297l-29 25l225 324l-223 346l29 26l319 -278q29 -26 41.5 -42.5t12.5 -35.5q0 -37 -21 -68zM874 397l-354 -297l-28 25l225 324l-223 346l28 26l320 -278q29 -25 41 -42t12 -36q0 -37 -21 -68z" />
    <glyph glyph-name="onequarter" unicode="&#xbc;" horiz-adv-x="1740" 
d="M279 1360l-158 -12l-6 53l272 35h66v-822h122v-53h-442v53h146v746zM389 -20l889 1476h86l-887 -1476h-88zM1159 0v53h123v158h-364v55l376 594h158v-590h119v78h55v-219h-55v82h-119v-158h90v-53h-383zM985 270h297v463z" />
    <glyph glyph-name="onehalf" unicode="&#xbd;" horiz-adv-x="1740" 
d="M268 1360l-157 -12l-7 53l273 35h65v-822h123v-53h-442v53h145v746zM373 -20l889 1476h86l-887 -1476h-88zM1053 0v94l180 180q124 126 167.5 209t43.5 189q0 78 -31.5 111.5t-107.5 33.5q-62 0 -95.5 -18t-33.5 -47q0 -21 8 -37h39q10 -27 10 -58q0 -33 -24.5 -54
t-63.5 -21q-44 0 -68 28t-24 72q0 89 79 140.5t205 51.5q142 0 211.5 -55.5t69.5 -152.5q0 -68 -29 -123t-122 -146.5t-298 -263.5h244q90 0 125 30.5t51 106.5h45l-10 -270h-571z" />
    <glyph glyph-name="threequarters" unicode="&#xbe;" horiz-adv-x="1740" 
d="M365 1436q129 0 198.5 -51.5t69.5 -141.5q0 -156 -207 -215q128 -17 191 -74.5t63 -148.5q0 -116 -98 -186t-258 -70q-51 0 -95 9.5t-81 29.5t-58.5 56t-21.5 85q0 44 24 72t68 28q39 0 63.5 -21t24.5 -56q0 -13 -10 -58h-41q-7 -18 -7 -35q0 -23 33 -38t99 -15
q178 0 178 195q0 147 -131 205q-71 -16 -131 -21l-7 53q120 10 176 51t56 148q0 73 -32.5 107t-96.5 34q-53 0 -85 -18t-32 -41q0 -15 6 -27h37q8 -21 8 -53q0 -34 -22.5 -54t-59.5 -20q-41 0 -63.5 25.5t-22.5 66.5q0 86 74.5 132.5t190.5 46.5zM442 -20l889 1476h86
l-887 -1476h-88zM1206 0v53h123v158h-364v55l376 594h158v-590h119v78h55v-219h-55v82h-119v-158h90v-53h-383zM1032 270h297v463z" />
    <glyph glyph-name="questiondown" unicode="&#xbf;" horiz-adv-x="1058" 
d="M553 -481q-180 0 -284.5 93.5t-104.5 233.5q0 144 133 269l283 268v238h51v-414q0 -34 -23 -57l-155 -162q-57 -60 -79 -108t-22 -107q0 -98 67.5 -151.5t174.5 -53.5q93 0 150 28.5t57 81.5q0 21 -4 31h-58q-16 43 -16 80q0 54 32.5 85.5t84.5 31.5q50 0 78 -35t28 -94
q0 -113 -111 -185.5t-282 -72.5zM735 866q0 -56 -34 -92.5t-95 -36.5q-60 0 -95.5 32t-35.5 95q0 60 33.5 95.5t95.5 35.5q68 0 99.5 -37.5t31.5 -91.5z" />
    <glyph glyph-name="Agrave" unicode="&#xc0;" horiz-adv-x="1361" 
d="M985 59l-143 418h-465l-152 -418h187v-59h-412v59h143l521 1397h55l502 -1397h141v-59h-557v59h180zM616 1151l-219 -614h424zM528 1831l291 -301l-22 -29l-310 162q-34 16 -49.5 34t-15.5 46q0 27 15.5 45t54.5 31z" />
    <glyph glyph-name="Aacute" unicode="&#xc1;" horiz-adv-x="1361" 
d="M985 59l-143 418h-465l-152 -418h187v-59h-412v59h143l521 1397h55l502 -1397h141v-59h-557v59h180zM616 1151l-219 -614h424zM559 1530l291 301l37 -12q38 -13 53.5 -31t15.5 -45q0 -28 -15.5 -46t-49.5 -34l-309 -162z" />
    <glyph glyph-name="Acircumflex" unicode="&#xc2;" horiz-adv-x="1361" 
d="M985 59l-143 418h-465l-152 -418h187v-59h-412v59h143l521 1397h55l502 -1397h141v-59h-557v59h180zM616 1151l-219 -614h424zM383 1520l260 274q29 21 68 21q19 0 35.5 -12t41.5 -42l209 -237l-20 -31l-283 172l-288 -174z" />
    <glyph glyph-name="Atilde" unicode="&#xc3;" horiz-adv-x="1361" 
d="M985 59l-143 418h-465l-152 -418h187v-59h-412v59h143l521 1397h55l502 -1397h141v-59h-557v59h180zM616 1151l-219 -614h424zM823 1577q-74 0 -182 47q-87 35 -127 35q-67 0 -104 -88l-39 12q27 91 78 146t141 55q15 0 31 -2t25.5 -4t28 -8.5t24 -8.5t28.5 -12t27 -12
q90 -35 127 -35t60 18.5t44 69.5l41 -10q-29 -99 -82.5 -151t-120.5 -52z" />
    <glyph glyph-name="Adieresis" unicode="&#xc4;" horiz-adv-x="1361" 
d="M985 59l-143 418h-465l-152 -418h187v-59h-412v59h143l521 1397h55l502 -1397h141v-59h-557v59h180zM616 1151l-219 -614h424zM379 1669q0 45 29 77t81 32q50 0 81.5 -27.5t31.5 -81.5q0 -51 -28.5 -82t-81.5 -31q-58 0 -85.5 33t-27.5 80zM778 1669q0 45 29.5 77
t81.5 32q50 0 81 -27.5t31 -81.5q0 -51 -28.5 -82t-81.5 -31q-59 0 -86 32.5t-27 80.5z" />
    <glyph glyph-name="Aring" unicode="&#xc5;" horiz-adv-x="1361" 
d="M985 59l-143 418h-465l-152 -418h187v-59h-412v59h143l521 1397h55l502 -1397h141v-59h-557v59h180zM616 1151l-219 -614h424zM584 1663q0 -51 27.5 -85t86.5 -34q55 0 83 33.5t28 85.5q0 51 -29.5 85t-85.5 34q-53 0 -81.5 -35t-28.5 -84zM510 1663q0 76 49 126t141 50
q88 0 135.5 -47t47.5 -125q0 -82 -49 -132t-138 -50q-94 0 -140 48t-46 130z" />
    <glyph glyph-name="AE" unicode="&#xc6;" horiz-adv-x="1900" 
d="M862 1374l-317 -633h340v633h-23zM1786 0h-1063v59h162v617h-373l-309 -617h174v-59h-377v59h121l663 1315h-147v60h1089l21 -385h-49q-8 57 -19 101.5t-27.5 78t-34.5 57.5t-45.5 40t-53.5 25.5t-66 14.5t-75.5 6.5t-88.5 1.5h-188v-633h106q124 0 170.5 51t71.5 212h43
v-607h-47q-10 61 -19 99.5t-23 72.5t-30.5 52.5t-43.5 32t-60.5 18t-81.5 4.5h-86v-617h215q220 0 314.5 78.5t129.5 288.5h41z" />
    <glyph glyph-name="Ccedilla" unicode="&#xc7;" horiz-adv-x="1329" 
d="M752 1399q-435 0 -435 -678q0 -326 112.5 -505t330.5 -179q329 0 424 401h45l-15 -436h-30q-12 23 -22.5 32t-31.5 9q-20 0 -145 -30t-221 -33l-53 -93q28 4 49 4q82 0 127 -43.5t45 -113.5q0 -77 -59 -131t-164 -54q-74 0 -123 36.5t-49 84.5q0 33 17 48.5t42 15.5
q22 0 41.5 -13.5t26.5 -37.5l-35 -33q0 -26 20 -44t58 -18q98 0 98 131q0 64 -23.5 94.5t-76.5 30.5q-29 0 -62 -8l-6 25l70 121q-145 5 -258 50t-196 133t-127 228t-44 326q0 178 51.5 319.5t142.5 232t212 138t264 47.5q69 0 145.5 -16t133.5 -31.5t81 -15.5q21 0 31 9
t22 32h31l14 -424h-45q-46 196 -146.5 292.5t-266.5 96.5z" />
    <glyph glyph-name="Egrave" unicode="&#xc8;" horiz-adv-x="1261" 
d="M84 1434h1003l21 -385h-49q-8 57 -19 101.5t-27.5 78t-34.5 57.5t-45.5 40t-53.5 25.5t-66 14.5t-75.5 6.5t-88.5 1.5h-188v-612h106q124 0 170.5 51t71.5 211h43v-606h-47q-12 73 -23.5 116t-29 78t-44.5 51.5t-65 24.5t-96 8h-86v-637h215q220 0 314.5 78.5
t129.5 288.5h41l-14 -426h-1063v59h162v1315h-162v60zM496 1831l290 -301l-22 -29l-309 162q-34 16 -50 34t-16 46q0 27 15.5 45t54.5 31z" />
    <glyph glyph-name="Eacute" unicode="&#xc9;" horiz-adv-x="1261" 
d="M84 1434h1003l21 -385h-49q-8 57 -19 101.5t-27.5 78t-34.5 57.5t-45.5 40t-53.5 25.5t-66 14.5t-75.5 6.5t-88.5 1.5h-188v-612h106q124 0 170.5 51t71.5 211h43v-606h-47q-12 73 -23.5 116t-29 78t-44.5 51.5t-65 24.5t-96 8h-86v-637h215q220 0 314.5 78.5
t129.5 288.5h41l-14 -426h-1063v59h162v1315h-162v60zM481 1530l291 301l37 -12q39 -13 54.5 -31t15.5 -45q0 -28 -16 -46t-50 -34l-309 -162z" />
    <glyph glyph-name="Ecircumflex" unicode="&#xca;" horiz-adv-x="1261" 
d="M84 1434h1003l21 -385h-49q-8 57 -19 101.5t-27.5 78t-34.5 57.5t-45.5 40t-53.5 25.5t-66 14.5t-75.5 6.5t-88.5 1.5h-188v-612h106q124 0 170.5 51t71.5 211h43v-606h-47q-12 73 -23.5 116t-29 78t-44.5 51.5t-65 24.5t-96 8h-86v-637h215q220 0 314.5 78.5
t129.5 288.5h41l-14 -426h-1063v59h162v1315h-162v60zM324 1520l260 274q29 21 67 21q33 0 78 -54l209 -237l-20 -31l-283 172l-289 -174z" />
    <glyph glyph-name="Edieresis" unicode="&#xcb;" horiz-adv-x="1261" 
d="M84 1434h1003l21 -385h-49q-8 57 -19 101.5t-27.5 78t-34.5 57.5t-45.5 40t-53.5 25.5t-66 14.5t-75.5 6.5t-88.5 1.5h-188v-612h106q124 0 170.5 51t71.5 211h43v-606h-47q-12 73 -23.5 116t-29 78t-44.5 51.5t-65 24.5t-96 8h-86v-637h215q220 0 314.5 78.5
t129.5 288.5h41l-14 -426h-1063v59h162v1315h-162v60zM319 1669q0 45 29.5 77t81.5 32q50 0 81.5 -27.5t31.5 -81.5q0 -51 -29 -82t-82 -31q-58 0 -85.5 33t-27.5 80zM719 1669q0 45 29 77t81 32q50 0 81.5 -27.5t31.5 -81.5q0 -51 -29 -82t-82 -31q-59 0 -85.5 32.5
t-26.5 80.5z" />
    <glyph glyph-name="Igrave" unicode="&#xcc;" horiz-adv-x="706" 
d="M92 1434h522v-60h-153v-1315h153v-59h-522v59h154v1315h-154v60zM217 1831l291 -301l-23 -29l-309 162q-34 16 -49.5 34t-15.5 46q0 27 15.5 45t53.5 31z" />
    <glyph glyph-name="Iacute" unicode="&#xcd;" horiz-adv-x="706" 
d="M92 1434h522v-60h-153v-1315h153v-59h-522v59h154v1315h-154v60zM199 1530l290 301l37 -12q39 -13 54.5 -31t15.5 -45q0 -28 -16 -46t-50 -34l-309 -162z" />
    <glyph glyph-name="Icircumflex" unicode="&#xce;" horiz-adv-x="706" 
d="M92 1434h522v-60h-153v-1315h153v-59h-522v59h154v1315h-154v60zM47 1520l260 274q29 21 68 21q33 0 78 -54l209 -237l-21 -31l-283 172l-288 -174z" />
    <glyph glyph-name="Idieresis" unicode="&#xcf;" horiz-adv-x="706" 
d="M92 1434h522v-60h-153v-1315h153v-59h-522v59h154v1315h-154v60zM43 1669q0 45 29.5 77t81.5 32q50 0 81 -27.5t31 -81.5q0 -51 -28.5 -82t-81.5 -31q-58 0 -85.5 33t-27.5 80zM442 1669q0 45 29.5 77t81.5 32q50 0 81.5 -27.5t31.5 -81.5q0 -51 -29 -82t-82 -31
q-59 0 -86 32.5t-27 80.5z" />
    <glyph glyph-name="Eth" unicode="&#xd0;" horiz-adv-x="1462" 
d="M51 729v59h195v592h-176v54h505q192 0 335 -37t248 -117.5t158.5 -215.5t53.5 -323q0 -169 -43 -298.5t-117.5 -212.5t-184.5 -135.5t-233 -73.5t-274 -21h-448v53h176v676h-195zM461 53h90q299 0 440.5 171.5t141.5 504.5q0 156 -25 268t-71.5 186.5t-124 118t-172 61
t-226.5 17.5h-53v-592h403v-59h-403v-676z" />
    <glyph glyph-name="Ntilde" unicode="&#xd1;" horiz-adv-x="1445" 
d="M1221 1374v-1388h-62l-842 1337v-1264h154v-59h-379v59h154v1315h-154v60h410l647 -1035v975h-154v60h379v-60h-153zM870 1577q-74 0 -182 47q-87 35 -127 35q-67 0 -104 -88l-39 12q27 91 78 146t141 55q15 0 31 -2t25.5 -4t28 -8.5t24 -8.5t28.5 -12t27 -12
q90 -35 127 -35t60 18.5t44 69.5l41 -10q-29 -99 -82.5 -151t-120.5 -52z" />
    <glyph glyph-name="Ograve" unicode="&#xd2;" horiz-adv-x="1460" 
d="M1139 723q0 123 -9.5 217.5t-36.5 182.5t-70.5 145t-115 91t-168.5 34q-102 0 -177.5 -34t-121.5 -91t-73.5 -146.5t-37.5 -185t-10 -221.5q0 -116 10 -209.5t38 -182.5t73 -148.5t119.5 -95.5t173.5 -36q97 0 169 34t117 92t72 146.5t37.5 185.5t10.5 222zM82 713
q0 336 184 539.5t479 203.5q292 0 462.5 -192.5t170.5 -532.5q0 -353 -168.5 -552t-480.5 -199t-479.5 190t-167.5 543zM604 1831l291 -301l-23 -29l-309 162q-34 16 -49.5 34t-15.5 46q0 27 15.5 45t53.5 31z" />
    <glyph glyph-name="Oacute" unicode="&#xd3;" horiz-adv-x="1460" 
d="M1139 723q0 123 -9.5 217.5t-36.5 182.5t-70.5 145t-115 91t-168.5 34q-102 0 -177.5 -34t-121.5 -91t-73.5 -146.5t-37.5 -185t-10 -221.5q0 -116 10 -209.5t38 -182.5t73 -148.5t119.5 -95.5t173.5 -36q97 0 169 34t117 92t72 146.5t37.5 185.5t10.5 222zM82 713
q0 336 184 539.5t479 203.5q292 0 462.5 -192.5t170.5 -532.5q0 -353 -168.5 -552t-480.5 -199t-479.5 190t-167.5 543zM567 1530l291 301l37 -12q39 -13 54.5 -31t15.5 -45q0 -28 -16 -46t-50 -34l-309 -162z" />
    <glyph glyph-name="Ocircumflex" unicode="&#xd4;" horiz-adv-x="1460" 
d="M1139 723q0 123 -9.5 217.5t-36.5 182.5t-70.5 145t-115 91t-168.5 34q-102 0 -177.5 -34t-121.5 -91t-73.5 -146.5t-37.5 -185t-10 -221.5q0 -116 10 -209.5t38 -182.5t73 -148.5t119.5 -95.5t173.5 -36q97 0 169 34t117 92t72 146.5t37.5 185.5t10.5 222zM82 713
q0 336 184 539.5t479 203.5q292 0 462.5 -192.5t170.5 -532.5q0 -353 -168.5 -552t-480.5 -199t-479.5 190t-167.5 543zM422 1520l260 274q29 21 68 21q19 0 35.5 -12t41.5 -42l209 -237l-20 -31l-283 172l-289 -174z" />
    <glyph glyph-name="Otilde" unicode="&#xd5;" horiz-adv-x="1460" 
d="M1139 723q0 123 -9.5 217.5t-36.5 182.5t-70.5 145t-115 91t-168.5 34q-102 0 -177.5 -34t-121.5 -91t-73.5 -146.5t-37.5 -185t-10 -221.5q0 -116 10 -209.5t38 -182.5t73 -148.5t119.5 -95.5t173.5 -36q97 0 169 34t117 92t72 146.5t37.5 185.5t10.5 222zM82 713
q0 336 184 539.5t479 203.5q292 0 462.5 -192.5t170.5 -532.5q0 -353 -168.5 -552t-480.5 -199t-479.5 190t-167.5 543zM862 1577q-74 0 -182 47q-88 35 -127 35q-67 0 -104 -88l-39 12q27 91 78 146t141 55q15 0 31 -2t25.5 -4t28 -8.5t24 -8.5t28.5 -12t27 -12
q90 -35 127 -35t60 18.5t44 69.5l41 -10q-29 -99 -82.5 -151t-120.5 -52z" />
    <glyph glyph-name="Odieresis" unicode="&#xd6;" horiz-adv-x="1460" 
d="M1139 723q0 123 -9.5 217.5t-36.5 182.5t-70.5 145t-115 91t-168.5 34q-102 0 -177.5 -34t-121.5 -91t-73.5 -146.5t-37.5 -185t-10 -221.5q0 -116 10 -209.5t38 -182.5t73 -148.5t119.5 -95.5t173.5 -36q97 0 169 34t117 92t72 146.5t37.5 185.5t10.5 222zM82 713
q0 336 184 539.5t479 203.5q292 0 462.5 -192.5t170.5 -532.5q0 -353 -168.5 -552t-480.5 -199t-479.5 190t-167.5 543zM418 1669q0 45 29 77t81 32q50 0 81.5 -27.5t31.5 -81.5q0 -51 -29 -82t-82 -31q-58 0 -85 33t-27 80zM817 1669q0 45 29.5 77t81.5 32q50 0 81 -27.5
t31 -81.5q0 -51 -28.5 -82t-81.5 -31q-59 0 -86 32.5t-27 80.5z" />
    <glyph glyph-name="multiply" unicode="&#xd7;" 
d="M918 946l-306 -303l299 -301l-53 -49l-297 297l-301 -299l-51 51l299 301l-299 303l51 53l301 -303l303 303z" />
    <glyph glyph-name="Oslash" unicode="&#xd8;" horiz-adv-x="1460" 
d="M82 713q0 336 184 539.5t479 203.5q104 0 213 -33l58 152l65 -23l-57 -153q168 -76 261 -248.5t93 -419.5q0 -353 -168.5 -552t-480.5 -199q-127 0 -229 30l-60 -157l-65 22l59 160q-172 75 -262 247t-90 431zM1139 723q0 212 -33.5 357.5t-118.5 224.5l-457 -1211
q82 -51 203 -51q97 0 169 34t117 92t72 146.5t37.5 185.5t10.5 222zM319 715q0 -427 154 -578l457 1211q-79 45 -191 45q-102 0 -177.5 -34t-121.5 -91t-73.5 -146.5t-37.5 -185t-10 -221.5z" />
    <glyph glyph-name="Ugrave" unicode="&#xd9;" horiz-adv-x="1454" 
d="M778 49q-78 0 -137.5 20t-97 54.5t-61.5 85t-33 105.5t-9 122v938h154v60h-522v-60h153v-923q0 -252 131 -361.5t383 -109.5q134 0 230 33t152.5 98.5t82 153t25.5 204.5v905h153v60h-383v-60h154v-932q0 -189 -99.5 -291t-275.5 -102zM606 1831l291 -301l-23 -29
l-309 162q-34 16 -49.5 34t-15.5 46q0 27 15.5 45t53.5 31z" />
    <glyph glyph-name="Uacute" unicode="&#xda;" horiz-adv-x="1454" 
d="M778 49q-78 0 -137.5 20t-97 54.5t-61.5 85t-33 105.5t-9 122v938h154v60h-522v-60h153v-923q0 -252 131 -361.5t383 -109.5q134 0 230 33t152.5 98.5t82 153t25.5 204.5v905h153v60h-383v-60h154v-932q0 -189 -99.5 -291t-275.5 -102zM616 1530l291 301l37 -12
q39 -13 54.5 -31t15.5 -45q0 -28 -16 -46t-50 -34l-309 -162z" />
    <glyph glyph-name="Ucircumflex" unicode="&#xdb;" horiz-adv-x="1454" 
d="M778 49q-78 0 -137.5 20t-97 54.5t-61.5 85t-33 105.5t-9 122v938h154v60h-522v-60h153v-923q0 -252 131 -361.5t383 -109.5q134 0 230 33t152.5 98.5t82 153t25.5 204.5v905h153v60h-383v-60h154v-932q0 -189 -99.5 -291t-275.5 -102zM420 1520l260 274q29 21 68 21
q19 0 35.5 -12t41.5 -42l209 -237l-20 -31l-283 172l-289 -174z" />
    <glyph glyph-name="Udieresis" unicode="&#xdc;" horiz-adv-x="1454" 
d="M778 49q176 0 275.5 102t99.5 291v932h-154v60h383v-60h-153v-905q0 -117 -25.5 -204.5t-82 -153t-152.5 -98.5t-230 -33q-252 0 -383 109.5t-131 361.5v923h-153v60h522v-60h-154v-938q0 -67 9 -122t33 -105.5t61.5 -85t97 -54.5t137.5 -20zM416 1669q0 45 29 77t81 32
q50 0 81.5 -27.5t31.5 -81.5q0 -51 -29 -82t-82 -31q-58 0 -85 33t-27 80zM815 1669q0 45 29.5 77t81.5 32q50 0 81 -27.5t31 -81.5q0 -51 -28.5 -82t-81.5 -31q-59 0 -86 32.5t-27 80.5z" />
    <glyph glyph-name="Yacute" unicode="&#xdd;" horiz-adv-x="1247" 
d="M698 748l332 626h-207v60h424v-60h-135l-379 -710v-605h174v-59h-563v59h174v605l-381 710h-137v60h573v-60h-194zM512 1530l291 301l37 -12q38 -13 53.5 -31t15.5 -45q0 -28 -15.5 -46t-49.5 -34l-309 -162z" />
    <glyph glyph-name="Thorn" unicode="&#xde;" horiz-adv-x="1280" 
d="M72 1434h643v-60h-254v-215h131q107 0 193 -11.5t163 -39.5t128.5 -73t81.5 -114.5t30 -160.5q0 -105 -34 -184t-91 -128.5t-141.5 -80t-176.5 -42.5t-206 -12h-78v-254h256v-59h-645v59h174v1315h-174v60zM461 1106v-739h104q203 0 294 92t91 291q0 197 -87 276.5
t-285 79.5h-117z" />
    <glyph glyph-name="germandbls" unicode="&#xdf;" horiz-adv-x="1333" 
d="M567 -12v356h54q9 -133 103.5 -216t217.5 -83q105 0 164 52t59 143q0 50 -22.5 89t-59.5 62.5t-84.5 46t-96.5 39t-96.5 42.5t-84.5 56.5t-59.5 81t-22.5 115.5q0 69 32 132.5t77.5 112t91.5 95.5t78 101t32 110q0 96 -68 154.5t-212 58.5q-70 0 -120 -18.5t-77 -45.5
t-42 -70t-19 -79t-4 -86v-1237h-351v53h156v1061q0 107 26 191t80.5 147.5t145.5 97t215 33.5q81 0 144.5 -16t102 -41t63.5 -60t34.5 -70t9.5 -73q0 -61 -27 -114.5t-65 -93.5t-76 -78t-65 -85t-27 -98q0 -44 27.5 -78t71.5 -57t97 -46t106 -53.5t97 -69t71.5 -102
t27.5 -145.5q0 -142 -92.5 -234t-239.5 -92q-86 0 -145 20.5t-123 59.5q-18 9 -25 9q-25 0 -33 -78h-47z" />
    <glyph glyph-name="agrave" unicode="&#xe0;" horiz-adv-x="1060" 
d="M512 489h123v150q0 152 -46.5 229.5t-166.5 77.5q-69 0 -116.5 -22t-47.5 -70q0 -9 4 -29h57q17 -46 17 -80q0 -54 -32.5 -85t-84.5 -31q-50 0 -78 35t-28 94q0 110 102.5 173.5t251.5 63.5q191 0 277.5 -86t86.5 -301v-415q0 -61 17.5 -87t52.5 -26q42 0 63 38t29 154
l47 -4q-6 -153 -55.5 -220.5t-155.5 -67.5q-82 0 -129.5 37.5t-58.5 109.5q-38 -70 -113.5 -108.5t-171.5 -38.5q-60 0 -109.5 12.5t-89.5 39.5t-62.5 74t-22.5 111q0 76 31.5 129.5t91.5 84.5t137.5 44.5t179.5 13.5zM428 57q84 0 145.5 55.5t61.5 145.5v180h-76
q-276 0 -276 -219q0 -77 36 -119.5t109 -42.5zM442 1505l142 -379l-31 -16l-215 258q-41 51 -41 84t19.5 49.5t50.5 16.5q18 0 26 -2z" />
    <glyph glyph-name="aacute" unicode="&#xe1;" horiz-adv-x="1060" 
d="M512 489h123v150q0 152 -46.5 229.5t-166.5 77.5q-69 0 -116.5 -22t-47.5 -70q0 -9 4 -29h57q17 -46 17 -80q0 -54 -32.5 -85t-84.5 -31q-50 0 -78 35t-28 94q0 110 102.5 173.5t251.5 63.5q191 0 277.5 -86t86.5 -301v-415q0 -61 17.5 -87t52.5 -26q42 0 63 38t29 154
l47 -4q-6 -153 -55.5 -220.5t-155.5 -67.5q-82 0 -129.5 37.5t-58.5 109.5q-38 -70 -113.5 -108.5t-171.5 -38.5q-60 0 -109.5 12.5t-89.5 39.5t-62.5 74t-22.5 111q0 76 31.5 129.5t91.5 84.5t137.5 44.5t179.5 13.5zM428 57q84 0 145.5 55.5t61.5 145.5v180h-76
q-276 0 -276 -219q0 -77 36 -119.5t109 -42.5zM385 1126l141 379l49 11q8 2 27 2q31 0 50.5 -16.5t19.5 -49.5t-41 -84l-215 -258z" />
    <glyph glyph-name="acircumflex" unicode="&#xe2;" horiz-adv-x="1060" 
d="M512 489h123v150q0 152 -46.5 229.5t-166.5 77.5q-69 0 -116.5 -22t-47.5 -70q0 -9 4 -29h57q17 -46 17 -80q0 -54 -32.5 -85t-84.5 -31q-50 0 -78 35t-28 94q0 110 102.5 173.5t251.5 63.5q191 0 277.5 -86t86.5 -301v-415q0 -61 17.5 -87t52.5 -26q42 0 63 38t29 154
l47 -4q-6 -153 -55.5 -220.5t-155.5 -67.5q-82 0 -129.5 37.5t-58.5 109.5q-38 -70 -113.5 -108.5t-171.5 -38.5q-60 0 -109.5 12.5t-89.5 39.5t-62.5 74t-22.5 111q0 76 31.5 129.5t91.5 84.5t137.5 44.5t179.5 13.5zM428 57q84 0 145.5 55.5t61.5 145.5v180h-76
q-276 0 -276 -219q0 -77 36 -119.5t109 -42.5zM201 1122l221 359q28 20 67 20q50 0 78 -53l174 -324l-26 -18l-248 233l-242 -235z" />
    <glyph glyph-name="atilde" unicode="&#xe3;" horiz-adv-x="1060" 
d="M512 489h123v150q0 152 -46.5 229.5t-166.5 77.5q-69 0 -116.5 -22t-47.5 -70q0 -9 4 -29h57q17 -46 17 -80q0 -54 -32.5 -85t-84.5 -31q-50 0 -78 35t-28 94q0 110 102.5 173.5t251.5 63.5q191 0 277.5 -86t86.5 -301v-415q0 -61 17.5 -87t52.5 -26q42 0 63 38t29 154
l47 -4q-6 -153 -55.5 -220.5t-155.5 -67.5q-82 0 -129.5 37.5t-58.5 109.5q-38 -70 -113.5 -108.5t-171.5 -38.5q-60 0 -109.5 12.5t-89.5 39.5t-62.5 74t-22.5 111q0 76 31.5 129.5t91.5 84.5t137.5 44.5t179.5 13.5zM428 57q84 0 145.5 55.5t61.5 145.5v180h-76
q-276 0 -276 -219q0 -77 36 -119.5t109 -42.5zM602 1188q-74 0 -182 47q-88 35 -127 35q-68 0 -105 -88l-38 12q27 91 78 146t141 55q15 0 30.5 -2t26 -4t27.5 -8.5t24 -9t28 -11.5t27 -12q90 -35 127 -35t60.5 18.5t44.5 69.5l41 -10q-29 -99 -82.5 -151t-120.5 -52z" />
    <glyph glyph-name="adieresis" unicode="&#xe4;" horiz-adv-x="1060" 
d="M512 489h123v150q0 152 -46.5 229.5t-166.5 77.5q-69 0 -116.5 -22t-47.5 -70q0 -9 4 -29h57q17 -46 17 -80q0 -54 -32.5 -85t-84.5 -31q-50 0 -78 35t-28 94q0 110 102.5 173.5t251.5 63.5q191 0 277.5 -86t86.5 -301v-415q0 -61 17.5 -87t52.5 -26q42 0 63 38t29 154
l47 -4q-6 -153 -55.5 -220.5t-155.5 -67.5q-82 0 -129.5 37.5t-58.5 109.5q-38 -70 -113.5 -108.5t-171.5 -38.5q-60 0 -109.5 12.5t-89.5 39.5t-62.5 74t-22.5 111q0 76 31.5 129.5t91.5 84.5t137.5 44.5t179.5 13.5zM428 57q84 0 145.5 55.5t61.5 145.5v180h-76
q-276 0 -276 -219q0 -77 36 -119.5t109 -42.5zM160 1280q0 45 29 77t81 32q50 0 81.5 -27.5t31.5 -81.5q0 -51 -29 -82t-82 -31q-58 0 -85 33t-27 80zM559 1280q0 45 29.5 77t81.5 32q50 0 81 -27.5t31 -81.5q0 -51 -28.5 -82t-81.5 -31q-59 0 -86 32.5t-27 80.5z" />
    <glyph glyph-name="aring" unicode="&#xe5;" horiz-adv-x="1060" 
d="M512 489h123v150q0 152 -46.5 229.5t-166.5 77.5q-69 0 -116.5 -22t-47.5 -70q0 -9 4 -29h57q17 -46 17 -80q0 -54 -32.5 -85t-84.5 -31q-50 0 -78 35t-28 94q0 110 102.5 173.5t251.5 63.5q191 0 277.5 -86t86.5 -301v-415q0 -61 17.5 -87t52.5 -26q42 0 63 38t29 154
l47 -4q-6 -153 -55.5 -220.5t-155.5 -67.5q-82 0 -129.5 37.5t-58.5 109.5q-38 -70 -113.5 -108.5t-171.5 -38.5q-60 0 -109.5 12.5t-89.5 39.5t-62.5 74t-22.5 111q0 76 31.5 129.5t91.5 84.5t137.5 44.5t179.5 13.5zM428 57q84 0 145.5 55.5t61.5 145.5v180h-76
q-276 0 -276 -219q0 -77 36 -119.5t109 -42.5zM358 1319q0 -51 28 -85t87 -34q55 0 83 33.5t28 85.5q0 51 -29.5 85t-85.5 34q-53 0 -82 -35t-29 -84zM285 1319q0 76 49 126t141 50q88 0 135 -47t47 -125q0 -82 -48.5 -132t-137.5 -50q-94 0 -140 48t-46 130z" />
    <glyph glyph-name="ae" unicode="&#xe6;" horiz-adv-x="1552" 
d="M512 520h123v119q0 152 -46.5 229.5t-166.5 77.5q-50 0 -88.5 -10.5t-61.5 -39t-10 -71.5h57q17 -46 17 -80q0 -54 -32.5 -85t-84.5 -31q-50 0 -78 35t-28 94q0 110 102.5 173.5t251.5 63.5q113 0 185.5 -38t109.5 -126q108 164 342 164q199 0 302.5 -141.5t78.5 -388.5
h-635q-1 -97 13.5 -170.5t47.5 -130t90.5 -86t139.5 -29.5q119 0 191.5 67.5t97.5 182.5l59 -8q-65 -311 -397 -311q-262 0 -375 174q-111 -174 -344 -174q-61 0 -112.5 13.5t-95 43t-68.5 82t-25 123.5q0 77 31.5 132t91.5 86.5t137.5 45.5t179.5 14zM852 520h430
q14 194 -32.5 310t-159.5 116q-116 0 -175.5 -101t-62.5 -325zM453 57q70 0 135 40t100 108q-53 112 -53 264h-94q-136 0 -197 -62t-61 -165q0 -185 170 -185z" />
    <glyph glyph-name="ccedilla" unicode="&#xe7;" horiz-adv-x="972" 
d="M573 946q-149 0 -217.5 -106t-68.5 -334q0 -234 67 -344.5t211 -110.5q72 0 126 24.5t85 66.5t48.5 85.5t25.5 94.5l59 -11q-9 -45 -20 -81t-38 -84t-64 -81t-101 -57.5t-145 -27.5l-54 -93q28 4 50 4q82 0 127 -43.5t45 -113.5q0 -77 -59.5 -131t-164.5 -54
q-74 0 -123 36.5t-49 84.5q0 33 17.5 48.5t42.5 15.5q21 0 40.5 -13.5t26.5 -37.5l-34 -33q0 -27 19.5 -44.5t57.5 -17.5q99 0 99 131q0 64 -24 94.5t-77 30.5q-28 0 -61 -8l-6 25l69 121q-198 11 -304.5 136.5t-106.5 350.5q0 257 132 391.5t357 134.5q163 0 252.5 -69.5
t89.5 -190.5q0 -75 -34 -112t-91 -37q-54 0 -86.5 33t-32.5 92q0 35 11 75h55q6 24 6 48q0 112 -158 112z" />
    <glyph glyph-name="egrave" unicode="&#xe8;" horiz-adv-x="987" 
d="M72 477q0 -233 113.5 -365t342.5 -132q333 0 398 311l-60 8q-25 -115 -97 -182.5t-191 -67.5q-161 0 -226 109.5t-65 341.5v28h635q9 231 -86 349t-289 118q-104 0 -189.5 -31t-150 -93t-100 -162.5t-35.5 -231.5zM717 584h-428q22 362 239 362q112 0 155.5 -92.5
t33.5 -269.5zM510 1505l141 -379l-30 -16l-215 258q-41 51 -41 84q0 66 69 66q19 0 27 -2z" />
    <glyph glyph-name="eacute" unicode="&#xe9;" horiz-adv-x="987" 
d="M72 477q0 -233 113.5 -365t342.5 -132q333 0 398 311l-60 8q-25 -115 -97 -182.5t-191 -67.5q-161 0 -226 109.5t-65 341.5v28h635q9 231 -86 349t-289 118q-104 0 -189.5 -31t-150 -93t-100 -162.5t-35.5 -231.5zM717 584h-428q22 362 239 362q112 0 155.5 -92.5
t33.5 -269.5zM434 1126l141 379l50 11q8 2 26 2q31 0 50.5 -16.5t19.5 -49.5t-41 -84l-215 -258z" />
    <glyph glyph-name="ecircumflex" unicode="&#xea;" horiz-adv-x="987" 
d="M72 477q0 -233 113.5 -365t342.5 -132q333 0 398 311l-60 8q-25 -115 -97 -182.5t-191 -67.5q-161 0 -226 109.5t-65 341.5v28h635q9 231 -86 349t-289 118q-104 0 -189.5 -31t-150 -93t-100 -162.5t-35.5 -231.5zM717 584h-428q22 362 239 362q112 0 155.5 -92.5
t33.5 -269.5zM268 1122l221 359q28 20 68 20q50 0 78 -53l174 -324l-27 -18l-247 233l-242 -235z" />
    <glyph glyph-name="edieresis" unicode="&#xeb;" horiz-adv-x="987" 
d="M72 477q0 131 35.5 231.5t100 162.5t150 93t189.5 31q194 0 289 -118t86 -349h-635v-28q0 -232 65 -341.5t226 -109.5q119 0 191 67.5t97 182.5l60 -8q-65 -311 -398 -311q-229 0 -342.5 132t-113.5 365zM289 584h428q10 177 -33.5 269.5t-155.5 92.5q-217 0 -239 -362z
M227 1280q0 45 29.5 77t81.5 32q50 0 81.5 -27.5t31.5 -81.5q0 -51 -29 -82t-82 -31q-58 0 -85.5 33t-27.5 80zM627 1280q0 45 29 77t81 32q50 0 81.5 -27.5t31.5 -81.5q0 -51 -29 -82t-82 -31q-59 0 -85.5 32.5t-26.5 80.5z" />
    <glyph glyph-name="igrave" unicode="&#xec;" horiz-adv-x="604" 
d="M57 975h351v-922h155v-53h-506v53h154v869h-154v53zM223 1505l142 -379l-31 -16l-215 258q-41 51 -41 84q0 66 69 66q19 0 27 -2z" />
    <glyph glyph-name="iacute" unicode="&#xed;" horiz-adv-x="604" 
d="M57 975h351v-922h155v-53h-506v53h154v869h-154v53zM170 1126l141 379l49 11q8 2 27 2q31 0 50.5 -16.5t19.5 -49.5t-41 -84l-215 -258z" />
    <glyph glyph-name="icircumflex" unicode="&#xee;" horiz-adv-x="604" 
d="M57 975h351v-922h155v-53h-506v53h154v869h-154v53zM14 1122l222 359q28 20 67 20q50 0 78 -53l174 -324l-27 -18l-247 233l-242 -235z" />
    <glyph glyph-name="idieresis" unicode="&#xef;" horiz-adv-x="604" 
d="M57 975h351v-922h155v-53h-506v53h154v869h-154v53zM-35 1280q0 45 29.5 77t81.5 32q50 0 81 -27.5t31 -81.5q0 -51 -28.5 -82t-81.5 -31q-58 0 -85.5 33t-27.5 80zM365 1280q0 45 29 77t81 32q50 0 81.5 -27.5t31.5 -81.5q0 -51 -29 -82t-82 -31q-59 0 -85.5 32.5
t-26.5 80.5z" />
    <glyph glyph-name="eth" unicode="&#xf0;" horiz-adv-x="1058" 
d="M453 1174l-25 51l176 133q-130 139 -373 186l7 35q294 -15 469 -143l184 141l22 -49l-163 -127q241 -220 241 -719q0 -160 -27.5 -286.5t-83.5 -220.5t-147.5 -144.5t-212.5 -50.5q-212 0 -330 134.5t-118 379.5q0 103 24.5 187.5t66 142t97.5 97t117.5 57t128.5 17.5
q91 0 166.5 -46t118.5 -136q-9 156 -42 281.5t-110 222.5zM520 946q-118 0 -176.5 -108.5t-58.5 -337.5q0 -150 22.5 -251t78 -160.5t144.5 -59.5q132 0 190 115t58 362q0 65 -7.5 125.5t-26.5 118.5t-47.5 101t-74 69t-102.5 26z" />
    <glyph glyph-name="ntilde" unicode="&#xf1;" horiz-adv-x="1253" 
d="M49 975h350v-193q19 41 48 76t72 67.5t105 51t136 18.5q147 0 225 -81t78 -261v-600h156v-53h-506v53h153v633q0 120 -36.5 178t-127.5 58q-123 0 -213 -93.5t-90 -232.5v-543h156v-53h-506v53h154v869h-154v53zM748 1188q-75 0 -183 47q-87 35 -127 35q-67 0 -104 -88
l-39 12q27 91 78 146t141 55q15 0 31 -2t25.5 -4t28 -8.5t24 -8.5t28.5 -12t27 -12q90 -35 127 -35t60 18.5t44 69.5l41 -10q-29 -99 -82 -151t-120 -52z" />
    <glyph glyph-name="ograve" unicode="&#xf2;" horiz-adv-x="1067" 
d="M780 494q0 100 -10 175t-35 141t-75 101t-123 35q-61 0 -106 -23.5t-72.5 -62.5t-43.5 -98.5t-22 -121.5t-6 -142q0 -81 6 -145.5t22.5 -127t44 -104t72.5 -67t105 -25.5q58 0 101.5 23t70 62t43 99.5t22.5 127t6 153.5zM72 483q0 243 127 377.5t342 134.5
q220 0 337 -124t117 -377q0 -240 -121.5 -377t-341.5 -137q-218 0 -339 132t-121 371zM510 1505l141 -379l-30 -16l-215 258q-41 51 -41 84q0 66 69 66q19 0 27 -2z" />
    <glyph glyph-name="oacute" unicode="&#xf3;" horiz-adv-x="1067" 
d="M780 494q0 100 -10 175t-35 141t-75 101t-123 35q-61 0 -106 -23.5t-72.5 -62.5t-43.5 -98.5t-22 -121.5t-6 -142q0 -81 6 -145.5t22.5 -127t44 -104t72.5 -67t105 -25.5q58 0 101.5 23t70 62t43 99.5t22.5 127t6 153.5zM72 483q0 243 127 377.5t342 134.5
q220 0 337 -124t117 -377q0 -240 -121.5 -377t-341.5 -137q-218 0 -339 132t-121 371zM434 1126l141 379l50 11q8 2 26 2q31 0 50.5 -16.5t19.5 -49.5t-41 -84l-215 -258z" />
    <glyph glyph-name="ocircumflex" unicode="&#xf4;" horiz-adv-x="1067" 
d="M780 494q0 100 -10 175t-35 141t-75 101t-123 35q-61 0 -106 -23.5t-72.5 -62.5t-43.5 -98.5t-22 -121.5t-6 -142q0 -81 6 -145.5t22.5 -127t44 -104t72.5 -67t105 -25.5q58 0 101.5 23t70 62t43 99.5t22.5 127t6 153.5zM72 483q0 243 127 377.5t342 134.5
q220 0 337 -124t117 -377q0 -240 -121.5 -377t-341.5 -137q-218 0 -339 132t-121 371zM268 1122l221 359q28 20 68 20q50 0 78 -53l174 -324l-27 -18l-247 233l-242 -235z" />
    <glyph glyph-name="otilde" unicode="&#xf5;" horiz-adv-x="1067" 
d="M780 494q0 100 -10 175t-35 141t-75 101t-123 35q-61 0 -106 -23.5t-72.5 -62.5t-43.5 -98.5t-22 -121.5t-6 -142q0 -81 6 -145.5t22.5 -127t44 -104t72.5 -67t105 -25.5q58 0 101.5 23t70 62t43 99.5t22.5 127t6 153.5zM72 483q0 243 127 377.5t342 134.5
q220 0 337 -124t117 -377q0 -240 -121.5 -377t-341.5 -137q-218 0 -339 132t-121 371zM670 1188q-75 0 -183 47q-88 35 -127 35q-67 0 -104 -88l-39 12q27 91 78 146t141 55q15 0 31 -2t25.5 -4t28 -8.5t24 -8.5t28.5 -12t27 -12q90 -35 127 -35t60 18.5t44 69.5l41 -10
q-29 -99 -82 -151t-120 -52z" />
    <glyph glyph-name="odieresis" unicode="&#xf6;" horiz-adv-x="1067" 
d="M780 494q0 100 -10 175t-35 141t-75 101t-123 35q-61 0 -106 -23.5t-72.5 -62.5t-43.5 -98.5t-22 -121.5t-6 -142q0 -81 6 -145.5t22.5 -127t44 -104t72.5 -67t105 -25.5q58 0 101.5 23t70 62t43 99.5t22.5 127t6 153.5zM72 483q0 243 127 377.5t342 134.5
q220 0 337 -124t117 -377q0 -240 -121.5 -377t-341.5 -137q-218 0 -339 132t-121 371zM227 1280q0 45 29.5 77t81.5 32q50 0 81.5 -27.5t31.5 -81.5q0 -51 -29 -82t-82 -31q-58 0 -85.5 33t-27.5 80zM627 1280q0 45 29 77t81 32q50 0 81.5 -27.5t31.5 -81.5q0 -51 -29 -82
t-82 -31q-59 0 -85.5 32.5t-26.5 80.5z" />
    <glyph glyph-name="divide" unicode="&#xf7;" 
d="M457 950q0 49 29.5 81t82.5 32t85 -28t32 -83q0 -54 -29.5 -85t-83.5 -31q-61 0 -88.5 32.5t-27.5 81.5zM457 350q0 49 29.5 81t82.5 32t85 -28t32 -83q0 -54 -29.5 -85t-83.5 -31q-61 0 -88.5 32.5t-27.5 81.5zM1028 610h-930v74h930v-74z" />
    <glyph glyph-name="oslash" unicode="&#xf8;" horiz-adv-x="1067" 
d="M72 483q0 243 127 377.5t342 134.5q65 0 137 -14l51 131l57 -18l-49 -131q258 -95 258 -469q0 -240 -121.5 -377t-341.5 -137q-86 0 -163 22l-50 -131l-57 20l49 134q-116 54 -177.5 171t-61.5 287zM780 494q0 270 -80 374l-303 -792q53 -47 140 -47q58 0 101.5 23t70 62
t43 99.5t22.5 127t6 153.5zM287 498q0 -257 65 -367l301 782q-51 33 -116 33q-61 0 -106 -23.5t-72.5 -62.5t-43.5 -98.5t-22 -121.5t-6 -142z" />
    <glyph glyph-name="ugrave" unicode="&#xf9;" horiz-adv-x="1236" 
d="M1198 0h-336l-12 190q-19 -41 -47 -75.5t-69.5 -66.5t-100.5 -50t-129 -18q-307 0 -307 342v600h-156v53h352v-676q0 -127 35 -186.5t135 -59.5q71 0 137 46t105 118.5t39 147.5v557h-156v53h352v-922h158v-53zM539 1505l141 -379l-31 -16l-215 258q-41 51 -41 84
t19.5 49.5t50.5 16.5q18 0 26 -2z" />
    <glyph glyph-name="uacute" unicode="&#xfa;" horiz-adv-x="1236" 
d="M1198 0h-336l-12 190q-19 -41 -47 -75.5t-69.5 -66.5t-100.5 -50t-129 -18q-307 0 -307 342v600h-156v53h352v-676q0 -127 35 -186.5t135 -59.5q71 0 137 46t105 118.5t39 147.5v557h-156v53h352v-922h158v-53zM473 1126l141 379l50 11q8 2 26 2q31 0 50.5 -16.5
t19.5 -49.5t-41 -84l-215 -258z" />
    <glyph glyph-name="ucircumflex" unicode="&#xfb;" horiz-adv-x="1236" 
d="M1198 0h-336l-12 190q-19 -41 -47 -75.5t-69.5 -66.5t-100.5 -50t-129 -18q-307 0 -307 342v600h-156v53h352v-676q0 -127 35 -186.5t135 -59.5q71 0 137 46t105 118.5t39 147.5v557h-156v53h352v-922h158v-53zM307 1122l221 359q28 20 68 20q50 0 78 -53l174 -324
l-27 -18l-248 233l-241 -235z" />
    <glyph glyph-name="udieresis" unicode="&#xfc;" horiz-adv-x="1236" 
d="M1198 0h-336l-12 190q-19 -41 -47 -75.5t-69.5 -66.5t-100.5 -50t-129 -18q-307 0 -307 342v600h-156v53h352v-676q0 -127 35 -186.5t135 -59.5q71 0 137 46t105 118.5t39 147.5v557h-156v53h352v-922h158v-53zM266 1280q0 45 29.5 77t81.5 32q50 0 81 -27.5t31 -81.5
q0 -51 -28.5 -82t-81.5 -31q-58 0 -85.5 33t-27.5 80zM666 1280q0 45 29 77t81 32q50 0 81.5 -27.5t31.5 -81.5q0 -51 -29 -82t-82 -31q-59 0 -85.5 32.5t-26.5 80.5z" />
    <glyph glyph-name="yacute" unicode="&#xfd;" horiz-adv-x="1015" 
d="M0 975v-53h92l383 -924l-45 -125q-30 -83 -55.5 -139t-57 -102t-67.5 -67.5t-80 -21.5q-82 0 -82 62q0 13 8 41h70q12 44 12 73q0 51 -31 79t-77 28q-54 0 -91.5 -40t-37.5 -110q0 -72 54.5 -130t164.5 -58q115 0 184.5 73t147.5 273l421 1088h103v53h-346v-53h161
l-258 -705l-270 705h168v53h-471zM438 1126l142 379l49 11q8 2 26 2q31 0 50.5 -16.5t19.5 -49.5t-41 -84l-215 -258z" />
    <glyph glyph-name="thorn" unicode="&#xfe;" horiz-adv-x="1185" 
d="M399 1536v-719q113 178 332 178q185 0 286 -126t101 -371q0 -250 -115.5 -384t-316.5 -134q-199 0 -289 106v-520h265v-53h-639v53h178l2 567v1350h-166v53h362zM676 918q-109 0 -196 -82t-87 -207v-316q0 -122 72.5 -196t196.5 -74q128 0 184.5 104.5t56.5 341.5
q0 105 -9.5 178.5t-34 133t-70 88.5t-113.5 29z" />
    <glyph glyph-name="ydieresis" unicode="&#xff;" horiz-adv-x="1015" 
d="M0 922v53h471v-53h-168l270 -705l258 705h-161v53h346v-53h-103l-421 -1088q-78 -200 -147.5 -273t-184.5 -73q-110 0 -164.5 58t-54.5 130q0 70 37.5 110t91.5 40q46 0 77 -28t31 -79q0 -29 -12 -73h-70q-8 -28 -8 -41q0 -62 82 -62q44 0 80 21.5t67.5 67.5t57 102
t55.5 139l45 125l-383 924h-92zM231 1280q0 45 29.5 77t81.5 32q50 0 81.5 -27.5t31.5 -81.5q0 -51 -29 -82t-82 -31q-58 0 -85.5 33t-27.5 80zM631 1280q0 45 29 77t81 32q50 0 81.5 -27.5t31.5 -81.5q0 -51 -29 -82t-82 -31q-59 0 -85.5 32.5t-26.5 80.5z" />
    <glyph glyph-name="Amacron" unicode="&#x100;" horiz-adv-x="1361" 
d="M985 59l-143 418h-465l-152 -418h187v-59h-412v59h143l521 1397h55l502 -1397h141v-59h-557v59h180zM616 1151l-219 -614h424zM412 1591v107h557v-107h-557z" />
    <glyph glyph-name="amacron" unicode="&#x101;" horiz-adv-x="1060" 
d="M512 489h123v150q0 152 -46.5 229.5t-166.5 77.5q-69 0 -116.5 -22t-47.5 -70q0 -9 4 -29h57q17 -46 17 -80q0 -54 -32.5 -85t-84.5 -31q-50 0 -78 35t-28 94q0 110 102.5 173.5t251.5 63.5q191 0 277.5 -86t86.5 -301v-415q0 -61 17.5 -87t52.5 -26q42 0 63 38t29 154
l47 -4q-6 -153 -55.5 -220.5t-155.5 -67.5q-82 0 -129.5 37.5t-58.5 109.5q-38 -70 -113.5 -108.5t-171.5 -38.5q-60 0 -109.5 12.5t-89.5 39.5t-62.5 74t-22.5 111q0 76 31.5 129.5t91.5 84.5t137.5 44.5t179.5 13.5zM428 57q84 0 145.5 55.5t61.5 145.5v180h-76
q-276 0 -276 -219q0 -77 36 -119.5t109 -42.5zM193 1210v107h557v-107h-557z" />
    <glyph glyph-name="Abreve" unicode="&#x102;" horiz-adv-x="1361" 
d="M985 59l-143 418h-465l-152 -418h187v-59h-412v59h143l521 1397h55l502 -1397h141v-59h-557v59h180zM616 1151l-219 -614h424zM403 1753l46 8q32 -74 85.5 -108.5t163.5 -34.5q113 0 163.5 33.5t78.5 109.5l45 -8q-6 -49 -23.5 -91t-50.5 -81t-90.5 -61.5t-132.5 -22.5
q-74 0 -129 22t-86.5 61t-47.5 81t-22 92z" />
    <glyph glyph-name="abreve" unicode="&#x103;" horiz-adv-x="1060" 
d="M512 489h123v150q0 152 -46.5 229.5t-166.5 77.5q-69 0 -116.5 -22t-47.5 -70q0 -9 4 -29h57q17 -46 17 -80q0 -54 -32.5 -85t-84.5 -31q-50 0 -78 35t-28 94q0 110 102.5 173.5t251.5 63.5q191 0 277.5 -86t86.5 -301v-415q0 -61 17.5 -87t52.5 -26q42 0 63 38t29 154
l47 -4q-6 -153 -55.5 -220.5t-155.5 -67.5q-82 0 -129.5 37.5t-58.5 109.5q-38 -70 -113.5 -108.5t-171.5 -38.5q-60 0 -109.5 12.5t-89.5 39.5t-62.5 74t-22.5 111q0 76 31.5 129.5t91.5 84.5t137.5 44.5t179.5 13.5zM428 57q84 0 145.5 55.5t61.5 145.5v180h-76
q-276 0 -276 -219q0 -77 36 -119.5t109 -42.5zM186 1413l45 8q32 -94 86 -139t164 -45q114 0 164 42.5t78 141.5l45 -8q-6 -57 -23.5 -106t-50.5 -94t-90 -71t-133 -26q-74 0 -129 25.5t-86.5 71t-47.5 94t-22 106.5z" />
    <glyph glyph-name="Aogonek" unicode="&#x104;" horiz-adv-x="1361" 
d="M985 53l-143 424h-465l-152 -424h187v-53h-412v53h143l521 1403h55l502 -1403h141v-53h-172q-154 -128 -154 -266q0 -48 21.5 -76.5t64.5 -28.5q37 0 60.5 17.5t58.5 62.5l33 -22q-18 -30 -30 -46.5t-38 -42.5t-61.5 -38.5t-81.5 -12.5q-91 0 -140 42t-49 114
q0 46 23 89.5t68 84.5t77 65t84 58h-321v53h180zM616 1151l-219 -614h424z" />
    <glyph glyph-name="aogonek" unicode="&#x105;" horiz-adv-x="1060" 
d="M512 489h123v150q0 152 -46.5 229.5t-166.5 77.5q-69 0 -116.5 -22t-47.5 -70q0 -9 4 -29h57q17 -46 17 -80q0 -54 -32.5 -85t-84.5 -31q-50 0 -78 35t-28 94q0 110 102.5 173.5t251.5 63.5q191 0 277.5 -86t86.5 -301v-415q0 -61 17.5 -87t52.5 -26q42 0 63 38t29 154
l47 -4q-5 -111 -28 -173.5t-72 -94.5q-73 -47 -118.5 -116t-45.5 -150q0 -48 21.5 -76.5t64.5 -28.5q37 0 60.5 17.5t58.5 62.5l33 -22q-18 -30 -30 -46.5t-38 -42.5t-61.5 -38.5t-81.5 -12.5q-91 0 -140 42t-49 114q0 80 60 144t168 130q-84 -4 -137 37t-64 113
q-38 -70 -113.5 -108.5t-171.5 -38.5q-60 0 -109.5 12.5t-89.5 39.5t-62.5 74t-22.5 111q0 76 31.5 129.5t91.5 84.5t137.5 44.5t179.5 13.5zM428 57q84 0 145.5 55.5t61.5 145.5v180h-76q-276 0 -276 -219q0 -77 36 -119.5t109 -42.5z" />
    <glyph glyph-name="Cacute" unicode="&#x106;" horiz-adv-x="1329" 
d="M752 1399q-435 0 -435 -678q0 -326 112.5 -505t330.5 -179q329 0 424 401h45l-15 -436h-30q-12 23 -22.5 32t-31.5 9q-23 0 -83.5 -15.5t-143.5 -31.5t-160 -16q-153 0 -272.5 42.5t-207.5 130.5t-134.5 231t-46.5 335q0 178 51.5 319.5t142.5 232t212 138t264 47.5
q69 0 145.5 -16t133.5 -31.5t81 -15.5q21 0 31 9t22 32h31l14 -424h-45q-46 196 -146.5 292.5t-266.5 96.5zM575 1530l291 301l37 -12q39 -13 54.5 -31t15.5 -45q0 -28 -16 -46t-50 -34l-309 -162z" />
    <glyph glyph-name="cacute" unicode="&#x107;" horiz-adv-x="972" 
d="M573 946q-149 0 -217.5 -106t-68.5 -334q0 -234 67 -344.5t211 -110.5q72 0 126 24.5t85 66.5t48.5 85.5t25.5 94.5l59 -11q-6 -31 -13 -57.5t-21.5 -61.5t-33 -63t-49 -57t-67.5 -48.5t-90.5 -31.5t-116.5 -12q-214 0 -330 127t-116 362q0 257 132 391.5t357 134.5
q163 0 252.5 -69.5t89.5 -190.5q0 -75 -34 -112t-91 -37q-54 0 -86.5 33t-32.5 92q0 35 11 75h55q6 24 6 48q0 112 -158 112zM440 1126l142 379l49 11q8 2 26 2q31 0 50.5 -16.5t19.5 -49.5t-41 -84l-215 -258z" />
    <glyph glyph-name="Ccircumflex" unicode="&#x108;" horiz-adv-x="1329" 
d="M752 1399q-435 0 -435 -678q0 -326 112.5 -505t330.5 -179q329 0 424 401h45l-15 -436h-30q-12 23 -22.5 32t-31.5 9q-23 0 -83.5 -15.5t-143.5 -31.5t-160 -16q-153 0 -272.5 42.5t-207.5 130.5t-134.5 231t-46.5 335q0 178 51.5 319.5t142.5 232t212 138t264 47.5
q69 0 145.5 -16t133.5 -31.5t81 -15.5q21 0 31 9t22 32h31l14 -424h-45q-46 196 -146.5 292.5t-266.5 96.5zM426 1520l260 274q29 21 68 21q19 0 35.5 -12t41.5 -42l209 -237l-20 -31l-283 172l-288 -174z" />
    <glyph glyph-name="ccircumflex" unicode="&#x109;" horiz-adv-x="972" 
d="M573 946q-149 0 -217.5 -106t-68.5 -334q0 -234 67 -344.5t211 -110.5q72 0 126 24.5t85 66.5t48.5 85.5t25.5 94.5l59 -11q-6 -31 -13 -57.5t-21.5 -61.5t-33 -63t-49 -57t-67.5 -48.5t-90.5 -31.5t-116.5 -12q-214 0 -330 127t-116 362q0 257 132 391.5t357 134.5
q163 0 252.5 -69.5t89.5 -190.5q0 -75 -34 -112t-91 -37q-54 0 -86.5 33t-32.5 92q0 35 11 75h55q6 24 6 48q0 112 -158 112zM260 1122l221 359q28 20 68 20q50 0 78 -53l174 -324l-27 -18l-248 233l-241 -235z" />
    <glyph glyph-name="Cdotaccent" unicode="&#x10a;" horiz-adv-x="1329" 
d="M752 1399q-435 0 -435 -678q0 -326 112.5 -505t330.5 -179q329 0 424 401h45l-15 -436h-30q-12 23 -22.5 32t-31.5 9q-23 0 -83.5 -15.5t-143.5 -31.5t-160 -16q-153 0 -272.5 42.5t-207.5 130.5t-134.5 231t-46.5 335q0 178 51.5 319.5t142.5 232t212 138t264 47.5
q69 0 145.5 -16t133.5 -31.5t81 -15.5q21 0 31 9t22 32h31l14 -424h-45q-46 196 -146.5 292.5t-266.5 96.5zM612 1681q0 52 32.5 86.5t90.5 34.5q57 0 91 -29.5t34 -91.5q0 -57 -32 -91t-91 -34q-65 0 -95 36.5t-30 88.5z" />
    <glyph glyph-name="cdotaccent" unicode="&#x10b;" horiz-adv-x="972" 
d="M573 946q-149 0 -217.5 -106t-68.5 -334q0 -234 67 -344.5t211 -110.5q72 0 126 24.5t85 66.5t48.5 85.5t25.5 94.5l59 -11q-6 -31 -13 -57.5t-21.5 -61.5t-33 -63t-49 -57t-67.5 -48.5t-90.5 -31.5t-116.5 -12q-214 0 -330 127t-116 362q0 257 132 391.5t357 134.5
q163 0 252.5 -69.5t89.5 -190.5q0 -75 -34 -112t-91 -37q-54 0 -86.5 33t-32.5 92q0 35 11 75h55q6 24 6 48q0 112 -158 112zM408 1311q0 52 32 86.5t90 34.5q57 0 91 -29.5t34 -91.5q0 -57 -32 -91t-91 -34q-65 0 -94.5 36t-29.5 89z" />
    <glyph glyph-name="Ccaron" unicode="&#x10c;" horiz-adv-x="1329" 
d="M752 1399q-435 0 -435 -678q0 -326 112.5 -505t330.5 -179q329 0 424 401h45l-15 -436h-30q-12 23 -22.5 32t-31.5 9q-23 0 -83.5 -15.5t-143.5 -31.5t-160 -16q-153 0 -272.5 42.5t-207.5 130.5t-134.5 231t-46.5 335q0 178 51.5 319.5t142.5 232t212 138t264 47.5
q69 0 145.5 -16t133.5 -31.5t81 -15.5q21 0 31 9t22 32h31l14 -424h-45q-46 196 -146.5 292.5t-266.5 96.5zM1040 1808l-260 -274q-29 -21 -67 -21q-33 0 -78 54l-209 237l20 31l283 -172l289 174z" />
    <glyph glyph-name="ccaron" unicode="&#x10d;" horiz-adv-x="972" 
d="M573 946q-149 0 -217.5 -106t-68.5 -334q0 -234 67 -344.5t211 -110.5q72 0 126 24.5t85 66.5t48.5 85.5t25.5 94.5l59 -11q-6 -31 -13 -57.5t-21.5 -61.5t-33 -63t-49 -57t-67.5 -48.5t-90.5 -31.5t-116.5 -12q-214 0 -330 127t-116 362q0 257 132 391.5t357 134.5
q163 0 252.5 -69.5t89.5 -190.5q0 -75 -34 -112t-91 -37q-54 0 -86.5 33t-32.5 92q0 35 11 75h55q6 24 6 48q0 112 -158 112zM465 1143l-207 358l25 19l258 -238l231 236l27 -19l-189 -323q-33 -54 -78 -54q-38 0 -67 21z" />
    <glyph glyph-name="Dcaron" unicode="&#x10e;" horiz-adv-x="1462" 
d="M1370 741q0 -169 -43 -298.5t-117.5 -212.5t-184.5 -135.5t-233 -73.5t-274 -21h-448v59h176v1315h-176v60h505q192 0 335 -37t248 -117.5t158.5 -215.5t53.5 -323zM461 59h90q299 0 440.5 169t141.5 501q0 156 -25 267.5t-71.5 185t-124 116t-172 59.5t-226.5 17h-53
v-1315zM956 1808l-260 -274q-29 -21 -67 -21q-33 0 -78 54l-209 237l20 31l283 -172l289 174z" />
    <glyph glyph-name="dcaron" unicode="&#x10f;" horiz-adv-x="1310" 
d="M791 158l16 -158h346v53h-166v1483h-389v-53h193v-631q-91 143 -287 143q-202 0 -317 -133.5t-115 -384.5q0 -244 105.5 -370.5t291.5 -126.5q209 0 322 178zM514 57q-66 0 -111 29t-70 87.5t-35.5 133t-10.5 178.5q0 227 60.5 337t191.5 110q76 0 137 -43t91 -102.5
t30 -118.5v-322q0 -126 -85.5 -207.5t-197.5 -81.5zM1104 1081l-33 35q62 56 86.5 102t24.5 95q0 46 -24.5 79.5t-74.5 67.5l31 39q37 43 80 43q54 0 82.5 -42t28.5 -101q0 -158 -201 -318z" />
    <glyph glyph-name="Dcroat" unicode="&#x110;" horiz-adv-x="1462" 
d="M51 729v59h195v592h-176v54h505q192 0 335 -37t248 -117.5t158.5 -215.5t53.5 -323q0 -169 -43 -298.5t-117.5 -212.5t-184.5 -135.5t-233 -73.5t-274 -21h-448v53h176v676h-195zM461 53h90q299 0 440.5 171.5t141.5 504.5q0 156 -25 268t-71.5 186.5t-124 118t-172 61
t-226.5 17.5h-53v-592h403v-59h-403v-676z" />
    <glyph glyph-name="dcroat" unicode="&#x111;" horiz-adv-x="1183" 
d="M807 0l-16 158q-113 -178 -322 -178q-186 0 -291.5 126.5t-105.5 370.5q0 251 115 384.5t317 133.5q196 0 287 -143v342h-369v53h369v236h-193v53h389v-289h166v-53h-166v-1141h166v-53h-346zM514 57q112 0 197.5 81.5t85.5 207.5v322q0 59 -30 118.5t-91 102.5t-137 43
q-131 0 -191.5 -110t-60.5 -337q0 -104 10.5 -178.5t35.5 -133t70 -87.5t111 -29z" />
    <glyph glyph-name="Emacron" unicode="&#x112;" horiz-adv-x="1261" 
d="M84 1434h1003l21 -385h-49q-8 57 -19 101.5t-27.5 78t-34.5 57.5t-45.5 40t-53.5 25.5t-66 14.5t-75.5 6.5t-88.5 1.5h-188v-612h106q124 0 170.5 51t71.5 211h43v-606h-47q-12 73 -23.5 116t-29 78t-44.5 51.5t-65 24.5t-96 8h-86v-637h215q220 0 314.5 78.5
t129.5 288.5h41l-14 -426h-1063v59h162v1315h-162v60zM352 1591v107h557v-107h-557z" />
    <glyph glyph-name="emacron" unicode="&#x113;" horiz-adv-x="987" 
d="M72 477q0 -233 113.5 -365t342.5 -132q333 0 398 311l-60 8q-25 -115 -97 -182.5t-191 -67.5q-161 0 -226 109.5t-65 341.5v28h635q9 231 -86 349t-289 118q-104 0 -189.5 -31t-150 -93t-100 -162.5t-35.5 -231.5zM717 584h-428q22 362 239 362q112 0 155.5 -92.5
t33.5 -269.5zM260 1210v107h557v-107h-557z" />
    <glyph glyph-name="Ebreve" unicode="&#x114;" horiz-adv-x="1261" 
d="M84 1434h1003l21 -385h-49q-8 57 -19 101.5t-27.5 78t-34.5 57.5t-45.5 40t-53.5 25.5t-66 14.5t-75.5 6.5t-88.5 1.5h-188v-612h106q124 0 170.5 51t71.5 211h43v-606h-47q-12 73 -23.5 116t-29 78t-44.5 51.5t-65 24.5t-96 8h-86v-637h215q220 0 314.5 78.5
t129.5 288.5h41l-14 -426h-1063v59h162v1315h-162v60zM332 1753l45 8q32 -74 86 -108.5t164 -34.5q78 0 126 17t72 46t43 80l45 -8q-6 -49 -23.5 -91t-50.5 -81t-90.5 -61.5t-132.5 -22.5q-60 0 -107.5 15.5t-78 39.5t-52 58.5t-31.5 69t-15 73.5z" />
    <glyph glyph-name="ebreve" unicode="&#x115;" horiz-adv-x="987" 
d="M72 477q0 131 35.5 231.5t100 162.5t150 93t189.5 31q194 0 289 -118t86 -349h-635v-28q0 -232 65 -341.5t226 -109.5q119 0 191 67.5t97 182.5l60 -8q-65 -311 -398 -311q-229 0 -342.5 132t-113.5 365zM289 584h428q10 177 -33.5 269.5t-155.5 92.5q-217 0 -239 -362z
M238 1413l45 8q32 -95 85.5 -139.5t163.5 -44.5q114 0 164 42.5t78 141.5l45 -8q-6 -57 -23.5 -106t-50.5 -94t-90 -71t-133 -26q-60 0 -107.5 17.5t-78 46t-52 68.5t-31.5 79.5t-15 85.5z" />
    <glyph glyph-name="Edotaccent" unicode="&#x116;" horiz-adv-x="1261" 
d="M84 1434h1003l21 -385h-49q-8 57 -19 101.5t-27.5 78t-34.5 57.5t-45.5 40t-53.5 25.5t-66 14.5t-75.5 6.5t-88.5 1.5h-188v-612h106q124 0 170.5 51t71.5 211h43v-606h-47q-12 73 -23.5 116t-29 78t-44.5 51.5t-65 24.5t-96 8h-86v-637h215q220 0 314.5 78.5
t129.5 288.5h41l-14 -426h-1063v59h162v1315h-162v60zM506 1681q0 52 32.5 86.5t90.5 34.5q57 0 91 -29.5t34 -91.5q0 -57 -32 -91t-91 -34q-65 0 -95 36.5t-30 88.5z" />
    <glyph glyph-name="edotaccent" unicode="&#x117;" horiz-adv-x="987" 
d="M72 477q0 131 35.5 231.5t100 162.5t150 93t189.5 31q194 0 289 -118t86 -349h-635v-28q0 -232 65 -341.5t226 -109.5q119 0 191 67.5t97 182.5l60 -8q-65 -311 -398 -311q-229 0 -342.5 132t-113.5 365zM289 584h428q10 177 -33.5 269.5t-155.5 92.5q-217 0 -239 -362z
M406 1311q0 52 32 86.5t90 34.5q57 0 91 -29.5t34 -91.5q0 -57 -32 -91t-91 -34q-65 0 -94.5 36t-29.5 89z" />
    <glyph glyph-name="Eogonek" unicode="&#x118;" horiz-adv-x="1261" 
d="M84 1434h1003l21 -385h-49q-8 57 -19 101.5t-27.5 78t-34.5 57.5t-45.5 40t-53.5 25.5t-66 14.5t-75.5 6.5t-88.5 1.5h-188v-612h106q124 0 170.5 51t71.5 211h43v-606h-47q-12 73 -23.5 116t-29 78t-44.5 51.5t-65 24.5t-96 8h-86v-637h215q220 0 314.5 78.5
t129.5 288.5h41l-14 -426h-137q-154 -128 -154 -266q0 -48 21.5 -76.5t64.5 -28.5q37 0 60.5 17.5t58.5 62.5l33 -22q-18 -30 -30 -46.5t-38 -42.5t-61.5 -38.5t-81.5 -12.5q-91 0 -140 42t-49 114q0 28 9.5 56t22 50t37 47.5t41.5 41t50 39t47 33t47 30.5h-864v59h162v1315
h-162v60z" />
    <glyph glyph-name="eogonek" unicode="&#x119;" horiz-adv-x="987" 
d="M72 477q0 131 35.5 231.5t100 162.5t150 93t189.5 31q194 0 289 -118t86 -349h-635v-28q0 -232 65 -341.5t226 -109.5q119 0 191 67.5t97 182.5l60 -8q-35 -170 -181 -266q-73 -47 -121.5 -127t-48.5 -164q0 -48 22 -76.5t65 -28.5q37 0 60 17.5t58 62.5l33 -22
q-18 -30 -30 -46.5t-38 -42.5t-61.5 -38.5t-81.5 -12.5q-91 0 -139.5 42t-48.5 114q0 44 20 86.5t57 79.5t71 64.5t79 56.5q-55 -10 -113 -10q-229 0 -342.5 132t-113.5 365zM289 584h428q10 177 -33.5 269.5t-155.5 92.5q-217 0 -239 -362z" />
    <glyph glyph-name="Ecaron" unicode="&#x11a;" horiz-adv-x="1261" 
d="M84 1434h1003l21 -385h-49q-8 57 -19 101.5t-27.5 78t-34.5 57.5t-45.5 40t-53.5 25.5t-66 14.5t-75.5 6.5t-88.5 1.5h-188v-612h106q124 0 170.5 51t71.5 211h43v-606h-47q-12 73 -23.5 116t-29 78t-44.5 51.5t-65 24.5t-96 8h-86v-637h215q220 0 314.5 78.5
t129.5 288.5h41l-14 -426h-1063v59h162v1315h-162v60zM942 1808l-260 -274q-29 -21 -68 -21q-19 0 -35.5 12t-41.5 42l-209 237l20 31l283 -172l289 174z" />
    <glyph glyph-name="ecaron" unicode="&#x11b;" horiz-adv-x="987" 
d="M72 477q0 131 35.5 231.5t100 162.5t150 93t189.5 31q194 0 289 -118t86 -349h-635v-28q0 -232 65 -341.5t226 -109.5q119 0 191 67.5t97 182.5l60 -8q-65 -311 -398 -311q-229 0 -342.5 132t-113.5 365zM289 584h428q10 177 -33.5 269.5t-155.5 92.5q-217 0 -239 -362z
M463 1143l-207 358l25 19l258 -238l231 236l27 -19l-189 -323q-33 -54 -78 -54q-38 0 -67 21z" />
    <glyph glyph-name="Gcircumflex" unicode="&#x11c;" horiz-adv-x="1445" 
d="M752 1399q-435 0 -435 -684q0 -322 112.5 -500t330.5 -178q80 0 154 40t110 105v342h-188v60h538v-60h-135v-522h-31q-9 17 -15.5 26t-21.5 17t-36 8q-25 0 -87 -18.5t-145 -36.5t-160 -18q-152 0 -272 42.5t-208 129.5t-134.5 228t-46.5 329q0 181 53.5 325t146.5 235
t216 139t266 48q69 0 142.5 -16t127.5 -31.5t78 -15.5q21 0 31 9t22 32h31l14 -424h-45q-46 196 -146.5 292.5t-266.5 96.5zM430 1520l260 274q29 21 68 21q33 0 78 -54l208 -237l-20 -31l-283 172l-288 -174z" />
    <glyph glyph-name="gcircumflex" unicode="&#x11d;" horiz-adv-x="1026" 
d="M223 1122l221 359q28 20 68 20q50 0 78 -53l149 -262l-22 -17l-217 177l-252 -242zM903 1092l-43 -50q8 -21 33.5 -38t58.5 -17q44 0 71.5 27.5t27.5 68.5q0 56 -38 89.5t-98 33.5q-94 0 -147 -66t-53 -167q0 -27 2 -41q-89 63 -215 63q-98 0 -175 -29t-123 -78.5
t-69.5 -110.5t-23.5 -130q0 -233 180 -303q-95 -73 -135.5 -122t-40.5 -99q0 -64 51 -101.5t156 -37.5h264q156 0 226.5 -41t70.5 -138q0 -120 -102 -192t-294 -72q-155 0 -228 55t-73 150q0 55 23 102l-53 43q-152 -30 -152 -163q0 -116 107 -178t317 -62q557 0 557 383
q0 74 -20.5 128t-55 87t-88.5 52.5t-112 26.5t-134 7h-280q-42 0 -58 7.5t-16 25.5q0 38 127 123q77 -15 144 -15q167 0 264.5 95t97.5 254q0 136 -90 233q-6 41 -6 72q0 82 30 126t64 44q45 0 51 -45zM309 651q0 161 46 228t132 67q88 0 130 -68t42 -225q0 -158 -44 -222
t-126 -64q-91 0 -135.5 64t-44.5 220z" />
    <glyph glyph-name="Gbreve" unicode="&#x11e;" horiz-adv-x="1445" 
d="M752 1399q-435 0 -435 -684q0 -322 112.5 -500t330.5 -178q80 0 154 40t110 105v342h-188v60h538v-60h-135v-522h-31q-9 17 -15.5 26t-21.5 17t-36 8q-25 0 -87 -18.5t-145 -36.5t-160 -18q-152 0 -272 42.5t-208 129.5t-134.5 228t-46.5 329q0 181 53.5 325t146.5 235
t216 139t266 48q69 0 142.5 -16t127.5 -31.5t78 -15.5q21 0 31 9t22 32h31l14 -424h-45q-46 196 -146.5 292.5t-266.5 96.5zM451 1753l45 8q32 -74 85.5 -108.5t163.5 -34.5q113 0 163.5 33.5t78.5 109.5l45 -8q-6 -49 -23.5 -91t-50.5 -81t-90.5 -61.5t-132.5 -22.5
q-60 0 -107.5 15.5t-78 39.5t-52 58.5t-31.5 69t-15 73.5z" />
    <glyph glyph-name="gbreve" unicode="&#x11f;" horiz-adv-x="1026" 
d="M201 1413l45 8q32 -94 86 -139t164 -45q114 0 163.5 42.5t77.5 141.5l45 -8q-6 -57 -23.5 -106t-50.5 -94t-90 -71t-133 -26q-60 0 -107.5 17.5t-78 46t-52 68.5t-31.5 79.5t-15 85.5zM860 1042l43 50q-6 45 -51 45q-34 0 -64 -44t-30 -126q0 -31 6 -72q90 -97 90 -233
q0 -159 -97.5 -254t-264.5 -95q-67 0 -144 15q-127 -85 -127 -123q0 -18 16 -25.5t58 -7.5h280q76 0 134 -7t112 -26.5t88.5 -52.5t55 -87t20.5 -128q0 -383 -557 -383q-210 0 -317 62t-107 178q0 133 152 163l53 -43q-23 -47 -23 -102q0 -95 73 -150t228 -55q192 0 294 72
t102 192q0 97 -70.5 138t-226.5 41h-264q-105 0 -156 37.5t-51 101.5q0 50 40.5 99t135.5 122q-180 70 -180 303q0 69 23.5 130t69.5 110.5t123 78.5t175 29q126 0 215 -63q-2 14 -2 41q0 101 53 167t147 66q60 0 98 -33.5t38 -89.5q0 -41 -27.5 -68.5t-71.5 -27.5
q-33 0 -58.5 17t-33.5 38zM309 651q0 -156 44.5 -220t135.5 -64q82 0 126 64t44 222q0 157 -42 225t-130 68q-86 0 -132 -67t-46 -228z" />
    <glyph glyph-name="Gdotaccent" unicode="&#x120;" horiz-adv-x="1445" 
d="M752 1399q-435 0 -435 -684q0 -322 112.5 -500t330.5 -178q80 0 154 40t110 105v342h-188v60h538v-60h-135v-522h-31q-9 17 -15.5 26t-21.5 17t-36 8q-25 0 -87 -18.5t-145 -36.5t-160 -18q-152 0 -272 42.5t-208 129.5t-134.5 228t-46.5 329q0 181 53.5 325t146.5 235
t216 139t266 48q69 0 142.5 -16t127.5 -31.5t78 -15.5q21 0 31 9t22 32h31l14 -424h-45q-46 196 -146.5 292.5t-266.5 96.5zM600 1681q0 52 32.5 86.5t90.5 34.5q57 0 91 -29.5t34 -91.5q0 -57 -32 -91t-91 -34q-65 0 -95 36.5t-30 88.5z" />
    <glyph glyph-name="gdotaccent" unicode="&#x121;" horiz-adv-x="1026" 
d="M860 1042l43 50q-6 45 -51 45q-34 0 -64 -44t-30 -126q0 -31 6 -72q90 -97 90 -233q0 -159 -97.5 -254t-264.5 -95q-67 0 -144 15q-127 -85 -127 -123q0 -18 16 -25.5t58 -7.5h280q76 0 134 -7t112 -26.5t88.5 -52.5t55 -87t20.5 -128q0 -383 -557 -383q-210 0 -317 62
t-107 178q0 133 152 163l53 -43q-23 -47 -23 -102q0 -95 73 -150t228 -55q192 0 294 72t102 192q0 97 -70.5 138t-226.5 41h-264q-105 0 -156 37.5t-51 101.5q0 50 40.5 99t135.5 122q-180 70 -180 303q0 69 23.5 130t69.5 110.5t123 78.5t175 29q126 0 215 -63q-2 14 -2 41
q0 101 53 167t147 66q60 0 98 -33.5t38 -89.5q0 -41 -27.5 -68.5t-71.5 -27.5q-33 0 -58.5 17t-33.5 38zM309 651q0 -156 44.5 -220t135.5 -64q82 0 126 64t44 222q0 157 -42 225t-130 68q-86 0 -132 -67t-46 -228zM360 1311q0 52 32.5 86.5t90.5 34.5q57 0 91 -29.5
t34 -91.5q0 -57 -32 -91t-91 -34q-65 0 -95 36.5t-30 88.5z" />
    <glyph glyph-name="Gcommaaccent" unicode="&#x122;" horiz-adv-x="1445" 
d="M752 1399q-435 0 -435 -684q0 -322 112.5 -500t330.5 -178q80 0 154 40t110 105v342h-188v60h538v-60h-135v-522h-31q-9 17 -15.5 26t-21.5 17t-36 8q-25 0 -87 -18.5t-145 -36.5t-160 -18q-152 0 -272 42.5t-208 129.5t-134.5 228t-46.5 329q0 181 53.5 325t146.5 235
t216 139t266 48q69 0 142.5 -16t127.5 -31.5t78 -15.5q21 0 31 9t22 32h31l14 -424h-45q-46 196 -146.5 292.5t-266.5 96.5zM692 -559l-37 41q117 110 117 194q0 45 -33 50l-45 -48q-28 8 -49.5 35t-21.5 64q0 44 30.5 71t71.5 27q66 0 100.5 -42.5t34.5 -106.5
q0 -78 -39.5 -146t-128.5 -139z" />
    <glyph glyph-name="gcommaaccent" unicode="&#x123;" horiz-adv-x="1026" 
d="M903 1092l-43 -50q8 -21 33.5 -38t58.5 -17q44 0 71.5 27.5t27.5 68.5q0 56 -38 89.5t-98 33.5q-94 0 -147 -66t-53 -167q0 -27 2 -41q-89 63 -215 63q-98 0 -175 -29t-123 -78.5t-69.5 -110.5t-23.5 -130q0 -233 180 -303q-95 -73 -135.5 -122t-40.5 -99
q0 -64 51 -101.5t156 -37.5h264q156 0 226.5 -41t70.5 -138q0 -120 -102 -192t-294 -72q-155 0 -228 55t-73 150q0 55 23 102l-53 43q-152 -30 -152 -163q0 -116 107 -178t317 -62q557 0 557 383q0 74 -20.5 128t-55 87t-88.5 52.5t-112 26.5t-134 7h-280q-42 0 -58 7.5
t-16 25.5q0 38 127 123q77 -15 144 -15q167 0 264.5 95t97.5 254q0 136 -90 233q-6 41 -6 72q0 82 30 126t64 44q45 0 51 -45zM309 651q0 161 46 228t132 67q88 0 130 -68t42 -225q0 -158 -44 -222t-126 -64q-91 0 -135.5 64t-44.5 220zM530 1579l37 -41
q-116 -109 -116 -195q0 -24 7 -35t25 -14l45 47q28 -8 50 -34.5t22 -63.5q0 -44 -30.5 -71t-71.5 -27q-66 0 -101 42.5t-35 106.5q0 78 39.5 146t128.5 139z" />
    <glyph glyph-name="Hcircumflex" unicode="&#x124;" horiz-adv-x="1558" 
d="M84 1434h539v-60h-162v-606h637v606h-162v60h539v-60h-162v-1315h162v-59h-539v59h162v635h-637v-635h162v-59h-539v59h162v1315h-162v60zM471 1520l260 274q29 21 68 21q33 0 78 -54l208 -237l-20 -31l-283 172l-288 -174z" />
    <glyph glyph-name="hcircumflex" unicode="&#x125;" horiz-adv-x="1253" 
d="M49 1536h350v-754q19 41 48 76t72 67.5t105 51t136 18.5q147 0 225 -81t78 -261v-600h156v-53h-506v53h153v621q0 132 -36 190t-130 58q-122 0 -211.5 -93.5t-89.5 -232.5v-543h156v-53h-506v53h154v1430h-154v53zM-55 1602l260 274q28 20 67 20q34 0 78 -53l209 -237
l-20 -31l-283 172l-289 -174z" />
    <glyph glyph-name="Hbar" unicode="&#x126;" horiz-adv-x="1558" 
d="M84 1434h539v-60h-162v-272h637v272h-162v60h539v-60h-162v-272h172v-60h-172v-983h162v-59h-539v59h162v635h-637v-635h162v-59h-539v59h162v983h-172v60h172v272h-162v60zM461 768h637v274h-637v-274z" />
    <glyph glyph-name="hbar" unicode="&#x127;" horiz-adv-x="1253" 
d="M49 1536h350v-289h371v-53h-371v-412q19 41 48 76t72 67.5t105 51t136 18.5q147 0 225 -81t78 -261v-600h156v-53h-506v53h153v621q0 132 -36 190t-130 58q-122 0 -211.5 -93.5t-89.5 -232.5v-543h156v-53h-506v53h154v1141h-164v53h164v236h-154v53z" />
    <glyph glyph-name="Itilde" unicode="&#x128;" horiz-adv-x="706" 
d="M92 1434h522v-60h-153v-1315h153v-59h-522v59h154v1315h-154v60zM487 1577q-74 0 -182 47q-87 35 -127 35q-67 0 -104 -88l-39 12q27 91 78 146t141 55q15 0 31 -2t25.5 -4t28 -8.5t24 -8.5t28.5 -12t27 -12q90 -35 127 -35t60 18.5t44 69.5l41 -10q-29 -99 -82.5 -151
t-120.5 -52z" />
    <glyph glyph-name="itilde" unicode="&#x129;" horiz-adv-x="604" 
d="M57 975h351v-922h155v-53h-506v53h154v869h-154v53zM387 1188q-74 0 -182 47q-87 35 -127 35q-68 0 -105 -88l-39 12q60 201 220 201q15 0 30.5 -2t26 -4t27.5 -8.5t24 -9t28 -11.5t27 -12q90 -35 127 -35t60.5 18.5t44.5 69.5l41 -10q-29 -99 -82.5 -151t-120.5 -52z
" />
    <glyph glyph-name="Imacron" unicode="&#x12a;" horiz-adv-x="706" 
d="M92 1434h522v-60h-153v-1315h153v-59h-522v59h154v1315h-154v60zM76 1591v107h557v-107h-557z" />
    <glyph glyph-name="imacron" unicode="&#x12b;" horiz-adv-x="604" 
d="M57 975h351v-922h155v-53h-506v53h154v869h-154v53zM-2 1210v107h557v-107h-557z" />
    <glyph glyph-name="Ibreve" unicode="&#x12c;" horiz-adv-x="706" 
d="M92 1434h522v-60h-153v-1315h153v-59h-522v59h154v1315h-154v60zM63 1753l46 8q32 -74 85.5 -108.5t163.5 -34.5q113 0 163.5 33.5t78.5 109.5l45 -8q-6 -49 -23.5 -91t-50.5 -81t-90.5 -61.5t-132.5 -22.5q-74 0 -129 22t-86.5 61t-47.5 81t-22 92z" />
    <glyph glyph-name="ibreve" unicode="&#x12d;" horiz-adv-x="604" 
d="M57 975h351v-922h155v-53h-506v53h154v869h-154v53zM-12 1413l45 8q32 -94 86 -139t164 -45q114 0 163.5 42.5t77.5 141.5l45 -8q-6 -57 -23.5 -106t-50.5 -94t-90 -71t-133 -26q-60 0 -107.5 17.5t-78 46t-52 68.5t-31.5 79.5t-15 85.5z" />
    <glyph glyph-name="Iogonek" unicode="&#x12e;" horiz-adv-x="706" 
d="M92 1434h522v-60h-153v-1315h153v-59h-145q-154 -128 -154 -266q0 -48 21.5 -76.5t64.5 -28.5q37 0 60.5 17.5t58.5 62.5l33 -22q-18 -30 -30 -46.5t-38 -42.5t-61.5 -38.5t-81.5 -12.5q-91 0 -139.5 42t-48.5 114q0 38 17.5 76.5t40.5 66t63 60.5t64.5 50t66.5 44h-314
v59h154v1315h-154v60z" />
    <glyph glyph-name="iogonek" unicode="&#x12f;" horiz-adv-x="604" 
d="M57 975h351v-922h155v-53h-145q-154 -128 -154 -266q0 -48 21.5 -76.5t64.5 -28.5q37 0 60.5 17.5t58.5 62.5l33 -22q-18 -30 -30 -46.5t-38 -42.5t-61.5 -38.5t-81.5 -12.5q-91 0 -140 42t-49 114q0 46 23 90.5t66 84t77.5 65t85.5 57.5h-297v53h154v869h-154v53z
M170 1311q0 52 32.5 86.5t90.5 34.5q57 0 91 -29.5t34 -91.5q0 -57 -32 -91t-91 -34q-65 0 -95 36.5t-30 88.5z" />
    <glyph glyph-name="Idotaccent" unicode="&#x130;" horiz-adv-x="706" 
d="M92 1434h522v-60h-153v-1315h153v-59h-522v59h154v1315h-154v60zM229 1681q0 52 32.5 86.5t90.5 34.5q57 0 91 -29.5t34 -91.5q0 -57 -32 -91t-91 -34q-65 0 -95 36.5t-30 88.5z" />
    <glyph glyph-name="dotlessi" unicode="&#x131;" horiz-adv-x="604" 
d="M57 975h351v-922h155v-53h-506v53h154v869h-154v53z" />
    <glyph glyph-name="IJ" unicode="&#x132;" horiz-adv-x="1628" 
d="M92 1434h522v-60h-153v-1315h153v-59h-522v59h154v1315h-154v60zM1024 1434h563v-60h-153v-921q0 -217 -99 -345t-288 -128q-140 0 -214.5 54.5t-74.5 151.5q0 76 38.5 117t98.5 41q50 0 80.5 -29t30.5 -88q0 -35 -15 -84h-65q-4 -20 -4 -26q0 -38 32.5 -61t96.5 -23
q99 0 133.5 49t34.5 170v1122h-195v60z" />
    <glyph glyph-name="Jcircumflex" unicode="&#x134;" horiz-adv-x="921" 
d="M317 1434h564v-60h-154v-921q0 -217 -99 -345t-288 -128q-140 0 -214.5 54.5t-74.5 151.5q0 76 38.5 117t98.5 41q50 0 80.5 -29t30.5 -88q0 -38 -14 -84h-66q-4 -20 -4 -26q0 -38 32.5 -61t96.5 -23q99 0 133.5 49t34.5 170v1122h-195v60zM291 1520l260 274q29 21 67 21
q33 0 78 -54l209 -237l-20 -31l-283 172l-289 -174z" />
    <glyph glyph-name="jcircumflex" unicode="&#x135;" horiz-adv-x="583" 
d="M401 975v-901q0 -115 -20 -216t-61.5 -186t-113.5 -134.5t-167 -49.5q-56 0 -96 16t-60.5 43.5t-29.5 57t-9 63.5q0 67 35 105.5t88 38.5q45 0 73 -25.5t28 -77.5q0 -27 -13 -74h-59q-6 -18 -6 -36q0 -60 80 -60q32 0 55 10t37.5 34t23.5 49t13 70.5t5 83t1 99.5v1037
h-154v53h350zM-20 1122l221 359q28 20 67 20q50 0 78 -53l174 -324l-26 -18l-248 233l-242 -235z" />
    <glyph glyph-name="Kcommaaccent" unicode="&#x136;" horiz-adv-x="1329" 
d="M92 1434h522v-60h-153v-643l78 21l501 622h-182v60h416v-60h-139l-433 -538l535 -777h111v-59h-529v59h158l-428 617l-88 -21v-596h153v-59h-522v59h154v1315h-154v60zM616 -559l-36 41q116 109 116 194q0 24 -7 35.5t-25 14.5l-46 -48q-28 8 -49.5 35t-21.5 64
q0 44 30.5 71t71.5 27q66 0 100.5 -42.5t34.5 -106.5q0 -78 -39.5 -146t-128.5 -139z" />
    <glyph glyph-name="kcommaaccent" unicode="&#x137;" horiz-adv-x="1157" 
d="M668 0v53h145l-317 459l-97 -20v-439h133v-53h-483v53h154v1430h-154v53h350v-981l78 18l381 349h-182v53h416v-53h-140l-311 -289l403 -580h103v-53h-479zM532 -559l-36 41q116 109 116 194q0 24 -7 35.5t-25 14.5l-45 -48q-28 8 -50 35t-22 64q0 44 30.5 71t71.5 27
q66 0 100.5 -42.5t34.5 -106.5q0 -78 -39.5 -146t-128.5 -139z" />
    <glyph glyph-name="kgreenlandic" unicode="&#x138;" horiz-adv-x="1157" 
d="M668 0v53h145l-317 459l-97 -20v-439h133v-53h-483v53h154v869h-154v53h350v-420l78 18l381 349h-182v53h416v-53h-140l-311 -289l403 -580h103v-53h-479z" />
    <glyph glyph-name="Lacute" unicode="&#x139;" horiz-adv-x="1200" 
d="M84 1434h594v-60h-217v-1315h155q120 0 197.5 18.5t133 65.5t85.5 121.5t49 194.5h45l-18 -459h-1024v59h162v1315h-162v60zM203 1530l291 301l36 -12q39 -13 54.5 -31t15.5 -45q0 -28 -15.5 -46t-49.5 -34l-310 -162z" />
    <glyph glyph-name="lacute" unicode="&#x13a;" horiz-adv-x="606" 
d="M51 1536h350v-1483h154v-53h-504v53h154v1430h-154v53zM90 1612l291 301l37 -12q38 -13 53.5 -31t15.5 -45q0 -28 -15.5 -46t-49.5 -34l-309 -162z" />
    <glyph glyph-name="Lcommaaccent" unicode="&#x13b;" horiz-adv-x="1200" 
d="M84 1434h594v-60h-217v-1315h155q120 0 197.5 18.5t133 65.5t85.5 121.5t49 194.5h45l-18 -459h-1024v59h162v1315h-162v60zM569 -559l-37 41q117 110 117 194q0 45 -33 50l-45 -48q-28 8 -49.5 35t-21.5 64q0 44 30.5 71t71.5 27q66 0 100.5 -42.5t34.5 -106.5
q0 -78 -39.5 -146t-128.5 -139z" />
    <glyph glyph-name="lcommaaccent" unicode="&#x13c;" horiz-adv-x="606" 
d="M51 1536h350v-1483h154v-53h-504v53h154v1430h-154v53zM254 -559l-37 41q117 110 117 194q0 45 -33 50l-45 -48q-28 8 -50 35t-22 64q0 44 31 71t72 27q66 0 100.5 -42.5t34.5 -106.5q0 -78 -39.5 -146t-128.5 -139z" />
    <glyph glyph-name="Lcaron" unicode="&#x13d;" horiz-adv-x="1200" 
d="M84 1434h594v-60h-217v-1315h155q120 0 197.5 18.5t133 65.5t85.5 121.5t49 194.5h45l-18 -459h-1024v59h162v1315h-162v60zM831 999l-32 35q61 56 85.5 102t24.5 95q0 46 -24.5 79.5t-73.5 67.5l31 39q37 43 80 43q54 0 82 -42t28 -101q0 -158 -201 -318z" />
    <glyph glyph-name="lcaron" unicode="&#x13e;" horiz-adv-x="710" 
d="M51 1536h350v-1483h154v-53h-504v53h154v1430h-154v53zM512 1081l-33 35q62 56 86.5 102t24.5 95q0 46 -24.5 79.5t-73.5 67.5l30 39q37 43 80 43q54 0 82.5 -42t28.5 -101q0 -158 -201 -318z" />
    <glyph glyph-name="Ldot" unicode="&#x13f;" horiz-adv-x="1200" 
d="M84 1434h594v-60h-217v-1315h155q120 0 197.5 18.5t133 65.5t85.5 121.5t49 194.5h45l-18 -459h-1024v59h162v1315h-162v60zM829 823q0 -52 30 -88.5t95 -36.5q59 0 91 34t32 91q0 62 -34 91.5t-91 29.5q-58 0 -90.5 -34.5t-32.5 -86.5z" />
    <glyph glyph-name="ldot" unicode="&#x140;" horiz-adv-x="724" 
d="M51 1536h350v-1483h154v-53h-504v53h154v1430h-154v53zM541 831q0 -52 30 -88t95 -36q59 0 90.5 33.5t31.5 90.5q0 62 -33.5 91.5t-90.5 29.5q-58 0 -90.5 -34.5t-32.5 -86.5z" />
    <glyph glyph-name="Lslash" unicode="&#x141;" horiz-adv-x="1200" 
d="M84 1434h594v-60h-217v-553l342 199l16 -59l-358 -209v-693h155q120 0 197.5 18.5t133 65.5t85.5 121.5t49 194.5h45l-18 -459h-1024v59h162v588l-201 -117l-16 62l217 127v655h-162v60z" />
    <glyph glyph-name="lslash" unicode="&#x142;" horiz-adv-x="606" 
d="M51 1536h350v-623l189 111l16 -55l-205 -121v-795h154v-53h-504v53h154v701l-185 -107l-16 58l201 116v662h-154v53z" />
    <glyph glyph-name="Nacute" unicode="&#x143;" horiz-adv-x="1445" 
d="M1221 1374v-1388h-62l-842 1337v-1264h154v-59h-379v59h154v1315h-154v60h410l647 -1035v975h-154v60h379v-60h-153zM578 1530l290 301l37 -12q39 -13 54.5 -31t15.5 -45q0 -28 -16 -46t-50 -34l-309 -162z" />
    <glyph glyph-name="nacute" unicode="&#x144;" horiz-adv-x="1253" 
d="M49 975h350v-193q19 41 48 76t72 67.5t105 51t136 18.5q147 0 225 -81t78 -261v-600h156v-53h-506v53h153v633q0 120 -36.5 178t-127.5 58q-123 0 -213 -93.5t-90 -232.5v-543h156v-53h-506v53h154v869h-154v53zM506 1126l141 379l49 11q8 2 27 2q31 0 50.5 -16.5
t19.5 -49.5t-41 -84l-215 -258z" />
    <glyph glyph-name="Ncommaaccent" unicode="&#x145;" horiz-adv-x="1445" 
d="M1221 1374v-1388h-62l-842 1337v-1264h154v-59h-379v59h154v1315h-154v60h410l647 -1035v975h-154v60h379v-60h-153zM707 -559l-37 41q116 109 116 194q0 24 -7 35.5t-25 14.5l-45 -48q-28 8 -50 35t-22 64q0 44 30.5 71t71.5 27q66 0 100.5 -42.5t34.5 -106.5
q0 -78 -39 -146t-128 -139z" />
    <glyph glyph-name="ncommaaccent" unicode="&#x146;" horiz-adv-x="1253" 
d="M49 975h350v-193q19 41 48 76t72 67.5t105 51t136 18.5q147 0 225 -81t78 -261v-600h156v-53h-506v53h153v633q0 120 -36.5 178t-127.5 58q-123 0 -213 -93.5t-90 -232.5v-543h156v-53h-506v53h154v869h-154v53zM578 -559l-37 41q116 109 116 194q0 24 -7 35.5t-25 14.5
l-45 -48q-28 8 -50 35t-22 64q0 44 30.5 71t71.5 27q66 0 100.5 -42.5t34.5 -106.5q0 -78 -39 -146t-128 -139z" />
    <glyph glyph-name="Ncaron" unicode="&#x147;" horiz-adv-x="1445" 
d="M1221 1374v-1388h-62l-842 1337v-1264h154v-59h-379v59h154v1315h-154v60h410l647 -1035v975h-154v60h379v-60h-153zM1040 1808l-260 -274q-29 -21 -67 -21q-33 0 -78 54l-209 237l20 31l283 -172l289 174z" />
    <glyph glyph-name="ncaron" unicode="&#x148;" horiz-adv-x="1253" 
d="M49 975h350v-193q19 41 48 76t72 67.5t105 51t136 18.5q147 0 225 -81t78 -261v-600h156v-53h-506v53h153v633q0 120 -36.5 178t-127.5 58q-123 0 -213 -93.5t-90 -232.5v-543h156v-53h-506v53h154v869h-154v53zM545 1143l-207 358l24 19l259 -238l231 236l27 -19
l-189 -323q-33 -54 -78 -54q-38 0 -67 21z" />
    <glyph glyph-name="napostrophe" unicode="&#x149;" horiz-adv-x="1253" 
d="M49 975h350v-193q19 41 48 76t72 67.5t105 51t136 18.5q147 0 225 -81t78 -261v-600h156v-53h-506v53h153v633q0 120 -36.5 178t-127.5 58q-123 0 -213 -93.5t-90 -232.5v-543h156v-53h-506v53h154v869h-154v53zM-106 946l-37 41q116 109 116 195q0 24 -7 35t-25 14
l-45 -47q-28 8 -50 34.5t-22 63.5q0 44 30.5 71t71.5 27q66 0 100.5 -42.5t34.5 -106.5q0 -78 -39 -146t-128 -139z" />
    <glyph glyph-name="Eng" unicode="&#x14a;" horiz-adv-x="1437" 
d="M1221 1374v-1274q0 -257 -68.5 -371t-232.5 -114q-141 0 -215 54t-74 151q0 76 39 116.5t98 40.5q50 0 80.5 -28.5t30.5 -87.5q0 -35 -15 -84h-65q-4 -20 -4 -27q0 -38 32.5 -61t96.5 -23q80 0 113.5 56t33.5 163v240l-754 1198v-1264h154v-59h-379v59h154v1315h-154v60
h410l647 -1035v975h-154v60h379v-60h-153z" />
    <glyph glyph-name="eng" unicode="&#x14b;" horiz-adv-x="1245" 
d="M866 -115v801q0 120 -36.5 178t-127.5 58q-123 0 -213 -93.5t-90 -232.5v-543h156v-53h-506v53h154v869h-154v53h350v-193q19 41 48 76t72 67.5t105 51t136 18.5q147 0 225 -81t78 -261v-579q0 -91 -12 -174t-40 -159t-69 -131.5t-103 -88.5t-139 -33q-56 0 -96 16
t-60 43.5t-29 57t-9 63.5q0 67 35 105.5t88 38.5q45 0 72.5 -25.5t27.5 -77.5q0 -31 -12 -74h-60q-6 -18 -6 -36q0 -60 80 -60q32 0 55 10t37.5 34t23.5 49t13 70.5t5 83t1 99.5z" />
    <glyph glyph-name="Omacron" unicode="&#x14c;" horiz-adv-x="1460" 
d="M1139 723q0 123 -9.5 217.5t-36.5 182.5t-70.5 145t-115 91t-168.5 34q-102 0 -177.5 -34t-121.5 -91t-73.5 -146.5t-37.5 -185t-10 -221.5q0 -116 10 -209.5t38 -182.5t73 -148.5t119.5 -95.5t173.5 -36q97 0 169 34t117 92t72 146.5t37.5 185.5t10.5 222zM82 713
q0 336 184 539.5t479 203.5q292 0 462.5 -192.5t170.5 -532.5q0 -353 -168.5 -552t-480.5 -199t-479.5 190t-167.5 543zM451 1591v107h557v-107h-557z" />
    <glyph glyph-name="omacron" unicode="&#x14d;" horiz-adv-x="1067" 
d="M780 494q0 100 -10 175t-35 141t-75 101t-123 35q-61 0 -106 -23.5t-72.5 -62.5t-43.5 -98.5t-22 -121.5t-6 -142q0 -81 6 -145.5t22.5 -127t44 -104t72.5 -67t105 -25.5q58 0 101.5 23t70 62t43 99.5t22.5 127t6 153.5zM72 483q0 243 127 377.5t342 134.5
q220 0 337 -124t117 -377q0 -240 -121.5 -377t-341.5 -137q-218 0 -339 132t-121 371zM260 1210v107h557v-107h-557z" />
    <glyph glyph-name="Obreve" unicode="&#x14e;" horiz-adv-x="1460" 
d="M1139 723q0 123 -9.5 217.5t-36.5 182.5t-70.5 145t-115 91t-168.5 34q-102 0 -177.5 -34t-121.5 -91t-73.5 -146.5t-37.5 -185t-10 -221.5q0 -116 10 -209.5t38 -182.5t73 -148.5t119.5 -95.5t173.5 -36q97 0 169 34t117 92t72 146.5t37.5 185.5t10.5 222zM82 713
q0 336 184 539.5t479 203.5q292 0 462.5 -192.5t170.5 -532.5q0 -353 -168.5 -552t-480.5 -199t-479.5 190t-167.5 543zM444 1753l45 8q32 -74 86 -108.5t164 -34.5q113 0 163.5 33.5t78.5 109.5l45 -8q-6 -49 -23.5 -91t-50.5 -81t-90.5 -61.5t-132.5 -22.5q-74 0 -129 22
t-86.5 61t-47.5 81t-22 92z" />
    <glyph glyph-name="obreve" unicode="&#x14f;" horiz-adv-x="1067" 
d="M780 494q0 100 -10 175t-35 141t-75 101t-123 35q-61 0 -106 -23.5t-72.5 -62.5t-43.5 -98.5t-22 -121.5t-6 -142q0 -81 6 -145.5t22.5 -127t44 -104t72.5 -67t105 -25.5q58 0 101.5 23t70 62t43 99.5t22.5 127t6 153.5zM72 483q0 243 127 377.5t342 134.5
q220 0 337 -124t117 -377q0 -240 -121.5 -377t-341.5 -137q-218 0 -339 132t-121 371zM258 1413l45 8q32 -94 86 -139t164 -45q114 0 164 42.5t78 141.5l45 -8q-6 -57 -23.5 -106t-50.5 -94t-90 -71t-133 -26q-74 0 -129 25.5t-86.5 71t-47.5 94t-22 106.5z" />
    <glyph glyph-name="Ohungarumlaut" unicode="&#x150;" horiz-adv-x="1460" 
d="M1139 723q0 123 -9.5 217.5t-36.5 182.5t-70.5 145t-115 91t-168.5 34q-102 0 -177.5 -34t-121.5 -91t-73.5 -146.5t-37.5 -185t-10 -221.5q0 -116 10 -209.5t38 -182.5t73 -148.5t119.5 -95.5t173.5 -36q97 0 169 34t117 92t72 146.5t37.5 185.5t10.5 222zM82 713
q0 336 184 539.5t479 203.5q292 0 462.5 -192.5t170.5 -532.5q0 -353 -168.5 -552t-480.5 -199t-479.5 190t-167.5 543zM526 1534l226 346l39 -4q36 -5 61 -23.5t25 -52.5q0 -21 -12 -37t-40 -39l-270 -219zM803 1536l250 332l32 -6q82 -17 82 -74q0 -25 -12.5 -41.5
t-42.5 -38.5l-283 -203z" />
    <glyph glyph-name="ohungarumlaut" unicode="&#x151;" horiz-adv-x="1067" 
d="M780 494q0 100 -10 175t-35 141t-75 101t-123 35q-61 0 -106 -23.5t-72.5 -62.5t-43.5 -98.5t-22 -121.5t-6 -142q0 -81 6 -145.5t22.5 -127t44 -104t72.5 -67t105 -25.5q58 0 101.5 23t70 62t43 99.5t22.5 127t6 153.5zM72 483q0 243 127 377.5t342 134.5
q220 0 337 -124t117 -377q0 -240 -121.5 -377t-341.5 -137q-218 0 -339 132t-121 371zM645 1128l141 379l50 11q8 2 26 2q30 0 48 -16t18 -50q0 -33 -41 -84l-211 -258zM356 1128l142 379l49 11q8 2 26 2q30 0 48 -16t18 -50q0 -33 -41 -84l-211 -258z" />
    <glyph glyph-name="OE" unicode="&#x152;" horiz-adv-x="2146" 
d="M1972 1434l21 -385h-49q-8 57 -19 101.5t-27.5 78t-34.5 57.5t-45.5 40t-53.5 25.5t-66 14.5t-75.5 6.5t-88.5 1.5h-188v-612h106q124 0 170.5 51t71.5 211h43v-606h-47q-12 73 -23.5 116t-29 78t-44.5 51.5t-65 24.5t-96 8h-86v-637h215q220 0 314.5 78.5t129.5 288.5
h41l-14 -426h-877v158q-70 -75 -183.5 -128t-250.5 -53q-306 0 -472.5 191.5t-166.5 544.5q0 336 184 539.5t479 203.5q263 0 410 -174v152h817zM1139 723q0 123 -9.5 217.5t-36.5 182.5t-70.5 145t-115 91t-168.5 34q-102 0 -177.5 -34t-121.5 -91t-73.5 -146.5t-37.5 -185
t-10 -221.5q0 -116 10 -209.5t38 -182.5t73 -148.5t119.5 -95.5t173.5 -36q97 0 169 34t117 92t72 146.5t37.5 185.5t10.5 222z" />
    <glyph glyph-name="oe" unicode="&#x153;" horiz-adv-x="1683" 
d="M72 483q0 243 127 377.5t342 134.5q238 0 342 -194q59 93 152.5 143.5t207.5 50.5q194 0 289 -118t86 -349h-635v-28q0 -232 65 -341.5t226 -109.5q119 0 191.5 67.5t97.5 182.5l59 -8q-65 -311 -383 -311q-131 0 -220.5 53.5t-141.5 138.5q-54 -91 -143 -141.5
t-208 -50.5q-214 0 -334 132t-120 371zM780 494q0 100 -10 175t-35 141t-75 101t-123 35q-61 0 -106 -23.5t-72.5 -62.5t-43.5 -98.5t-22 -121.5t-6 -142q0 -81 6 -145.5t22.5 -127t44 -104t72.5 -67t105 -25.5q58 0 101.5 23t70 62t43 99.5t22.5 127t6 153.5zM985 584h428
q10 177 -33 269.5t-155 92.5q-218 0 -240 -362z" />
    <glyph glyph-name="Racute" unicode="&#x154;" horiz-adv-x="1337" 
d="M600 707h-139v-648h215v-59h-604v59h174v1315h-174v60h485q103 0 180.5 -7t154 -28.5t125.5 -58t79 -99t30 -147.5q0 -89 -28.5 -154t-84 -104.5t-127 -60t-167.5 -27.5v-7q191 -22 267.5 -98.5t76.5 -253.5v-182q0 -67 16 -97t72 -30q34 0 54.5 22.5t28.5 50.5t23 99
q1 5 1.5 8t1.5 7.5t2 8.5l45 -10q-2 -12 -8 -44.5t-9.5 -49.5t-12 -46.5t-18.5 -46t-27 -38.5t-38 -33t-52 -19.5t-69 -8.5q-129 0 -180 59t-51 188v277q0 106 -52 154.5t-190 48.5zM461 1374v-610h43q205 0 295 75t90 248q0 87 -21 143t-69.5 88t-114.5 44t-168 12h-55z
M469 1530l291 301l37 -12q38 -13 53.5 -31t15.5 -45q0 -28 -15.5 -46t-49.5 -34l-309 -162z" />
    <glyph glyph-name="racute" unicode="&#x155;" horiz-adv-x="878" 
d="M621 918q-88 0 -155 -112.5t-67 -252.5v-500h217v-53h-567v53h154v869h-154v53h350v-197q30 107 96 162t156 55q94 0 150.5 -51.5t56.5 -134.5t-37 -121.5t-94 -38.5q-53 0 -84 34t-31 95q0 29 6 56h64q4 12 4 32q0 52 -65 52zM389 1126l141 379l50 11q8 2 26 2
q31 0 50.5 -16.5t19.5 -49.5t-41 -84l-215 -258z" />
    <glyph glyph-name="Rcommaaccent" unicode="&#x156;" horiz-adv-x="1337" 
d="M600 707h-139v-648h215v-59h-604v59h174v1315h-174v60h485q103 0 180.5 -7t154 -28.5t125.5 -58t79 -99t30 -147.5q0 -89 -28.5 -154t-84 -104.5t-127 -60t-167.5 -27.5v-7q191 -22 267.5 -98.5t76.5 -253.5v-182q0 -67 16 -97t72 -30q34 0 54.5 22.5t28.5 50.5t23 99
q1 5 1.5 8t1.5 7.5t2 8.5l45 -10q-2 -12 -8 -44.5t-9.5 -49.5t-12 -46.5t-18.5 -46t-27 -38.5t-38 -33t-52 -19.5t-69 -8.5q-129 0 -180 59t-51 188v277q0 106 -52 154.5t-190 48.5zM461 1374v-610h43q205 0 295 75t90 248q0 87 -21 143t-69.5 88t-114.5 44t-168 12h-55z
M618 -559l-36 41q116 109 116 194q0 24 -7 35.5t-25 14.5l-45 -48q-28 8 -50 35t-22 64q0 44 30.5 71t71.5 27q66 0 100.5 -42.5t34.5 -106.5q0 -78 -39.5 -146t-128.5 -139z" />
    <glyph glyph-name="rcommaaccent" unicode="&#x157;" horiz-adv-x="878" 
d="M621 918q-88 0 -155 -112.5t-67 -252.5v-500h217v-53h-567v53h154v869h-154v53h350v-197q30 107 96 162t156 55q94 0 150.5 -51.5t56.5 -134.5t-37 -121.5t-94 -38.5q-53 0 -84 34t-31 95q0 29 6 56h64q4 12 4 32q0 52 -65 52zM268 -559l-37 41q117 110 117 194
q0 45 -33 50l-45 -48q-28 8 -49.5 35t-21.5 64q0 44 30.5 71t71.5 27q66 0 100.5 -42.5t34.5 -106.5q0 -78 -39.5 -146t-128.5 -139z" />
    <glyph glyph-name="Rcaron" unicode="&#x158;" horiz-adv-x="1337" 
d="M600 707h-139v-648h215v-59h-604v59h174v1315h-174v60h485q103 0 180.5 -7t154 -28.5t125.5 -58t79 -99t30 -147.5q0 -89 -28.5 -154t-84 -104.5t-127 -60t-167.5 -27.5v-7q191 -22 267.5 -98.5t76.5 -253.5v-182q0 -67 16 -97t72 -30q34 0 54.5 22.5t28.5 50.5t23 99
q1 5 1.5 8t1.5 7.5t2 8.5l45 -10q-2 -12 -8 -44.5t-9.5 -49.5t-12 -46.5t-18.5 -46t-27 -38.5t-38 -33t-52 -19.5t-69 -8.5q-129 0 -180 59t-51 188v277q0 106 -52 154.5t-190 48.5zM461 1374v-610h43q205 0 295 75t90 248q0 87 -21 143t-69.5 88t-114.5 44t-168 12h-55z
M920 1808l-261 -274q-29 -21 -67 -21q-33 0 -78 54l-209 237l21 31l282 -172l289 174z" />
    <glyph glyph-name="rcaron" unicode="&#x159;" horiz-adv-x="878" 
d="M621 918q-88 0 -155 -112.5t-67 -252.5v-500h217v-53h-567v53h154v869h-154v53h350v-197q30 107 96 162t156 55q94 0 150.5 -51.5t56.5 -134.5t-37 -121.5t-94 -38.5q-53 0 -84 34t-31 95q0 29 6 56h64q4 12 4 32q0 52 -65 52zM381 1143l-207 358l25 19l258 -238l231 236
l27 -19l-189 -323q-33 -54 -77 -54q-39 0 -68 21z" />
    <glyph glyph-name="Sacute" unicode="&#x15a;" horiz-adv-x="1157" 
d="M580 37q162 0 260 84.5t98 220.5q0 58 -20.5 101.5t-43 69.5t-88 53t-102.5 37.5t-140 37.5q-7 2 -12 3.5t-10 2.5q-65 17 -111.5 32.5t-92.5 38t-76 50.5t-53.5 66.5t-34.5 89t-11 114.5q0 80 27 153t78 133t134 96t187 36q69 0 135.5 -16t113.5 -31.5t71 -15.5
q21 0 31 9t22 32h31l14 -414h-45q-24 101 -52.5 168t-72 116.5t-105.5 72t-149 22.5q-140 0 -216.5 -70.5t-76.5 -191.5q0 -48 18.5 -86.5t46 -64t75.5 -48.5t90 -37t106 -31q73 -19 112.5 -31.5t101.5 -37t96 -53.5t70.5 -72t52.5 -103t16 -135q0 -203 -124 -330.5
t-345 -127.5q-83 0 -159 15t-127.5 30.5t-74.5 15.5q-5 0 -9 -1t-7 -1.5t-6 -3.5t-5 -4.5t-5 -6t-4.5 -6.5t-4 -8t-3.5 -8.5t-4.5 -10.5t-4.5 -11h-35l-20 466h45q19 -81 42.5 -142t58 -113t78.5 -85t104 -51t135 -18zM412 1530l290 301l37 -12q39 -13 54.5 -31t15.5 -45
q0 -28 -16 -46t-50 -34l-309 -162z" />
    <glyph glyph-name="sacute" unicode="&#x15b;" horiz-adv-x="874" 
d="M76 -20v339h53q9 -131 104.5 -201.5t227.5 -70.5q244 0 244 184q0 32 -9 57t-30 43t-41.5 30t-56.5 22t-61 15.5t-69 13.5q-49 9 -72 13.5t-67 16t-66.5 23t-53.5 32.5t-46.5 46t-27 61.5t-11.5 81.5q0 131 94 220t244 89q99 0 201 -47q33 -14 57 -14q14 0 20 15t9 50h45
v-303h-51q-27 120 -99.5 181t-181.5 61q-99 0 -160 -42t-61 -116q0 -91 97 -130q44 -18 165 -40q45 -8 71.5 -14t67.5 -18.5t66 -26.5t54.5 -37.5t46 -52.5t27.5 -70.5t11 -91.5q0 -142 -95 -230.5t-263 -88.5q-149 0 -273 69q-18 12 -30 12q-14 0 -21 -16t-14 -65h-45z
M328 1126l141 379l49 11q8 2 27 2q69 0 69 -66q0 -33 -41 -84l-215 -258z" />
    <glyph glyph-name="Scircumflex" unicode="&#x15c;" horiz-adv-x="1157" 
d="M580 37q162 0 260 84.5t98 220.5q0 58 -20.5 101.5t-43 69.5t-88 53t-102.5 37.5t-140 37.5q-7 2 -12 3.5t-10 2.5q-65 17 -111.5 32.5t-92.5 38t-76 50.5t-53.5 66.5t-34.5 89t-11 114.5q0 80 27 153t78 133t134 96t187 36q69 0 135.5 -16t113.5 -31.5t71 -15.5
q21 0 31 9t22 32h31l14 -414h-45q-24 101 -52.5 168t-72 116.5t-105.5 72t-149 22.5q-140 0 -216.5 -70.5t-76.5 -191.5q0 -48 18.5 -86.5t46 -64t75.5 -48.5t90 -37t106 -31q73 -19 112.5 -31.5t101.5 -37t96 -53.5t70.5 -72t52.5 -103t16 -135q0 -203 -124 -330.5
t-345 -127.5q-83 0 -159 15t-127.5 30.5t-74.5 15.5q-5 0 -9 -1t-7 -1.5t-6 -3.5t-5 -4.5t-5 -6t-4.5 -6.5t-4 -8t-3.5 -8.5t-4.5 -10.5t-4.5 -11h-35l-20 466h45q19 -81 42.5 -142t58 -113t78.5 -85t104 -51t135 -18zM258 1520l260 274q29 21 68 21q33 0 78 -54l208 -237
l-20 -31l-283 172l-288 -174z" />
    <glyph glyph-name="scircumflex" unicode="&#x15d;" horiz-adv-x="874" 
d="M76 -20v339h53q9 -131 104.5 -201.5t227.5 -70.5q244 0 244 184q0 32 -9 57t-30 43t-41.5 30t-56.5 22t-61 15.5t-69 13.5q-49 9 -72 13.5t-67 16t-66.5 23t-53.5 32.5t-46.5 46t-27 61.5t-11.5 81.5q0 131 94 220t244 89q99 0 201 -47q33 -14 57 -14q14 0 20 15t9 50h45
v-303h-51q-27 120 -99.5 181t-181.5 61q-99 0 -160 -42t-61 -116q0 -91 97 -130q44 -18 165 -40q45 -8 71.5 -14t67.5 -18.5t66 -26.5t54.5 -37.5t46 -52.5t27.5 -70.5t11 -91.5q0 -142 -95 -230.5t-263 -88.5q-149 0 -273 69q-18 12 -30 12q-14 0 -21 -16t-14 -65h-45z
M168 1122l221 359q28 20 68 20q50 0 78 -53l174 -324l-27 -18l-248 233l-241 -235z" />
    <glyph glyph-name="Scedilla" unicode="&#x15e;" horiz-adv-x="1157" 
d="M580 37q162 0 260 84.5t98 220.5q0 58 -20.5 101.5t-43 69.5t-88 53t-102.5 37.5t-140 37.5q-7 2 -12 3.5t-10 2.5q-65 17 -111.5 32.5t-92.5 38t-76 50.5t-53.5 66.5t-34.5 89t-11 114.5q0 80 27 153t78 133t134 96t187 36q69 0 135.5 -16t113.5 -31.5t71 -15.5
q21 0 31 9t22 32h31l14 -414h-45q-24 101 -52.5 168t-72 116.5t-105.5 72t-149 22.5q-140 0 -216.5 -70.5t-76.5 -191.5q0 -48 18.5 -86.5t46 -64t75.5 -48.5t90 -37t106 -31q73 -19 112.5 -31.5t101.5 -37t96 -53.5t70.5 -72t52.5 -103t16 -135q0 -198 -119 -325t-332 -133
l-53 -93q28 4 49 4q82 0 127 -43.5t45 -113.5q0 -77 -59 -131t-164 -54q-74 0 -123 36.5t-49 84.5q0 33 17 48.5t42 15.5q22 0 41.5 -13.5t26.5 -37.5l-35 -33q0 -26 20 -44t58 -18q98 0 98 131q0 64 -23.5 94.5t-76.5 30.5q-29 0 -62 -8l-6 25l70 121q-95 3 -199 31
t-123 28q-5 0 -9 -1t-7 -1.5t-6 -3.5t-5 -4.5t-5 -6t-4.5 -6.5t-4 -8t-3.5 -8.5t-4.5 -10.5t-4.5 -11h-35l-20 466h45q19 -81 42.5 -142t58 -113t78.5 -85t104 -51t135 -18z" />
    <glyph glyph-name="scedilla" unicode="&#x15f;" horiz-adv-x="874" 
d="M76 -20v339h53q9 -131 104.5 -201.5t227.5 -70.5q244 0 244 184q0 32 -9 57t-30 43t-41.5 30t-56.5 22t-61 15.5t-69 13.5q-49 9 -72 13.5t-67 16t-66.5 23t-53.5 32.5t-46.5 46t-27 61.5t-11.5 81.5q0 131 94 220t244 89q99 0 201 -47q33 -14 57 -14q14 0 20 15t9 50h45
v-303h-51q-27 120 -99.5 181t-181.5 61q-99 0 -160 -42t-61 -116q0 -91 97 -130q44 -18 165 -40q45 -8 71.5 -14t67.5 -18.5t66 -26.5t54.5 -37.5t46 -52.5t27.5 -70.5t11 -91.5q0 -142 -95 -230.5t-263 -88.5h-2l-54 -93q28 4 50 4q82 0 127 -43.5t45 -113.5
q0 -77 -59.5 -131t-164.5 -54q-74 0 -123 36.5t-49 84.5q0 33 17.5 48.5t42.5 15.5q21 0 40.5 -13.5t26.5 -37.5l-34 -33q0 -27 19.5 -44.5t57.5 -17.5q99 0 99 131q0 64 -24 94.5t-77 30.5q-28 0 -61 -8l-6 25l69 121q-115 10 -213 67q-18 12 -30 12q-14 0 -21 -16t-14 -65
h-45z" />
    <glyph glyph-name="Scaron" unicode="&#x160;" horiz-adv-x="1157" 
d="M580 37q162 0 260 84.5t98 220.5q0 58 -20.5 101.5t-43 69.5t-88 53t-102.5 37.5t-140 37.5q-7 2 -12 3.5t-10 2.5q-65 17 -111.5 32.5t-92.5 38t-76 50.5t-53.5 66.5t-34.5 89t-11 114.5q0 80 27 153t78 133t134 96t187 36q69 0 135.5 -16t113.5 -31.5t71 -15.5
q21 0 31 9t22 32h31l14 -414h-45q-24 101 -52.5 168t-72 116.5t-105.5 72t-149 22.5q-140 0 -216.5 -70.5t-76.5 -191.5q0 -48 18.5 -86.5t46 -64t75.5 -48.5t90 -37t106 -31q73 -19 112.5 -31.5t101.5 -37t96 -53.5t70.5 -72t52.5 -103t16 -135q0 -203 -124 -330.5
t-345 -127.5q-83 0 -159 15t-127.5 30.5t-74.5 15.5q-5 0 -9 -1t-7 -1.5t-6 -3.5t-5 -4.5t-5 -6t-4.5 -6.5t-4 -8t-3.5 -8.5t-4.5 -10.5t-4.5 -11h-35l-20 466h45q19 -81 42.5 -142t58 -113t78.5 -85t104 -51t135 -18zM883 1808l-260 -274q-29 -21 -68 -21q-33 0 -78 54
l-209 237l21 31l282 -172l289 174z" />
    <glyph glyph-name="scaron" unicode="&#x161;" horiz-adv-x="874" 
d="M76 -20v339h53q9 -131 104.5 -201.5t227.5 -70.5q244 0 244 184q0 32 -9 57t-30 43t-41.5 30t-56.5 22t-61 15.5t-69 13.5q-49 9 -72 13.5t-67 16t-66.5 23t-53.5 32.5t-46.5 46t-27 61.5t-11.5 81.5q0 131 94 220t244 89q99 0 201 -47q33 -14 57 -14q14 0 20 15t9 50h45
v-303h-51q-27 120 -99.5 181t-181.5 61q-99 0 -160 -42t-61 -116q0 -91 97 -130q44 -18 165 -40q45 -8 71.5 -14t67.5 -18.5t66 -26.5t54.5 -37.5t46 -52.5t27.5 -70.5t11 -91.5q0 -142 -95 -230.5t-263 -88.5q-149 0 -273 69q-18 12 -30 12q-14 0 -21 -16t-14 -65h-45z
M373 1143l-207 358l24 19l259 -238l231 236l27 -19l-189 -323q-33 -54 -78 -54q-38 0 -67 21z" />
    <glyph glyph-name="uni0162" unicode="&#x162;" horiz-adv-x="1290" 
d="M1219 1434l20 -412h-49q-12 72 -28 125t-33.5 91t-45.5 63t-54 39.5t-69.5 22t-81 9.5t-98.5 2h-26v-1315h194v-59h-272l-66 -113q28 4 49 4q82 0 127 -43.5t45 -113.5q0 -77 -59 -131t-164 -54q-74 0 -123 36.5t-49 84.5q0 33 17.5 48.5t42.5 15.5q21 0 40.5 -13.5
t26.5 -37.5l-35 -33q0 -26 20 -44t58 -18q99 0 99 131q0 64 -24 94.5t-77 30.5q-28 0 -61 -8l-6 25l79 139h-272v59h195v1315h-29q-61 0 -98.5 -2t-81 -9.5t-69.5 -22t-54 -39.5t-45.5 -63t-33.5 -91t-28 -125h-49l21 412h1147z" />
    <glyph glyph-name="uni0163" unicode="&#x163;" horiz-adv-x="806" 
d="M195 223v699h-154v53h154v264l196 53v-317h287v-53h-287v-674q0 -93 29.5 -132.5t107.5 -39.5q82 0 124.5 54.5t56.5 162.5l47 -6q-6 -51 -16.5 -91.5t-31.5 -81t-50.5 -68t-76 -46t-106.5 -20.5l-53 -93q28 4 49 4q82 0 127 -43.5t45 -113.5q0 -77 -59 -131t-164 -54
q-74 0 -123 36.5t-49 84.5q0 33 17 48.5t42 15.5q22 0 41.5 -13.5t26.5 -37.5l-35 -33q0 -26 20 -44t58 -18q98 0 98 131q0 64 -23.5 94.5t-76.5 30.5q-29 0 -62 -8l-6 25l70 121q-107 8 -165 64.5t-58 176.5z" />
    <glyph glyph-name="Tcaron" unicode="&#x164;" horiz-adv-x="1290" 
d="M1219 1434l20 -412h-49q-12 72 -28 125t-33.5 91t-45.5 63t-54 39.5t-69.5 22t-81 9.5t-98.5 2h-26v-1315h194v-59h-604v59h195v1315h-29q-61 0 -98.5 -2t-81 -9.5t-69.5 -22t-54 -39.5t-45.5 -63t-33.5 -91t-28 -125h-49l21 412h1147zM952 1808l-260 -274
q-29 -21 -67 -21q-33 0 -78 54l-209 237l20 31l283 -172l289 174z" />
    <glyph glyph-name="tcaron" unicode="&#x165;" horiz-adv-x="806" 
d="M195 223v699h-154v53h154v264l196 53v-317h287v-53h-287v-674q0 -93 29.5 -132.5t107.5 -39.5q82 0 124.5 54.5t56.5 162.5l47 -6q-7 -66 -23.5 -116.5t-49 -96t-89 -70t-135.5 -24.5q-264 0 -264 243zM543 1081l-33 35q62 56 86.5 102t24.5 95q0 46 -24.5 79.5
t-74.5 67.5l31 39q37 43 80 43q54 0 82 -42t28 -101q0 -159 -200 -318z" />
    <glyph glyph-name="Tbar" unicode="&#x166;" horiz-adv-x="1290" 
d="M1219 1434l20 -412h-49q-12 72 -28 125t-33.5 91t-45.5 63t-54 39.5t-69.5 22t-81 9.5t-98.5 2h-26v-590h352v-59h-352v-666h194v-59h-604v59h195v666h-355v59h355v590h-29q-61 0 -98.5 -2t-81 -9.5t-69.5 -22t-54 -39.5t-45.5 -63t-33.5 -91t-28 -125h-49l21 412h1147z
" />
    <glyph glyph-name="tbar" unicode="&#x167;" horiz-adv-x="806" 
d="M41 578v53h154v291h-154v53h154v264l196 53v-317h287v-53h-287v-291h287v-53h-287v-330q0 -93 29.5 -132.5t107.5 -39.5q82 0 124.5 54.5t56.5 162.5l47 -6q-7 -66 -23.5 -116.5t-49 -96t-89 -70t-135.5 -24.5q-264 0 -264 243v355h-154z" />
    <glyph glyph-name="Utilde" unicode="&#x168;" horiz-adv-x="1454" 
d="M778 49q-78 0 -137.5 20t-97 54.5t-61.5 85t-33 105.5t-9 122v938h154v60h-522v-60h153v-923q0 -252 131 -361.5t383 -109.5q134 0 230 33t152.5 98.5t82 153t25.5 204.5v905h153v60h-383v-60h154v-932q0 -189 -99.5 -291t-275.5 -102zM879 1577q-75 0 -183 47
q-87 35 -127 35q-67 0 -104 -88l-39 12q27 91 78 146t141 55q15 0 31 -2t25.5 -4t28 -8.5t24 -8.5t28.5 -12t27 -12q90 -35 127 -35t60 18.5t44 69.5l41 -10q-29 -99 -82 -151t-120 -52z" />
    <glyph glyph-name="utilde" unicode="&#x169;" horiz-adv-x="1236" 
d="M1198 0h-336l-12 190q-19 -41 -47 -75.5t-69.5 -66.5t-100.5 -50t-129 -18q-307 0 -307 342v600h-156v53h352v-676q0 -127 35 -186.5t135 -59.5q71 0 137 46t105 118.5t39 147.5v557h-156v53h352v-922h158v-53zM721 1188q-74 0 -182 47q-88 35 -127 35q-68 0 -105 -88
l-39 12q27 91 78 146t141 55q15 0 31 -2t25.5 -4t28 -8.5t24 -8.5t28.5 -12t27 -12q90 -35 127 -35t60.5 18.5t44.5 69.5l41 -10q-29 -99 -82.5 -151t-120.5 -52z" />
    <glyph glyph-name="Umacron" unicode="&#x16a;" horiz-adv-x="1454" 
d="M778 49q-78 0 -137.5 20t-97 54.5t-61.5 85t-33 105.5t-9 122v938h154v60h-522v-60h153v-923q0 -252 131 -361.5t383 -109.5q134 0 230 33t152.5 98.5t82 153t25.5 204.5v905h153v60h-383v-60h154v-932q0 -189 -99.5 -291t-275.5 -102zM467 1591v107h557v-107h-557z" />
    <glyph glyph-name="umacron" unicode="&#x16b;" horiz-adv-x="1236" 
d="M1198 0h-336l-12 190q-19 -41 -47 -75.5t-69.5 -66.5t-100.5 -50t-129 -18q-307 0 -307 342v600h-156v53h352v-676q0 -127 35 -186.5t135 -59.5q71 0 137 46t105 118.5t39 147.5v557h-156v53h352v-922h158v-53zM305 1210v107h557v-107h-557z" />
    <glyph glyph-name="Ubreve" unicode="&#x16c;" horiz-adv-x="1454" 
d="M778 49q176 0 275.5 102t99.5 291v932h-154v60h383v-60h-153v-905q0 -117 -25.5 -204.5t-82 -153t-152.5 -98.5t-230 -33q-252 0 -383 109.5t-131 361.5v923h-153v60h522v-60h-154v-938q0 -67 9 -122t33 -105.5t61.5 -85t97 -54.5t137.5 -20zM465 1753l45 8
q32 -74 86 -108.5t164 -34.5q78 0 126 17t72 46t43 80l46 -8q-6 -49 -23.5 -91t-50.5 -81t-90.5 -61.5t-132.5 -22.5q-74 0 -129 22t-86.5 61t-47.5 81t-22 92z" />
    <glyph glyph-name="ubreve" unicode="&#x16d;" horiz-adv-x="1236" 
d="M1198 0h-336l-12 190q-19 -41 -47 -75.5t-69.5 -66.5t-100.5 -50t-129 -18q-307 0 -307 342v600h-156v53h352v-676q0 -127 35 -186.5t135 -59.5q71 0 137 46t105 118.5t39 147.5v557h-156v53h352v-922h158v-53zM297 1413l45 8q32 -94 86 -139t164 -45q114 0 164 42.5
t78 141.5l45 -8q-6 -57 -23.5 -106t-50.5 -94t-90 -71t-133 -26q-74 0 -129 25.5t-86.5 71t-47.5 94t-22 106.5z" />
    <glyph glyph-name="Uring" unicode="&#x16e;" horiz-adv-x="1454" 
d="M778 49q-78 0 -137.5 20t-97 54.5t-61.5 85t-33 105.5t-9 122v938h154v60h-522v-60h153v-923q0 -252 131 -361.5t383 -109.5q134 0 230 33t152.5 98.5t82 153t25.5 204.5v905h153v60h-383v-60h154v-932q0 -189 -99.5 -291t-275.5 -102zM645 1702q0 -49 28 -83t85 -34
q53 0 80.5 33t27.5 84q0 49 -29 83t-83 34q-51 0 -80 -34.5t-29 -82.5zM569 1702q0 76 49.5 126t141.5 50q88 0 135 -47t47 -125q0 -82 -48.5 -132t-137.5 -50q-94 0 -140.5 48t-46.5 130z" />
    <glyph glyph-name="uring" unicode="&#x16f;" horiz-adv-x="1236" 
d="M1198 0h-336l-12 190q-19 -41 -47 -75.5t-69.5 -66.5t-100.5 -50t-129 -18q-307 0 -307 342v600h-156v53h352v-676q0 -127 35 -186.5t135 -59.5q71 0 137 46t105 118.5t39 147.5v557h-156v53h352v-922h158v-53zM469 1319q0 -51 28 -85t87 -34q54 0 82 33t28 86
q0 51 -29 85t-85 34q-53 0 -82 -35t-29 -84zM395 1319q0 76 49.5 126t141.5 50q88 0 135 -47t47 -125q0 -82 -48.5 -132t-137.5 -50q-94 0 -140.5 48t-46.5 130z" />
    <glyph glyph-name="Uhungarumlaut" unicode="&#x170;" horiz-adv-x="1454" 
d="M778 49q-78 0 -137.5 20t-97 54.5t-61.5 85t-33 105.5t-9 122v938h154v60h-522v-60h153v-923q0 -252 131 -361.5t383 -109.5q134 0 230 33t152.5 98.5t82 153t25.5 204.5v905h153v60h-383v-60h154v-932q0 -189 -99.5 -291t-275.5 -102zM530 1534l226 346l39 -4
q36 -5 61 -23.5t25 -52.5q0 -21 -12 -37t-40 -39l-270 -219zM807 1536l250 332l33 -6q81 -17 81 -74q0 -25 -12.5 -41.5t-42.5 -38.5l-282 -203z" />
    <glyph glyph-name="uhungarumlaut" unicode="&#x171;" horiz-adv-x="1236" 
d="M1198 0h-336l-12 190q-19 -41 -47 -75.5t-69.5 -66.5t-100.5 -50t-129 -18q-307 0 -307 342v600h-156v53h352v-676q0 -127 35 -186.5t135 -59.5q71 0 137 46t105 118.5t39 147.5v557h-156v53h352v-922h158v-53zM670 1128l141 379l49 11q8 2 27 2q65 0 65 -66
q0 -33 -41 -84l-211 -258zM381 1128l141 379l49 11q8 2 27 2q30 0 48 -16t18 -50q0 -33 -41 -84l-211 -258z" />
    <glyph glyph-name="Uogonek" unicode="&#x172;" horiz-adv-x="1454" 
d="M778 49q176 0 275.5 102t99.5 291v932h-154v60h383v-60h-153v-905q0 -158 -49.5 -262.5t-157.5 -173.5q-77 -49 -131.5 -132t-54.5 -167q0 -48 21.5 -76.5t64.5 -28.5q37 0 60 17.5t58 62.5l33 -22q-18 -30 -30 -46.5t-38 -42.5t-61.5 -38.5t-81.5 -12.5q-91 0 -139.5 42
t-48.5 114q0 41 17 80t51 76t69.5 67t87.5 68q-74 -14 -160 -14q-252 0 -383 109.5t-131 361.5v923h-153v60h522v-60h-154v-938q0 -67 9 -122t33 -105.5t61.5 -85t97 -54.5t137.5 -20z" />
    <glyph glyph-name="uogonek" unicode="&#x173;" horiz-adv-x="1236" 
d="M1198 0h-125q-72 -60 -112.5 -124t-40.5 -142q0 -48 21.5 -76.5t64.5 -28.5q37 0 60 17.5t58 62.5l33 -22q-18 -30 -30 -46.5t-38 -42.5t-61.5 -38.5t-81.5 -12.5q-91 0 -139.5 42t-48.5 114q0 38 17.5 76.5t40.5 66t63 60.5t64.5 50t66.5 44h-148l-12 190
q-19 -41 -47 -75.5t-69.5 -66.5t-100.5 -50t-129 -18q-307 0 -307 342v600h-156v53h352v-676q0 -127 35 -186.5t135 -59.5q71 0 137 46t105 118.5t39 147.5v557h-156v53h352v-922h158v-53z" />
    <glyph glyph-name="Wcircumflex" unicode="&#x174;" horiz-adv-x="2056" 
d="M705 293l309 743l-129 338h-137v60h573v-60h-201l383 -1057l336 1057h-207v60h424v-60h-135l-463 -1394h-47l-358 952l-404 -952h-47l-465 1394h-137v60h573v-60h-200zM721 1520l260 274q29 21 68 21q19 0 35.5 -12t41.5 -42l209 -237l-20 -31l-283 172l-289 -174z" />
    <glyph glyph-name="wcircumflex" unicode="&#x175;" horiz-adv-x="1562" 
d="M592 975v-53h98l70 -172l-207 -517l-250 689h148v53h-451v-53h92l371 -942h53l287 688l282 -688h54l321 942h103v53h-346v-53h161l-211 -674l-276 674h131v53h-430zM528 1122l222 359q28 20 67 20q50 0 78 -53l174 -324l-27 -18l-247 233l-242 -235z" />
    <glyph glyph-name="Ycircumflex" unicode="&#x176;" horiz-adv-x="1247" 
d="M698 748l332 626h-207v60h424v-60h-135l-379 -710v-605h174v-59h-563v59h174v605l-381 710h-137v60h573v-60h-194zM377 1520l260 274q29 21 68 21q19 0 35.5 -12t41.5 -42l209 -237l-20 -31l-283 172l-289 -174z" />
    <glyph glyph-name="ycircumflex" unicode="&#x177;" horiz-adv-x="1015" 
d="M0 975v-53h92l383 -924l-45 -125q-30 -83 -55.5 -139t-57 -102t-67.5 -67.5t-80 -21.5q-82 0 -82 62q0 13 8 41h70q12 44 12 73q0 51 -31 79t-77 28q-54 0 -91.5 -40t-37.5 -110q0 -72 54.5 -130t164.5 -58q115 0 184.5 73t147.5 273l421 1088h103v53h-346v-53h161
l-258 -705l-270 705h168v53h-471zM274 1122l222 359q28 20 67 20q50 0 78 -53l174 -324l-27 -18l-247 233l-242 -235z" />
    <glyph glyph-name="Ydieresis" unicode="&#x178;" horiz-adv-x="1247" 
d="M698 748l332 626h-207v60h424v-60h-135l-379 -710v-605h174v-59h-563v59h174v605l-381 710h-137v60h573v-60h-194zM381 1669q0 45 29.5 77t81.5 32q50 0 81 -27.5t31 -81.5q0 -51 -28.5 -82t-81.5 -31q-58 0 -85.5 33t-27.5 80zM780 1669q0 45 29.5 77t81.5 32
q50 0 81.5 -27.5t31.5 -81.5q0 -51 -29 -82t-82 -31q-59 0 -86 32.5t-27 80.5z" />
    <glyph glyph-name="Zacute" unicode="&#x179;" horiz-adv-x="1284" 
d="M1120 1434v-60l-753 -1315h333q198 0 291 88.5t131 311.5h49l-24 -459h-1038v51l759 1323h-297q-57 0 -92.5 -2t-76.5 -9.5t-67 -22.5t-53.5 -40t-45.5 -63t-34.5 -91t-29.5 -124h-47l20 412h975zM459 1530l291 301l36 -12q39 -13 54.5 -31t15.5 -45q0 -28 -15.5 -46
t-49.5 -34l-310 -162z" />
    <glyph glyph-name="zacute" unicode="&#x17a;" horiz-adv-x="1019" 
d="M913 975v-53l-583 -869h291q53 0 91.5 11.5t65 30t48.5 57.5t37 79t36 109h39l-20 -340h-816v47l592 875h-270q-44 0 -69.5 -2t-53 -11t-43.5 -24.5t-35.5 -45t-35.5 -69.5t-37 -102h-44l21 307h786zM408 1126l141 379l49 11q8 2 27 2q69 0 69 -66q0 -33 -41 -84
l-215 -258z" />
    <glyph glyph-name="Zdotaccent" unicode="&#x17b;" horiz-adv-x="1284" 
d="M1120 1434v-60l-753 -1315h333q198 0 291 88.5t131 311.5h49l-24 -459h-1038v51l759 1323h-297q-57 0 -92.5 -2t-76.5 -9.5t-67 -22.5t-53.5 -40t-45.5 -63t-34.5 -91t-29.5 -124h-47l20 412h975zM510 1681q0 52 32.5 86.5t90.5 34.5q57 0 91 -29.5t34 -91.5
q0 -57 -32 -91t-91 -34q-65 0 -95 36.5t-30 88.5z" />
    <glyph glyph-name="zdotaccent" unicode="&#x17c;" horiz-adv-x="1019" 
d="M913 975v-53l-583 -869h291q53 0 91.5 11.5t65 30t48.5 57.5t37 79t36 109h39l-20 -340h-816v47l592 875h-270q-44 0 -69.5 -2t-53 -11t-43.5 -24.5t-35.5 -45t-35.5 -69.5t-37 -102h-44l21 307h786zM389 1311q0 52 32.5 86.5t90.5 34.5q57 0 91 -29.5t34 -91.5
q0 -57 -32 -91t-91 -34q-65 0 -95 36.5t-30 88.5z" />
    <glyph glyph-name="Zcaron" unicode="&#x17d;" horiz-adv-x="1284" 
d="M1120 1434v-60l-753 -1315h333q198 0 291 88.5t131 311.5h49l-24 -459h-1038v51l759 1323h-297q-57 0 -92.5 -2t-76.5 -9.5t-67 -22.5t-53.5 -40t-45.5 -63t-34.5 -91t-29.5 -124h-47l20 412h975zM932 1808l-260 -274q-29 -21 -68 -21q-33 0 -78 54l-209 237l21 31
l283 -172l288 174z" />
    <glyph glyph-name="zcaron" unicode="&#x17e;" horiz-adv-x="1019" 
d="M913 975v-53l-583 -869h291q53 0 91.5 11.5t65 30t48.5 57.5t37 79t36 109h39l-20 -340h-816v47l592 875h-270q-44 0 -69.5 -2t-53 -11t-43.5 -24.5t-35.5 -45t-35.5 -69.5t-37 -102h-44l21 307h786zM453 1143l-207 358l24 19l258 -238l232 236l26 -19l-188 -323
q-33 -54 -78 -54q-38 0 -67 21z" />
    <glyph glyph-name="longs" unicode="&#x17f;" horiz-adv-x="671" 
d="M401 1249v-1196h246v-53h-596v53h154v1041q0 233 94 361t293 128q113 0 188.5 -56.5t75.5 -156.5q0 -63 -31 -100t-86 -37t-86.5 28.5t-31.5 81.5q0 31 12 72h55q4 14 4 39q0 80 -114 80q-45 0 -78 -16t-52 -41t-29.5 -64.5t-14 -77t-3.5 -86.5z" />
    <glyph glyph-name="florin" unicode="&#x192;" horiz-adv-x="1030" 
d="M760 831l-15 -67h-270l-125 -725q-39 -226 -149.5 -347.5t-294.5 -121.5q-110 0 -172 53.5t-62 136.5q0 66 39 112t107 46q51 0 79.5 -29t28.5 -79q0 -29 -8 -56l-86 -6q-16 -29 -16 -55q0 -33 26.5 -53.5t79.5 -20.5q26 0 47 4.5t37.5 10t30 19.5t23.5 25t19 34t14 39
t12 47.5t10.5 52.5t10.5 61q1 4 1 6l147 846h-155l14 67h156l28 175q34 214 149.5 332t305.5 118q108 0 168.5 -50.5t60.5 -137.5q0 -68 -33.5 -110t-101.5 -42q-51 0 -81.5 30t-30.5 77q0 39 6 63l76 4q14 40 14 58q0 31 -24.5 44t-75.5 13q-38 0 -67 -10t-50.5 -32.5
t-36 -46t-26.5 -64.5t-19 -73t-16 -85l-46 -263h271z" />
    <glyph glyph-name="Aringacute" unicode="&#x1fa;" horiz-adv-x="1361" 
d="M504 1614q0 76 49 126t141 50q88 0 135.5 -47t47.5 -125q0 -73 -40 -122t-112 -58l496 -1379h141v-59h-557v59h180l-143 418h-465l-152 -418h187v-59h-412v59h143l512 1379q-77 7 -114 54t-37 122zM616 1151l-219 -614h424zM496 1821l290 301l37 -13q39 -13 54.5 -30.5
t15.5 -44.5q0 -28 -16 -46t-50 -34l-309 -162zM578 1614q0 -51 27.5 -85t86.5 -34q55 0 83 33.5t28 85.5q0 51 -29.5 85t-85.5 34q-53 0 -81.5 -35t-28.5 -84z" />
    <glyph glyph-name="aringacute" unicode="&#x1fb;" horiz-adv-x="1060" 
d="M512 489h123v150q0 152 -46.5 229.5t-166.5 77.5q-69 0 -116.5 -22t-47.5 -70q0 -9 4 -29h57q17 -46 17 -80q0 -54 -32.5 -85t-84.5 -31q-50 0 -78 35t-28 94q0 110 102.5 173.5t251.5 63.5q191 0 277.5 -86t86.5 -301v-415q0 -61 17.5 -87t52.5 -26q42 0 63 38t29 154
l47 -4q-6 -153 -55.5 -220.5t-155.5 -67.5q-82 0 -129.5 37.5t-58.5 109.5q-38 -70 -113.5 -108.5t-171.5 -38.5q-60 0 -109.5 12.5t-89.5 39.5t-62.5 74t-22.5 111q0 76 31.5 129.5t91.5 84.5t137.5 44.5t179.5 13.5zM428 57q84 0 145.5 55.5t61.5 145.5v180h-76
q-276 0 -276 -219q0 -77 36 -119.5t109 -42.5zM358 1264q0 -51 28 -85t87 -34q55 0 83 33.5t28 85.5q0 50 -29.5 84t-85.5 34q-53 0 -82 -34.5t-29 -83.5zM285 1264q0 76 49 126t141 50q88 0 135 -47t47 -125q0 -82 -49 -132.5t-137 -50.5q-94 0 -140 48.5t-46 130.5z
M319 1509l291 301l37 -12q39 -13 54.5 -31t15.5 -45q0 -28 -16 -46t-50 -34l-309 -161z" />
    <glyph glyph-name="AEacute" unicode="&#x1fc;" horiz-adv-x="1900" 
d="M862 1374l-317 -633h340v633h-23zM1786 0h-1063v59h162v617h-373l-309 -617h174v-59h-377v59h121l663 1315h-147v60h1089l21 -385h-49q-8 57 -19 101.5t-27.5 78t-34.5 57.5t-45.5 40t-53.5 25.5t-66 14.5t-75.5 6.5t-88.5 1.5h-188v-633h106q124 0 170.5 51t71.5 212h43
v-607h-47q-10 61 -19 99.5t-23 72.5t-30.5 52.5t-43.5 32t-60.5 18t-81.5 4.5h-86v-617h215q220 0 314.5 78.5t129.5 288.5h41zM1055 1530l291 301l36 -12q39 -13 54.5 -31t15.5 -45q0 -28 -16 -46t-50 -34l-309 -162z" />
    <glyph glyph-name="aeacute" unicode="&#x1fd;" horiz-adv-x="1552" 
d="M512 520h123v119q0 152 -46.5 229.5t-166.5 77.5q-50 0 -88.5 -10.5t-61.5 -39t-10 -71.5h57q17 -46 17 -80q0 -54 -32.5 -85t-84.5 -31q-50 0 -78 35t-28 94q0 110 102.5 173.5t251.5 63.5q113 0 185.5 -38t109.5 -126q108 164 342 164q199 0 302.5 -141.5t78.5 -388.5
h-635q-1 -97 13.5 -170.5t47.5 -130t90.5 -86t139.5 -29.5q119 0 191.5 67.5t97.5 182.5l59 -8q-65 -311 -397 -311q-262 0 -375 174q-111 -174 -344 -174q-61 0 -112.5 13.5t-95 43t-68.5 82t-25 123.5q0 77 31.5 132t91.5 86.5t137.5 45.5t179.5 14zM852 520h430
q14 194 -32.5 310t-159.5 116q-116 0 -175.5 -101t-62.5 -325zM453 57q70 0 135 40t100 108q-53 112 -53 264h-94q-136 0 -197 -62t-61 -165q0 -185 170 -185zM684 1126l141 379l49 11q8 2 27 2q31 0 50.5 -16.5t19.5 -49.5t-41 -84l-215 -258z" />
    <glyph glyph-name="Oslashacute" unicode="&#x1fe;" horiz-adv-x="1460" 
d="M82 713q0 336 184 539.5t479 203.5q104 0 213 -33l58 152l65 -23l-57 -153q168 -76 261 -248.5t93 -419.5q0 -353 -168.5 -552t-480.5 -199q-127 0 -229 30l-60 -157l-65 22l59 160q-172 75 -262 247t-90 431zM1139 723q0 212 -33.5 357.5t-118.5 224.5l-457 -1211
q82 -51 203 -51q97 0 169 34t117 92t72 146.5t37.5 185.5t10.5 222zM319 715q0 -427 154 -578l457 1211q-79 45 -191 45q-102 0 -177.5 -34t-121.5 -91t-73.5 -146.5t-37.5 -185t-10 -221.5zM635 1530l291 301l37 -12q38 -13 53.5 -31t15.5 -45q0 -28 -15.5 -46t-49.5 -34
l-310 -162z" />
    <glyph glyph-name="oslashacute" unicode="&#x1ff;" horiz-adv-x="1067" 
d="M72 483q0 243 127 377.5t342 134.5q65 0 137 -14l51 131l57 -18l-49 -131q258 -95 258 -469q0 -240 -121.5 -377t-341.5 -137q-86 0 -163 22l-50 -131l-57 20l49 134q-116 54 -177.5 171t-61.5 287zM780 494q0 270 -80 374l-303 -792q53 -47 140 -47q58 0 101.5 23t70 62
t43 99.5t22.5 127t6 153.5zM287 498q0 -257 65 -367l301 782q-51 33 -116 33q-61 0 -106 -23.5t-72.5 -62.5t-43.5 -98.5t-22 -121.5t-6 -142zM434 1126l141 379l50 11q8 2 26 2q31 0 50.5 -16.5t19.5 -49.5t-41 -84l-215 -258z" />
    <glyph glyph-name="Scommaaccent" unicode="&#x218;" horiz-adv-x="1157" 
d="M580 37q162 0 260 84.5t98 220.5q0 58 -20.5 101.5t-43 69.5t-88 53t-102.5 37.5t-140 37.5q-7 2 -12 3.5t-10 2.5q-65 17 -111.5 32.5t-92.5 38t-76 50.5t-53.5 66.5t-34.5 89t-11 114.5q0 80 27 153t78 133t134 96t187 36q69 0 135.5 -16t113.5 -31.5t71 -15.5
q21 0 31 9t22 32h31l14 -414h-45q-24 101 -52.5 168t-72 116.5t-105.5 72t-149 22.5q-140 0 -216.5 -70.5t-76.5 -191.5q0 -48 18.5 -86.5t46 -64t75.5 -48.5t90 -37t106 -31q73 -19 112.5 -31.5t101.5 -37t96 -53.5t70.5 -72t52.5 -103t16 -135q0 -203 -124 -330.5
t-345 -127.5q-83 0 -159 15t-127.5 30.5t-74.5 15.5q-5 0 -9 -1t-7 -1.5t-6 -3.5t-5 -4.5t-5 -6t-4.5 -6.5t-4 -8t-3.5 -8.5t-4.5 -10.5t-4.5 -11h-35l-20 466h45q19 -81 42.5 -142t58 -113t78.5 -85t104 -51t135 -18zM524 -559l-37 41q117 110 117 194q0 45 -33 50l-45 -48
q-28 8 -49.5 35t-21.5 64q0 44 30.5 71t71.5 27q66 0 100.5 -42.5t34.5 -106.5q0 -78 -39.5 -146t-128.5 -139z" />
    <glyph glyph-name="scommaaccent" unicode="&#x219;" horiz-adv-x="874" 
d="M76 -20v339h53q9 -131 104.5 -201.5t227.5 -70.5q244 0 244 184q0 32 -9 57t-30 43t-41.5 30t-56.5 22t-61 15.5t-69 13.5q-49 9 -72 13.5t-67 16t-66.5 23t-53.5 32.5t-46.5 46t-27 61.5t-11.5 81.5q0 131 94 220t244 89q99 0 201 -47q33 -14 57 -14q14 0 20 15t9 50h45
v-303h-51q-27 120 -99.5 181t-181.5 61q-99 0 -160 -42t-61 -116q0 -91 97 -130q44 -18 165 -40q45 -8 71.5 -14t67.5 -18.5t66 -26.5t54.5 -37.5t46 -52.5t27.5 -70.5t11 -91.5q0 -142 -95 -230.5t-263 -88.5q-149 0 -273 69q-18 12 -30 12q-14 0 -21 -16t-14 -65h-45z
M393 -559l-37 41q117 110 117 194q0 45 -33 50l-45 -48q-28 8 -49.5 35t-21.5 64q0 44 30.5 71t71.5 27q66 0 100.5 -42.5t34.5 -106.5q0 -78 -39.5 -146t-128.5 -139z" />
    <glyph glyph-name="uni021A" unicode="&#x21a;" horiz-adv-x="1290" 
d="M1219 1434l20 -412h-49q-12 72 -28 125t-33.5 91t-45.5 63t-54 39.5t-69.5 22t-81 9.5t-98.5 2h-26v-1315h194v-59h-604v59h195v1315h-29q-61 0 -98.5 -2t-81 -9.5t-69.5 -22t-54 -39.5t-45.5 -63t-33.5 -91t-28 -125h-49l21 412h1147zM594 -559l-37 41q117 110 117 194
q0 45 -33 50l-45 -48q-28 8 -50 35t-22 64q0 44 31 71t72 27q66 0 100.5 -42.5t34.5 -106.5q0 -78 -39.5 -146t-128.5 -139z" />
    <glyph glyph-name="uni021B" unicode="&#x21b;" horiz-adv-x="806" 
d="M195 223v699h-154v53h154v264l196 53v-317h287v-53h-287v-674q0 -93 29.5 -132.5t107.5 -39.5q82 0 124.5 54.5t56.5 162.5l47 -6q-7 -66 -23.5 -116.5t-49 -96t-89 -70t-135.5 -24.5q-264 0 -264 243zM406 -559l-37 41q116 109 116 194q0 24 -7 35.5t-25 14.5l-45 -48
q-28 8 -50 35t-22 64q0 44 30.5 71t71.5 27q66 0 100.5 -42.5t34.5 -106.5q0 -78 -39 -146t-128 -139z" />
    <glyph glyph-name="dotlessj" unicode="&#x237;" horiz-adv-x="583" 
d="M401 975v-901q0 -115 -20 -216t-61.5 -186t-113.5 -134.5t-167 -49.5q-56 0 -96 16t-60.5 43.5t-29.5 57t-9 63.5q0 67 35 105.5t88 38.5q45 0 73 -25.5t28 -77.5q0 -27 -13 -74h-59q-6 -18 -6 -36q0 -60 80 -60q32 0 55 10t37.5 34t23.5 49t13 70.5t5 83t1 99.5v1037
h-154v53h350z" />
    <glyph glyph-name="apostrophe" unicode="&#x2bc;" horiz-adv-x="432" 
d="M164 1028l-37 41q117 110 117 195q0 44 -33 49l-45 -47q-28 8 -50 34.5t-22 63.5q0 44 31 71t72 27q66 0 100.5 -42.5t34.5 -106.5q0 -78 -39.5 -146t-128.5 -139z" />
    <glyph glyph-name="circumflex" unicode="&#x2c6;" horiz-adv-x="1024" 
d="M242 1122l221 359q28 20 67 20q50 0 78 -53l174 -324l-26 -18l-248 233l-242 -235z" />
    <glyph glyph-name="caron" unicode="&#x2c7;" horiz-adv-x="1024" 
d="M449 1143l-207 358l24 19l258 -238l232 236l26 -19l-188 -323q-33 -54 -78 -54q-38 0 -67 21z" />
    <glyph glyph-name="uni02C9" unicode="&#x2c9;" horiz-adv-x="1024" 
d="M233 1210v107h558v-107h-558z" />
    <glyph glyph-name="breve" unicode="&#x2d8;" horiz-adv-x="1024" 
d="M221 1413l45 8q32 -94 86 -139t164 -45q114 0 164 42.5t78 141.5l45 -8q-6 -57 -23.5 -106t-50.5 -94t-90 -71t-133 -26q-74 0 -129 25.5t-86.5 71t-47.5 94t-22 106.5z" />
    <glyph glyph-name="dotaccent" unicode="&#x2d9;" horiz-adv-x="1024" 
d="M387 1311q0 52 32.5 86.5t90.5 34.5q57 0 91 -29.5t34 -91.5q0 -57 -32 -91t-91 -34q-65 0 -95 36.5t-30 88.5z" />
    <glyph glyph-name="ring" unicode="&#x2da;" horiz-adv-x="1024" 
d="M399 1319q0 -51 28 -85t87 -34q55 0 83 33.5t28 85.5q0 51 -29.5 85t-85.5 34q-53 0 -82 -35t-29 -84zM326 1319q0 76 49 126t141 50q88 0 135 -47t47 -125q0 -82 -48.5 -132t-137.5 -50q-94 0 -140 48t-46 130z" />
    <glyph glyph-name="ogonek" unicode="&#x2db;" horiz-adv-x="1024" 
d="M571 25l41 -2l15 -13q-168 -134 -168 -276q0 -48 21.5 -76.5t64.5 -28.5q37 0 60.5 17.5t58.5 62.5l32 -22q-18 -30 -30 -46.5t-38 -42.5t-61.5 -38.5t-81.5 -12.5q-91 0 -139.5 42t-48.5 114q0 30 11 60.5t25 54.5t41.5 52.5t45.5 45t54 43t49 35t48 31.5z" />
    <glyph glyph-name="tilde" unicode="&#x2dc;" horiz-adv-x="1024" 
d="M635 1188q-74 0 -182 47q-87 35 -127 35q-68 0 -105 -88l-39 12q27 91 78 146t141 55q15 0 31 -2t25.5 -4t28 -8.5t24 -8.5t28.5 -12t27 -12q90 -35 127 -35t60.5 18.5t44.5 69.5l41 -10q-29 -99 -82.5 -151t-120.5 -52z" />
    <glyph glyph-name="hungarumlaut" unicode="&#x2dd;" horiz-adv-x="1024" 
d="M510 1128l141 379l49 11q8 2 27 2q30 0 48 -16t18 -50q0 -33 -41 -84l-211 -258zM221 1128l141 379l50 11q8 2 26 2q30 0 48 -16t18 -50q0 -33 -41 -84l-211 -258z" />
    <glyph glyph-name="uni0394" unicode="&#x394;" horiz-adv-x="1202" 
d="M1182 0h-1162l568 1466h53zM543 1159l-408 -1065h776z" />
    <glyph glyph-name="uni03A9" unicode="&#x3a9;" horiz-adv-x="1703" 
d="M967 0v133q77 83 127.5 151t92.5 152t61.5 180t19.5 213q0 82 -9.5 155.5t-37 150.5t-70.5 132t-116 90.5t-169 35.5q-95 0 -169 -35t-120 -92t-75.5 -137.5t-41 -164t-11.5 -178.5q0 -117 17.5 -209.5t57 -171t80 -135t109.5 -135.5v-135h-596l-25 426h55
q33 -167 109.5 -223t265.5 -56h103q-209 119 -311.5 268t-102.5 355q0 144 49 271t136 218.5t211.5 144t269.5 52.5q141 0 260.5 -49.5t199.5 -134.5t125 -199t45 -242q0 -109 -35 -211.5t-83.5 -174t-115 -136t-115 -99t-97.5 -63.5h121q189 0 264.5 55.5t109.5 223.5h56
l-25 -426h-620z" />
    <glyph glyph-name="uni03BC" unicode="&#x3bc;" horiz-adv-x="1175" 
d="M983 -20q-90 0 -140 55.5t-50 163.5q-41 -107 -119.5 -163t-163.5 -56q-180 0 -246 161l-8 -6q33 -145 73.5 -300.5t47.5 -186.5q10 -48 -28.5 -71t-92.5 -13l-92 18v1383l194 18v-598q0 -124 46 -195t141 -71q50 0 91 14t77.5 46.5t57 95.5t20.5 151v539l194 18v-790
q0 -61 17.5 -87t52.5 -26q42 0 63 38t29 154l47 -4q-6 -153 -55.5 -220.5t-155.5 -67.5z" />
    <glyph glyph-name="pi" unicode="&#x3c0;" horiz-adv-x="1202" 
d="M901 786h-67q-23 -178 -23 -350q0 -59 4 -105t15 -93.5t36 -74t62 -26.5q92 0 127 137l43 -6q-10 -65 -24.5 -113.5t-38.5 -91t-62 -64.5t-88 -22q-51 0 -86.5 20t-54 58t-26 82t-7.5 103q0 53 6 117t12 107t23 154t26 170l-366 25q-1 -197 -15 -380t-32 -277
q-34 -179 -134 -179q-84 0 -84 82q0 10 1.5 20t6 22.5t8 21t12.5 25t13.5 25.5t17.5 31t19 32q60 104 90.5 238t42.5 341q-17 0 -43 2t-30 2q-55 0 -81.5 -16.5t-53.5 -71.5l-41 14q35 128 84 193.5t129 65.5q52 0 320 -15.5t321 -15.5q43 0 64.5 17t43.5 69l43 -12
q-34 -132 -86 -196.5t-127 -64.5z" />
    <glyph glyph-name="Wgrave" unicode="&#x1e80;" horiz-adv-x="2056" 
d="M705 293l309 743l-129 338h-137v60h573v-60h-201l383 -1057l336 1057h-207v60h424v-60h-135l-463 -1394h-47l-358 952l-404 -952h-47l-465 1394h-137v60h573v-60h-200zM885 1831l291 -301l-23 -29l-309 162q-34 16 -50 34t-16 46q0 27 15.5 45t54.5 31z" />
    <glyph glyph-name="wgrave" unicode="&#x1e81;" horiz-adv-x="1562" 
d="M592 975v-53h98l70 -172l-207 -517l-250 689h148v53h-451v-53h92l371 -942h53l287 688l282 -688h54l321 942h103v53h-346v-53h161l-211 -674l-276 674h131v53h-430zM770 1505l141 -379l-30 -16l-215 258q-41 51 -41 84q0 66 69 66q19 0 27 -2z" />
    <glyph glyph-name="Wacute" unicode="&#x1e82;" horiz-adv-x="2056" 
d="M705 293l309 743l-129 338h-137v60h573v-60h-201l383 -1057l336 1057h-207v60h424v-60h-135l-463 -1394h-47l-358 952l-404 -952h-47l-465 1394h-137v60h573v-60h-200zM846 1530l291 301l37 -12q38 -13 53.5 -31t15.5 -45q0 -28 -15.5 -46t-49.5 -34l-310 -162z" />
    <glyph glyph-name="wacute" unicode="&#x1e83;" horiz-adv-x="1562" 
d="M592 975v-53h98l70 -172l-207 -517l-250 689h148v53h-451v-53h92l371 -942h53l287 688l282 -688h54l321 942h103v53h-346v-53h161l-211 -674l-276 674h131v53h-430zM711 1124l141 379l49 10q12 3 27 3q69 0 69 -66q0 -33 -41 -84l-215 -258z" />
    <glyph glyph-name="Wdieresis" unicode="&#x1e84;" horiz-adv-x="2056" 
d="M705 293l309 743l-129 338h-137v60h573v-60h-201l383 -1057l336 1057h-207v60h424v-60h-135l-463 -1394h-47l-358 952l-404 -952h-47l-465 1394h-137v60h573v-60h-200zM717 1669q0 45 29 77t81 32q50 0 81.5 -27.5t31.5 -81.5q0 -51 -29 -82t-82 -31q-58 0 -85 33t-27 80
zM1116 1669q0 45 29.5 77t81.5 32q50 0 81 -27.5t31 -81.5q0 -51 -28.5 -82t-81.5 -31q-59 0 -86 32.5t-27 80.5z" />
    <glyph glyph-name="wdieresis" unicode="&#x1e85;" horiz-adv-x="1562" 
d="M592 922v53h430v-53h-131l276 -674l211 674h-161v53h346v-53h-103l-321 -942h-54l-282 688l-287 -688h-53l-371 942h-92v53h451v-53h-148l250 -689l207 517l-70 172h-98zM489 1280q0 45 29.5 77t81.5 32q50 0 81.5 -27.5t31.5 -81.5q0 -51 -29 -82t-82 -31
q-58 0 -85.5 33t-27.5 80zM889 1280q0 45 29 77t81 32q50 0 81.5 -27.5t31.5 -81.5q0 -51 -29 -82t-82 -31q-59 0 -85.5 32.5t-26.5 80.5z" />
    <glyph glyph-name="Ygrave" unicode="&#x1ef2;" horiz-adv-x="1247" 
d="M698 748l332 626h-207v60h424v-60h-135l-379 -710v-605h174v-59h-563v59h174v605l-381 710h-137v60h573v-60h-194zM492 1831l290 -301l-22 -29l-309 162q-34 16 -50 34t-16 46q0 27 15.5 45t54.5 31z" />
    <glyph glyph-name="ygrave" unicode="&#x1ef3;" horiz-adv-x="1015" 
d="M0 975v-53h92l383 -924l-45 -125q-30 -83 -55.5 -139t-57 -102t-67.5 -67.5t-80 -21.5q-82 0 -82 62q0 13 8 41h70q12 44 12 73q0 51 -31 79t-77 28q-54 0 -91.5 -40t-37.5 -110q0 -72 54.5 -130t164.5 -58q115 0 184.5 73t147.5 273l421 1088h103v53h-346v-53h161
l-258 -705l-270 705h168v53h-471zM471 1505l141 -379l-30 -16l-215 258q-41 51 -41 84q0 66 69 66q19 0 27 -2z" />
    <glyph glyph-name="thinspace" unicode="&#x2009;" horiz-adv-x="102" 
 />
    <glyph glyph-name="endash" unicode="&#x2013;" horiz-adv-x="1024" 
d="M0 537v75h1024v-75h-1024z" />
    <glyph glyph-name="emdash" unicode="&#x2014;" horiz-adv-x="2048" 
d="M0 537v75h2048v-75h-2048z" />
    <glyph glyph-name="quoteleft" unicode="&#x2018;" horiz-adv-x="452" 
d="M334 1526l24 -39q-68 -41 -115.5 -99.5t-47.5 -125.5q0 -47 28 -60l64 58q73 -45 73 -125q0 -46 -31 -81.5t-85 -35.5q-65 0 -103.5 49t-38.5 121q0 190 232 338z" />
    <glyph glyph-name="quoteright" unicode="&#x2019;" horiz-adv-x="442" 
d="M119 946l-25 39q69 41 116.5 99.5t47.5 125.5q0 46 -29 60l-63 -58q-74 46 -74 125q0 46 31.5 81.5t85.5 35.5q65 0 103 -49t38 -121q0 -190 -231 -338z" />
    <glyph glyph-name="quotesinglbase" unicode="&#x201a;" horiz-adv-x="452" 
d="M119 -281l-25 39q68 41 116 100t48 126q0 45 -29 59l-63 -57q-74 46 -74 125q0 46 31.5 81t85.5 35q65 0 103 -49t38 -121q0 -190 -231 -338z" />
    <glyph glyph-name="quotedblleft" unicode="&#x201c;" horiz-adv-x="796" 
d="M334 1526l24 -39q-68 -41 -115.5 -99.5t-47.5 -125.5q0 -47 28 -60l64 58q73 -45 73 -125q0 -46 -31 -81.5t-85 -35.5q-65 0 -103.5 49t-38.5 121q0 190 232 338zM678 1526l24 -39q-68 -41 -115.5 -99.5t-47.5 -125.5q0 -47 28 -60l64 58q74 -46 74 -125
q0 -46 -31.5 -81.5t-85.5 -35.5q-65 0 -103.5 49t-38.5 121q0 190 232 338z" />
    <glyph glyph-name="quotedblright" unicode="&#x201d;" horiz-adv-x="780" 
d="M119 946l-25 39q69 41 116.5 99.5t47.5 125.5q0 46 -29 60l-63 -58q-74 46 -74 125q0 46 31.5 81.5t85.5 35.5q65 0 103 -49t38 -121q0 -190 -231 -338zM457 946l-25 39q69 41 116.5 99.5t47.5 125.5q0 46 -29 60l-63 -58q-74 46 -74 125q0 46 31.5 81.5t85.5 35.5
q65 0 103 -49t38 -121q0 -190 -231 -338z" />
    <glyph glyph-name="quotedblbase" unicode="&#x201e;" horiz-adv-x="790" 
d="M119 -281l-25 39q68 41 116 100t48 126q0 45 -29 59l-63 -57q-74 46 -74 125q0 46 31.5 81t85.5 35q65 0 103 -49t38 -121q0 -190 -231 -338zM457 -281l-25 39q68 41 116 100t48 126q0 45 -29 59l-63 -57q-74 46 -74 125q0 46 31.5 81t85.5 35q65 0 103 -49t38 -121
q0 -190 -231 -338z" />
    <glyph glyph-name="dagger" unicode="&#x2020;" horiz-adv-x="1026" 
d="M649 727v-12q-25 -49 -35.5 -72t-28 -75t-25.5 -117.5t-9 -153.5l-10 -543h-54l-8 541q0 61 -5.5 114.5t-10.5 85.5t-19.5 73t-19 53t-24 50.5t-21.5 43.5v12q37 46 71.5 125t45.5 141q-54 -3 -151 -36t-138 -33q-46 0 -75.5 23.5t-29.5 70.5q0 44 31 66t78 22
q42 0 134.5 -39t152.5 -41q-3 66 -45.5 159t-42.5 140q0 56 29.5 92.5t86.5 36.5q103 0 103 -129q0 -36 -14 -74t-31 -66.5t-32 -71.5t-17 -87q56 4 147.5 42t138.5 38q43 0 73 -22t30 -66q0 -47 -29.5 -70.5t-75.5 -23.5q-40 0 -135 33t-149 36q8 -58 43 -140t71 -126z" />
    <glyph glyph-name="daggerdbl" unicode="&#x2021;" horiz-adv-x="1026" 
d="M649 788v-12q-63 -75 -106 -174q47 -100 104 -168v-12q-32 -40 -50 -65t-38 -65.5t-27 -78.5q54 3 150 37.5t137 34.5q46 0 75.5 -24t29.5 -71q0 -44 -31 -66t-78 -22q-42 0 -133.5 39t-151.5 41q3 -66 44.5 -159t41.5 -140q0 -56 -29.5 -92.5t-86.5 -36.5
q-103 0 -103 129q0 45 22.5 92t46 99t26.5 108q-56 -4 -148 -42t-139 -38q-43 0 -73 22t-30 66q0 47 29.5 71t75.5 24q40 0 135.5 -34.5t149.5 -37.5q-7 51 -37 100t-78 107v12q79 90 106 172q-25 72 -104 172v12q97 104 115 207q-54 -3 -150 -37t-137 -34q-46 0 -75.5 23.5
t-29.5 70.5q0 44 31 66t78 22q42 0 133.5 -39t151.5 -41q-3 66 -44.5 159t-41.5 140q0 56 29.5 92.5t86.5 36.5q103 0 103 -129q0 -36 -14 -74t-31 -66.5t-32 -71.5t-17 -87q56 4 147.5 42t138.5 38q43 0 73 -22t30 -66q0 -47 -29.5 -70.5t-75.5 -23.5q-40 0 -135 34
t-149 37q11 -83 114 -207z" />
    <glyph glyph-name="bullet" unicode="&#x2022;" horiz-adv-x="690" 
d="M123 653q0 96 58 158.5t163 62.5q102 0 162.5 -54.5t60.5 -164.5q0 -101 -57.5 -162t-163.5 -61q-116 0 -169.5 64t-53.5 157z" />
    <glyph glyph-name="ellipsis" unicode="&#x2026;" horiz-adv-x="1628" 
d="M1208 127q0 64 39 105.5t109 41.5q68 0 108.5 -36.5t40.5 -108.5q0 -68 -38.5 -108.5t-108.5 -40.5q-78 0 -114 42.5t-36 104.5zM666 127q0 64 38.5 105.5t108.5 41.5q68 0 109 -36.5t41 -108.5q0 -68 -39 -108.5t-109 -40.5q-78 0 -113.5 42.5t-35.5 104.5zM123 127
q0 64 38.5 105.5t108.5 41.5q68 0 109 -36.5t41 -108.5q0 -68 -39 -108.5t-109 -40.5q-78 0 -113.5 42.5t-35.5 104.5z" />
    <glyph glyph-name="perthousand" unicode="&#x2030;" horiz-adv-x="2080" 
d="M1368 291q0 150 91 238.5t227 88.5q132 0 218.5 -77.5t86.5 -233.5q0 -105 -45.5 -181t-115 -111t-153.5 -35q-147 0 -228 84.5t-81 226.5zM1518 293q0 -142 41 -206t122 -64q86 0 124 67t38 213q0 147 -40.5 209.5t-119.5 62.5q-82 0 -123.5 -64.5t-41.5 -217.5z
M664 291q0 150 90.5 238.5t226.5 88.5q132 0 218.5 -77.5t86.5 -233.5t-91.5 -241.5t-221.5 -85.5q-147 0 -228 84.5t-81 226.5zM813 293q0 -142 41.5 -206t122.5 -64q86 0 124 67t38 213q0 147 -40.5 209.5t-119.5 62.5q-82 0 -124 -64.5t-42 -217.5zM92 1128q0 150 91 239
t227 89q132 0 218.5 -77.5t86.5 -233.5t-92 -242t-222 -86q-147 0 -228 84.5t-81 226.5zM242 1130q0 -142 41.5 -206t122.5 -64q85 0 123 67.5t38 213.5q0 148 -40 210t-119 62q-82 0 -124 -65t-42 -218zM182 0l924 1434h82l-922 -1434h-84z" />
    <glyph glyph-name="guilsinglleft" unicode="&#x2039;" horiz-adv-x="620" 
d="M106 524l355 297l31 -24l-228 -324l223 -348l-28 -25l-320 279q-53 42 -53 78q0 31 20 67z" />
    <glyph glyph-name="guilsinglright" unicode="&#x203a;" horiz-adv-x="620" 
d="M514 397l-354 -297l-29 25l225 324l-223 346l29 26l319 -278q29 -26 41.5 -42.5t12.5 -35.5q0 -37 -21 -68z" />
    <glyph glyph-name="fraction" unicode="&#x2044;" horiz-adv-x="409" 
d="M-285 -20l889 1476h86l-887 -1476h-88z" />
    <glyph glyph-name="zerosuperior" unicode="&#x2070;" horiz-adv-x="786" 
d="M43 1239q0 226 97 334t253 108q76 0 138.5 -24.5t111 -75.5t75.5 -138t27 -204q0 -118 -27.5 -205.5t-76.5 -138.5t-111 -75.5t-137 -24.5q-174 0 -262 121t-88 323zM225 1235q0 -216 35.5 -298.5t132.5 -82.5q99 0 133.5 81.5t34.5 299.5t-36 303.5t-132 85.5
q-93 0 -130.5 -87.5t-37.5 -301.5z" />
    <glyph glyph-name="foursuperior" unicode="&#x2074;" horiz-adv-x="755" 
d="M258 807v53h123v158h-365v55l377 594h158v-590h119v78h55v-219h-55v82h-119v-158h90v-53h-383zM84 1077h297v463z" />
    <glyph glyph-name="fivesuperior" unicode="&#x2075;" horiz-adv-x="688" 
d="M303 1282q-84 0 -178 -53l-23 10v414l21 16q84 -12 212 -26.5t157 -14.5q22 0 32.5 11.5t20.5 41.5l45 -6q-17 -116 -37 -155t-59 -39q-26 0 -109 22l-219 62l-6 -258q78 34 180 34q79 0 137.5 -22t91.5 -60t48.5 -83.5t15.5 -98.5q0 -130 -95 -206t-251 -76
q-107 0 -179.5 44.5t-72.5 139.5q0 44 24 72t68 28q39 0 63.5 -22t24.5 -58q0 -15 -10 -55h-41q-8 -13 -8 -31q0 -59 127 -59q90 0 128 57t38 176q0 102 -32 148.5t-114 46.5z" />
    <glyph glyph-name="sixsuperior" unicode="&#x2076;" horiz-adv-x="733" 
d="M61 1186q0 237 102.5 366t272.5 129q107 0 166.5 -45t59.5 -118q0 -39 -25 -63.5t-64 -24.5q-36 0 -61 19.5t-25 55.5q0 18 7 39h32q6 9 6 31q0 25 -21 38t-75 13q-48 0 -82.5 -17.5t-61 -59t-40 -114.5t-14.5 -180q68 97 200 97q115 0 187.5 -66t72.5 -194
q0 -136 -85.5 -216.5t-233.5 -80.5q-155 0 -236.5 93t-81.5 298zM242 1079q0 -118 29 -172.5t110 -54.5t111 55t30 166q0 116 -27.5 164.5t-91.5 48.5q-48 0 -80.5 -15t-49.5 -44.5t-24 -64.5t-7 -83z" />
    <glyph glyph-name="sevensuperior" unicode="&#x2077;" horiz-adv-x="622" 
d="M152 924q0 70 52 167t212 312l102 135h-276q-91 0 -118 -21t-44 -104h-45l10 254h569v-74l-84 -149q-125 -224 -165.5 -334t-40.5 -182q0 -50 28 -101l-28 -30q-82 -6 -127 28.5t-45 98.5z" />
    <glyph glyph-name="eightsuperior" unicode="&#x2078;" horiz-adv-x="737" 
d="M307 1260q-113 12 -174 65t-61 137q0 101 79.5 160t219.5 59q137 0 218 -58t81 -159q0 -87 -61 -140.5t-173 -63.5v-5q130 -13 195 -71t65 -154q0 -115 -84.5 -175t-240.5 -60q-159 0 -244.5 60.5t-85.5 174.5q0 99 68 157t198 68v5zM371 1227q-156 0 -156 -197
q0 -93 37 -135.5t119 -42.5q79 0 116 43.5t37 136.5q0 195 -153 195zM240 1464q0 -174 133 -174q67 0 98 42t31 132q0 160 -131 160t-131 -160z" />
    <glyph glyph-name="ninesuperior" unicode="&#x2079;" horiz-adv-x="747" 
d="M688 1278q0 -238 -98 -360.5t-271 -122.5q-110 0 -171.5 46.5t-61.5 112.5q0 47 24 76t66 29q38 0 62 -21.5t24 -60.5q0 -24 -6 -45h-39q-6 -18 -6 -31q0 -26 23.5 -37.5t82.5 -11.5q99 0 146.5 85t48.5 284q-68 -97 -201 -97q-114 0 -187 70t-73 201q0 136 87 210
t235 74q315 0 315 -401zM475 1251q33 48 33 129q0 127 -29 185.5t-108 58.5q-82 0 -113 -54t-31 -161q0 -121 27.5 -171t93.5 -50q83 0 127 63z" />
    <glyph glyph-name="zeroinferior" unicode="&#x2080;" horiz-adv-x="786" 
d="M43 156q0 226 97 334t253 108q76 0 138.5 -24.5t111 -75.5t75.5 -138t27 -204q0 -118 -27.5 -205.5t-76.5 -139t-111 -76t-137 -24.5q-173 0 -261.5 121.5t-88.5 323.5zM225 152q0 -216 35.5 -298.5t132.5 -82.5q99 0 133.5 81.5t34.5 299.5t-36 303.5t-132 85.5
q-93 0 -130.5 -87.5t-37.5 -301.5z" />
    <glyph glyph-name="oneinferior" unicode="&#x2081;" horiz-adv-x="542" 
d="M201 522l-158 -12l-6 53l272 35h66v-821h123v-53h-443v53h146v745z" />
    <glyph glyph-name="twoinferior" unicode="&#x2082;" horiz-adv-x="677" 
d="M45 -276v94l180 180q124 126 167.5 208.5t43.5 188.5q0 79 -31.5 112.5t-107.5 33.5q-62 0 -95.5 -18.5t-33.5 -47.5q0 -21 8 -37h39q10 -27 10 -57q0 -34 -25 -55t-63 -21q-44 0 -68 28t-24 73q0 89 79.5 140.5t205.5 51.5q141 0 210.5 -55.5t69.5 -153.5
q0 -52 -12.5 -89.5t-61 -97.5t-133.5 -137.5t-241 -207.5h244q90 0 125 30.5t51 106.5h45l-11 -270h-571z" />
    <glyph glyph-name="threeinferior" unicode="&#x2083;" horiz-adv-x="692" 
d="M330 598q129 0 198.5 -51t69.5 -141q0 -157 -207 -216q128 -17 191 -74.5t63 -148.5q0 -116 -98 -186t-258 -70q-51 0 -95 9.5t-81 29.5t-58.5 56t-21.5 85q0 45 24 73t68 28q39 0 63.5 -21.5t24.5 -56.5q0 -12 -10 -57h-41q-6 -15 -6 -35q0 -23 32.5 -38t98.5 -15
q178 0 178 194q0 147 -131 205q-71 -16 -131 -21l-6 54q120 10 175.5 50.5t55.5 147.5q0 142 -129 142q-53 0 -85 -18.5t-32 -41.5q0 -14 6 -26h37q8 -21 8 -54q0 -34 -22 -53.5t-59 -19.5q-41 0 -63.5 25.5t-22.5 66.5q0 86 74 132t190 46z" />
    <glyph glyph-name="fourinferior" unicode="&#x2084;" horiz-adv-x="755" 
d="M252 -276v53h123v157h-365v56l377 594h158v-590h119v78h55v-219h-55v81h-119v-157h90v-53h-383zM78 -6h297v463z" />
    <glyph glyph-name="fiveinferior" unicode="&#x2085;" horiz-adv-x="688" 
d="M303 199q-82 0 -178 -54l-23 11v413l21 17q84 -12 212 -26.5t157 -14.5q22 0 32.5 11.5t20.5 41.5l45 -6q-17 -116 -37 -155.5t-59 -39.5q-23 0 -109 23l-219 61l-6 -258q80 35 180 35q79 0 137.5 -22t91.5 -60t48.5 -83.5t15.5 -98.5q0 -131 -95 -207t-251 -76
q-107 0 -179.5 45t-72.5 140q0 44 24 72t68 28q39 0 63.5 -22t24.5 -58q0 -15 -10 -55h-41q-8 -13 -8 -31q0 -59 127 -59q90 0 128 57t38 176q0 102 -32 148.5t-114 46.5z" />
    <glyph glyph-name="sixinferior" unicode="&#x2086;" horiz-adv-x="733" 
d="M61 102q0 237 102.5 366.5t272.5 129.5q107 0 166.5 -45.5t59.5 -118.5q0 -39 -25 -63.5t-64 -24.5q-36 0 -61 20t-25 56q0 18 7 39h32q6 9 6 31q0 25 -21 38t-75 13q-48 0 -82.5 -17.5t-61 -59t-40 -114.5t-14.5 -180q68 96 200 96q115 0 187.5 -66t72.5 -194
q0 -136 -85.5 -216.5t-233.5 -80.5q-155 0 -236.5 93t-81.5 298zM242 -4q0 -118 29 -172.5t110 -54.5t111 55t30 166q0 116 -27.5 164.5t-91.5 48.5q-48 0 -80.5 -15t-49.5 -44.5t-24 -64.5t-7 -83z" />
    <glyph glyph-name="seveninferior" unicode="&#x2087;" horiz-adv-x="622" 
d="M152 -160q0 70 52 167t212 312l102 136h-276q-91 0 -118 -21t-44 -104h-45l10 254h569v-74l-84 -150q-125 -224 -165.5 -334t-40.5 -182q0 -49 28 -100l-28 -31q-82 -6 -127 28.5t-45 98.5z" />
    <glyph glyph-name="eightinferior" unicode="&#x2088;" horiz-adv-x="737" 
d="M307 176q-113 12 -174 65.5t-61 137.5q0 101 79.5 160t219.5 59q137 0 218 -58t81 -159q0 -87 -61 -141t-173 -64v-4q130 -13 195 -71t65 -154q0 -115 -84.5 -175.5t-240.5 -60.5q-159 0 -244.5 61t-85.5 175q0 99 68 157t198 68v4zM371 143q-156 0 -156 -196
q0 -93 37 -135.5t119 -42.5q79 0 116 43.5t37 136.5q0 194 -153 194zM240 381q0 -174 133 -174q67 0 98 42t31 132q0 160 -131 160t-131 -160z" />
    <glyph glyph-name="nineinferior" unicode="&#x2089;" horiz-adv-x="747" 
d="M688 195q0 -238 -98 -361t-271 -123q-110 0 -171.5 47t-61.5 113q0 47 24 75.5t66 28.5q38 0 62 -21t24 -60q0 -25 -6 -46h-39q-6 -18 -6 -30q0 -26 23.5 -37.5t82.5 -11.5q99 0 146.5 84.5t48.5 283.5q-68 -96 -201 -96q-114 0 -187 69.5t-73 200.5q0 136 87.5 210.5
t234.5 74.5q315 0 315 -401zM475 168q33 48 33 129q0 127 -29 185.5t-108 58.5q-82 0 -113 -54t-31 -161q0 -121 27.5 -171.5t93.5 -50.5q83 0 127 64z" />
    <glyph glyph-name="Euro" unicode="&#x20ac;" horiz-adv-x="1236" 
d="M39 811l16 68h160q34 286 183 431.5t380 145.5q170 0 273.5 -73.5t103.5 -198.5q0 -73 -37.5 -111.5t-97.5 -38.5q-57 0 -93 31t-36 88q0 33 8 66h84q6 21 6 43q0 61 -59 99t-156 38q-156 0 -235.5 -123.5t-94.5 -396.5h490l-16 -68h-478v-156h443l-17 -67h-422
q14 -276 95.5 -413.5t242.5 -137.5q53 0 99.5 13.5t79 45t32.5 76.5q0 19 -6 37h-84q-12 34 -12 67q0 55 34.5 90t98.5 35q60 0 97.5 -38t37.5 -111q0 -69 -34.5 -123.5t-91 -85.5t-123 -47t-136.5 -16q-140 0 -242 39.5t-168.5 119.5t-104 189.5t-52.5 259.5h-191l17 67
h172v41q0 78 4 115h-170z" />
    <glyph glyph-name="afii61352" unicode="&#x2116;" horiz-adv-x="2043" 
d="M1255 1092v-1106h-63l-721 1233v-889q0 -350 -254 -350q-97 0 -164 48.5t-67 143.5q0 78 37 117t98 39q57 0 93 -31t36 -88q0 -33 -8 -66h-84q-8 -24 -8 -47q0 -57 79 -57q95 0 132.5 78.5t37.5 226.5v952l-51 78h-123v60h367l592 -1047v719q0 350 254 350
q97 0 164 -48.5t67 -143.5q0 -78 -37 -117t-98 -39q-57 0 -93 31t-36 88q0 32 8 65h84q8 24 8 47q0 58 -80 58q-95 0 -132.5 -78.5t-37.5 -226.5zM1368 655q0 167 84 254.5t215 87.5q124 0 205.5 -79t81.5 -246q0 -160 -87 -250t-208 -90q-138 0 -214.5 85.5t-76.5 237.5z
M1516 657q0 -156 36.5 -220t110.5 -64q76 0 109.5 67.5t33.5 227.5q0 159 -35 221.5t-106 62.5q-75 0 -112 -66t-37 -229zM1415 180v66h492v-66h-492z" />
    <glyph glyph-name="trademark" unicode="&#x2122;" horiz-adv-x="1912" 
d="M776 1327l10 -233h-32q-12 64 -28.5 103.5t-44 60t-59 27.5t-83.5 7h-15v-680h105v-43h-348v43h106v680h-14q-51 0 -83.5 -7t-59.5 -28t-43.5 -60t-28.5 -103h-35l12 233h641zM1518 1327h262v-41h-82v-678h82v-39h-301v39h80v676l-236 -715h-55l-287 701v-662h74v-39
h-203v39h70v678h-70v41h262l217 -557z" />
    <glyph glyph-name="Omega" unicode="&#x2126;" horiz-adv-x="1703" 
d="M967 0v133q77 83 127.5 151t92.5 152t61.5 180t19.5 213q0 82 -9.5 155.5t-37 150.5t-70.5 132t-116 90.5t-169 35.5q-95 0 -169 -35t-120 -92t-75.5 -137.5t-41 -164t-11.5 -178.5q0 -117 17.5 -209.5t57 -171t80 -135t109.5 -135.5v-135h-596l-25 426h55
q33 -167 109.5 -223t265.5 -56h103q-209 119 -311.5 268t-102.5 355q0 144 49 271t136 218.5t211.5 144t269.5 52.5q141 0 260.5 -49.5t199.5 -134.5t125 -199t45 -242q0 -109 -35 -211.5t-83.5 -174t-115 -136t-115 -99t-97.5 -63.5h121q189 0 264.5 55.5t109.5 223.5h56
l-25 -426h-620z" />
    <glyph glyph-name="onethird" unicode="&#x2153;" horiz-adv-x="1740" 
d="M264 1360l-158 -12l-6 53l273 35h65v-822h123v-53h-442v53h145v746zM358 -20l889 1476h86l-887 -1476h-88zM1323 874q129 0 198.5 -51t69.5 -141q0 -156 -207 -215q128 -17 191 -74.5t63 -148.5q0 -116 -98 -186t-258 -70q-51 0 -95 9.5t-81 29.5t-58.5 56t-21.5 85
q0 44 24 72t68 28q39 0 63.5 -21.5t24.5 -56.5q0 -12 -10 -57h-41q-6 -15 -6 -35q0 -23 32.5 -38t98.5 -15q178 0 178 195q0 83 -35 130t-96 74q-64 -15 -131 -20l-6 53q120 10 175.5 51t55.5 148q0 73 -32.5 107t-96.5 34q-53 0 -84.5 -18t-31.5 -41q0 -15 6 -27h37
q8 -21 8 -53q0 -34 -22.5 -54t-59.5 -20q-41 0 -63.5 25.5t-22.5 66.5q0 86 74 132t190 46z" />
    <glyph glyph-name="twothirds" unicode="&#x2154;" horiz-adv-x="1740" 
d="M70 561v94l180 181q124 126 167.5 208.5t43.5 188.5q0 78 -31.5 111.5t-107.5 33.5q-62 0 -95.5 -18t-33.5 -47q0 -21 8 -37h39q10 -27 10 -57q0 -34 -25 -55t-63 -21q-44 0 -68 28t-24 72q0 89 79 141t205 52q141 0 211 -55.5t70 -153.5q0 -68 -29 -123t-122 -146.5
t-298 -263.5h244q90 0 125 30.5t51 106.5h45l-10 -270h-571zM412 -20l888 1476h86l-886 -1476h-88zM1356 874q129 0 198.5 -51t69.5 -141q0 -156 -207 -215q128 -17 191 -74.5t63 -148.5q0 -116 -98 -186t-258 -70q-51 0 -95 9.5t-81 29.5t-58.5 56t-21.5 85q0 44 24 72
t68 28q39 0 63.5 -21.5t24.5 -56.5q0 -12 -10 -57h-41q-6 -15 -6 -35q0 -23 32.5 -38t98.5 -15q178 0 178 195q0 83 -35 130t-96 74q-64 -15 -131 -20l-6 53q120 10 175.5 51t55.5 148q0 73 -32.5 107t-96.5 34q-53 0 -85 -18t-32 -41q0 -15 6 -27h37q9 -24 9 -53
q0 -34 -22.5 -54t-59.5 -20q-41 0 -63.5 25.5t-22.5 66.5q0 86 74 132t190 46z" />
    <glyph glyph-name="oneeighth" unicode="&#x215b;" horiz-adv-x="1740" 
d="M246 1360l-158 -12l-6 53l272 35h66v-822h123v-53h-443v53h146v746zM336 -20l889 1476h86l-887 -1476h-88zM1270 453q-113 12 -174.5 65t-61.5 137q0 101 79.5 160t219.5 59q137 0 218 -58t81 -159q0 -87 -60.5 -140.5t-172.5 -63.5v-4q130 -13 195 -71.5t65 -154.5
q0 -115 -85 -175t-241 -60q-159 0 -244 60.5t-85 174.5q0 99 68 157.5t198 68.5v4zM1333 420q-155 0 -155 -197q0 -93 37 -135.5t118 -42.5q79 0 116.5 44t37.5 136q0 195 -154 195zM1202 657q0 -174 133 -174q67 0 98 42t31 132q0 160 -131 160t-131 -160z" />
    <glyph glyph-name="threeeighths" unicode="&#x215c;" horiz-adv-x="1740" 
d="M352 1436q129 0 199 -51.5t70 -141.5q0 -156 -207 -215q128 -17 191 -74.5t63 -148.5q0 -116 -98 -186t-259 -70q-51 0 -95 9.5t-81 29.5t-58.5 56t-21.5 85q0 44 24 72t68 28q39 0 64 -21t25 -56q0 -9 -11 -58h-41q-6 -15 -6 -35q0 -23 32.5 -38t98.5 -15q178 0 178 195
q0 147 -131 205q-71 -16 -131 -21l-6 53q120 10 176 51t56 148q0 73 -32.5 107t-96.5 34q-53 0 -85 -18t-32 -41q0 -15 6 -27h37q8 -21 8 -53q0 -34 -22.5 -54t-59.5 -20q-41 0 -63.5 25.5t-22.5 66.5q0 86 74 132.5t190 46.5zM375 -20l889 1476h86l-887 -1476h-88z
M1294 453q-113 12 -174 65t-61 137q0 101 79.5 160t219.5 59q137 0 218 -58t81 -159q0 -87 -61 -140.5t-173 -63.5v-4q130 -13 195 -71.5t65 -154.5q0 -115 -84.5 -175t-240.5 -60q-159 0 -244.5 60.5t-85.5 174.5q0 99 68 157.5t198 68.5v4zM1358 420q-156 0 -156 -197
q0 -93 37 -135.5t119 -42.5q79 0 116 43.5t37 136.5q0 195 -153 195zM1227 657q0 -174 133 -174q67 0 98 42t31 132q0 160 -131 160t-131 -160z" />
    <glyph glyph-name="fiveeighths" unicode="&#x215d;" horiz-adv-x="1740" 
d="M334 1036q-84 0 -178 -53l-23 10v414l21 16q84 -12 211.5 -26.5t156.5 -14.5q22 0 32.5 12t20.5 42l46 -6q-17 -116 -37.5 -155.5t-59.5 -39.5q-26 0 -108 22l-219 62l-7 -258q80 35 181 35q79 0 137.5 -22t91.5 -60.5t48.5 -84t15.5 -98.5q0 -130 -95.5 -206t-251.5 -76
q-107 0 -179 44.5t-72 139.5q0 45 24 73t68 28q39 0 63.5 -22t24.5 -58q0 -16 -10 -56h-41q-9 -15 -9 -30q0 -60 127 -60q90 0 128 57.5t38 176.5q0 102 -31.5 148t-113.5 46zM375 -20l889 1476h86l-887 -1476h-88zM1286 453q-113 12 -174 65t-61 137q0 101 79.5 160
t219.5 59q137 0 218 -58t81 -159q0 -87 -61 -140.5t-173 -63.5v-4q130 -13 195 -71.5t65 -154.5q0 -115 -84.5 -175t-240.5 -60q-159 0 -244.5 60.5t-85.5 174.5q0 99 68 157.5t198 68.5v4zM1350 420q-156 0 -156 -197q0 -93 37 -135.5t119 -42.5q79 0 116 43.5t37 136.5
q0 195 -153 195zM1219 657q0 -174 133 -174q67 0 98 42t31 132q0 160 -131 160t-131 -160z" />
    <glyph glyph-name="seveneighths" unicode="&#x215e;" horiz-adv-x="1740" 
d="M221 678q0 70 52 167t212 312l103 135h-277q-64 0 -92.5 -9.5t-42.5 -33t-26 -82.5h-46l11 254h569v-73l-84 -150q-125 -224 -166 -334t-41 -182q0 -47 29 -100l-29 -31q-82 -6 -127 28.5t-45 98.5zM274 -20l889 1476h86l-887 -1476h-88zM1247 453q-113 12 -174 65
t-61 137q0 101 79.5 160t219.5 59q137 0 218 -58t81 -159q0 -87 -61 -140.5t-173 -63.5v-4q130 -13 195 -71.5t65 -154.5q0 -115 -84.5 -175t-240.5 -60q-159 0 -244.5 60.5t-85.5 174.5q0 99 68 157.5t198 68.5v4zM1311 420q-156 0 -156 -197q0 -93 37 -135.5t119 -42.5
q79 0 116 43.5t37 136.5q0 195 -153 195zM1180 657q0 -174 133 -174q67 0 98 42t31 132q0 160 -131 160t-131 -160z" />
    <glyph glyph-name="partialdiff" unicode="&#x2202;" horiz-adv-x="1136" 
d="M573 748q-68 0 -121 -28.5t-83.5 -72.5t-50 -104.5t-26.5 -116.5t-7 -117q0 -136 40 -201t136 -65q79 0 141.5 43.5t97.5 112t52.5 143t17.5 147.5q0 128 -51.5 193.5t-145.5 65.5zM573 1317q-78 0 -123 -35t-34 -108l65 -9q1 -67 -31 -104t-90 -37q-47 0 -78.5 30
t-31.5 83q0 52 23 94t58.5 68t82.5 43.5t91.5 24.5t88.5 7q206 0 319 -144t113 -437q0 -112 -15.5 -218.5t-57 -217.5t-104 -193t-165.5 -134.5t-233 -52.5q-182 0 -275.5 97.5t-93.5 267.5q0 209 125.5 349t320.5 140q213 0 283 -178q25 162 25 265q0 399 -263 399z" />
    <glyph glyph-name="Delta" unicode="&#x2206;" horiz-adv-x="1202" 
d="M1182 0h-1162l568 1466h53zM543 1159l-408 -1065h776z" />
    <glyph glyph-name="product" unicode="&#x220f;" horiz-adv-x="1570" 
d="M90 1434h1391v-60h-162v-1624h162v-59h-539v59h162v1624h-637v-1624h162v-59h-539v59h162v1624h-162v60z" />
    <glyph glyph-name="summation" unicode="&#x2211;" horiz-adv-x="1198" 
d="M1108 -309h-1096l-20 37l538 778l-550 899l20 29h1032l17 -385h-54q-20 104 -46 165.5t-73 98.5t-108 49t-162 12h-350l455 -747l-537 -764h451q119 0 195 15t126.5 55t77.5 98t45 155h53z" />
    <glyph glyph-name="minus" unicode="&#x2212;" 
d="M1028 610h-930v74h930v-74z" />
    <glyph glyph-name="uni2215" unicode="&#x2215;" horiz-adv-x="409" 
d="M-285 -20l889 1476h86l-887 -1476h-88z" />
    <glyph glyph-name="uni2219" unicode="&#x2219;" horiz-adv-x="614" 
d="M123 653q0 64 39 106t108 42q68 0 109 -37t41 -109q0 -68 -39 -108.5t-109 -40.5q-78 0 -113.5 42.5t-35.5 104.5z" />
    <glyph glyph-name="radical" unicode="&#x221a;" horiz-adv-x="1120" 
d="M1092 1524l-344 -1524h-144l-364 774l-146 -67l-24 59l329 162l326 -731l301 1341z" />
    <glyph glyph-name="infinity" unicode="&#x221e;" horiz-adv-x="1318" 
d="M1217 504q0 -124 -73 -193t-173 -69q-86 0 -166.5 41.5t-173.5 132.5q-139 -174 -295 -174q-106 0 -170 67.5t-64 177.5q0 65 24.5 118t64.5 84.5t87.5 48t96.5 16.5q70 0 142 -36.5t167 -129.5q133 153 297 153q104 0 170 -61.5t66 -175.5zM1135 508q0 70 -42 120
t-120 50q-62 0 -129.5 -35t-122.5 -100q95 -102 145 -138t117 -36t109.5 34.5t42.5 104.5zM350 305q124 0 242 154q-104 97 -154.5 132.5t-103.5 35.5q-66 0 -112 -42t-46 -112q0 -74 49 -121t125 -47z" />
    <glyph glyph-name="integral" unicode="&#x222b;" horiz-adv-x="874" 
d="M195 -383q83 0 138.5 82.5t55.5 222.5q0 62 -8 142t-17 141.5t-25 162t-24 158.5q-41 284 -41 471q0 155 43 256q46 111 133 181.5t214 70.5q103 0 164 -51t61 -137q0 -67 -31.5 -109.5t-93.5 -42.5q-49 0 -79 30.5t-30 76.5q0 19 7 47l57 6q10 27 10 47q0 41 -23.5 62.5
t-62.5 21.5q-211 -3 -203 -285q2 -66 30 -252t38 -272q4 -42 18.5 -159.5t23.5 -218t9 -179.5q0 -164 -39 -264q-43 -110 -133.5 -184t-212.5 -74q-103 0 -164 51t-61 137q0 67 31.5 109.5t93.5 42.5q49 0 78.5 -30t29.5 -77q0 -23 -6 -47l-57 -6q-10 -27 -10 -47
q0 -41 23.5 -62.5t62.5 -21.5z" />
    <glyph glyph-name="approxequal" unicode="&#x2248;" 
d="M788 238q-102 0 -278 45q-140 36 -215 36q-81 0 -125 -88l-35 13q63 200 215 200q86 0 238 -38q9 -2 46 -11.5t51.5 -13t43.5 -9.5t51.5 -8t44.5 -2q44 0 71.5 19t53.5 70l39 -11q-70 -202 -201 -202zM788 608q-102 0 -278 45q-144 37 -215 37q-81 0 -125 -88l-35 12
q64 201 215 201q82 0 238 -39q7 -2 39 -10l42 -10.5t37 -8.5t42 -8t36.5 -4t40.5 -2q44 0 72 18.5t53 69.5l39 -10q-71 -203 -201 -203z" />
    <glyph glyph-name="notequal" unicode="&#x2260;" 
d="M1028 383h-586l-223 -262l-49 45l182 217h-254v74h318l207 245h-525v74h586l178 211l56 -45l-142 -166h252v-74h-315l-209 -245h524v-74z" />
    <glyph glyph-name="lessequal" unicode="&#x2264;" 
d="M1028 0h-930v74h930v-74zM1026 176l-926 395v58l926 389v-78l-813 -338l813 -344v-82z" />
    <glyph glyph-name="greaterequal" unicode="&#x2265;" 
d="M1028 0h-930v74h930v-74zM1026 571l-926 -395v82l813 344l-813 338v78l926 -389v-58z" />
    <glyph glyph-name="triangle" unicode="&#x25b3;" horiz-adv-x="870" 
d="M307 416v473l379 -234z" />
    <glyph glyph-name="lozenge" unicode="&#x25ca;" 
d="M977 635l-414 -660l-416 660l416 659zM895 633l-332 538l-338 -532l342 -543z" />
    <glyph glyph-name="circle" unicode="&#x25cb;" horiz-adv-x="1249" 
d="M205 602q0 173 123.5 296.5t296.5 123.5t296 -123.5t123 -296.5t-123 -296.5t-296 -123.5t-296.5 123.5t-123.5 296.5z" />
    <glyph glyph-name="zero.alt" unicode="&#xf800;" horiz-adv-x="1187" 
d="M436 1149q0 103 77 164t187 61q186 0 300 -169.5t114 -485.5q0 -157 -27.5 -283t-75 -210t-114 -140.5t-140.5 -81t-159 -24.5q-170 0 -289.5 96.5t-177 261t-57.5 381.5q0 283 109 458t325 267l14 -39q-256 -123 -256 -311q0 -78 41 -156q-8 -91 -8 -213
q0 -247 31.5 -397t96.5 -217.5t171 -67.5q161 0 226 153.5t65 518.5q0 111 -4.5 195t-18.5 164t-36.5 131t-60.5 81.5t-89 30.5q-52 0 -77 -32t-7 -87l68 -8q6 -27 6 -51q0 -55 -35 -84t-82 -29q-50 0 -83.5 31.5t-33.5 91.5z" />
    <glyph glyph-name="one.alt" unicode="&#xf801;" horiz-adv-x="905" 
d="M442 59v1031q-41 -83 -145 -172t-188 -121l-19 53q80 40 155.5 107.5t126 131.5t98.5 145t70 126t44 96h71v-1397h209v-59h-657v59h235z" />
    <glyph glyph-name="two.alt" unicode="&#xf802;" horiz-adv-x="1064" 
d="M463 1393q-89 0 -152 -43t-63 -105q0 -26 12 -53h68q17 -30 20.5 -65t-7 -66t-40 -51.5t-74.5 -20.5q-62 0 -96.5 39t-34.5 109q0 99 63 173.5t160 110t211 35.5q217 0 325 -100t108 -271q0 -142 -81 -259.5t-274 -221.5q-26 -14 -72.5 -38t-69.5 -36.5t-61 -34.5
t-59 -38t-49.5 -41t-47.5 -49.5t-39 -57t-36 -69.5q133 65 242 65q65 0 130 -24t108.5 -52.5t96 -52.5t95.5 -24q51 0 74 39.5t28 127.5l51 -2q-2 -169 -59 -262.5t-162 -93.5q-54 0 -103.5 19t-84.5 47t-71.5 61t-65 61t-64.5 47t-72 19q-52 0 -116 -31q108 -31 108 -112
q0 -40 -29 -66t-79 -26q-22 0 -42 6t-40.5 21.5t-32.5 47t-12 76.5q0 118 91.5 238t250.5 223q98 62 162 124t95.5 124.5t42.5 117t11 123.5q0 158 -68 235t-196 77z" />
    <glyph glyph-name="four.alt" unicode="&#xf804;" horiz-adv-x="1050" 
d="M104 393h457v332l209 74v-406h238v-69h-240v-265h156v-59h-549v59h180v265h-522v69q134 181 231 328t150 243t83.5 174t39 121.5t8.5 86.5q0 69 -23 102l56 51q192 -8 192 -147q0 -101 -97 -247.5t-399 -508.5z" />
    <glyph glyph-name="six.alt" unicode="&#xf806;" horiz-adv-x="1128" 
d="M414 668q0 92 74.5 145t179.5 53q64 0 120 -12t108 -41.5t89 -73.5t59.5 -113.5t22.5 -156.5q0 -222 -132 -355.5t-353 -133.5q-227 0 -353.5 159t-126.5 492q0 199 45.5 358t125 260t183.5 154t224 53q149 0 234 -65t85 -164q0 -74 -37.5 -114t-93.5 -40q-58 0 -95.5 32
t-37.5 101q0 24 6 51h68q19 67 -15 101.5t-104 34.5q-73 0 -131.5 -33t-98 -92.5t-67.5 -133t-43 -163t-21.5 -172.5t-6.5 -172q0 -317 65 -450.5t209 -133.5q254 0 254 399q0 44 -4 87.5t-17 96.5t-34 92t-58.5 66t-87.5 27q-54 0 -77 -29t1 -69l64 -6q6 -27 6 -54
q0 -55 -32.5 -81.5t-80.5 -26.5q-50 0 -83 31.5t-33 91.5z" />
    <glyph glyph-name="seven.alt" unicode="&#xf807;" horiz-adv-x="944" 
d="M199 1524l57 -6q-15 -93 -68 -199l7 -4q112 129 206 129q37 0 69.5 -16t56 -38.5t45 -45t46.5 -38.5t52 -16q54 0 107.5 35t86.5 105l49 -9q2 -18 2 -61q0 -158 -47.5 -269t-179.5 -286q-225 -298 -225 -526q0 -128 76 -234l-50 -68q-125 -6 -200.5 56.5t-75.5 156.5
q0 72 25 133t113 183t284 358q39 47 70.5 91.5t52 78t36.5 69t24 57t13.5 48.5t7 37.5t2.5 30t1 20.5l-8 2q-130 -141 -279 -141q-47 0 -95 15.5t-80.5 34.5t-67.5 34.5t-60 15.5q-43 0 -75 -39t-101 -159l-51 31q62 101 102 200t72 234z" />
    <glyph glyph-name="eight.alt" unicode="&#xf808;" horiz-adv-x="1128" 
d="M600 1393q-134 0 -201 -65t-67 -173q0 -58 24.5 -106.5t66.5 -84t96 -67t114 -60t119.5 -58t113.5 -66.5t96 -80.5t66.5 -105t24.5 -134.5q0 -193 -133.5 -303t-352.5 -110q-234 0 -362.5 99.5t-128.5 280.5q0 146 83 238t232 127q-127 74 -192.5 155t-65.5 205
q0 122 64.5 207.5t168 124.5t236.5 39q77 0 145.5 -20.5t123 -60.5t86.5 -104t32 -145q0 -91 -44 -148.5t-126 -57.5q-60 0 -97.5 31.5t-37.5 84.5t35 103l94 -17q53 39 53 99q0 73 -70.5 122.5t-195.5 49.5zM567 43q143 0 216 75.5t73 196.5q0 39 -8.5 72.5t-19.5 58.5
t-36 50.5t-44.5 41.5t-60 39.5t-66 36.5t-79.5 39.5t-85 42.5q-78 -32 -122 -114t-44 -211q0 -328 276 -328z" />
    <glyph glyph-name="nine.alt" unicode="&#xf809;" horiz-adv-x="1134" 
d="M729 762q0 -92 -75 -145.5t-179 -53.5q-80 0 -148.5 20.5t-126.5 65t-91 124t-33 188.5q0 222 132.5 358.5t352.5 136.5q226 0 352.5 -158.5t126.5 -492.5q0 -214 -41.5 -374.5t-119 -258t-181 -145t-233.5 -47.5q-159 0 -245.5 70.5t-86.5 166.5q0 72 38 113t95 41
q56 0 87.5 -31.5t31.5 -93.5q0 -24 -10 -62h-68q-12 -27 -12 -51q0 -45 49.5 -67.5t122.5 -22.5q354 2 354 766q0 317 -65 450.5t-209 133.5q-130 0 -192 -106t-62 -300q0 -44 4 -87.5t17 -96.5t34 -92t58.5 -66t87.5 -27q58 0 80 28.5t-3 68.5l-57 4q-18 39 -15 76t34 63.5
t79 26.5q50 0 83.5 -31.5t33.5 -91.5z" />
    <glyph glyph-name="zero.tosf" unicode="&#xf81e;" 
d="M45 512q0 143 43 253t118 175.5t167.5 98t199.5 32.5q82 0 153.5 -17t137.5 -57.5t113 -101.5t74.5 -154.5t27.5 -210.5q0 -114 -28.5 -207.5t-77 -156.5t-115.5 -105.5t-141.5 -61.5t-157.5 -19q-251 0 -382.5 141t-131.5 391zM270 524q0 -254 71 -368.5t222 -114.5
q159 0 225 114t66 377q0 178 -33 283.5t-94.5 149t-161.5 43.5q-150 0 -222.5 -111t-72.5 -373z" />
    <glyph glyph-name="one.tosf" unicode="&#xf81f;" 
d="M492 956l-261 -18l-8 57l410 54h61v-990h250v-59h-729v57h277v899z" />
    <glyph glyph-name="two.tosf" unicode="&#xf820;" 
d="M469 1008q-96 0 -153.5 -34.5t-57.5 -92.5q0 -30 14 -58h68q16 -53 16 -90q0 -49 -35 -78.5t-88 -29.5q-60 0 -91 37.5t-31 103.5q0 95 57.5 165.5t150 105t205.5 34.5q108 0 188 -27.5t125 -74t66 -101t21 -116.5q0 -84 -31 -155t-104.5 -142t-176 -138.5t-264.5 -156.5
h387q124 0 173 47t73 176h35l-15 -383h-868v96q146 84 252 163t165 140.5t93.5 125t44.5 108.5t10 98q0 56 -11.5 103.5t-37 87.5t-71.5 63t-109 23z" />
    <glyph glyph-name="three.tosf" unicode="&#xf821;" 
d="M481 -264q310 0 310 325q0 73 -18.5 130.5t-53.5 97t-74.5 65.5t-91.5 47q-87 -21 -199 -32l-6 59q191 20 288 94.5t97 235.5q0 250 -227 250q-101 0 -156.5 -42.5t-36.5 -97.5h78q17 -57 17 -86q0 -58 -34 -87t-89 -29q-56 0 -88.5 38t-32.5 97q0 88 58 151t144 91
t187 28q181 0 288 -74.5t107 -216.5q0 -242 -325 -346q195 -29 296 -120.5t101 -237.5q0 -186 -150 -295t-389 -109q-77 0 -144 16t-119.5 47.5t-83 83.5t-30.5 118q0 68 36 108.5t96 40.5q53 0 85.5 -30t32.5 -81q0 -32 -16 -98h-72q-33 -59 32.5 -100t182.5 -41z" />
    <glyph glyph-name="four.tosf" unicode="&#xf822;" 
d="M836 -305h-201v407h-590v68l610 879h183v-879h186v160h55v-379h-55v151h-188v-407zM121 170h514v737z" />
    <glyph glyph-name="five.tosf" unicode="&#xf823;" 
d="M545 481q-135 0 -281 -90l-37 19l62 614l33 25h532q34 0 51.5 21t30.5 69l35 -2q-9 -62 -15 -96t-15 -70t-19.5 -52t-27.5 -30.5t-38 -18.5t-53 -4h-459l-55 -391q167 76 313 76q113 0 195 -31.5t128 -88.5t67.5 -127t21.5 -157q0 -213 -145.5 -344t-374.5 -131
q-109 0 -193.5 28.5t-136 91.5t-51.5 153q0 69 33.5 109t95.5 40q56 0 88 -30t32 -82q0 -35 -16 -97h-70q-33 -59 29 -104t172 -45q311 0 311 409q0 178 -56 257t-187 79z" />
    <glyph glyph-name="six.tosf" unicode="&#xf824;" 
d="M340 590q-16 -67 -16 -166q0 -381 241 -381q132 0 187 97.5t55 283.5q0 183 -52.5 262.5t-158.5 79.5q-89 0 -162.5 -50.5t-93.5 -125.5zM653 1290q-81 0 -141 -32.5t-104.5 -103.5t-67 -189.5t-21.5 -284.5q34 58 124.5 108t185.5 50q86 0 155 -21.5t124 -67t85.5 -125
t30.5 -188.5q0 -201 -124.5 -328.5t-340.5 -127.5q-112 0 -194.5 30.5t-143 98t-91 181.5t-30.5 275q0 197 41 349t115 247.5t174.5 144t222.5 48.5q153 0 242.5 -67t89.5 -173q0 -68 -37 -104.5t-96 -36.5q-58 0 -94.5 32t-36.5 93q0 17 8 57h66q19 65 -17 100t-125 35z
" />
    <glyph glyph-name="seven.tosf" unicode="&#xf825;" 
d="M319 -125q0 67 33.5 152t110.5 211q44 71 176.5 277t224.5 351h-452q-51 0 -83 -2.5t-59 -12t-41.5 -21t-27.5 -38t-20 -55t-17 -78.5h-41l14 390h864v-68q-150 -279 -243.5 -468.5t-137.5 -308t-57.5 -183.5t-13.5 -132q0 -82 33 -149l-62 -64q-103 3 -152 55.5
t-49 143.5z" />
    <glyph glyph-name="eight.tosf" unicode="&#xf826;" 
d="M477 690q-163 13 -252.5 94.5t-89.5 212.5q0 159 115.5 256t312.5 97q201 0 315.5 -87t114.5 -245q0 -135 -90.5 -223t-249.5 -105v-6q190 -13 287.5 -99t97.5 -239q0 -180 -126 -274.5t-349 -94.5q-227 0 -352 91.5t-125 267.5q0 154 103.5 244t287.5 104v6zM563 653
q-127 0 -196.5 -75t-69.5 -228q0 -149 69.5 -228t196.5 -79q128 0 196 76.5t68 232.5q0 154 -69.5 227.5t-194.5 73.5zM334 1014q0 -144 62.5 -215.5t166.5 -71.5q109 0 168.5 71.5t59.5 219.5q0 266 -228 266q-110 0 -169.5 -69.5t-59.5 -200.5z" />
    <glyph glyph-name="nine.tosf" unicode="&#xf827;" 
d="M528 279q159 0 242 118q43 60 43 221q0 201 -61 295.5t-191 94.5q-133 0 -191.5 -100.5t-58.5 -286.5q0 -187 54.5 -264.5t162.5 -77.5zM483 -330q-162 0 -247.5 71.5t-85.5 180.5q0 79 40 120.5t103 41.5q48 0 84.5 -30.5t36.5 -90.5q0 -35 -11 -72h-71q-15 -27 -15 -51
q0 -44 44 -75t120 -31q111 0 185 62.5t115 205.5t42 371q-51 -79 -137 -122.5t-188 -43.5q-85 0 -155 22t-125.5 68.5t-86.5 127t-31 189.5q0 207 124.5 332t342.5 125q221 0 339 -166.5t118 -505.5q0 -729 -541 -729z" />
    <glyph glyph-name="s_t" unicode="&#xfb06;" horiz-adv-x="1667" 
d="M76 -20v339h53q9 -131 104.5 -201.5t227.5 -70.5q244 0 244 184q0 32 -9 57t-30 43t-41.5 30t-56.5 22t-61 15.5t-69 13.5q-49 9 -72 13.5t-67 16t-66.5 23t-53.5 32.5t-46.5 46t-27 61.5t-11.5 81.5q0 131 94 220t244 89q42 0 76 -6q-53 57 -89 131.5t-36 155.5
q0 110 69 183t181 73q66 0 129 -28.5t105 -64t96.5 -77t97.5 -59.5q8 112 69.5 184t163.5 72q78 0 127 -38.5t49 -113.5q0 -84 -62 -133t-157 -51v-248h287v-53h-287v-674q0 -93 30 -132.5t108 -39.5q82 0 124 54t56 163l47 -6q-7 -66 -23.5 -116.5t-49 -96t-89 -70
t-135.5 -24.5q-264 0 -264 243v699h-154v53h154v266q-49 17 -97 48t-84 61.5t-73 59t-79.5 46t-88.5 17.5q-90 0 -138.5 -53.5t-48.5 -143.5q0 -97 55.5 -187.5t125.5 -132.5q37 -22 63 -22q14 0 20 15t9 50h45v-303h-51q-27 120 -99.5 181t-181.5 61q-99 0 -160 -42
t-61 -116q0 -91 97 -130q44 -18 165 -40q45 -8 71.5 -14t67.5 -18.5t66 -26.5t54.5 -37.5t46 -52.5t27.5 -70.5t11 -91.5q0 -142 -95 -230.5t-263 -88.5q-149 0 -273 69q-18 12 -30 12q-14 0 -21 -16t-14 -65h-45zM1251 1405v-125q66 2 108 37t42 98q0 42 -21.5 64t-52.5 22
q-39 0 -57.5 -28t-18.5 -68z" />
    <glyph glyph-name="question.alt" horiz-adv-x="1187" 
d="M582 1434q191 0 310.5 -98t119.5 -271q0 -91 -36 -163t-95.5 -114.5t-128 -64t-140.5 -21.5q-78 0 -137 21v-358h-61v376q-33 37 -33 70q0 19 12 31t31 12q22 0 35 -21.5t12 -56.5q49 -18 104 -18q103 0 165.5 68t62.5 218q0 98 -20.5 166.5t-59 105.5t-84.5 52.5
t-107 15.5q-89 0 -149.5 -30t-60.5 -84q0 -7 4 -27h57q16 -43 16 -80q0 -54 -32 -85t-84 -31q-50 0 -78.5 35t-28.5 94q0 113 117 185.5t289 72.5zM319 109q0 56 34.5 92.5t95.5 36.5q60 0 95.5 -32t35.5 -95q0 -60 -33.5 -95.5t-95.5 -35.5q-68 0 -100 37.5t-32 91.5z" />
    <glyph glyph-name="questiondown.alt" horiz-adv-x="1187" 
d="M606 -459q-191 0 -310.5 98t-119.5 271q0 91 36 163t95 114t127.5 63.5t140.5 21.5q82 0 138 -20v358h61v-377q33 -37 33 -69q0 -19 -12 -31t-31 -12q-22 0 -35 21.5t-12 56.5q-49 18 -105 18q-102 0 -164.5 -68.5t-62.5 -218.5q0 -98 20 -166.5t58.5 -105.5t84.5 -52.5
t107 -15.5q99 0 162.5 38.5t44.5 103.5h-57q-17 46 -17 80q0 54 32.5 85t84.5 31q50 0 78.5 -35t28.5 -94q0 -113 -117 -185.5t-289 -72.5zM868 866q0 -56 -34 -92.5t-95 -36.5q-60 0 -95.5 32t-35.5 95q0 60 33.5 95.5t95.5 35.5q68 0 99.5 -37.5t31.5 -91.5z" />
    <glyph glyph-name="at.case" horiz-adv-x="1738" 
d="M885 1106q119 0 205 -76l34 62h121l-65 -373q-25 -154 -25 -217q0 -91 27 -124.5t90 -33.5q50 0 97.5 28t87 81t63.5 138.5t24 190.5q0 300 -163 462.5t-476 162.5q-147 0 -274 -50t-221.5 -143.5t-148.5 -238t-54 -322.5q0 -146 39 -261.5t104 -190.5t157 -124.5
t192 -70t214 -20.5q280 0 471 161l39 -43q-91 -85 -230.5 -133.5t-281.5 -48.5q-129 0 -244 26.5t-214.5 84t-171.5 141t-113 204t-41 267.5q0 237 94 422.5t275.5 293t423.5 107.5q153 0 281.5 -44.5t221.5 -128t145 -211t52 -287.5q0 -126 -30.5 -226.5t-83 -162
t-119.5 -93.5t-142 -32q-104 0 -162.5 41.5t-74.5 109.5q-40 -64 -105 -105.5t-145 -41.5q-58 0 -104 17t-75 45.5t-48 69t-27 84.5t-8 95q0 129 34 230t91 160t124 88.5t140 29.5zM1010 563l65 418q-72 72 -172 72q-84 0 -140 -60.5t-80 -157t-24 -225.5q0 -132 31.5 -195
t110.5 -63q74 0 135.5 64.5t73.5 146.5z" />
    <glyph glyph-name="Q.alt" horiz-adv-x="1464" 
d="M84 694q0 351 181.5 556.5t484.5 205.5q294 0 462 -194t168 -541q0 -327 -154.5 -518.5t-459.5 -212.5v-8l268 -37q61 -61 105 -100t107 -75t112 -36q72 0 151 59l25 -29q-61 -51 -98 -78t-89.5 -50t-101.5 -23q-80 0 -151.5 41.5t-157.5 130.5q-92 97 -152 143t-118 52
q-280 25 -431 209t-151 505zM1141 727q0 123 -10 217.5t-36.5 181.5t-71 143.5t-117.5 90t-171 33.5q-99 0 -173 -34t-119.5 -91t-73 -145t-37.5 -182t-10 -216q0 -120 10 -214.5t37.5 -185t72.5 -150.5t119 -96t174 -36q97 0 169.5 34t117 92t72 147.5t37.5 187t10 223.5z
" />
    <glyph glyph-name="R.alt" horiz-adv-x="1320" 
d="M645 711h-184v-652h215v-59h-604v59h174v1315h-174v60h485q103 0 180.5 -7t154 -28.5t125.5 -58t79 -99t30 -147.5q0 -175 -108 -261.5t-316 -109.5q10 -38 25.5 -64.5t32.5 -41t44.5 -22t50.5 -9.5t60 -2l123 -383q10 -31 14.5 -42t14 -31.5t19 -27.5t24.5 -13.5
t35 -6.5q46 0 58.5 38t19.5 158l47 -2q-5 -119 -7 -135q-15 -109 -91 -142q-40 -17 -99 -17q-52 0 -91.5 10.5t-65 26.5t-45.5 45t-32 56.5t-26 71.5zM461 1374v-606h43q205 0 295 73.5t90 245.5q0 87 -21 143t-69.5 88t-114.5 44t-168 12h-55z" />
    <glyph glyph-name="g.calt" horiz-adv-x="1028" 
d="M713 903q52 -51 76 -107t24 -134q0 -159 -97.5 -254t-264.5 -95q-67 0 -144 15q-53 -35 -79.5 -68.5t-26.5 -54.5q0 -18 15.5 -25.5t57.5 -7.5h261q76 0 133.5 -7t111.5 -26.5t88.5 -52.5t55 -87t20.5 -128q0 -86 -28.5 -153.5t-90 -120t-167 -81t-250.5 -28.5
q-194 0 -299 63t-105 177q0 133 152 163l53 -43q-23 -47 -23 -102q0 -95 68 -150t211 -55q172 0 274.5 73t102.5 191q0 97 -70.5 138t-226.5 41h-244q-105 0 -156 37.5t-51 101.5q0 54 34.5 104t121.5 117q-180 70 -180 303q0 69 23.5 130t69.5 110.5t123 78.5t175 29
q121 0 209 -61q-10 121 44.5 196.5t151.5 75.5q59 0 97 -33.5t38 -89.5q0 -41 -27.5 -68.5t-70.5 -27.5q-33 0 -58.5 17t-33.5 38l43 50q-6 45 -51 45q-34 0 -64 -44t-30 -126q0 -18 4 -64zM268 651q0 -156 45 -220t136 -64q82 0 125.5 64t43.5 222q0 157 -42 225t-130 68
q-86 0 -132 -67t-46 -228z" />
    <glyph glyph-name="j.calt" horiz-adv-x="583" 
d="M401 975v-952q0 -123 -20.5 -216t-66.5 -164.5t-125 -110.5t-191 -44l-10 45q58 12 97.5 33.5t63 49t36 72.5t16.5 90.5t4 115.5v1028h-154v53h350zM156 1309q0 54 32.5 88.5t92.5 34.5q56 0 89 -29.5t33 -91.5q0 -57 -32 -91t-92 -34q-62 0 -92.5 36.5t-30.5 86.5z" />
    <glyph glyph-name="y.calt" horiz-adv-x="1015" 
d="M20 922v53h472v-53h-168l260 -684l247 684h-161v53h346v-53h-103l-407 -1088q-75 -201 -142 -273.5t-176 -72.5t-160 55.5t-51 128.5q0 70 37.5 110t91.5 40q46 0 77.5 -28t31.5 -79q0 -29 -12 -73h-70q-8 -28 -8 -41q0 -29 16 -43.5t58 -14.5q77 0 131.5 79.5
t113.5 250.5l41 119l-372 930h-93z" />
    <glyph glyph-name="hyphen.case" horiz-adv-x="677" 
d="M96 659v119h486v-119h-486z" />
    <glyph glyph-name="idotaccent" horiz-adv-x="604" 
d="M170 1311q0 52 32.5 86.5t90.5 34.5q57 0 91 -29.5t34 -91.5q0 -57 -32 -91t-91 -34q-65 0 -95 36.5t-30 88.5zM57 975h351v-922h155v-53h-506v53h154v869h-154v53z" />
    <glyph glyph-name="jcircumflex.calt" horiz-adv-x="583" 
d="M401 975v-952q0 -123 -20.5 -216t-66.5 -164.5t-125 -110.5t-191 -44l-10 45q58 12 97.5 33.5t63 49t36 72.5t16.5 90.5t4 115.5v1028h-154v53h350zM-8 1122l221 359q28 20 68 20q49 0 77 -53l174 -324l-26 -18l-248 233l-242 -235z" />
    <glyph glyph-name="Racute.alt" horiz-adv-x="1320" 
d="M645 711h-184v-652h215v-59h-604v59h174v1315h-174v60h485q103 0 180.5 -7t154 -28.5t125.5 -58t79 -99t30 -147.5q0 -175 -108 -261.5t-316 -109.5q10 -38 25.5 -64.5t32.5 -41t44.5 -22t50.5 -9.5t60 -2l123 -383q10 -31 14.5 -42t14 -31.5t19 -27.5t24.5 -13.5
t35 -6.5q46 0 58.5 38t19.5 158l47 -2q-5 -119 -7 -135q-15 -109 -91 -142q-40 -17 -99 -17q-52 0 -91.5 10.5t-65 26.5t-45.5 45t-32 56.5t-26 71.5zM461 1374v-606h43q205 0 295 73.5t90 245.5q0 87 -21 143t-69.5 88t-114.5 44t-168 12h-55zM475 1530l291 301l37 -12
q38 -13 53.5 -31t15.5 -45q0 -28 -15.5 -46t-49.5 -34l-309 -162z" />
    <glyph glyph-name="Rcommaaccent.alt" horiz-adv-x="1320" 
d="M645 711h-184v-652h215v-59h-604v59h174v1315h-174v60h485q103 0 180.5 -7t154 -28.5t125.5 -58t79 -99t30 -147.5q0 -175 -108 -261.5t-316 -109.5q10 -38 25.5 -64.5t32.5 -41t44.5 -22t50.5 -9.5t60 -2l123 -383q10 -31 14.5 -42t14 -31.5t19 -27.5t24.5 -13.5
t35 -6.5q46 0 58.5 38t19.5 158l47 -2q-5 -119 -7 -135q-15 -109 -91 -142q-40 -17 -99 -17q-52 0 -91.5 10.5t-65 26.5t-45.5 45t-32 56.5t-26 71.5zM461 1374v-606h43q205 0 295 73.5t90 245.5q0 87 -21 143t-69.5 88t-114.5 44t-168 12h-55zM690 -559l-37 41
q117 110 117 194q0 45 -33 50l-45 -48q-28 8 -49.5 35t-21.5 64q0 44 30.5 71t71.5 27q66 0 100.5 -42.5t34.5 -106.5q0 -78 -39.5 -146t-128.5 -139z" />
    <glyph glyph-name="Rcaron.alt" horiz-adv-x="1320" 
d="M645 711h-184v-652h215v-59h-604v59h174v1315h-174v60h485q103 0 180.5 -7t154 -28.5t125.5 -58t79 -99t30 -147.5q0 -175 -108 -261.5t-316 -109.5q10 -38 25.5 -64.5t32.5 -41t44.5 -22t50.5 -9.5t60 -2l123 -383q10 -31 14.5 -42t14 -31.5t19 -27.5t24.5 -13.5
t35 -6.5q46 0 58.5 38t19.5 158l47 -2q-5 -119 -7 -135q-15 -109 -91 -142q-40 -17 -99 -17q-52 0 -91.5 10.5t-65 26.5t-45.5 45t-32 56.5t-26 71.5zM461 1374v-606h43q205 0 295 73.5t90 245.5q0 87 -21 143t-69.5 88t-114.5 44t-168 12h-55zM977 1808l-260 -274
q-29 -21 -68 -21q-33 0 -78 54l-209 237l21 31l283 -172l288 174z" />
    <glyph glyph-name="s_p" horiz-adv-x="2015" 
d="M76 -20v339h53q9 -131 104.5 -201.5t227.5 -70.5q244 0 244 184q0 32 -9 57t-30 43t-41.5 30t-56.5 22t-61 15.5t-69 13.5q-49 9 -72 13.5t-67 16t-66.5 23t-53.5 32.5t-46.5 46t-27 61.5t-11.5 81.5q0 131 94 220t244 89q42 0 76 -6q-53 57 -89 131.5t-36 155.5
q0 110 69 183t181 73q66 0 125.5 -28.5t97 -64t88 -77t94.5 -59.5q8 112 70 184t164 72q78 0 127 -38.5t49 -113.5q0 -84 -62 -133t-157 -51v-406q113 178 332 178q185 0 286 -126t101 -371q0 -252 -109.5 -385t-308.5 -133q-208 0 -301 137v-551h264v-53h-639v53h178v1675
q-49 17 -94.5 48t-78.5 61.5t-66.5 59t-73.5 46t-86 17.5q-90 0 -138.5 -53.5t-48.5 -143.5q0 -97 55.5 -187.5t125.5 -132.5q37 -22 63 -22q14 0 20 15t9 50h45v-303h-51q-27 120 -99.5 181t-181.5 61q-99 0 -160 -42t-61 -116q0 -91 97 -130q44 -18 165 -40
q45 -8 71.5 -14t67.5 -18.5t66 -26.5t54.5 -37.5t46 -52.5t27.5 -70.5t11 -91.5q0 -142 -95 -230.5t-263 -88.5q-149 0 -273 69q-18 12 -30 12q-14 0 -21 -16t-14 -65h-45zM1499 918q-103 0 -189.5 -82.5t-86.5 -206.5v-316q0 -104 76 -187t200 -83q131 0 182.5 102
t51.5 344q0 84 -5.5 145.5t-20.5 118t-40.5 91t-67.5 54.5t-100 20zM1229 1405v-125q66 2 107.5 36.5t41.5 98.5q0 42 -21 64t-52 22q-39 0 -57.5 -28t-18.5 -68z" />
    <glyph glyph-name="s_h" horiz-adv-x="2082" 
d="M76 -20v339h53q9 -131 104.5 -201.5t227.5 -70.5q244 0 244 184q0 32 -9 57t-30 43t-41.5 30t-56.5 22t-61 15.5t-69 13.5q-49 9 -72 13.5t-67 16t-66.5 23t-53.5 32.5t-46.5 46t-27 61.5t-11.5 81.5q0 131 94 220t244 89q40 0 74 -6q-52 57 -87.5 131.5t-35.5 155.5
q0 110 69 183t181 73q66 0 125.5 -28.5t97 -64t88 -77t94.5 -59.5q8 112 70 184t164 72q78 0 127 -38.5t49 -113.5q0 -84 -62 -133t-157 -51v-441q19 41 47.5 76t71.5 67.5t105 51t136 18.5q147 0 225 -81t78 -261v-600h156v-53h-506v53h154v621q0 132 -36 190t-130 58
q-122 0 -211.5 -93.5t-89.5 -232.5v-543h155v-53h-505v53h153v1188q-49 17 -94.5 48t-78.5 61.5t-66.5 59t-73.5 46t-86 17.5q-91 0 -139 -55t-48 -152q0 -62 34.5 -139.5t91.5 -135t112 -57.5q19 0 25.5 14.5t9.5 50.5h45v-303h-51q-27 120 -99.5 181t-181.5 61
q-99 0 -160 -42t-61 -116q0 -91 97 -130q44 -18 165 -40q45 -8 71.5 -14t67.5 -18.5t66 -26.5t54.5 -37.5t46 -52.5t27.5 -70.5t11 -91.5q0 -142 -95 -230.5t-263 -88.5q-149 0 -273 69q-18 12 -30 12q-14 0 -21 -16t-14 -65h-45zM1229 1405v-125q66 2 107.5 36.5t41.5 98.5
q0 42 -21 64t-52 22q-39 0 -57.5 -28t-18.5 -68z" />
    <glyph glyph-name="c_t" horiz-adv-x="1759" 
d="M573 946q-149 0 -217.5 -106t-68.5 -334q0 -234 67 -344.5t211 -110.5q72 0 126 24.5t85 66.5t48.5 85.5t25.5 94.5l59 -11q-6 -31 -13 -57.5t-21.5 -61.5t-33 -63t-49 -57t-67.5 -48.5t-90.5 -31.5t-116.5 -12q-214 0 -330 127t-116 362q0 257 132 391.5t357 134.5
q23 0 33 -2q-60 64 -96.5 133.5t-36.5 157.5q0 107 64 177.5t180 70.5q60 0 124.5 -27t112 -60.5t107 -70.5t104.5 -51q6 98 69 167t164 69q78 0 127.5 -38.5t49.5 -113.5q0 -82 -60.5 -122t-159.5 -42v-268h287v-53h-287v-674q0 -93 30 -132.5t108 -39.5q82 0 124 54
t56 163l47 -6q-7 -66 -23.5 -116.5t-49 -96t-89 -70t-135.5 -24.5q-264 0 -264 243v699h-154v53h154v287q-52 16 -115.5 53.5t-111.5 71t-109 60t-113 26.5q-88 0 -131 -53.5t-43 -131.5q0 -151 162 -305q104 -25 160.5 -89.5t56.5 -158.5q0 -75 -34 -112t-91 -37
q-54 0 -86.5 33t-32.5 92q0 35 11 75h55q6 24 6 48q0 112 -158 112zM1343 1405v-105q150 4 150 115q0 42 -21.5 64t-52.5 22q-39 0 -57.5 -28t-18.5 -68z" />
    <glyph glyph-name="c_h" horiz-adv-x="2197" 
d="M573 946q-149 0 -217.5 -106t-68.5 -334q0 -234 67 -344.5t211 -110.5q72 0 126 24.5t85 66.5t48.5 85.5t25.5 94.5l59 -11q-6 -31 -13 -57.5t-21.5 -61.5t-33 -63t-49 -57t-67.5 -48.5t-90.5 -31.5t-116.5 -12q-214 0 -330 127t-116 362q0 257 132 391.5t357 134.5
q126 0 211 -49q-14 34 -32.5 73.5t-31 64t-35.5 68.5t-30 58q-102 -24 -178 -24q-97 0 -160 45t-63 135q0 76 49 120t125 44q87 0 147.5 -65t118.5 -187q177 44 361 121t245 137h55v-754q19 41 48 76t72 67.5t105 51t136 18.5q147 0 225 -81t78 -261v-600h156v-53h-506v53
h153v621q0 132 -35.5 190t-129.5 58q-122 0 -212 -93.5t-90 -232.5v-543h156v-53h-506v53h154v1331q-204 -96 -438 -157q38 -72 61.5 -118.5t59.5 -124t54.5 -141t18.5 -108.5q0 -75 -34 -112t-91 -37q-54 0 -86.5 33t-32.5 92q0 35 11 75h55q6 24 6 48q0 112 -158 112z
M614 1264l-15.5 31t-18.5 35.5t-19 33t-23 34.5t-25 27t-30 24.5t-32.5 14t-38.5 6.5q-44 0 -72.5 -26.5t-28.5 -69.5q0 -63 44.5 -96t117.5 -33q54 0 141 19z" />
    <glyph glyph-name="c_k" horiz-adv-x="2103" 
d="M1614 0v53h145l-317 459l-96 -20v-439h133v-53h-484v53h154v1331q-202 -95 -440 -157q38 -72 61.5 -118.5t59.5 -124t54.5 -141t18.5 -108.5q0 -75 -34 -112t-91 -37q-54 0 -86.5 33t-32.5 92q0 35 11 75h55q6 24 6 48q0 112 -158 112q-149 0 -217.5 -106t-68.5 -334
q0 -234 67 -344.5t211 -110.5q72 0 126 24.5t85 66.5t48.5 85.5t25.5 94.5l59 -11q-6 -31 -13 -57.5t-21.5 -61.5t-33 -63t-49 -57t-67.5 -48.5t-90.5 -31.5t-116.5 -12q-214 0 -330 127t-116 362q0 257 132 391.5t357 134.5q126 0 211 -49q-14 34 -32.5 73.5t-31 64
t-35.5 68.5t-30 58q-102 -24 -178 -24q-97 0 -160 45t-63 135q0 76 49 120t125 44q87 0 147.5 -65t118.5 -187q177 44 361 121t245 137h58v-981l77 18l381 349h-182v53h416v-53h-140l-311 -289l404 -580h102v-53h-479zM614 1264l-15.5 31t-18.5 35.5t-19 33t-23 34.5t-25 27
t-30 24.5t-32.5 14t-38.5 6.5q-44 0 -72.5 -26.5t-28.5 -69.5q0 -63 44.5 -96t117.5 -33q54 0 141 19z" />
    <glyph glyph-name="t_t" horiz-adv-x="1525" 
d="M195 223v699h-154v53h154v268q-98 2 -159 44t-61 124q0 75 50.5 115.5t128.5 40.5q101 0 161.5 -69t71.5 -175q38 12 80 38.5t79.5 54.5t78 55t90 44t100.5 17q129 0 212 -72.5t83 -218.5v-266h287v-53h-287v-674q0 -93 29.5 -132.5t107.5 -39.5q82 0 124 54t56 163
l48 -6q-7 -66 -23.5 -116.5t-49 -96t-89 -70t-135.5 -24.5q-265 0 -265 243v699h-522v-674q0 -93 29.5 -132.5t107.5 -39.5q82 0 124.5 54.5t56.5 162.5l47 -6q-7 -66 -23.5 -116.5t-49 -96t-89 -70t-135.5 -24.5q-264 0 -264 243zM393 1262v-287h520v270q0 116 -25.5 167.5
t-94.5 51.5q-44 0 -95 -25t-93 -57t-101 -68t-111 -52zM197 1300v105q0 41 -18.5 72.5t-57.5 31.5q-31 0 -53.5 -24t-22.5 -66q0 -115 152 -119z" />
    </font>
</defs>
</svg>
