<?xml version="1.0" standalone="no"?>
<!DOCTYPE svg PUBLIC "-//W3C//DTD SVG 1.1//EN" "http://www.w3.org/Graphics/SVG/1.1/DTD/svg11.dtd" >
<svg xmlns="http://www.w3.org/2000/svg" xmlns:xlink="http://www.w3.org/1999/xlink" version="1.1">
<metadata>
Created by FontForge 20170731 at Wed Feb 17 08:57:52 2021
 By Aleksey,,,
Copyright (c) 2011 by TypeTogether. All rights reserved.
</metadata>
<defs>
<font id="AbrilDisplay-SemiBold" horiz-adv-x="1126" >
  <font-face 
    font-family="Abril Display SB"
    font-weight="600"
    font-stretch="normal"
    units-per-em="2048"
    panose-1="2 0 5 3 0 0 0 2 0 3"
    ascent="1536"
    descent="-512"
    x-height="975"
    cap-height="1434"
    bbox="-444 -944 2826 2130"
    underline-thickness="102"
    underline-position="-307"
    unicode-range="U+0020-FB06"
  />
<missing-glyph horiz-adv-x="409" 
 />
    <glyph glyph-name="ij" unicode="ij" horiz-adv-x="1210" 
d="M154 1311q0 59 36.5 98t106.5 39q67 0 106 -34.5t39 -102.5q0 -64 -37 -103t-108 -39q-76 0 -109.5 41t-33.5 101zM47 975h387v-922h146v-53h-531v53h144v869h-146v53zM1044 975v-877q0 -127 -21.5 -233.5t-67 -193t-123.5 -135t-183 -48.5q-63 0 -109 17.5t-69.5 47
t-34 61.5t-10.5 67q0 72 39.5 112.5t99.5 40.5q54 0 84.5 -29.5t30.5 -85.5q0 -33 -12 -77h-60q-10 -18 -10 -45q0 -58 76 -58q29 0 50 9t35 30t22.5 46.5t12.5 69t5.5 85t1.5 106.5v1037h-158v53h401zM752 1309q0 61 37 100t108 39q66 0 104.5 -34.5t38.5 -102.5
q0 -64 -37 -103t-108 -39q-75 0 -109 41t-34 99z" />
    <glyph glyph-name="ff" unicode="ff" horiz-adv-x="1368" 
d="M1257 1534q-44 0 -74.5 -16.5t-47 -41t-26 -66.5t-11.5 -78.5t-2 -92.5v-264h258v-53h-258v-869h247v-53h-628v53h139v869h-424v-869h156v-53h-539v53h139v869h-149v53h149v53q0 239 116 373.5t335 134.5q105 0 178.5 -41.5t95.5 -114.5q101 203 355 203q130 0 205 -61
t75 -158q0 -71 -35.5 -109t-97.5 -38q-59 0 -94 33.5t-35 88.5q0 30 14 74h62q17 59 -8.5 90t-94.5 31zM625 1487q-104 0 -149.5 -72t-45.5 -211v-229h424v43q0 88 16 186q-27 -24 -77 -24q-61 0 -97.5 31t-36.5 87q0 24 13 68h61q16 54 -12 87.5t-96 33.5z" />
    <glyph glyph-name="fi" unicode="fi" horiz-adv-x="1271" 
d="M711 1536q-149 0 -215 -92.5t-66 -274.5v-194h666v-922h141v-53h-522v53h139v869h-424v-869h156v-53h-539v53h139v869h-149v53h149q0 608 539 608q152 0 246 -67.5t94 -182.5q0 -75 -41 -118.5t-113 -43.5q-73 0 -109 39.5t-36 110.5q0 15 4 47l82 12q10 25 10 58
q0 49 -40.5 73.5t-110.5 24.5z" />
    <glyph glyph-name="fl" unicode="fl" horiz-adv-x="1280" 
d="M629 1534q-111 0 -155 -74t-44 -221v-264h236v-53h-236v-869h156v-53h-539v53h139v869h-149v53h149q0 141 23.5 248.5t74 190t138 126t209.5 43.5q97 0 163.5 -34t96.5 -95q65 31 147 64l58 18v-1483h141v-53h-522v53h139v1090l16 141q-27 -59 -100 -59q-56 0 -89.5 31
t-33.5 87q0 39 12 76h62q19 53 -4.5 84t-87.5 31z" />
    <glyph glyph-name="ffi" unicode="ffi" horiz-adv-x="1939" 
d="M1374 1536q-244 0 -272 -258q-6 -53 -6 -109v-194h663v-922h146v-53h-519v53h134v869h-424v-869h178v-53h-559v53h139v869h-424v-869h156v-53h-539v53h139v869h-149v53h149v53q0 239 116 373.5t335 134.5q119 0 199 -53t90 -146q121 246 460 246q153 0 246.5 -67
t93.5 -183q0 -75 -40.5 -118.5t-112.5 -43.5q-60 0 -95.5 29.5t-43.5 77.5q-9 42 0 90l79 14q28 80 -10.5 117t-128.5 37zM625 1487q-104 0 -149.5 -72t-45.5 -211v-229h428v33q0 101 25 204q-25 -32 -86 -32t-97 31t-36 87q0 28 12 68h61q15 54 -14 87.5t-98 33.5z" />
    <glyph glyph-name="ffl" unicode="ffl" horiz-adv-x="1945" 
d="M1290 1534q-109 0 -151.5 -74t-42.5 -221v-264h235v-53h-235v-869h178v-53h-559v53h139v869h-424v-869h156v-53h-539v53h139v869h-149v53h149v53q0 239 116 373.5t335 134.5q111 0 190.5 -48.5t94.5 -131.5q105 227 372 227q96 0 164 -34t98 -95l207 82v-1483h140v-53
h-517v53h134v1090l16 141q-24 -59 -98 -59q-58 0 -91.5 31t-33.5 87q0 39 12 76h64q17 53 -8.5 84t-90.5 31zM879 1212q-28 -32 -86 -32q-61 0 -97.5 31t-36.5 87q0 24 13 68h61q16 54 -12 87.5t-96 33.5q-104 0 -149.5 -72t-45.5 -211v-229h424v33q3 114 25 204z" />
    <glyph glyph-name="f_k" unicode="fk" horiz-adv-x="1853" 
d="M1341 0v53h132l-293 457l-84 -18v-439h123v-53h-504v53h139v1086l20 145q-35 -59 -104 -59q-55 0 -84 30.5t-29 87.5q0 35 13 76h61q19 53 -11 84t-89 31q-103 0 -152 -72t-49 -194v-293h236v-53h-236v-869h156v-53h-539v53h139v869h-149v53h149q0 141 23.5 248.5t74 190
t138 126t209.5 43.5q98 0 169.5 -34.5t100.5 -94.5l195 82v-981l65 14l393 353h-176v53h412v-53h-141l-291 -267l387 -602h98v-53h-502z" />
    <glyph glyph-name="f_b" unicode="fb" horiz-adv-x="1867" 
d="M629 1534q-111 0 -155 -74t-44 -221v-264h236v-53h-236v-869h188v-53h-571v53h139v869h-149v53h149q0 141 23.5 248.5t74 190t138 126t209.5 43.5q98 0 169.5 -33t100.5 -92l193 78v-719q104 178 319 178q183 0 283 -126t100 -375q0 -253 -112.5 -383.5t-319.5 -130.5
q-112 0 -184.5 33t-122.5 106l-123 -135h-80v1155l20 149q-30 -59 -104 -59q-55 0 -84 31t-29 88q0 34 13 75h61q19 52 -9 81.5t-93 29.5zM1343 911q-99 0 -175 -80.5t-76 -205.5v-324q0 -112 62.5 -184t172.5 -72q114 0 162.5 102.5t48.5 341.5q0 224 -41.5 323t-153.5 99z
" />
    <glyph glyph-name="f_h" unicode="fh" horiz-adv-x="1923" 
d="M715 53h139v1084l20 147q-34 -59 -104 -59q-113 0 -113 118q0 35 13 76h61q20 54 -6.5 83.5t-91.5 29.5q-104 0 -153.5 -67t-49.5 -216v-274h236v-53h-236v-869h156v-53h-539v53h139v869h-149v53h149q0 141 23.5 248.5t74 190t138 126t209.5 43.5q98 0 169.5 -34.5
t100.5 -94.5l195 82v-750q40 89 123.5 149t222.5 60q149 0 228 -81.5t79 -260.5v-600h145v-53h-524v53h137v625q0 130 -31 182.5t-110 52.5q-109 0 -189.5 -92t-80.5 -227v-541h139v-53h-520v53z" />
    <glyph glyph-name="f_t" unicode="ft" horiz-adv-x="1472" 
d="M854 240v682h-424v-869h254v-53h-637v53h139v869h-149v53h149v92q0 516 414 516q127 0 203 -60t76 -159q0 -68 -35 -107.5t-94 -39.5q-62 0 -97 31.5t-35 88.5q0 17 13 76h61q6 16 6 45q0 76 -104 76q-42 0 -72.5 -14.5t-48 -37.5t-27.5 -60t-13 -73.5t-3 -86.5v-287h424
v205l244 63v-268h280v-53h-280v-672q0 -94 27 -134t98 -40q77 0 119.5 55t56.5 162l47 -6q-7 -66 -24 -116.5t-50 -96t-91.5 -70t-139.5 -24.5q-136 0 -211.5 59t-75.5 201z" />
    <glyph glyph-name="f_j" unicode="fj" horiz-adv-x="1261" 
d="M723 -461q30 0 51 9t35.5 30t23.5 46.5t13.5 68.5t6 85.5t1.5 106.5v1037h-424v-869h193v-53h-576v53h139v869h-149v53h149q0 608 539 608q152 0 246 -67.5t94 -182.5q0 -74 -42 -118t-108 -44q-78 0 -114.5 42.5t-36.5 115.5q0 6 1 17.5t1 17.5l86 12q10 33 10 54
q0 51 -41 78.5t-110 27.5q-149 0 -215 -92.5t-66 -274.5v-194h666v-789q0 -68 -1 -113t-9 -125t-22.5 -135t-44 -121.5t-70.5 -107t-105.5 -68.5t-145.5 -28q-63 0 -109 17.5t-69.5 47t-34 61.5t-10.5 67q0 72 39.5 112.5t99.5 40.5q54 0 84.5 -29.5t30.5 -85.5
q0 -33 -12 -77h-60q-10 -18 -10 -45q0 -58 76 -58z" />
    <glyph glyph-name="f_f_j" unicode="ffj" horiz-adv-x="1925" 
d="M1364 -512q-63 0 -109 17.5t-69.5 47t-34 61.5t-10.5 67q0 72 39.5 112.5t99.5 40.5q54 0 84.5 -29.5t30.5 -85.5q0 -30 -13 -77h-59q-10 -17 -10 -45q0 -58 76 -58q35 0 58.5 14.5t38 39.5t22 71t10 95.5t2.5 125.5v1037h-424v-869h192v-53h-573v53h139v869h-424v-869
h156v-53h-539v53h139v869h-145v53h145v53q0 239 116 373.5t335 134.5q119 0 199 -53t90 -146q59 120 177 183t288 63q153 0 246.5 -67t93.5 -183q0 -74 -41.5 -118t-108.5 -44q-60 0 -97 28t-46 75q-11 37 -4 90l84 12q27 76 -12.5 118t-127.5 42q-123 0 -192.5 -66
t-83.5 -192q-6 -53 -6 -109v-194h665v-782q0 -49 -0.5 -84.5t-4.5 -95.5t-11 -104.5t-21.5 -102t-34 -99.5t-50 -86t-68.5 -71t-91 -44.5t-116 -17.5zM625 1487q-104 0 -149.5 -72t-45.5 -211v-229h428v33q3 114 25 204q-25 -32 -86 -32t-97 31t-36 87q0 28 12 68h61
q15 54 -14 87.5t-98 33.5z" />
    <glyph glyph-name="f_f_k" unicode="ffk" horiz-adv-x="2519" 
d="M1294 1534q-110 0 -154 -74.5t-44 -220.5v-264h235v-53h-235v-869h178v-53h-559v53h139v869h-424v-869h156v-53h-539v53h139v869h-149v53h149v53q0 239 116 373.5t335 134.5q111 0 190.5 -48.5t94.5 -131.5q105 227 374 227q98 0 170 -34.5t101 -94.5l194 82v-981l66 14
l393 353h-176v53h412v-53h-142l-291 -267l387 -602h99v-53h-502v53h131l-293 457l-84 -18v-439h123v-53h-498v53h134v1086l20 145q-35 -59 -104 -59q-55 0 -84 30.5t-29 87.5q0 39 12 76h62q23 61 -9 88t-94 27zM879 1212q-32 -32 -86 -32q-61 0 -97.5 31t-36.5 87
q0 24 13 68h61q16 54 -12 87.5t-96 33.5q-104 0 -149.5 -72t-45.5 -211v-229h424v33q3 114 25 204z" />
    <glyph glyph-name="f_f_b" unicode="ffb" horiz-adv-x="2533" 
d="M1294 1534q-58 0 -97.5 -20t-61 -60.5t-30.5 -92t-9 -122.5v-264h235v-53h-235v-869h190v-53h-571v53h139v869h-424v-869h156v-53h-539v53h139v869h-149v53h149v29q0 253 112 392.5t339 139.5q111 0 190.5 -48.5t94.5 -131.5q105 227 374 227q98 0 170 -33t101 -92
l192 78v-719q104 178 320 178q183 0 283 -126t100 -375q0 -253 -112.5 -383.5t-319.5 -130.5q-112 0 -185 33.5t-123 105.5l-123 -135h-79v1155l20 149q-30 -59 -104 -59q-55 0 -84 31t-29 88q0 38 12 75h62q19 52 -9.5 81.5t-93.5 29.5zM2009 911q-99 0 -175.5 -80.5
t-76.5 -205.5v-324q0 -112 63 -184t173 -72q114 0 162.5 102.5t48.5 341.5q0 224 -41.5 323t-153.5 99zM879 1212q-28 -32 -86 -32q-61 0 -97.5 31t-36.5 87q0 24 13 68h61q16 54 -12 87.5t-96 33.5q-104 0 -149.5 -72t-45.5 -211v-229h424v33q0 101 25 204z" />
    <glyph glyph-name="f_f_h" unicode="ffh" horiz-adv-x="2588" 
d="M1294 1534q-110 0 -154 -74.5t-44 -220.5v-264h235v-53h-235v-869h178v-53h-559v53h139v869h-424v-869h156v-53h-539v53h139v869h-149v53h149v29q0 253 112 392.5t339 139.5q111 0 190.5 -48.5t94.5 -131.5q105 227 376 227q98 0 169 -34.5t100 -94.5l194 82v-750
q40 89 123.5 149t222.5 60q149 0 228.5 -81.5t79.5 -260.5v-600h145v-53h-524v53h137v625q0 130 -31 182.5t-110 52.5q-110 0 -190.5 -92t-80.5 -227v-541h140v-53h-515v53h134v1084l20 147q-34 -59 -102 -59q-113 0 -113 118q0 39 12 76h62q20 54 -8 84.5t-97 30.5z
M879 1212q-28 -32 -86 -32q-61 0 -97.5 31t-36.5 87q0 24 13 68h61q16 54 -12 87.5t-96 33.5q-104 0 -149.5 -72t-45.5 -211v-229h424v33q0 101 25 204z" />
    <glyph glyph-name="f_f_t" unicode="fft" horiz-adv-x="2138" 
d="M1763 975h281v-53h-281v-672q0 -40 4 -65.5t17 -51t41.5 -37.5t72.5 -12q139 0 166 209l47 -6q-7 -66 -24 -116.5t-50 -96t-91.5 -70t-139.5 -24.5q-154 0 -220 71t-66 256v615h-424v-869h245v-53h-626v53h139v869h-424v-869h156v-53h-539v53h139v869h-149v53h149v53
q0 239 116 373.5t335 134.5q105 0 184.5 -44.5t100.5 -119.5q95 211 350 211q123 0 197.5 -60.5t74.5 -158.5q0 -68 -35 -107.5t-94 -39.5q-62 0 -96.5 31.5t-34.5 88.5q0 22 12 76h62q6 16 6 45q0 76 -102 76q-49 0 -83 -21t-51.5 -60.5t-24.5 -85t-7 -105.5v-287h424v205
l243 63v-268zM883 1212q-26 -32 -86 -32q-61 0 -97 31t-36 87q0 28 12 68h61q15 54 -14 87.5t-98 33.5q-104 0 -149.5 -72t-45.5 -211v-229h428v33q0 101 25 204z" />
    <glyph glyph-name="f_iacute" unicode="f&#xed;" horiz-adv-x="1271" 
d="M430 975h666v-922h141v-53h-522v53h139v869h-424v-869h156v-53h-539v53h139v869h-149v53h149v92q0 249 96.5 382.5t309.5 133.5q124 0 197 -60t73 -159q0 -68 -35 -107.5t-94 -39.5q-62 0 -96.5 31.5t-34.5 88.5q0 22 12 76h62q6 16 6 45q0 76 -96 76q-41 0 -70 -14.5
t-45.5 -37t-26 -60.5t-12 -73.5t-2.5 -86.5v-287zM872 1122l144 383l55 11q20 4 29 4q34 0 54 -18.5t20 -51.5q0 -38 -46 -90l-225 -254z" />
    <glyph glyph-name="t_t.alt" unicode="tt" horiz-adv-x="1443" 
d="M856 223v699h-477v-674q0 -93 29.5 -132.5t107.5 -39.5q82 0 124 54t56 163l47 -6q-7 -66 -23.5 -116.5t-49 -96t-89 -70t-135.5 -24.5q-264 0 -264 243v699h-153v53h153v264l197 53v-317h477v264l197 53v-317h286v-53h-286v-674q0 -93 29.5 -132.5t107.5 -39.5
q82 0 124 54t56 163l47 -6q-7 -66 -23.5 -116.5t-49 -96t-89 -70t-135.5 -24.5q-264 0 -264 243z" />
    <glyph glyph-name=".notdef" horiz-adv-x="409" 
 />
    <glyph glyph-name=".null" horiz-adv-x="0" 
 />
    <glyph glyph-name="nonmarkingreturn" horiz-adv-x="682" 
 />
    <glyph glyph-name="space" unicode=" " horiz-adv-x="409" 
 />
    <glyph glyph-name="exclam" unicode="!" horiz-adv-x="772" 
d="M354 365v192q0 166 -23 322.5t-46 268t-23 167.5q0 69 36.5 105t98.5 36q59 0 92 -36t33 -103q0 -54 -16 -136.5t-36 -161.5t-36 -206t-16 -258v-190h-64zM250 115q0 59 35.5 97t99.5 38q62 0 99.5 -33.5t37.5 -99.5q0 -62 -35.5 -99.5t-99.5 -37.5q-72 0 -104.5 38.5
t-32.5 96.5z" />
    <glyph glyph-name="quotedbl" unicode="&#x22;" horiz-adv-x="780" 
d="M201 1065l-51 461q63 49 110 49q30 0 47 -18.5t17 -51.5q0 -23 -11 -98l-63 -342h-49zM504 1065l-51 461q63 49 110 49q30 0 47 -18.5t17 -51.5q0 -23 -11 -98l-63 -342h-49z" />
    <glyph glyph-name="numbersign" unicode="#" horiz-adv-x="1222" 
d="M356 0h-92l45 285h-246l19 86h240l61 362h-246l17 88h239l39 266h94l-41 -266h312l39 266h94l-41 -266h248l-15 -88h-243l-58 -362h244l-14 -86h-240l-47 -285h-92l47 285h-316zM786 733h-311l-61 -362h315z" />
    <glyph glyph-name="dollar" unicode="$" horiz-adv-x="1157" 
d="M459 -145v165q-54 9 -126.5 30.5t-90.5 21.5q-21 0 -30.5 -12.5t-23.5 -49.5h-36l-21 455h45q89 -312 283 -379v549q-152 50 -228.5 136.5t-76.5 236.5q0 140 79 250.5t226 144.5v174h63v-164q7 0 22 1t23 1q39 0 76 -6v168h64v-178q32 -8 88 -27.5t79 -19.5q20 0 30 9
t22 32h30l11 -385h-43q-38 128 -88.5 208t-128.5 115v-479q74 -24 128.5 -53.5t103.5 -76t75 -115.5t26 -158q0 -162 -88 -277.5t-245 -148.5v-168h-64v157q-18 -2 -57 -2q-44 0 -64 2v-157h-63zM905 332q0 84 -48.5 136t-149.5 91v-475q92 27 145 91.5t53 156.5zM588 68
q37 0 55 2v512q-42 14 -121 32v-542q40 -4 66 -4zM522 905l121 -35v480q-33 8 -76 8q-8 0 -23 -1t-22 -1v-451zM295 1139q0 -79 41.5 -127.5t122.5 -83.5v415q-79 -22 -121.5 -75t-42.5 -129z" />
    <glyph glyph-name="percent" unicode="%" horiz-adv-x="1560" 
d="M817 317q0 160 98 257.5t238 97.5q142 0 234 -85.5t92 -254.5t-96 -260.5t-236 -91.5q-158 0 -244 91.5t-86 245.5zM997 317q0 -153 35.5 -222.5t116.5 -69.5q85 0 117 72t32 231q0 161 -34.5 229t-112.5 68q-80 0 -117 -72t-37 -236zM307 0l862 1434h82l-860 -1434h-84z
M84 1102q0 161 98 257.5t240 96.5q141 0 232 -85.5t91 -254.5t-95 -260.5t-234 -91.5q-159 0 -245.5 92t-86.5 246zM266 1102q0 -154 35.5 -223.5t116.5 -69.5q83 0 115 72t32 231q0 161 -34 229t-111 68q-82 0 -118 -71t-36 -236z" />
    <glyph glyph-name="ampersand" unicode="&#x26;" horiz-adv-x="1593" 
d="M995 -385q115 0 174.5 80.5t59.5 206.5q0 86 -28 154t-81 139q-161 -218 -467 -218q-111 0 -203 23t-164 69.5t-112.5 124.5t-40.5 181q0 129 68 217.5t202 152.5q-141 141 -141 326q0 74 23.5 137.5t64.5 108t96 76.5t117.5 47.5t128.5 15.5q154 0 236 -67.5t82 -186.5
q0 -220 -330 -368q78 -57 246 -160q172 -111 266 -193q37 122 51 295h-151v53h356v-53h-139q-20 -206 -64 -344q84 -93 129 -187.5t45 -213.5q0 -200 -125 -335.5t-311 -135.5q-123 0 -183.5 55.5t-60.5 134.5q0 73 37.5 113.5t95.5 40.5q55 0 86 -28t31 -85q0 -31 -12 -74
h-64q-8 -32 -8 -41q0 -61 90 -61zM709 66q229 0 364 184q-91 96 -276 215q-15 9 -74 46t-80.5 50.5t-64 42t-72 50.5t-57.5 46q-44 -47 -62 -108t-18 -168q0 -183 89.5 -270.5t250.5 -87.5zM467 1178q0 -175 174 -314q217 110 217 338q0 105 -49 157t-127 52
q-88 0 -151.5 -57.5t-63.5 -175.5z" />
    <glyph glyph-name="quotesingle" unicode="'" horiz-adv-x="434" 
d="M184 1065l-51 461q63 49 111 49q30 0 46.5 -18.5t16.5 -51.5q0 -30 -10 -98l-64 -342h-49z" />
    <glyph glyph-name="parenleft" unicode="(" horiz-adv-x="604" 
d="M111 655q0 164 39 325t109 293.5t177.5 222t233.5 106.5l6 -39q-60 -12 -105 -44t-76.5 -87.5t-52 -124.5t-31.5 -170t-15.5 -209t-4.5 -254q0 -136 3 -238t11 -197.5t22 -163.5t35 -127t51.5 -98.5t70.5 -68t92 -43.5l-6 -39q-112 20 -205.5 85t-158 159t-109.5 212
t-65.5 244t-20.5 256z" />
    <glyph glyph-name="parenright" unicode=")" horiz-adv-x="604" 
d="M492 645q0 -164 -39.5 -324.5t-109.5 -293t-177.5 -222t-233.5 -106.5l-6 39q60 12 105 44t76.5 87.5t52 124.5t31.5 170t15.5 209t4.5 254q0 136 -3 238t-11 197.5t-22 163.5t-35 127t-51.5 98.5t-70.5 68t-92 43.5l6 39q139 -25 249 -118t176 -228t100.5 -291
t34.5 -320z" />
    <glyph glyph-name="asterisk" unicode="*" horiz-adv-x="1019" 
d="M862 1290l-327 -78l237 -71q45 -13 69.5 -31.5t24.5 -54.5q0 -67 -102 -109l-236 234l64 -324q-57 -43 -107 -43q-34 0 -52.5 18t-18.5 48q0 35 12 79l70 224l-238 -236q-41 15 -72.5 43t-31.5 66q0 61 86 84l249 73l-329 76q-4 16 -4 49q0 43 17.5 75t55.5 32
q26 0 46.5 -12t52.5 -41l172 -152l-70 324q57 43 107 43q34 0 53.5 -18.5t19.5 -47.5q0 -34 -16 -86l-64 -215l158 152q56 53 107 53q71 0 71 -103q0 -19 -4 -51z" />
    <glyph glyph-name="plus" unicode="+" 
d="M1028 612h-430v-424h-82v424h-418v74h418v399h82v-399h430v-74z" />
    <glyph glyph-name="comma" unicode="," horiz-adv-x="526" 
d="M180 -317l-30 38q104 94 138 157.5t34 117.5q0 65 -46 72l-75 -70q-42 14 -74.5 52t-32.5 93q0 64 43.5 104t104.5 40q90 0 135 -61t45 -156q0 -107 -56.5 -198t-185.5 -189z" />
    <glyph glyph-name="hyphen" unicode="-" horiz-adv-x="681" 
d="M96 512v119h492v-119h-492z" />
    <glyph glyph-name="period" unicode="." horiz-adv-x="542" 
d="M115 133q0 68 41 112t114 44q71 0 114.5 -38.5t43.5 -113.5q0 -72 -41 -114.5t-115 -42.5q-82 0 -119.5 44.5t-37.5 108.5z" />
    <glyph glyph-name="slash" unicode="/" horiz-adv-x="718" 
d="M16 -199l605 1827h81l-602 -1827h-84z" />
    <glyph glyph-name="zero" unicode="0" horiz-adv-x="1214" 
d="M66 719q0 156 28 281.5t77 209.5t118 140t148 81t171 25q93 0 172 -24.5t148 -80t117.5 -139.5t76 -209.5t27.5 -283.5q0 -196 -42.5 -342t-118 -231t-170.5 -125.5t-210 -40.5q-135 0 -239.5 55t-170 154.5t-99 233t-33.5 296.5zM340 715q0 -191 12.5 -315t44 -206
t82 -116.5t129.5 -34.5q156 0 212.5 147t56.5 523q0 373 -59.5 526.5t-209.5 153.5q-147 0 -207.5 -155.5t-60.5 -522.5z" />
    <glyph glyph-name="one" unicode="1" horiz-adv-x="817" 
d="M309 1364l-252 -23l-6 60l422 55h96v-1397h197v-59h-686v59h229v1305z" />
    <glyph glyph-name="two" unicode="2" horiz-adv-x="1054" 
d="M70 0v125l288 324q190 211 257 354.5t67 314.5q0 150 -50 212.5t-171 62.5q-89 0 -148 -40.5t-59 -101.5q0 -29 12 -59h64q16 -50 16 -98q0 -54 -37 -87.5t-96 -33.5q-68 0 -103.5 44.5t-35.5 119.5q0 152 122.5 235.5t317.5 83.5q219 0 326.5 -93t107.5 -255
q0 -56 -8 -98t-36 -98.5t-73 -113.5t-128.5 -145.5t-191.5 -192t-273 -255.5h419q74 0 122 12t78.5 41t46 67.5t28.5 102.5h41l-17 -428h-886z" />
    <glyph glyph-name="three" unicode="3" horiz-adv-x="1071" 
d="M508 1456q197 0 307.5 -84.5t110.5 -232.5q0 -247 -351 -355q213 -28 317.5 -127t104.5 -251q0 -194 -153 -310t-402 -116q-78 0 -146 15.5t-124.5 47.5t-89.5 86.5t-33 126.5q0 73 36.5 117.5t102.5 44.5q59 0 96.5 -33.5t37.5 -89.5q0 -43 -17 -96h-63q-11 -29 -11 -45
q0 -49 58.5 -80t150.5 -31q147 0 216 88t69 268q0 150 -57.5 229.5t-161.5 121.5q-105 -22 -195 -31l-6 61q92 7 153 24t111.5 54t74.5 103t24 165q0 144 -51 205.5t-156 61.5q-83 0 -132.5 -34t-49.5 -83q0 -19 6 -37h57q16 -43 16 -88q0 -53 -35 -85t-90 -32
q-64 0 -97.5 41t-33.5 109q0 128 116.5 200t289.5 72z" />
    <glyph glyph-name="four" unicode="4" horiz-adv-x="1144" 
d="M397 0v59h193v308h-572v61l600 1006h228v-1000h184v160h57v-379h-57v152h-186v-308h143v-59h-590zM98 434h492v826z" />
    <glyph glyph-name="five" unicode="5" horiz-adv-x="1071" 
d="M477 809q-132 0 -278 -90l-39 18v674l33 25q132 -19 344.5 -43.5t255.5 -24.5q34 0 51.5 19.5t29.5 66.5l44 -6q-19 -128 -38.5 -194t-44.5 -91.5t-67 -25.5q-55 0 -170 39l-367 112l-10 -483q155 74 314 74q97 0 174.5 -24.5t128 -65t84 -96t47.5 -115.5t14 -127
q0 -218 -147 -344.5t-387 -126.5q-63 0 -119 9.5t-106.5 31.5t-87 54.5t-58 80.5t-21.5 108q0 72 36 116t104 44q59 0 96 -33.5t37 -91.5q0 -45 -17 -94h-63q-12 -24 -12 -45q0 -51 57 -84t145 -33q143 0 206 103.5t63 320.5q0 182 -51.5 262t-180.5 80z" />
    <glyph glyph-name="six" unicode="6" horiz-adv-x="1101" 
d="M68 631q0 398 158 611.5t423 213.5q160 0 251 -71t91 -179q0 -65 -37.5 -102t-97.5 -37q-54 0 -90.5 31t-36.5 90q0 34 8 61l56 8q4 12 4 37q0 44 -38 71.5t-114 27.5q-77 0 -131 -29.5t-95.5 -100.5t-62.5 -198.5t-22 -316.5q102 157 311 157q86 0 158.5 -26t128 -78
t86.5 -136t31 -192q0 -226 -131.5 -359.5t-360.5 -133.5q-118 0 -206.5 36t-152.5 112.5t-97 202.5t-33 300zM338 455q0 -85 6 -147t21 -114t40.5 -84t64 -49.5t91.5 -17.5q127 0 175 99.5t48 299.5q0 212 -44 299.5t-146 87.5q-85 0 -156 -52t-88 -128q-5 -17 -7.5 -32
t-3.5 -36.5t-1.5 -33.5t0 -44t0.5 -48z" />
    <glyph glyph-name="seven" unicode="7" horiz-adv-x="968" 
d="M240 188q0 113 72.5 256t293.5 463l225 328h-481q-51 0 -83.5 -2.5t-59.5 -11.5t-42 -21.5t-28.5 -38.5t-21 -55t-17.5 -78h-43l17 406h884v-107l-122 -225q-108 -202 -178.5 -357t-102 -258.5t-41.5 -165t-10 -122.5q0 -86 43 -162l-49 -55q-124 -6 -190 49t-66 157z
" />
    <glyph glyph-name="eight" unicode="8" horiz-adv-x="1140" 
d="M475 754q-173 23 -267.5 112.5t-94.5 227.5q0 168 122 265t336 97q212 0 336.5 -96t124.5 -264q0 -142 -94 -232t-264 -110v-6q200 -23 301.5 -119.5t101.5 -255.5q0 -192 -132 -292.5t-374 -100.5t-375 101.5t-133 289.5q0 164 106 261t306 116v6zM571 715
q-124 0 -185.5 -84t-61.5 -260q0 -171 60 -249.5t187 -78.5t187.5 80.5t60.5 253.5q0 338 -248 338zM362 1096q0 -308 211 -308q108 0 158.5 74.5t50.5 233.5q0 149 -51.5 222t-159.5 73t-158.5 -73t-50.5 -222z" />
    <glyph glyph-name="nine" unicode="9" horiz-adv-x="1101" 
d="M1034 782q0 -398 -150.5 -600t-418.5 -202q-167 0 -260.5 78.5t-93.5 183.5q0 76 36 121t99 45q59 0 96 -34.5t37 -97.5q0 -31 -10 -69h-60q-14 -28 -14 -57q0 -48 46 -77.5t122 -29.5q105 0 171.5 61t101 204.5t34.5 379.5q-102 -160 -311 -160q-86 0 -158.5 28
t-127.5 83t-86.5 142.5t-31.5 199.5q0 222 133.5 347.5t360.5 125.5q235 0 360 -165t125 -507zM731 737q20 35 27.5 80t7.5 133q0 115 -10 193.5t-34.5 136t-68 84.5t-108.5 27q-67 0 -112 -26t-69.5 -78t-34.5 -118.5t-10 -160.5q0 -221 44 -312.5t147 -91.5q142 0 221 133
z" />
    <glyph glyph-name="colon" unicode=":" horiz-adv-x="542" 
d="M115 133q0 68 41 112t114 44q71 0 114.5 -38.5t43.5 -113.5q0 -72 -41 -114.5t-115 -42.5q-82 0 -119.5 44.5t-37.5 108.5zM115 811q0 68 41 112t114 44q71 0 114.5 -38.5t43.5 -113.5q0 -72 -41 -115t-115 -43q-82 0 -119.5 45t-37.5 109z" />
    <glyph glyph-name="semicolon" unicode=";" horiz-adv-x="526" 
d="M180 -317l-30 38q104 94 138 157.5t34 117.5q0 65 -46 72l-75 -70q-42 14 -74.5 52t-32.5 93q0 64 43.5 104t104.5 40q90 0 135 -61t45 -156q0 -107 -56.5 -198t-185.5 -189zM113 811q0 68 41 112t114 44q71 0 114.5 -38.5t43.5 -113.5q0 -72 -41 -115t-115 -43
q-82 0 -119.5 45t-37.5 109z" />
    <glyph glyph-name="less" unicode="&#x3c;" 
d="M1026 176l-926 395v58l926 389v-78l-811 -338l811 -344v-82z" />
    <glyph glyph-name="equal" unicode="=" 
d="M1028 383h-930v74h930v-74zM98 776h930v-74h-930v74z" />
    <glyph glyph-name="greater" unicode="&#x3e;" 
d="M1026 571l-926 -395v82l811 344l-811 338v78l926 -389v-58z" />
    <glyph glyph-name="question" unicode="?" horiz-adv-x="1091" 
d="M526 1456q189 0 298.5 -92t109.5 -238q0 -152 -152 -295l-288 -268v-209h-52v418q0 34 23 57l149 154q57 60 79 109.5t22 113.5q0 96 -62 148.5t-166 52.5q-90 0 -142 -33.5t-52 -85.5q0 -19 6 -37h57q17 -46 17 -84q0 -59 -37.5 -93t-95.5 -34q-60 0 -92.5 40t-32.5 104
q0 119 113 195.5t298 76.5zM332 115q0 59 35.5 97t99.5 38q63 0 100 -33.5t37 -99.5q0 -63 -35 -100t-100 -37q-71 0 -104 39t-33 96z" />
    <glyph glyph-name="at" unicode="@" horiz-adv-x="1753" 
d="M883 809q114 0 198 -74l35 60h146l-66 -373q-25 -161 -25 -217q0 -87 26 -121.5t85 -34.5q105 0 186.5 116.5t81.5 317.5q0 294 -166 460.5t-466 166.5q-148 0 -277 -51t-226 -145t-152.5 -237.5t-55.5 -318.5q0 -144 40 -259.5t107.5 -191t160 -125.5t192.5 -71.5
t211 -21.5q275 0 473 164l39 -46q-92 -86 -231 -134t-288 -48q-127 0 -241 26.5t-214 84t-172.5 141t-114.5 205t-42 268.5q0 175 56 326t158 260.5t253 172t332 62.5q153 0 281 -44.5t221.5 -128.5t145.5 -212.5t52 -289.5q0 -126 -30 -224.5t-83 -160t-122.5 -93.5
t-151.5 -32q-199 0 -240 149q-84 -145 -243 -145q-72 0 -125.5 25t-84 70.5t-45 101.5t-14.5 124q0 100 23.5 183.5t62.5 140.5t90.5 97t107 58.5t112.5 18.5zM1001 268l66 416q-69 72 -162 72q-62 0 -109.5 -41t-74 -110t-39 -147.5t-12.5 -164.5q0 -122 29.5 -180
t99.5 -58q74 0 131 63.5t71 149.5z" />
    <glyph glyph-name="A" unicode="A" horiz-adv-x="1376" 
d="M956 59l-141 418h-448l-150 -418h174v-59h-389v59h133l518 1387h84l504 -1387h133v-59h-586v59h168zM598 1118l-211 -581h408z" />
    <glyph glyph-name="B" unicode="B" horiz-adv-x="1290" 
d="M66 1434h503q134 0 234 -17t176 -55.5t115 -105.5t39 -162q0 -278 -318 -332v-4q184 -25 286.5 -115t102.5 -237q0 -96 -32 -167.5t-86.5 -116.5t-138 -73t-176.5 -38.5t-212 -10.5h-493v59h163v1315h-163v60zM489 713v-654h97q189 0 262.5 76.5t73.5 261.5
q0 168 -76 242t-264 74h-93zM489 1374v-602h54q180 0 251.5 73.5t71.5 241.5q0 162 -68.5 224.5t-242.5 62.5h-66z" />
    <glyph glyph-name="C" unicode="C" horiz-adv-x="1349" 
d="M768 1393q-200 0 -303 -160.5t-103 -511.5q0 -328 105.5 -503t310.5 -175q308 0 418 399h47l-14 -440h-31q-12 23 -22.5 32t-30.5 9q-24 0 -83 -15.5t-142 -31.5t-166 -16q-318 0 -495 180.5t-177 554.5q0 179 51.5 321t143.5 233t215.5 139t269.5 48q75 0 151.5 -16
t132 -31.5t80.5 -15.5q23 0 32.5 9t19.5 32h32l15 -428h-47q-55 195 -154 291t-256 96z" />
    <glyph glyph-name="D" unicode="D" horiz-adv-x="1482" 
d="M1393 741q0 -169 -42.5 -298.5t-116 -212.5t-183 -135.5t-232 -73.5t-274.5 -21h-482v59h166v1315h-166v60h537q193 0 336 -37t247 -117.5t157 -215.5t53 -323zM489 59h89q277 0 404.5 165t127.5 509q0 155 -22.5 266t-65 184t-113.5 115t-157.5 59t-208.5 17h-54v-1315z
" />
    <glyph glyph-name="E" unicode="E" horiz-adv-x="1265" 
d="M74 1434h1026l20 -390h-49q-16 87 -41.5 146t-58 95.5t-83 56t-104 26t-135.5 6.5h-164v-612h99q115 0 165.5 56t75.5 206h45v-606h-49q-30 168 -79 223t-179 55h-78v-637h183q213 0 316 85.5t140 285.5h43l-16 -430h-1077v59h151v1315h-151v60z" />
    <glyph glyph-name="F" unicode="F" horiz-adv-x="1202" 
d="M74 1434h1020l20 -404h-49q-16 90 -42 151.5t-58.5 99.5t-83.5 58.5t-105.5 27.5t-136.5 7h-154v-631h111q117 0 168 56t74 207h43v-607h-47q-28 168 -76.5 223.5t-175.5 55.5h-97v-619h263v-59h-674v59h151v1315h-151v60z" />
    <glyph glyph-name="G" unicode="G" horiz-adv-x="1454" 
d="M770 43q86 0 148 36.5t90 102.5v342h-174v60h550v-60h-122v-522h-33q-14 26 -30.5 38.5t-47.5 12.5q-27 0 -90 -18.5t-146.5 -36.5t-160.5 -18q-124 0 -226.5 26.5t-186 83t-140.5 141.5t-88 205.5t-31 270.5q0 181 53 325.5t146.5 236t217.5 139.5t271 48q76 0 151 -16
t129.5 -31.5t79.5 -15.5q20 0 30 9t20 32h32l15 -428h-45q-109 387 -414 387q-200 0 -303 -162.5t-103 -517.5q0 -324 104 -497t304 -173z" />
    <glyph glyph-name="H" unicode="H" horiz-adv-x="1552" 
d="M74 1434h563v-60h-152v-606h582v606h-152v60h564v-60h-152v-1315h152v-59h-564v59h152v635h-582v-635h152v-59h-563v59h151v1315h-151v60z" />
    <glyph glyph-name="I" unicode="I" horiz-adv-x="710" 
d="M82 1434h547v-60h-144v-1315h144v-59h-547v59h143v1315h-143v60z" />
    <glyph glyph-name="J" unicode="J" horiz-adv-x="950" 
d="M324 1434h587v-60h-143v-907q0 -231 -105 -358t-307 -127q-146 0 -225.5 61t-79.5 164q0 79 42 122.5t108 43.5q57 0 90 -32.5t33 -92.5q0 -40 -15 -92h-63q-8 -16 -8 -35q0 -35 30.5 -56.5t85.5 -21.5q92 0 123 48.5t31 187.5v1095h-184v60z" />
    <glyph glyph-name="K" unicode="K" horiz-adv-x="1372" 
d="M82 1434h547v-60h-144v-637l64 17l512 624h-168v56h401v-56h-137l-409 -504l520 -819h112v-55h-561v55h139l-399 623l-74 -16v-603h144v-59h-547v59h143v1315h-143v60z" />
    <glyph glyph-name="L" unicode="L" horiz-adv-x="1204" 
d="M74 1434h628v-60h-217v-1315h136q111 0 188 21.5t131 71.5t87.5 123.5t59.5 187.5h50l-25 -463h-1038v59h151v1315h-151v60z" />
    <glyph glyph-name="M" unicode="M" horiz-adv-x="1751" 
d="M1206 1434h463v-60h-143v-1315h143v-59h-547v59h144v1295h-9l-405 -1354h-115l-432 1356h-8v-1297h143v-59h-358v59h143v1315h-143v60h471l334 -1076z" />
    <glyph glyph-name="N" unicode="N" horiz-adv-x="1435" 
d="M1225 1374v-1384h-121l-807 1333v-1264h143v-59h-358v59h143v1315h-143v60h453l618 -1033v973h-143v60h358v-60h-143z" />
    <glyph glyph-name="O" unicode="O" horiz-adv-x="1478" 
d="M1110 721q0 110 -5.5 193t-20 162.5t-41 135t-66.5 98t-98 63t-134 20.5q-80 0 -140.5 -20.5t-102 -64t-69 -99t-42 -137t-20.5 -166t-6 -197.5q0 -102 6 -183t21 -159.5t43 -135t68.5 -100.5t100.5 -66t137 -22q90 0 155.5 31.5t106.5 86.5t65 142.5t33 186t9 231.5z
M82 709q0 341 184 544t490 203q300 0 469.5 -192t169.5 -535q0 -353 -169.5 -551t-488.5 -198q-318 0 -486.5 188.5t-168.5 540.5z" />
    <glyph glyph-name="P" unicode="P" horiz-adv-x="1284" 
d="M61 1434h541q138 0 242.5 -19.5t187.5 -64t126.5 -124.5t43.5 -194q0 -87 -22.5 -156t-65.5 -117.5t-99.5 -82t-132.5 -52.5t-156 -27.5t-177 -8.5h-64v-529h256v-59h-680v59h164v1315h-164v60zM485 1374v-727h90q185 0 265 89.5t80 289.5q0 195 -76.5 271.5t-255.5 76.5
h-103z" />
    <glyph glyph-name="Q" unicode="Q" horiz-adv-x="1478" 
d="M82 709q0 341 184 544t490 203q300 0 469.5 -192t169.5 -535q0 -324 -141.5 -514t-417.5 -219v-12q87 -12 128.5 -55.5t67.5 -123.5q36 -104 54 -130q26 -35 67 -35q39 0 60 33t30 116l51 -4q-5 -113 -61 -178.5t-164 -65.5q-68 0 -116.5 17.5t-80.5 54.5t-51 79t-37 105
q-24 87 -43.5 115.5t-48.5 28.5q-40 0 -139 -82l-27 30q75 71 142 91v8q-284 20 -435 205.5t-151 515.5zM1110 721q0 110 -5.5 193t-20 162.5t-41 135t-66.5 98t-98 63t-134 20.5q-80 0 -140.5 -20.5t-102 -64t-69 -99t-42 -137t-20.5 -166t-6 -197.5q0 -102 6 -182.5
t21 -159t43 -135t68.5 -101t100.5 -66.5t137 -22q90 0 155.5 31.5t106.5 86.5t65 142.5t33 186t9 231.5z" />
    <glyph glyph-name="R" unicode="R" horiz-adv-x="1370" 
d="M618 709h-133v-650h195v-59h-619v59h164v1315h-164v60h519q79 0 140.5 -3.5t124.5 -13t109.5 -25t87.5 -41.5t67 -61.5t41 -84.5t15 -111q0 -90 -27.5 -155.5t-80.5 -105t-122.5 -60.5t-162.5 -28v-6q186 -22 262 -98t76 -252v-162q0 -77 14.5 -108t67.5 -31q44 0 62 37
t40 151l47 -8q-21 -124 -40 -168q-45 -104 -164 -118q-19 -2 -41 -2q-145 0 -200.5 63.5t-55.5 214.5v244q0 106 -49 156.5t-173 50.5zM485 1374v-606h50q183 0 264.5 75t81.5 247q0 89 -19.5 145.5t-64 86.5t-102.5 41t-150 11h-60z" />
    <glyph glyph-name="S" unicode="S" horiz-adv-x="1175" 
d="M600 43q148 0 242 75t94 197q0 29 -4 54t-14 46t-20 38t-31 33t-37 27.5t-47 24.5t-52 21t-61.5 20t-66.5 19t-75 20q-79 21 -134.5 41.5t-107.5 53t-83 74.5t-49.5 103.5t-18.5 141.5q0 81 28 156t81.5 135.5t139 96.5t191.5 36q73 0 141.5 -16t117 -31.5t71.5 -15.5
q21 0 31 9t22 32h31l15 -414h-46q-29 96 -60.5 160.5t-77 115t-108.5 74t-147 23.5q-132 0 -207 -66.5t-75 -173.5q0 -47 18 -84.5t45.5 -63t75.5 -48t90.5 -36.5t108.5 -32q61 -16 97 -26.5t90.5 -31.5t87.5 -41.5t71.5 -54.5t59.5 -73t35.5 -94.5t14.5 -121.5
q0 -207 -127 -336.5t-350 -129.5q-84 0 -164.5 15t-135 30.5t-75.5 15.5q-15 0 -25 -8.5t-15 -18t-15 -34.5h-35l-20 471h47q56 -197 159.5 -302.5t278.5 -105.5z" />
    <glyph glyph-name="T" unicode="T" horiz-adv-x="1316" 
d="M1239 1434l21 -437h-50q-17 84 -35.5 143.5t-44.5 101.5t-54 68t-70 40t-85 19t-106 5h-24v-1315h188v-59h-639v59h188v1315h-26q-62 0 -106 -5t-85.5 -20t-69.5 -40.5t-54 -68t-45 -101.5t-36 -142h-49l21 437h1161z" />
    <glyph glyph-name="U" unicode="U" horiz-adv-x="1439" 
d="M799 53q170 0 266 101.5t96 296.5v923h-145v60h362v-60h-141v-901q0 -119 -25.5 -207t-82 -154t-154.5 -99t-238 -33q-126 0 -220 25t-165 80.5t-107 150.5t-36 229v909h-143v60h550v-60h-147v-936q0 -86 15 -151t50.5 -120t102 -84.5t162.5 -29.5z" />
    <glyph glyph-name="V" unicode="V" horiz-adv-x="1361" 
d="M772 328l381 1046h-190v60h397v-60h-127l-514 -1386h-80l-506 1386h-131v60h598v-60h-182z" />
    <glyph glyph-name="W" unicode="W" horiz-adv-x="2062" 
d="M743 336l277 694l-125 344h-135v60h590v-60h-179l361 -1016l311 1016h-205v60h420v-60h-135l-438 -1384h-84l-342 934l-369 -934h-82l-475 1384h-131v60h598v-60h-184z" />
    <glyph glyph-name="X" unicode="X" horiz-adv-x="1366" 
d="M1346 0h-611v59h176l-323 564l-332 -564h203v-59h-424v59h141l369 635l-404 680h-133v60h608v-60h-182l301 -528l316 528h-193v60h420v-60h-141l-359 -598l428 -717h140v-59z" />
    <glyph glyph-name="Y" unicode="Y" horiz-adv-x="1263" 
d="M727 752l315 622h-200v60h418v-60h-140l-356 -698v-617h162v-59h-584v59h162v609l-369 706h-133v60h594v-60h-174z" />
    <glyph glyph-name="Z" unicode="Z" horiz-adv-x="1275" 
d="M1128 1434v-58l-716 -1317h266q193 0 296.5 94.5t147.5 315.5h49l-24 -469h-1041v51l721 1323h-241q-66 0 -108.5 -4t-87 -16.5t-73.5 -36.5t-58 -64.5t-50.5 -99t-42.5 -141.5h-47l22 422h987z" />
    <glyph glyph-name="bracketleft" unicode="[" horiz-adv-x="624" 
d="M604 -262v-55h-436v1927h436v-56h-108q-76 0 -97.5 -18t-21.5 -88v-1602q0 -27 1.5 -44t7 -30t12 -19t22 -10t30.5 -4.5t44 -0.5h110z" />
    <glyph glyph-name="backslash" unicode="\" horiz-adv-x="718" 
d="M100 1628l605 -1827h-87l-602 1827h84z" />
    <glyph glyph-name="bracketright" unicode="]" horiz-adv-x="624" 
d="M20 -317v55h111q29 0 44 0.5t30.5 4.5t22 10t12 19t7 30t1.5 44v1602q0 70 -21.5 88t-97.5 18h-109v56h437v-1927h-437z" />
    <glyph glyph-name="asciicircum" unicode="^" horiz-adv-x="1093" 
d="M997 614l-75 -30l-390 688l-358 -690l-78 32l387 746h101z" />
    <glyph glyph-name="underscore" unicode="_" horiz-adv-x="1024" 
d="M1024 -217h-1024v76h1024v-76z" />
    <glyph glyph-name="grave" unicode="`" horiz-adv-x="1024" 
d="M500 1505l143 -383l-31 -16l-225 254q-45 51 -45 90q0 33 19.5 51.5t52.5 18.5q12 0 28 -4z" />
    <glyph glyph-name="a" unicode="a" horiz-adv-x="1077" 
d="M512 489h106v150q0 163 -39 235t-147 72q-62 0 -103.5 -21.5t-41.5 -64.5q0 -17 6 -35h55q17 -46 17 -82q0 -59 -38 -94t-96 -35q-60 0 -91 38t-31 102q0 115 103.5 178t268.5 63q102 0 171.5 -19t117.5 -64t70 -119t22 -185v-409q0 -62 16.5 -87.5t49.5 -25.5
q38 0 58 38.5t28 154.5l47 -5q-6 -160 -57.5 -227t-165.5 -67q-187 0 -211 145q-76 -145 -273 -145q-60 0 -110 12t-92 38.5t-65.5 74.5t-23.5 114q0 62 21.5 108.5t59 77t95 49.5t123.5 27t150 8zM442 61q71 0 123.5 56t52.5 147v174h-59q-129 0 -184.5 -55t-55.5 -158
q0 -164 123 -164z" />
    <glyph glyph-name="b" unicode="b" horiz-adv-x="1187" 
d="M664 911q-99 0 -175.5 -80.5t-76.5 -205.5v-324q0 -112 62.5 -184t172.5 -72q114 0 162.5 102.5t48.5 341.5q0 224 -41 323t-153 99zM414 1536v-719q104 178 319 178q183 0 283 -126t100 -375q0 -253 -112.5 -383.5t-319.5 -130.5q-112 0 -184.5 33t-122.5 106l-123 -135
h-80v1499h-151v53h391z" />
    <glyph glyph-name="c" unicode="c" horiz-adv-x="976" 
d="M578 946q-135 0 -195.5 -104.5t-60.5 -343.5q0 -234 61 -338.5t199 -104.5q230 0 282 267l58 -11q-6 -32 -13.5 -57.5t-22.5 -61.5t-34 -63.5t-50.5 -56.5t-70 -48t-93.5 -31.5t-120 -12.5q-219 0 -338 127.5t-119 363.5q0 256 135 390t369 134q168 0 259 -70t91 -190
q0 -80 -37 -120t-100 -40q-60 0 -96.5 35.5t-36.5 100.5q0 39 10 75h58q8 24 8 54q0 49 -35.5 77.5t-107.5 28.5z" />
    <glyph glyph-name="d" unicode="d" horiz-adv-x="1187" 
d="M528 63q98 0 173 74.5t75 194.5v348q0 91 -64 169.5t-163 78.5q-117 0 -168 -106.5t-51 -336.5q0 -223 42 -322.5t156 -99.5zM791 0l-17 152q-103 -172 -313 -172q-183 0 -287 127t-104 372q0 252 112.5 384t313.5 132q189 0 274 -133v621h-176v53h420v-1483h149v-53
h-372z" />
    <glyph glyph-name="e" unicode="e" horiz-adv-x="1005" 
d="M61 479q0 130 37 230t103.5 162t154.5 93t195 31q203 0 301.5 -118t89.5 -349h-620v-41q0 -224 61 -330t217 -106q116 0 188 65.5t99 182.5l57 -8q-68 -311 -409 -311q-237 0 -355.5 133t-118.5 366zM324 584h374q6 189 -30.5 275.5t-135.5 86.5q-102 0 -152 -87
t-56 -275z" />
    <glyph glyph-name="f" unicode="f" horiz-adv-x="700" 
d="M594 1534q-42 0 -72.5 -14.5t-48 -37.5t-27.5 -60t-13 -73.5t-3 -86.5v-287h254v-53h-254v-869h246v-53h-633v53h143v869h-149v53h149v92q0 516 414 516q127 0 203 -60t76 -159q0 -68 -35 -107.5t-94 -39.5q-62 0 -97 31.5t-35 88.5q0 17 13 76h61q6 16 6 45
q0 76 -104 76z" />
    <glyph glyph-name="g" unicode="g" horiz-adv-x="1032" 
d="M872 662q0 -162 -101 -255.5t-273 -93.5q-73 0 -150 15q-119 -77 -119 -115q0 -16 19 -23.5t69 -7.5h265q75 0 134 -7t115 -27.5t92.5 -54t58.5 -89.5t22 -131q0 -87 -30 -155t-94.5 -120.5t-175 -81t-262.5 -28.5q-221 0 -332.5 61.5t-111.5 174.5q0 128 154 163l69 -47
q-20 -50 -20 -104q0 -89 69 -142t222 -53q184 0 282 68t98 182q0 92 -66 130t-222 38h-248q-120 0 -176 42t-56 110q0 58 42.5 108t144.5 125q-191 72 -191 305q0 70 24 130.5t71.5 109.5t127 77.5t181.5 28.5q113 0 205 -53q-6 71 14 135.5t71 109t124 44.5q64 0 104.5 -36
t40.5 -97q0 -44 -30.5 -77.5t-76.5 -33.5q-35 0 -62.5 18.5t-37.5 41.5l47 53q-6 49 -55 49q-37 0 -63.5 -45.5t-26.5 -136.5q0 -40 4 -60q110 -92 110 -245zM334 651q0 -109 19 -172.5t52.5 -87.5t88.5 -24q48 0 79 22.5t50.5 87.5t19.5 176q0 164 -36 228.5t-115 64.5
q-51 0 -84 -23.5t-53.5 -90.5t-20.5 -181z" />
    <glyph glyph-name="h" unicode="h" horiz-adv-x="1255" 
d="M43 1536h385v-750q40 89 123.5 149t222.5 60q307 0 307 -342v-600h146v-53h-525v53h138v625q0 129 -32 182t-110 53q-109 0 -189.5 -92t-80.5 -227v-541h139v-53h-524v53h143v1430h-143v53z" />
    <glyph glyph-name="i" unicode="i" horiz-adv-x="614" 
d="M154 1311q0 59 36.5 98t106.5 39q67 0 106 -34.5t39 -102.5q0 -64 -37 -103t-108 -39q-76 0 -109.5 41t-33.5 101zM47 975h387v-922h146v-53h-531v53h144v869h-146v53z" />
    <glyph glyph-name="j" unicode="j" horiz-adv-x="595" 
d="M430 975v-877q0 -127 -21.5 -233.5t-67 -193t-123.5 -135t-183 -48.5q-63 0 -109 17.5t-69.5 47t-34 61.5t-10.5 67q0 72 39.5 112.5t99.5 40.5q54 0 84.5 -29.5t30.5 -85.5q0 -30 -13 -77h-59q-10 -18 -10 -45q0 -58 75 -58q29 0 50 9t35 30t22.5 46.5t12.5 69t5.5 85
t1.5 106.5v1037h-157v53h401zM137 1309q0 61 37 100t109 39q66 0 104.5 -34.5t38.5 -102.5q0 -64 -37 -103t-108 -39q-75 0 -109.5 41t-34.5 99z" />
    <glyph glyph-name="k" unicode="k" horiz-adv-x="1185" 
d="M674 0v53h131l-293 457l-84 -18v-439h123v-53h-508v53h143v1430h-145v53h387v-981l66 14l393 353h-176v53h411v-53h-141l-291 -267l387 -602h99v-53h-502z" />
    <glyph glyph-name="l" unicode="l" horiz-adv-x="616" 
d="M41 1536h389v-1483h143v-53h-530v53h143v1430h-145v53z" />
    <glyph glyph-name="m" unicode="m" horiz-adv-x="1837" 
d="M43 975h385v-184q91 204 322 204q234 0 284 -223q19 43 45 79t65 70t96.5 54t127.5 20q137 0 216 -81.5t79 -260.5v-600h145v-53h-520v53h133v647q0 119 -28.5 166t-100.5 47q-104 0 -176 -90.5t-72 -226.5v-543h138v-53h-512v53h133v639q0 124 -28 172.5t-101 48.5
q-103 0 -174.5 -91.5t-71.5 -227.5v-541h135v-53h-520v53h143v869h-143v53z" />
    <glyph glyph-name="n" unicode="n" horiz-adv-x="1259" 
d="M43 975h385v-189q40 89 123.5 149t222.5 60q307 0 307 -342v-600h146v-53h-525v53h138v631q0 121 -32 173t-112 52q-108 0 -188 -92t-80 -227v-537h139v-53h-524v53h143v869h-143v53z" />
    <glyph glyph-name="o" unicode="o" horiz-adv-x="1079" 
d="M760 494q0 84 -5 147.5t-19 123t-38 98t-63 61t-92 22.5q-55 0 -94.5 -22t-63.5 -59.5t-38.5 -97t-19.5 -123.5t-5 -150q0 -71 3.5 -127t12.5 -111t25 -94.5t40 -70.5t59 -46.5t81 -15.5q65 0 108.5 30t67 93t32.5 143.5t9 198.5zM61 483q0 246 130.5 379t357.5 133
q469 0 469 -499q0 -244 -123.5 -380t-355.5 -136q-228 0 -353 131.5t-125 371.5z" />
    <glyph glyph-name="p" unicode="p" horiz-adv-x="1198" 
d="M668 911q-94 0 -171 -81t-77 -205v-324q0 -100 66 -178t176 -78q116 0 160 100t44 344q0 229 -40 325.5t-158 96.5zM424 975v-158q104 178 319 178q183 0 283 -126t100 -373q0 -255 -107.5 -385.5t-309.5 -130.5q-200 0 -283 126v-540h264v-53h-670v53h162v1356h-151v53
h393z" />
    <glyph glyph-name="q" unicode="q" horiz-adv-x="1185" 
d="M524 63q102 0 177 82t75 193v317q0 119 -66.5 197t-166.5 78q-70 0 -115.5 -39.5t-71.5 -137.5t-26 -257q0 -233 43 -333t151 -100zM772 -434v588q-99 -174 -317 -174q-184 0 -284.5 128t-100.5 373q0 252 114.5 383t319.5 131q99 0 171 -38t107 -107l4 125h359v-53h-131
v-1356h129v-53h-586v53h215z" />
    <glyph glyph-name="r" unicode="r" horiz-adv-x="911" 
d="M641 915q-84 0 -148.5 -110t-64.5 -248v-504h199v-53h-584v53h143v869h-143v53h385v-193q30 106 98 159.5t160 53.5q94 0 151.5 -54.5t57.5 -143.5q0 -85 -39 -126.5t-102 -41.5q-59 0 -93 35t-34 104q0 30 6 57h63q6 16 6 39q0 51 -61 51z" />
    <glyph glyph-name="s" unicode="s" horiz-adv-x="890" 
d="M80 -20v346h51q21 -141 113 -211t223 -70q233 0 233 168q0 29 -8.5 52.5t-29 40.5t-39 28.5t-55.5 22t-60 15.5t-70 15q-45 9 -71.5 15t-68 18.5t-66 26t-54 35.5t-45.5 48.5t-27.5 64t-11.5 83.5q0 136 95 226.5t249 90.5q102 0 201 -47q37 -14 57 -14q17 0 24.5 15
t10.5 50h45v-305h-49q-67 244 -287 244q-98 0 -155.5 -38.5t-57.5 -106.5q0 -27 8 -48.5t27 -37.5t36 -26.5t51 -20.5t55 -15t64 -14q13 -3 19 -4q43 -9 71.5 -15.5t68 -20t65.5 -28.5t54.5 -39t45.5 -53.5t28 -71.5t11 -92q0 -149 -97 -238t-267 -89q-142 0 -266 67
q-18 12 -33 12t-24.5 -16.5t-18.5 -62.5h-45z" />
    <glyph glyph-name="t" unicode="t" horiz-adv-x="790" 
d="M172 240v682h-143v53h143v264l242 64v-328h282v-53h-282v-672q0 -93 27.5 -133.5t97.5 -40.5q77 0 119.5 55t56.5 162l49 -6q-7 -66 -24 -116.5t-50.5 -96t-92 -70t-140.5 -24.5q-136 0 -210.5 59t-74.5 201z" />
    <glyph glyph-name="u" unicode="u" horiz-adv-x="1236" 
d="M1198 0h-367l-14 178q-95 -198 -334 -198q-309 0 -309 342v600h-145v53h387v-680q0 -125 30.5 -179.5t116.5 -54.5q98 0 173 90t75 205v566h-141v53h383v-922h145v-53z" />
    <glyph glyph-name="v" unicode="v" horiz-adv-x="1034" 
d="M0 922v53h512v-53h-156l256 -674l244 674h-151v53h329v-53h-98l-352 -936h-101l-391 936h-92z" />
    <glyph glyph-name="w" unicode="w" horiz-adv-x="1585" 
d="M618 922v53h457v-53h-119l250 -670l205 670h-156v53h330v-53h-100l-303 -936h-107l-258 671l-264 -671h-107l-354 936h-92v53h483v-53h-131l234 -680l192 501l-63 179h-97z" />
    <glyph glyph-name="x" unicode="x" horiz-adv-x="1116" 
d="M606 598l258 324h-151v53h336v-53h-103l-303 -377l350 -492h123v-53h-557v53h156l-242 348l-266 -348h166v-53h-355v53h109l307 404l-325 465h-111v53h543v-53h-156z" />
    <glyph glyph-name="y" unicode="y" horiz-adv-x="1040" 
d="M4 922v53h502v-53h-152l256 -691l250 691h-151v53h331v-53h-102l-412 -1088q-76 -201 -144 -273.5t-187 -72.5q-107 0 -164.5 56.5t-57.5 133.5q0 71 38 112.5t95 41.5q55 0 87 -28.5t32 -84.5q0 -29 -12 -73h-66q-10 -27 -10 -43q0 -58 78 -58q81 0 135 77.5t115 250.5
l45 125h-41l-373 924h-92z" />
    <glyph glyph-name="z" unicode="z" horiz-adv-x="991" 
d="M913 975v-51l-559 -871h226q71 0 119 16.5t83.5 57t58 93t48.5 140.5h41l-25 -360h-827v45l569 877h-209q-51 0 -82.5 -3t-62.5 -13.5t-50.5 -27.5t-40 -49.5t-37 -74.5t-36.5 -107h-43l23 328h804z" />
    <glyph glyph-name="braceleft" unicode="{" horiz-adv-x="698" 
d="M90 690q39 1 68.5 9.5t60 31t47.5 71t17 120.5q0 81 -30 228.5t-30 205.5q0 122 69 188t206 66q67 0 141 -27l-12 -43q-50 16 -86 16q-47 0 -76 -27t-29 -104q0 -61 29 -238t29 -247q0 -57 -13.5 -100.5t-34.5 -71t-56 -47.5t-68.5 -30t-81.5 -19v-2q47 -10 81 -22
t68.5 -33t56 -49t35 -71.5t13.5 -99.5q0 -69 -29 -262.5t-29 -247.5q0 -79 32.5 -108t88.5 -29q48 0 88 16l14 -45q-68 -28 -141 -28q-146 0 -220.5 68t-74.5 192q0 54 30 218.5t30 242.5q0 227 -193 231v47z" />
    <glyph glyph-name="bar" unicode="|" horiz-adv-x="702" 
d="M287 -260v1888h80v-1888h-80z" />
    <glyph glyph-name="braceright" unicode="}" horiz-adv-x="698" 
d="M606 688v-47q-192 -4 -192 -231q0 -78 29.5 -242.5t29.5 -218.5q0 -124 -74.5 -192t-220.5 -68q-73 0 -141 28l14 45q40 -16 88 -16q56 0 88.5 29t32.5 108q0 54 -28.5 247.5t-28.5 262.5q0 56 13.5 99.5t35 71.5t56 49t68.5 33t81 22v2q-48 9 -81.5 19t-68.5 30
t-56 47.5t-34.5 71t-13.5 100.5q0 70 28.5 247t28.5 238q0 77 -28.5 104t-75.5 27q-36 0 -86 -16l-13 43q74 27 142 27q137 0 205.5 -66t68.5 -188q0 -58 -29.5 -205.5t-29.5 -228.5q0 -58 12 -101t30 -67t45 -39t51 -19.5t54 -5.5z" />
    <glyph glyph-name="asciitilde" unicode="~" horiz-adv-x="985" 
d="M719 578q-101 0 -277 45q-140 36 -213 36q-83 0 -129 -88l-34 13q66 231 223 231q73 0 241 -41q13 -3 46.5 -11t51.5 -11.5t45 -9t50 -7.5t45 -2q44 0 70.5 18.5t52.5 69.5l39 -10q-39 -125 -89 -179t-122 -54z" />
    <glyph glyph-name="uni00A0" unicode="&#xa0;" horiz-adv-x="409" 
 />
    <glyph glyph-name="exclamdown" unicode="&#xa1;" horiz-adv-x="772" 
d="M354 418v192h64v-190q0 -131 16 -258t36 -206t36 -161.5t16 -136.5q0 -67 -33 -103t-92 -36q-62 0 -98.5 36t-36.5 105q0 56 23 167.5t46 268t23 322.5zM250 860q0 58 32.5 96.5t104.5 38.5q64 0 99.5 -37.5t35.5 -99.5q0 -66 -37.5 -99.5t-99.5 -33.5q-64 0 -99.5 38
t-35.5 97z" />
    <glyph glyph-name="cent" unicode="&#xa2;" horiz-adv-x="993" 
d="M330 -41l55 238q-134 37 -205 143t-71 272q0 225 128 346t345 121h12l53 221l60 -14l-52 -211q124 -15 193.5 -80.5t69.5 -163.5q0 -74 -33.5 -110.5t-91.5 -36.5q-59 0 -89 34.5t-30 92.5q0 32 8 63h57q6 16 6 50q0 87 -100 102l-174 -737q54 -31 129 -31q59 0 105 18.5
t75.5 52.5t47.5 68t32 78l58 -12q-14 -46 -27.5 -78.5t-42.5 -74.5t-67 -68.5t-100.5 -45t-141.5 -18.5q-49 0 -93 6l-57 -241zM356 643q0 -212 64 -303l162 690q-117 -5 -171.5 -96t-54.5 -291z" />
    <glyph glyph-name="sterling" unicode="&#xa3;" horiz-adv-x="1169" 
d="M74 604v64h196q-29 71 -43 108.5t-29.5 108t-15.5 135.5q0 201 130 318.5t345 117.5q189 0 286 -75.5t97 -204.5q0 -78 -39 -121t-106 -43q-63 0 -102 34.5t-39 94.5q0 40 10 71h76q6 24 6 48q0 60 -43 97.5t-125 37.5q-126 0 -175.5 -85.5t-49.5 -265.5v-376h409v-64
h-409v-102q0 -88 -29 -160t-90 -145l2 -4q118 75 217 75q53 0 114.5 -21t106 -45.5t90 -45.5t72.5 -21q50 0 71.5 40t28.5 149l54 -2q-3 -175 -65 -268t-169 -93q-55 0 -99.5 12.5t-111.5 42.5l-311 136q-49 -175 -168 -175q-42 0 -66 21t-24 53q0 54 56 99t140 55
q56 107 56 227q0 61 -35 172h-219z" />
    <glyph glyph-name="currency" unicode="&#xa4;" horiz-adv-x="1085" 
d="M203 696q0 108 59 197l-158 182l39 37l185 -145q92 63 213 63q124 0 200 -61l185 141l35 -33l-154 -174q57 -85 57 -201q0 -110 -61 -204l153 -201l-36 -35l-193 158q-75 -60 -192 -60q-123 0 -203 56l-182 -152l-37 37l147 182q-57 83 -57 213zM283 696
q0 -122 60.5 -197t193.5 -75q118 0 182.5 77.5t64.5 194.5q0 124 -63 199.5t-189 75.5q-123 0 -186 -78.5t-63 -196.5z" />
    <glyph glyph-name="yen" unicode="&#xa5;" horiz-adv-x="1247" 
d="M717 809l293 571h-193v54h412v-54h-139l-312 -602h287v-63h-311v-150h311v-63h-311v-443h161v-59h-583v59h162v443h-308v63h308v150h-308v63h277l-316 602h-131v54h586v-54h-168z" />
    <glyph glyph-name="brokenbar" unicode="&#xa6;" horiz-adv-x="702" 
d="M285 844v784h80v-784h-80zM285 -260v895h80v-895h-80z" />
    <glyph glyph-name="section" unicode="&#xa7;" horiz-adv-x="1361" 
d="M158 848q0 140 49.5 256.5t133 192.5t192.5 117.5t229 41.5q71 0 133.5 -14.5t113.5 -43.5t81 -78.5t30 -113.5q0 -63 -36.5 -106t-104.5 -43q-61 0 -99 33t-38 92q0 37 6 55l70 16q8 36 8 52q0 53 -40.5 78.5t-127.5 25.5q-151 0 -232.5 -88.5t-107.5 -251.5
q129 -24 239.5 -62t210.5 -98t170.5 -136t112 -180.5t41.5 -227.5q0 -116 -32.5 -216.5t-89.5 -175t-133 -128t-165.5 -80.5t-185.5 -27t-174.5 24.5t-131.5 82.5t-53 143q0 63 39 108t107 45q62 0 97.5 -34.5t35.5 -94.5q0 -28 -6 -55l-70 -16q-10 -30 -10 -54
q0 -102 168 -102q299 0 350 377q-131 23 -241.5 58.5t-212 92.5t-172 130.5t-112.5 177t-42 227.5zM950 344q0 277 -133 441.5t-407 238.5q-7 -82 -7 -145q0 -267 133 -431.5t408 -236.5q6 62 6 133z" />
    <glyph glyph-name="dieresis" unicode="&#xa8;" horiz-adv-x="1024" 
d="M600 1286q0 49 31.5 84t87.5 35q55 0 89 -30t34 -89q0 -56 -31.5 -89.5t-89.5 -33.5q-64 0 -92.5 35.5t-28.5 87.5zM201 1286q0 49 32.5 84t88.5 35q55 0 88.5 -30t33.5 -89q0 -55 -31.5 -89t-88.5 -34q-64 0 -93.5 35.5t-29.5 87.5z" />
    <glyph glyph-name="copyright" unicode="&#xa9;" horiz-adv-x="1599" 
d="M1477 655q0 -207 -86 -361.5t-239 -235.5t-353 -81q-165 0 -294.5 48.5t-212.5 135.5t-126 205t-43 261q0 155 53 283.5t145.5 214t216.5 132t265 46.5q312 0 493 -176t181 -472zM834 1016q-106 0 -156.5 -83t-50.5 -282q0 -191 50 -277.5t159 -86.5q78 0 137 59.5
t84 159.5h24l-8 -244h-20q-1 3 -4 8.5t-5 8.5t-5 7t-6.5 5.5t-8.5 1.5q-1 0 -73 -21.5t-134 -21.5q-171 0 -276 100t-105 301q0 126 54 218.5t141 138t194 45.5q54 0 121.5 -20.5t71.5 -20.5q5 0 8.5 1.5t6.5 5.5t5 6.5t5 8.5l4 8h18l6 -243h-29q-25 103 -79.5 160
t-128.5 57zM1407 643q0 190 -79 327.5t-214 206t-311 68.5q-129 0 -240 -42.5t-192 -120t-127.5 -194.5t-46.5 -259q0 -276 160.5 -434t441.5 -158q279 0 443.5 163.5t164.5 442.5z" />
    <glyph glyph-name="ordfeminine" unicode="&#xaa;" horiz-adv-x="870" 
d="M399 975h95v94q0 101 -33 154t-113 53q-58 0 -84.5 -22.5t-11.5 -61.5h43q12 -27 12 -59q0 -42 -28.5 -67.5t-73.5 -25.5q-46 0 -72.5 28t-26.5 75q0 84 79.5 132t203.5 48q155 0 226 -61t71 -213v-287q0 -42 12 -59t37 -17q27 0 40 25t20 104q7 -1 20.5 -2t20.5 -2
q-4 -115 -46.5 -162t-127.5 -47q-144 0 -162 105q-56 -105 -205 -105q-45 0 -82.5 8.5t-69 27.5t-49.5 54t-18 84q0 105 82.5 152t240.5 47zM362 672q53 0 92.5 37.5t39.5 101.5v117h-48q-95 0 -132.5 -37t-37.5 -109q0 -57 21 -83.5t65 -26.5z" />
    <glyph glyph-name="guillemotleft" unicode="&#xab;" horiz-adv-x="989" 
d="M113 528l354 295l29 -24l-215 -326l211 -350l-27 -25l-320 279q-55 41 -55 80q0 30 23 71zM473 528l354 295l29 -24l-215 -326l211 -350l-27 -25l-319 279q-55 41 -55 80q0 31 22 71z" />
    <glyph glyph-name="logicalnot" unicode="&#xac;" horiz-adv-x="1228" 
d="M1001 336v274h-851v74h929v-348h-78z" />
    <glyph glyph-name="uni00AD" unicode="&#xad;" horiz-adv-x="681" 
d="M96 512v119h492v-119h-492z" />
    <glyph glyph-name="registered" unicode="&#xae;" horiz-adv-x="940" 
d="M858 983q0 -171 -108.5 -278t-280.5 -107q-186 0 -286.5 103t-100.5 268q0 175 111.5 281t277.5 106q178 0 282.5 -101.5t104.5 -271.5zM453 987h-21v-172h47v-22h-186v22h45v348h-45v23h162q82 0 125 -18.5t43 -73.5q0 -48 -32.5 -70t-92.5 -27v-2q64 -4 89 -25t25 -71
v-45q0 -18 5 -25.5t20 -7.5q27 0 35 60l20 -2q-2 -28 -8 -46t-25.5 -32.5t-52.5 -14.5q-86 0 -86 70v66q0 32 -15 48.5t-52 16.5zM432 1163v-155h6q51 0 72.5 20.5t21.5 61.5q0 39 -19.5 56t-70.5 17h-10zM797 977q0 153 -92 240.5t-234 87.5q-145 0 -235.5 -90.5
t-90.5 -243.5q0 -149 85.5 -234.5t240.5 -85.5q149 0 237.5 88.5t88.5 237.5z" />
    <glyph glyph-name="macron" unicode="&#xaf;" horiz-adv-x="1024" 
d="M233 1210v121h558v-121h-558z" />
    <glyph glyph-name="degree" unicode="&#xb0;" horiz-adv-x="569" 
d="M150 1208q0 -68 34 -107.5t103 -39.5q64 0 98.5 40t34.5 107q0 69 -35.5 107.5t-101.5 38.5q-64 0 -98.5 -40t-34.5 -106zM70 1208q0 88 58 147.5t161 59.5q101 0 156 -55t55 -148q0 -92 -57 -152.5t-158 -60.5q-106 0 -160.5 57.5t-54.5 151.5z" />
    <glyph glyph-name="plusminus" unicode="&#xb1;" 
d="M1028 612h-432v-383h-82v383h-416v74h416v358h82v-358h432v-74zM1028 0h-930v74h930v-74z" />
    <glyph glyph-name="twosuperior" unicode="&#xb2;" horiz-adv-x="692" 
d="M45 807v117l160 149q128 118 176.5 205t48.5 203q0 76 -29.5 109.5t-101.5 33.5q-59 0 -88 -16.5t-29 -44.5q0 -22 8 -41h39q11 -26 11 -56q0 -38 -27 -61t-70 -23q-49 0 -74.5 30t-25.5 77q0 86 77.5 139t213.5 53q144 0 218.5 -55t74.5 -156q0 -69 -33 -126
t-127 -142.5t-299 -243.5h256q88 0 122.5 33.5t49.5 112.5h49l-12 -297h-588z" />
    <glyph glyph-name="threesuperior" unicode="&#xb3;" horiz-adv-x="706" 
d="M334 1681q140 0 210 -50.5t70 -143.5q0 -79 -56 -133t-163 -80q133 -15 200 -73t67 -150q0 -117 -99.5 -186.5t-265.5 -69.5q-51 0 -95.5 9.5t-84.5 29.5t-63 58t-23 89q0 46 25 76t75 30q42 0 68 -23t26 -60q0 -28 -10 -58h-41q-6 -15 -6 -35q0 -25 31 -42t92 -17
q166 0 166 195q0 83 -32.5 129t-90.5 73q-50 -12 -123 -18l-8 53q61 7 97.5 16.5t66.5 31t42.5 58t12.5 93.5q0 141 -121 141q-53 0 -82 -17t-29 -42q0 -14 7 -35h39q8 -21 8 -53q0 -35 -25.5 -57.5t-64.5 -22.5q-48 0 -73.5 27.5t-25.5 72.5q0 85 75.5 134.5t203.5 49.5z
" />
    <glyph glyph-name="acute" unicode="&#xb4;" horiz-adv-x="1024" 
d="M352 1122l144 383l55 11q20 4 29 4q34 0 53.5 -18.5t19.5 -51.5q0 -39 -45 -90l-225 -254z" />
    <glyph glyph-name="mu" unicode="&#xb5;" horiz-adv-x="1267" 
d="M422 997v-624q0 -258 151 -258q42 0 79 16t69 49.5t51 94t19 141.5v563l249 18v-804q0 -105 68 -105q38 0 59.5 40t28.5 153q8 -1 23.5 -2.5t23.5 -2.5q-6 -160 -60.5 -228t-168.5 -68q-101 0 -158 55.5t-63 157.5q-39 -100 -114 -156.5t-161 -56.5q-80 0 -141.5 35.5
t-102.5 129.5l-8 -6q26 -95 61 -205.5t57 -181.5t28 -108q6 -47 -33.5 -71.5t-91.5 -14.5l-123 24v1397z" />
    <glyph glyph-name="paragraph" unicode="&#xb6;" horiz-adv-x="1253" 
d="M702 -29v514h-32q-117 0 -212.5 27t-169 82.5t-114.5 148t-41 215.5q0 229 152 352.5t411 123.5h465v-54h-131v-1267q0 -259 -114.5 -372.5t-385.5 -113.5q-89 0 -157.5 22.5t-107.5 60.5t-58 82.5t-19 94.5q0 90 47.5 139.5t120.5 49.5q66 0 105 -36t39 -106
q0 -29 -15 -98h-79q-19 -44 -19 -59q0 -42 37 -68t108 -26q94 0 132 65t38 223zM772 -51q0 -88 -14.5 -149.5t-55.5 -98.5q82 19 136 57.5t81 98.5t36.5 122.5t9.5 151.5v1249h-193v-1431z" />
    <glyph glyph-name="periodcentered" unicode="&#xb7;" horiz-adv-x="561" 
d="M127 653q0 68 41.5 112t114.5 44q71 0 114 -38.5t43 -113.5q0 -71 -40 -114t-115 -43q-82 0 -120 44.5t-38 108.5z" />
    <glyph glyph-name="cedilla" unicode="&#xb8;" horiz-adv-x="1024" 
d="M500 27h57l-82 -140q28 4 53 4q87 0 133 -44.5t46 -118.5q0 -77 -60.5 -133t-171.5 -56q-78 0 -128 36t-50 87q0 33 19 50.5t46 17.5q24 0 44.5 -15t27.5 -41l-39 -34q0 -27 19.5 -45.5t56.5 -18.5q43 0 67.5 29.5t24.5 105.5q0 70 -20.5 102.5t-71.5 32.5q-28 0 -61 -8
l-7 25z" />
    <glyph glyph-name="onesuperior" unicode="&#xb9;" horiz-adv-x="557" 
d="M190 1606l-149 -15l-6 54l280 36h80v-821h113v-53h-459v53h141v746z" />
    <glyph glyph-name="ordmasculine" unicode="&#xba;" horiz-adv-x="868" 
d="M592 967q0 60 -3.5 104t-13.5 84.5t-27 65.5t-45 40t-67 15q-40 0 -68.5 -14.5t-45.5 -39.5t-26.5 -65.5t-13 -83.5t-3.5 -104q0 -78 6 -131.5t22.5 -99t48.5 -67.5t80 -22q93 0 124.5 74.5t31.5 243.5zM72 961q0 172 99 267t269 95q173 0 265 -88t92 -266
q0 -173 -94.5 -270t-268.5 -97q-172 0 -267 94.5t-95 264.5z" />
    <glyph glyph-name="guillemotright" unicode="&#xbb;" horiz-adv-x="989" 
d="M516 393l-354 -295l-29 25l213 326l-211 348l29 26l319 -278q30 -26 43 -43.5t13 -36.5q0 -37 -23 -72zM877 393l-355 -295l-28 25l213 326l-211 348l28 26l320 -278q29 -26 42 -43.5t13 -36.5q0 -39 -22 -72z" />
    <glyph glyph-name="onequarter" unicode="&#xbc;" horiz-adv-x="1740" 
d="M268 1360l-149 -14l-6 53l280 37h80v-822h113v-53h-459v53h141v746zM403 0l863 1434h82l-861 -1434h-84zM1149 0v53h123v156h-357v53l365 598h190v-592h103v80h55v-219h-55v80h-103v-156h91v-53h-412zM985 268h287v469z" />
    <glyph glyph-name="onehalf" unicode="&#xbd;" horiz-adv-x="1740" 
d="M258 1360l-149 -14l-7 53l281 37h80v-822h112v-53h-458v53h141v746zM387 0l862 1434h82l-860 -1434h-84zM1053 0v117l159 149q129 118 177.5 205t48.5 203q0 76 -29.5 109.5t-101.5 33.5q-59 0 -88 -16.5t-29 -44.5q0 -22 8 -41h39q10 -23 10 -56q0 -38 -26.5 -61
t-69.5 -23q-49 0 -74.5 30t-25.5 77q0 86 77 139t213 53q145 0 219 -54.5t74 -155.5q0 -69 -32.5 -126t-127 -143t-298.5 -243h256q61 0 96.5 17.5t50.5 46t25 81.5h49l-13 -297h-587z" />
    <glyph glyph-name="threequarters" unicode="&#xbe;" horiz-adv-x="1740" 
d="M369 1436q140 0 210 -51t70 -144q0 -79 -56 -133t-163 -80q133 -15 199.5 -73t66.5 -150q0 -117 -99 -186.5t-265 -69.5q-51 0 -95.5 9.5t-84.5 29.5t-63 58t-23 89q0 46 25 76.5t75 30.5q42 0 68 -23.5t26 -60.5q0 -28 -10 -58h-41q-6 -15 -6 -34q0 -25 31 -42.5
t92 -17.5q166 0 166 195q0 83 -33 129.5t-90 73.5q-57 -14 -123 -19l-8 53q61 7 97.5 16.5t66.5 31t42.5 58t12.5 93.5q0 141 -121 141q-53 0 -82 -17t-29 -42q0 -17 6 -35h39q9 -24 9 -53q0 -35 -26 -57.5t-65 -22.5q-48 0 -73 27.5t-25 72.5q0 85 75.5 135t203.5 50z
M457 0l862 1434h82l-860 -1434h-84zM1196 0v53h123v156h-356v53l364 598h191v-592h102v80h55v-219h-55v80h-102v-156h90v-53h-412zM1032 268h287v469z" />
    <glyph glyph-name="questiondown" unicode="&#xbf;" horiz-adv-x="1091" 
d="M565 -481q-189 0 -298 91.5t-109 237.5q0 153 151 295l289 269v209h51v-418q0 -36 -22 -58l-150 -153q-57 -60 -78.5 -109t-21.5 -114q0 -96 61.5 -148.5t165.5 -52.5q90 0 142.5 33.5t52.5 85.5q0 19 -6 37h-58q-16 43 -16 83q0 59 37.5 93t95.5 34q60 0 92.5 -39.5
t32.5 -103.5q0 -119 -113.5 -195.5t-298.5 -76.5zM760 860q0 -59 -35.5 -97t-99.5 -38q-63 0 -100.5 33.5t-37.5 99.5q0 63 35.5 100t100.5 37q71 0 104 -39t33 -96z" />
    <glyph glyph-name="Agrave" unicode="&#xc0;" horiz-adv-x="1376" 
d="M956 59l-141 418h-448l-150 -418h174v-59h-389v59h133l518 1387h84l504 -1387h133v-59h-586v59h168zM598 1118l-211 -581h408zM586 1835l282 -305l-22 -29l-311 156q-74 36 -74 88q0 57 76 78z" />
    <glyph glyph-name="Aacute" unicode="&#xc1;" horiz-adv-x="1376" 
d="M956 59l-141 418h-448l-150 -418h174v-59h-389v59h133l518 1387h84l504 -1387h133v-59h-586v59h168zM598 1118l-211 -581h408zM535 1530l282 305l49 -12q76 -21 76 -78q0 -52 -74 -88l-311 -156z" />
    <glyph glyph-name="Acircumflex" unicode="&#xc2;" horiz-adv-x="1376" 
d="M956 59l-141 418h-448l-150 -418h174v-59h-389v59h133l518 1387h84l504 -1387h133v-59h-586v59h168zM598 1118l-211 -581h408zM381 1522l256 276q37 25 76 25q26 0 45 -14.5t47 -49.5l199 -233l-21 -31l-287 170l-290 -170z" />
    <glyph glyph-name="Atilde" unicode="&#xc3;" horiz-adv-x="1376" 
d="M956 59l-141 418h-448l-150 -418h174v-59h-389v59h133l518 1387h84l504 -1387h133v-59h-586v59h168zM598 1118l-211 -581h408zM829 1575q-72 0 -184 47q-87 35 -127 35q-67 0 -104 -88l-39 12q30 105 80 163t141 58q15 0 31 -2.5t26.5 -4.5t28.5 -8.5t25 -9.5t29 -12.5
t28 -11.5q89 -33 125 -33q37 0 61.5 17.5t44.5 68.5l41 -10q-58 -221 -207 -221z" />
    <glyph glyph-name="Adieresis" unicode="&#xc4;" horiz-adv-x="1376" 
d="M956 59l-141 418h-448l-150 -418h174v-59h-389v59h133l518 1387h84l504 -1387h133v-59h-586v59h168zM598 1118l-211 -581h408zM774 1669q0 50 31.5 84.5t87.5 34.5q55 0 89 -30t34 -89q0 -56 -31.5 -89.5t-89.5 -33.5q-63 0 -92 36t-29 87zM371 1669q0 50 32.5 84.5
t88.5 34.5q55 0 88.5 -30t33.5 -89q0 -56 -31 -89.5t-89 -33.5q-62 0 -92.5 36.5t-30.5 86.5z" />
    <glyph glyph-name="Aring" unicode="&#xc5;" horiz-adv-x="1376" 
d="M956 59l-141 418h-448l-150 -418h174v-59h-389v59h133l518 1387h84l504 -1387h133v-59h-586v59h168zM598 1118l-211 -581h408zM584 1673q0 -50 27.5 -83.5t84.5 -33.5q53 0 81 33.5t28 83.5q0 49 -29.5 83t-83.5 34q-51 0 -79.5 -34.5t-28.5 -82.5zM508 1673q0 76 49 126
t141 50q88 0 135.5 -47t47.5 -125q0 -82 -49 -132t-138 -50q-94 0 -140 48t-46 130z" />
    <glyph glyph-name="AE" unicode="&#xc6;" horiz-adv-x="1937" 
d="M635 1434h1137l20 -390h-47q-17 87 -42.5 146t-58 95.5t-83 56t-104.5 26t-136 6.5h-162v-631h84q124 0 177 54t79 209h43v-607h-47q-15 86 -32 136.5t-46.5 84.5t-71 46t-108.5 12h-78v-619h180q213 0 316.5 85.5t142.5 285.5h41l-14 -430h-1077v59h151v617h-385
l-313 -617h166v-59h-365v59h117l667 1315h-151v60zM899 1374h-33l-321 -633h354v633z" />
    <glyph glyph-name="Ccedilla" unicode="&#xc7;" horiz-adv-x="1349" 
d="M768 1393q-200 0 -303 -160.5t-103 -511.5q0 -328 105.5 -503t310.5 -175q308 0 418 399h47l-14 -440h-31q-12 23 -22.5 32t-30.5 9q-23 0 -79.5 -15t-136 -30.5t-157.5 -17.5l-53 -93q28 4 53 4q87 0 132.5 -44.5t45.5 -118.5q0 -77 -60 -133t-171 -56q-78 0 -128 36
t-50 87q0 33 19 50.5t46 17.5q24 0 44.5 -15t27.5 -41l-39 -34q0 -27 19.5 -45.5t56.5 -18.5q43 0 67.5 29.5t24.5 105.5q0 70 -20.5 102.5t-71.5 32.5q-29 0 -62 -8l-6 25l68 117q-300 11 -466.5 191.5t-166.5 543.5q0 179 51.5 321t143.5 233t215.5 139t269.5 48
q75 0 151.5 -16t132 -31.5t80.5 -15.5q23 0 32.5 9t19.5 32h32l15 -428h-47q-55 195 -154 291t-256 96z" />
    <glyph glyph-name="Egrave" unicode="&#xc8;" horiz-adv-x="1265" 
d="M74 1434h1026l20 -390h-49q-16 87 -41.5 146t-58 95.5t-83 56t-104 26t-135.5 6.5h-164v-612h99q115 0 165.5 56t75.5 206h45v-606h-49q-30 168 -79 223t-179 55h-78v-637h183q213 0 316 85.5t140 285.5h43l-16 -430h-1077v59h151v1315h-151v60zM522 1835l283 -305
l-23 -29l-311 156q-74 36 -74 88q0 57 76 78z" />
    <glyph glyph-name="Eacute" unicode="&#xc9;" horiz-adv-x="1265" 
d="M74 1434h1026l20 -390h-49q-16 87 -41.5 146t-58 95.5t-83 56t-104 26t-135.5 6.5h-164v-612h99q115 0 165.5 56t75.5 206h45v-606h-49q-30 168 -79 223t-179 55h-78v-637h183q213 0 316 85.5t140 285.5h43l-16 -430h-1077v59h151v1315h-151v60zM471 1530l283 305l49 -12
q76 -21 76 -78q0 -52 -74 -88l-311 -156z" />
    <glyph glyph-name="Ecircumflex" unicode="&#xca;" horiz-adv-x="1265" 
d="M74 1434h1026l20 -390h-49q-16 87 -41.5 146t-58 95.5t-83 56t-104 26t-135.5 6.5h-164v-612h99q115 0 165.5 56t75.5 206h45v-606h-49q-30 168 -79 223t-179 55h-78v-637h183q213 0 316 85.5t140 285.5h43l-16 -430h-1077v59h151v1315h-151v60zM317 1522l256 276
q37 25 76 25q26 0 45 -14.5t47 -49.5l199 -233l-20 -31l-287 170l-291 -170z" />
    <glyph glyph-name="Edieresis" unicode="&#xcb;" horiz-adv-x="1265" 
d="M74 1434h1026l20 -390h-49q-16 87 -41.5 146t-58 95.5t-83 56t-104 26t-135.5 6.5h-164v-612h99q115 0 165.5 56t75.5 206h45v-606h-49q-30 168 -79 223t-179 55h-78v-637h183q213 0 316 85.5t140 285.5h43l-16 -430h-1077v59h151v1315h-151v60zM711 1669q0 50 31 84.5
t87 34.5q55 0 89 -30t34 -89q0 -56 -31.5 -89.5t-89.5 -33.5q-63 0 -91.5 36t-28.5 87zM307 1669q0 50 32.5 84.5t88.5 34.5q55 0 89 -30t34 -89q0 -56 -31.5 -89.5t-89.5 -33.5q-62 0 -92.5 36.5t-30.5 86.5z" />
    <glyph glyph-name="Igrave" unicode="&#xcc;" horiz-adv-x="710" 
d="M82 1434h547v-60h-144v-1315h144v-59h-547v59h143v1315h-143v60zM246 1835l282 -305l-22 -29l-311 156q-74 36 -74 88q0 57 76 78z" />
    <glyph glyph-name="Iacute" unicode="&#xcd;" horiz-adv-x="710" 
d="M82 1434h547v-60h-144v-1315h144v-59h-547v59h143v1315h-143v60zM195 1530l282 305l49 -12q76 -21 76 -78q0 -52 -74 -88l-311 -156z" />
    <glyph glyph-name="Icircumflex" unicode="&#xce;" horiz-adv-x="710" 
d="M82 1434h547v-60h-144v-1315h144v-59h-547v59h143v1315h-143v60zM41 1522l256 276q37 25 76 25q26 0 45 -14.5t47 -49.5l199 -233l-21 -31l-287 170l-290 -170z" />
    <glyph glyph-name="Idieresis" unicode="&#xcf;" horiz-adv-x="710" 
d="M82 1434h547v-60h-144v-1315h144v-59h-547v59h143v1315h-143v60zM434 1669q0 50 31.5 84.5t87.5 34.5q55 0 89 -30t34 -89q0 -56 -31.5 -89.5t-89.5 -33.5q-63 0 -92 36t-29 87zM31 1669q0 50 32.5 84.5t88.5 34.5q55 0 88.5 -30t33.5 -89q0 -56 -31 -89.5t-89 -33.5
q-62 0 -92.5 36.5t-30.5 86.5z" />
    <glyph glyph-name="Eth" unicode="&#xd0;" horiz-adv-x="1509" 
d="M1419 741q0 -169 -42.5 -298.5t-116 -212.5t-183 -135.5t-232 -73.5t-274.5 -21h-481v59h166v668h-178v59h178v588h-166v60h537q193 0 336 -37t247 -118t156.5 -215.5t52.5 -322.5zM516 59h88q277 0 405 165.5t128 508.5q0 155 -22.5 266t-65 184t-114 115t-158 59
t-208.5 17h-53v-588h361v-59h-361v-668z" />
    <glyph glyph-name="Ntilde" unicode="&#xd1;" horiz-adv-x="1435" 
d="M1225 1374v-1384h-121l-807 1333v-1264h143v-59h-358v59h143v1315h-143v60h453l618 -1033v973h-143v60h358v-60h-143zM874 1575q-72 0 -184 47q-88 35 -127 35q-67 0 -104 -88l-39 12q30 105 80 163t141 58q15 0 31 -2.5t26.5 -4.5t28.5 -8.5t25 -9.5t29 -12.5t28 -11.5
q89 -33 125 -33q37 0 61.5 17.5t44.5 68.5l41 -10q-58 -221 -207 -221z" />
    <glyph glyph-name="Ograve" unicode="&#xd2;" horiz-adv-x="1478" 
d="M1110 721q0 110 -5.5 193t-20 162.5t-41 135t-66.5 98t-98 63t-134 20.5q-80 0 -140.5 -20.5t-102 -64t-69 -99t-42 -137t-20.5 -166t-6 -197.5q0 -102 6 -183t21 -159.5t43 -135t68.5 -100.5t100.5 -66t137 -22q90 0 155.5 31.5t106.5 86.5t65 142.5t33 186t9 231.5z
M82 709q0 341 184 544t490 203q300 0 469.5 -192t169.5 -535q0 -353 -169.5 -551t-488.5 -198q-318 0 -486.5 188.5t-168.5 540.5zM635 1835l283 -305l-23 -29l-311 156q-74 36 -74 88q0 57 76 78z" />
    <glyph glyph-name="Oacute" unicode="&#xd3;" horiz-adv-x="1478" 
d="M1110 721q0 110 -5.5 193t-20 162.5t-41 135t-66.5 98t-98 63t-134 20.5q-80 0 -140.5 -20.5t-102 -64t-69 -99t-42 -137t-20.5 -166t-6 -197.5q0 -102 6 -183t21 -159.5t43 -135t68.5 -100.5t100.5 -66t137 -22q90 0 155.5 31.5t106.5 86.5t65 142.5t33 186t9 231.5z
M82 709q0 341 184 544t490 203q300 0 469.5 -192t169.5 -535q0 -353 -169.5 -551t-488.5 -198q-318 0 -486.5 188.5t-168.5 540.5zM584 1530l282 305l49 -12q76 -21 76 -78q0 -52 -73 -88l-312 -156z" />
    <glyph glyph-name="Ocircumflex" unicode="&#xd4;" horiz-adv-x="1478" 
d="M1110 721q0 110 -5.5 193t-20 162.5t-41 135t-66.5 98t-98 63t-134 20.5q-80 0 -140.5 -20.5t-102 -64t-69 -99t-42 -137t-20.5 -166t-6 -197.5q0 -102 6 -183t21 -159.5t43 -135t68.5 -100.5t100.5 -66t137 -22q90 0 155.5 31.5t106.5 86.5t65 142.5t33 186t9 231.5z
M82 709q0 341 184 544t490 203q300 0 469.5 -192t169.5 -535q0 -353 -169.5 -551t-488.5 -198q-318 0 -486.5 188.5t-168.5 540.5zM430 1522l256 276q37 25 76 25q26 0 45 -14.5t47 -49.5l199 -233l-21 -31l-287 170l-290 -170z" />
    <glyph glyph-name="Otilde" unicode="&#xd5;" horiz-adv-x="1478" 
d="M1110 721q0 110 -5.5 193t-20 162.5t-41 135t-66.5 98t-98 63t-134 20.5q-80 0 -140.5 -20.5t-102 -64t-69 -99t-42 -137t-20.5 -166t-6 -197.5q0 -102 6 -183t21 -159.5t43 -135t68.5 -100.5t100.5 -66t137 -22q90 0 155.5 31.5t106.5 86.5t65 142.5t33 186t9 231.5z
M82 709q0 341 184 544t490 203q300 0 469.5 -192t169.5 -535q0 -353 -169.5 -551t-488.5 -198q-318 0 -486.5 188.5t-168.5 540.5zM879 1575q-73 0 -185 47q-88 35 -127 35q-67 0 -104 -88l-39 12q30 105 80 163t141 58q15 0 31 -2.5t26.5 -4.5t28.5 -8.5t25 -9.5t29 -12.5
t28 -11.5q89 -33 125 -33q37 0 61.5 17.5t44.5 68.5l41 -10q-58 -221 -206 -221z" />
    <glyph glyph-name="Odieresis" unicode="&#xd6;" horiz-adv-x="1478" 
d="M1110 721q0 110 -5.5 193t-20 162.5t-41 135t-66.5 98t-98 63t-134 20.5q-80 0 -140.5 -20.5t-102 -64t-69 -99t-42 -137t-20.5 -166t-6 -197.5q0 -102 6 -183t21 -159.5t43 -135t68.5 -100.5t100.5 -66t137 -22q90 0 155.5 31.5t106.5 86.5t65 142.5t33 186t9 231.5z
M82 709q0 341 184 544t490 203q300 0 469.5 -192t169.5 -535q0 -353 -169.5 -551t-488.5 -198q-318 0 -486.5 188.5t-168.5 540.5zM823 1669q0 50 31.5 84.5t87.5 34.5q55 0 89 -30t34 -89q0 -56 -31.5 -89.5t-89.5 -33.5q-63 0 -92 36t-29 87zM420 1669q0 50 32.5 84.5
t88.5 34.5q55 0 89 -30t34 -89q0 -56 -31.5 -89.5t-89.5 -33.5q-62 0 -92.5 36.5t-30.5 86.5z" />
    <glyph glyph-name="multiply" unicode="&#xd7;" 
d="M918 946l-306 -303l299 -301l-53 -49l-297 297l-301 -299l-51 51l299 301l-299 303l51 53l301 -303l303 303z" />
    <glyph glyph-name="Oslash" unicode="&#xd8;" horiz-adv-x="1478" 
d="M82 709q0 341 184 544t490 203q105 0 211 -29l59 158l66 -22l-60 -160q174 -74 268.5 -247.5t94.5 -426.5q0 -353 -169.5 -551t-488.5 -198q-120 0 -229 28l-62 -164l-65 23l61 166q-177 73 -268.5 245.5t-91.5 430.5zM1110 721q0 214 -25.5 353.5t-93.5 219.5
l-448 -1196q76 -55 198 -55q90 0 155.5 31.5t106.5 86.5t65 142.5t33 186t9 231.5zM365 709q0 -200 26.5 -340t93.5 -222l449 1196q-79 50 -189 50q-80 0 -140.5 -20.5t-102 -64t-69 -99t-42 -137t-20.5 -166t-6 -197.5z" />
    <glyph glyph-name="Ugrave" unicode="&#xd9;" horiz-adv-x="1439" 
d="M799 53q-96 0 -162.5 29.5t-102 84.5t-50.5 120t-15 151v936h147v60h-550v-60h143v-909q0 -134 36 -229t107 -150.5t165 -80.5t220 -25q140 0 238 33t154.5 99t82 154t25.5 207v901h141v60h-362v-60h145v-923q0 -195 -96 -296.5t-266 -101.5zM637 1835l283 -305l-23 -29
l-311 156q-74 36 -74 88q0 57 76 78z" />
    <glyph glyph-name="Uacute" unicode="&#xda;" horiz-adv-x="1439" 
d="M799 53q-96 0 -162.5 29.5t-102 84.5t-50.5 120t-15 151v936h147v60h-550v-60h143v-909q0 -134 36 -229t107 -150.5t165 -80.5t220 -25q140 0 238 33t154.5 99t82 154t25.5 207v901h141v60h-362v-60h145v-923q0 -195 -96 -296.5t-266 -101.5zM606 1530l283 305l49 -12
q76 -21 76 -78q0 -52 -74 -88l-311 -156z" />
    <glyph glyph-name="Ucircumflex" unicode="&#xdb;" horiz-adv-x="1439" 
d="M799 53q-96 0 -162.5 29.5t-102 84.5t-50.5 120t-15 151v936h147v60h-550v-60h143v-909q0 -134 36 -229t107 -150.5t165 -80.5t220 -25q140 0 238 33t154.5 99t82 154t25.5 207v901h141v60h-362v-60h145v-923q0 -195 -96 -296.5t-266 -101.5zM453 1522l256 276
q37 25 75 25q26 0 45.5 -15t47.5 -49l198 -233l-20 -31l-287 170l-291 -170z" />
    <glyph glyph-name="Udieresis" unicode="&#xdc;" horiz-adv-x="1439" 
d="M799 53q170 0 266 101.5t96 296.5v923h-145v60h362v-60h-141v-901q0 -119 -25.5 -207t-82 -154t-154.5 -99t-238 -33q-126 0 -220 25t-165 80.5t-107 150.5t-36 229v909h-143v60h550v-60h-147v-936q0 -86 15 -151t50.5 -120t102 -84.5t162.5 -29.5zM846 1669
q0 50 31.5 84.5t87.5 34.5q55 0 88.5 -30t33.5 -89q0 -56 -31 -89.5t-89 -33.5q-63 0 -92 36t-29 87zM442 1669q0 50 32.5 84.5t88.5 34.5q55 0 89 -30t34 -89q0 -56 -31.5 -89.5t-89.5 -33.5q-62 0 -92.5 36.5t-30.5 86.5z" />
    <glyph glyph-name="Yacute" unicode="&#xdd;" horiz-adv-x="1263" 
d="M727 752l315 622h-200v60h418v-60h-140l-356 -698v-617h162v-59h-584v59h162v609l-369 706h-133v60h594v-60h-174zM500 1530l282 305l49 -12q76 -21 76 -78q0 -52 -73 -88l-312 -156z" />
    <glyph glyph-name="Thorn" unicode="&#xde;" horiz-adv-x="1284" 
d="M485 1374v-215h117q138 0 242.5 -19t187.5 -63.5t126.5 -124.5t43.5 -194q0 -104 -33 -182.5t-89.5 -128t-141.5 -80t-178.5 -42.5t-210.5 -12h-64v-254h256v-59h-680v59h164v1315h-164v60h680v-60h-256zM485 1100v-727h90q185 0 265 89.5t80 289.5q0 195 -76.5 271.5
t-255.5 76.5h-103z" />
    <glyph glyph-name="germandbls" unicode="&#xdf;" horiz-adv-x="1345" 
d="M580 -14v358h51q18 -137 108.5 -218t214.5 -81q100 0 156.5 46.5t56.5 129.5q0 54 -29 93.5t-75.5 64t-102.5 46t-112 47.5t-102.5 59t-75.5 89t-29 130q0 75 33.5 142.5t81 118t95 98t81 103t33.5 113.5q0 94 -69 150.5t-206 56.5q-68 0 -117 -18t-75.5 -44t-41.5 -68.5
t-18.5 -78.5t-3.5 -86v-1237h-397v53h156v1022q0 250 123.5 380t371.5 130q82 0 146 -16t103 -41t63.5 -60t34 -70t9.5 -73q0 -53 -18.5 -100.5t-47 -81.5t-61 -69.5t-61 -65t-47 -68t-18.5 -78.5q0 -43 27.5 -76t71.5 -56t97 -46t106.5 -53t97.5 -69t71.5 -103t27.5 -146
q0 -150 -94.5 -243t-245.5 -93q-57 0 -109 13t-79.5 26t-63.5 35q-18 12 -32 12q-29 0 -39 -77h-47z" />
    <glyph glyph-name="agrave" unicode="&#xe0;" horiz-adv-x="1077" 
d="M512 489h106v150q0 163 -39 235t-147 72q-62 0 -103.5 -21.5t-41.5 -64.5q0 -17 6 -35h55q17 -46 17 -82q0 -59 -38 -94t-96 -35q-60 0 -91 38t-31 102q0 115 103.5 178t268.5 63q102 0 171.5 -19t117.5 -64t70 -119t22 -185v-409q0 -62 16.5 -87.5t49.5 -25.5
q38 0 58 38.5t28 154.5l47 -5q-6 -160 -57.5 -227t-165.5 -67q-187 0 -211 145q-76 -145 -273 -145q-60 0 -110 12t-92 38.5t-65.5 74.5t-23.5 114q0 62 21.5 108.5t59 77t95 49.5t123.5 27t150 8zM442 61q71 0 123.5 56t52.5 147v174h-59q-129 0 -184.5 -55t-55.5 -158
q0 -164 123 -164zM461 1505l143 -383l-31 -16l-225 254q-45 51 -45 90q0 33 19.5 51.5t52.5 18.5q12 0 28 -4z" />
    <glyph glyph-name="aacute" unicode="&#xe1;" horiz-adv-x="1077" 
d="M512 489h106v150q0 163 -39 235t-147 72q-62 0 -103.5 -21.5t-41.5 -64.5q0 -17 6 -35h55q17 -46 17 -82q0 -59 -38 -94t-96 -35q-60 0 -91 38t-31 102q0 115 103.5 178t268.5 63q102 0 171.5 -19t117.5 -64t70 -119t22 -185v-409q0 -62 16.5 -87.5t49.5 -25.5
q38 0 58 38.5t28 154.5l47 -5q-6 -160 -57.5 -227t-165.5 -67q-187 0 -211 145q-76 -145 -273 -145q-60 0 -110 12t-92 38.5t-65.5 74.5t-23.5 114q0 62 21.5 108.5t59 77t95 49.5t123.5 27t150 8zM442 61q71 0 123.5 56t52.5 147v174h-59q-129 0 -184.5 -55t-55.5 -158
q0 -164 123 -164zM362 1122l144 383l55 11q20 4 29 4q34 0 54 -18.5t20 -51.5q0 -38 -46 -90l-225 -254z" />
    <glyph glyph-name="acircumflex" unicode="&#xe2;" horiz-adv-x="1077" 
d="M512 489h106v150q0 163 -39 235t-147 72q-62 0 -103.5 -21.5t-41.5 -64.5q0 -17 6 -35h55q17 -46 17 -82q0 -59 -38 -94t-96 -35q-60 0 -91 38t-31 102q0 115 103.5 178t268.5 63q102 0 171.5 -19t117.5 -64t70 -119t22 -185v-409q0 -62 16.5 -87.5t49.5 -25.5
q38 0 58 38.5t28 154.5l47 -5q-6 -160 -57.5 -227t-165.5 -67q-187 0 -211 145q-76 -145 -273 -145q-60 0 -110 12t-92 38.5t-65.5 74.5t-23.5 114q0 62 21.5 108.5t59 77t95 49.5t123.5 27t150 8zM442 61q71 0 123.5 56t52.5 147v174h-59q-129 0 -184.5 -55t-55.5 -158
q0 -164 123 -164zM211 1120l213 363q40 22 80 22q57 0 88 -63l166 -320l-27 -18l-250 235l-245 -237z" />
    <glyph glyph-name="atilde" unicode="&#xe3;" horiz-adv-x="1077" 
d="M512 489h106v150q0 163 -39 235t-147 72q-62 0 -103.5 -21.5t-41.5 -64.5q0 -17 6 -35h55q17 -46 17 -82q0 -59 -38 -94t-96 -35q-60 0 -91 38t-31 102q0 115 103.5 178t268.5 63q102 0 171.5 -19t117.5 -64t70 -119t22 -185v-409q0 -62 16.5 -87.5t49.5 -25.5
q38 0 58 38.5t28 154.5l47 -5q-6 -160 -57.5 -227t-165.5 -67q-187 0 -211 145q-76 -145 -273 -145q-60 0 -110 12t-92 38.5t-65.5 74.5t-23.5 114q0 62 21.5 108.5t59 77t95 49.5t123.5 27t150 8zM442 61q71 0 123.5 56t52.5 147v174h-59q-129 0 -184.5 -55t-55.5 -158
q0 -164 123 -164zM623 1188q-73 0 -185 47q-87 35 -127 35q-67 0 -104 -88l-39 12q30 106 80 163.5t141 57.5q15 0 31 -2.5t26.5 -4.5t28.5 -8.5t25 -9.5t29 -12.5t28 -11.5q89 -33 125 -33q37 0 61.5 18t44.5 70l41 -10q-58 -223 -206 -223z" />
    <glyph glyph-name="adieresis" unicode="&#xe4;" horiz-adv-x="1077" 
d="M512 489h106v150q0 163 -39 235t-147 72q-62 0 -103.5 -21.5t-41.5 -64.5q0 -17 6 -35h55q17 -46 17 -82q0 -59 -38 -94t-96 -35q-60 0 -91 38t-31 102q0 115 103.5 178t268.5 63q102 0 171.5 -19t117.5 -64t70 -119t22 -185v-409q0 -62 16.5 -87.5t49.5 -25.5
q38 0 58 38.5t28 154.5l47 -5q-6 -160 -57.5 -227t-165.5 -67q-187 0 -211 145q-76 -145 -273 -145q-60 0 -110 12t-92 38.5t-65.5 74.5t-23.5 114q0 62 21.5 108.5t59 77t95 49.5t123.5 27t150 8zM442 61q71 0 123.5 56t52.5 147v174h-59q-129 0 -184.5 -55t-55.5 -158
q0 -164 123 -164zM561 1286q0 49 31.5 84t87.5 35q55 0 89 -30t34 -89q0 -56 -31.5 -89.5t-89.5 -33.5q-64 0 -92.5 35.5t-28.5 87.5zM162 1286q0 49 32.5 84t88.5 35q55 0 89 -30t34 -89q0 -55 -32 -89t-89 -34q-64 0 -93.5 35.5t-29.5 87.5z" />
    <glyph glyph-name="aring" unicode="&#xe5;" horiz-adv-x="1077" 
d="M512 489h106v150q0 163 -39 235t-147 72q-62 0 -103.5 -21.5t-41.5 -64.5q0 -17 6 -35h55q17 -46 17 -82q0 -59 -38 -94t-96 -35q-60 0 -91 38t-31 102q0 115 103.5 178t268.5 63q102 0 171.5 -19t117.5 -64t70 -119t22 -185v-409q0 -62 16.5 -87.5t49.5 -25.5
q38 0 58 38.5t28 154.5l47 -5q-6 -160 -57.5 -227t-165.5 -67q-187 0 -211 145q-76 -145 -273 -145q-60 0 -110 12t-92 38.5t-65.5 74.5t-23.5 114q0 62 21.5 108.5t59 77t95 49.5t123.5 27t150 8zM442 61q71 0 123.5 56t52.5 147v174h-59q-129 0 -184.5 -55t-55.5 -158
q0 -164 123 -164zM367 1319q0 -51 27.5 -85t86.5 -34q55 0 83 33.5t28 85.5q0 51 -29.5 85t-85.5 34q-53 0 -81.5 -35t-28.5 -84zM293 1319q0 76 49 126t141 50q88 0 135.5 -47t47.5 -125q0 -82 -49 -132t-138 -50q-94 0 -140 48t-46 130z" />
    <glyph glyph-name="ae" unicode="&#xe6;" horiz-adv-x="1556" 
d="M512 522h106v117q0 163 -39 235t-147 72q-79 0 -119 -31.5t-20 -89.5h55q5 -9 11 -34t6 -48q0 -59 -38 -94t-96 -35q-60 0 -91 37.5t-31 102.5q0 115 102.5 178t263.5 63q112 0 182.5 -36.5t110.5 -116.5q113 153 332 153q203 0 307 -140t84 -384h-621q0 -104 12 -177
t42.5 -130t86 -85t138.5 -28q116 0 188 65.5t99 182.5l57 -8q-68 -311 -410 -311q-263 0 -378 170q-106 -170 -338 -170q-61 0 -112.5 13t-96 41t-70 79.5t-25.5 122.5q0 286 449 286zM872 526h377q20 420 -170 420q-102 0 -154 -99.5t-53 -320.5zM467 61q61 0 119 38
t88 102q-53 109 -56 270h-71q-122 0 -175 -56.5t-53 -168.5q0 -185 148 -185z" />
    <glyph glyph-name="ccedilla" unicode="&#xe7;" horiz-adv-x="976" 
d="M578 946q-135 0 -195.5 -104.5t-60.5 -343.5q0 -234 61 -338.5t199 -104.5q230 0 282 267l58 -11q-9 -45 -20 -80t-38.5 -83t-65 -80.5t-101.5 -58t-146 -29.5l-53 -93q28 4 53 4q87 0 132.5 -44.5t45.5 -118.5q0 -77 -60 -133t-171 -56q-78 0 -128.5 36t-50.5 87
q0 33 19.5 50.5t46.5 17.5q24 0 44.5 -15t27.5 -41l-39 -34q0 -27 19.5 -45.5t56.5 -18.5q43 0 67.5 29.5t24.5 105.5q0 70 -20.5 102.5t-71.5 32.5q-29 0 -62 -8l-6 25l68 117q-208 8 -320.5 134.5t-112.5 356.5q0 256 135 390t369 134q168 0 259 -70t91 -190
q0 -80 -37 -120t-100 -40q-60 0 -96.5 35.5t-36.5 100.5q0 39 10 75h58q8 24 8 54q0 49 -35.5 77.5t-107.5 28.5z" />
    <glyph glyph-name="egrave" unicode="&#xe8;" horiz-adv-x="1005" 
d="M61 479q0 -233 118.5 -366t355.5 -133q341 0 409 311l-57 8q-27 -117 -99 -182.5t-188 -65.5q-156 0 -217 106t-61 330v41h620q9 231 -89.5 349t-301.5 118q-107 0 -195 -31t-154.5 -93t-103.5 -162t-37 -230zM698 584h-374q6 188 56 275t152 87q99 0 135.5 -86.5
t30.5 -275.5zM510 1505l143 -383l-30 -16l-226 254q-45 51 -45 90q0 33 19.5 51.5t52.5 18.5q13 0 29 -4z" />
    <glyph glyph-name="eacute" unicode="&#xe9;" horiz-adv-x="1005" 
d="M61 479q0 -233 118.5 -366t355.5 -133q341 0 409 311l-57 8q-27 -117 -99 -182.5t-188 -65.5q-156 0 -217 106t-61 330v41h620q9 231 -89.5 349t-301.5 118q-107 0 -195 -31t-154.5 -93t-103.5 -162t-37 -230zM698 584h-374q6 188 56 275t152 87q99 0 135.5 -86.5
t30.5 -275.5zM412 1122l143 383l55 11q20 4 29 4q34 0 54 -18.5t20 -51.5q0 -39 -45 -90l-226 -254z" />
    <glyph glyph-name="ecircumflex" unicode="&#xea;" horiz-adv-x="1005" 
d="M61 479q0 -233 118.5 -366t355.5 -133q341 0 409 311l-57 8q-27 -117 -99 -182.5t-188 -65.5q-156 0 -217 106t-61 330v41h620q9 231 -89.5 349t-301.5 118q-107 0 -195 -31t-154.5 -93t-103.5 -162t-37 -230zM698 584h-374q6 188 56 275t152 87q99 0 135.5 -86.5
t30.5 -275.5zM260 1120l213 363q40 22 80 22q57 0 88 -63l166 -320l-27 -18l-250 235l-245 -237z" />
    <glyph glyph-name="edieresis" unicode="&#xeb;" horiz-adv-x="1005" 
d="M61 479q0 130 37 230t103.5 162t154.5 93t195 31q203 0 301.5 -118t89.5 -349h-620v-41q0 -224 61 -330t217 -106q116 0 188 65.5t99 182.5l57 -8q-68 -311 -409 -311q-237 0 -355.5 133t-118.5 366zM324 584h374q6 189 -30.5 275.5t-135.5 86.5q-102 0 -152 -87
t-56 -275zM610 1286q0 49 31.5 84t87.5 35q55 0 89 -30t34 -89q0 -56 -31.5 -89.5t-89.5 -33.5q-64 0 -92.5 35.5t-28.5 87.5zM211 1286q0 49 32.5 84t88.5 35q55 0 89 -30t34 -89q0 -55 -32 -89t-89 -34q-64 0 -93.5 35.5t-29.5 87.5z" />
    <glyph glyph-name="igrave" unicode="&#xec;" horiz-adv-x="614" 
d="M47 975h387v-922h146v-53h-531v53h144v869h-146v53zM246 1505l143 -383l-31 -16l-225 254q-45 51 -45 90q0 33 19.5 51.5t52.5 18.5q12 0 28 -4z" />
    <glyph glyph-name="iacute" unicode="&#xed;" horiz-adv-x="614" 
d="M47 975h387v-922h146v-53h-531v53h144v869h-146v53zM147 1122l144 383l55 11q20 4 29 4q34 0 54 -18.5t20 -51.5q0 -38 -46 -90l-225 -254z" />
    <glyph glyph-name="icircumflex" unicode="&#xee;" horiz-adv-x="614" 
d="M47 975h387v-922h146v-53h-531v53h144v869h-146v53zM-4 1120l213 363q40 22 80 22q57 0 88 -63l166 -320l-27 -18l-250 235l-246 -237z" />
    <glyph glyph-name="idieresis" unicode="&#xef;" horiz-adv-x="614" 
d="M47 975h387v-922h146v-53h-531v53h144v869h-146v53zM346 1286q0 49 31.5 84t87.5 35q55 0 89 -30t34 -89q0 -56 -31.5 -89.5t-89.5 -33.5q-64 0 -92.5 35.5t-28.5 87.5zM-53 1286q0 49 32.5 84t88.5 35q55 0 88.5 -30t33.5 -89q0 -55 -31.5 -89t-88.5 -34
q-64 0 -93.5 35.5t-29.5 87.5z" />
    <glyph glyph-name="eth" unicode="&#xf0;" horiz-adv-x="1083" 
d="M461 1171l-25 52l174 131q-125 144 -368 190l6 35q301 -11 479 -137l176 135l25 -49l-156 -121q250 -216 250 -721q0 -706 -490 -706q-223 0 -347 134.5t-124 379.5q0 128 38.5 227t103 157t142 87.5t163.5 29.5q93 0 162 -45t106 -127q-9 154 -37 273.5t-96 214.5z
M532 946q-110 0 -160 -107t-50 -339q0 -113 10.5 -195.5t34.5 -146.5t67.5 -96.5t106.5 -32.5q124 0 172.5 112.5t48.5 364.5q0 85 -10.5 157.5t-35 139t-71.5 105t-113 38.5z" />
    <glyph glyph-name="ntilde" unicode="&#xf1;" horiz-adv-x="1259" 
d="M43 975h385v-189q40 89 123.5 149t222.5 60q307 0 307 -342v-600h146v-53h-525v53h138v631q0 121 -32 173t-112 52q-108 0 -188 -92t-80 -227v-537h139v-53h-524v53h143v869h-143v53zM760 1188q-73 0 -185 47q-87 35 -126 35q-68 0 -105 -88l-39 12q30 106 80 163.5
t141 57.5q15 0 31 -2.5t26.5 -4.5t28.5 -8.5t25 -9.5t29 -12.5t28 -11.5q89 -33 125 -33q37 0 62 18t45 70l41 -10q-58 -223 -207 -223z" />
    <glyph glyph-name="ograve" unicode="&#xf2;" horiz-adv-x="1079" 
d="M760 494q0 84 -5 147.5t-19 123t-38 98t-63 61t-92 22.5q-55 0 -94.5 -22t-63.5 -59.5t-38.5 -97t-19.5 -123.5t-5 -150q0 -71 3.5 -127t12.5 -111t25 -94.5t40 -70.5t59 -46.5t81 -15.5q65 0 108.5 30t67 93t32.5 143.5t9 198.5zM61 483q0 246 130.5 379t357.5 133
q469 0 469 -499q0 -244 -123.5 -380t-355.5 -136q-228 0 -353 131.5t-125 371.5zM522 1505l144 -383l-31 -16l-225 254q-45 51 -45 90q0 33 19 51.5t52 18.5q13 0 29 -4z" />
    <glyph glyph-name="oacute" unicode="&#xf3;" horiz-adv-x="1079" 
d="M760 494q0 84 -5 147.5t-19 123t-38 98t-63 61t-92 22.5q-55 0 -94.5 -22t-63.5 -59.5t-38.5 -97t-19.5 -123.5t-5 -150q0 -71 3.5 -127t12.5 -111t25 -94.5t40 -70.5t59 -46.5t81 -15.5q65 0 108.5 30t67 93t32.5 143.5t9 198.5zM61 483q0 246 130.5 379t357.5 133
q469 0 469 -499q0 -244 -123.5 -380t-355.5 -136q-228 0 -353 131.5t-125 371.5zM424 1122l143 383l56 11q20 4 28 4q34 0 54 -18.5t20 -51.5q0 -39 -45 -90l-225 -254z" />
    <glyph glyph-name="ocircumflex" unicode="&#xf4;" horiz-adv-x="1079" 
d="M760 494q0 84 -5 147.5t-19 123t-38 98t-63 61t-92 22.5q-55 0 -94.5 -22t-63.5 -59.5t-38.5 -97t-19.5 -123.5t-5 -150q0 -71 3.5 -127t12.5 -111t25 -94.5t40 -70.5t59 -46.5t81 -15.5q65 0 108.5 30t67 93t32.5 143.5t9 198.5zM61 483q0 246 130.5 379t357.5 133
q469 0 469 -499q0 -244 -123.5 -380t-355.5 -136q-228 0 -353 131.5t-125 371.5zM272 1120l213 363q40 22 80 22q57 0 88 -63l166 -320l-26 -18l-250 235l-246 -237z" />
    <glyph glyph-name="otilde" unicode="&#xf5;" horiz-adv-x="1079" 
d="M760 494q0 84 -5 147.5t-19 123t-38 98t-63 61t-92 22.5q-55 0 -94.5 -22t-63.5 -59.5t-38.5 -97t-19.5 -123.5t-5 -150q0 -71 3.5 -127t12.5 -111t25 -94.5t40 -70.5t59 -46.5t81 -15.5q65 0 108.5 30t67 93t32.5 143.5t9 198.5zM61 483q0 246 130.5 379t357.5 133
q469 0 469 -499q0 -244 -123.5 -380t-355.5 -136q-228 0 -353 131.5t-125 371.5zM684 1188q-72 0 -184 47q-88 35 -127 35q-68 0 -105 -88l-39 12q30 106 80.5 163.5t141.5 57.5q15 0 30.5 -2t27 -4.5t28.5 -9t25 -9.5t28.5 -12t27.5 -12q89 -33 125 -33q37 0 62 18t45 70
l41 -10q-58 -223 -207 -223z" />
    <glyph glyph-name="odieresis" unicode="&#xf6;" horiz-adv-x="1079" 
d="M760 494q0 84 -5 147.5t-19 123t-38 98t-63 61t-92 22.5q-55 0 -94.5 -22t-63.5 -59.5t-38.5 -97t-19.5 -123.5t-5 -150q0 -71 3.5 -127t12.5 -111t25 -94.5t40 -70.5t59 -46.5t81 -15.5q65 0 108.5 30t67 93t32.5 143.5t9 198.5zM61 483q0 246 130.5 379t357.5 133
q469 0 469 -499q0 -244 -123.5 -380t-355.5 -136q-228 0 -353 131.5t-125 371.5zM623 1286q0 49 31 84t87 35q55 0 89 -30t34 -89q0 -56 -31.5 -89.5t-89.5 -33.5q-64 0 -92 35.5t-28 87.5zM223 1286q0 49 32.5 84t88.5 35q55 0 89 -30t34 -89q0 -55 -32 -89t-89 -34
q-64 0 -93.5 35.5t-29.5 87.5z" />
    <glyph glyph-name="divide" unicode="&#xf7;" 
d="M457 950q0 49 29.5 81t82.5 32t85 -28t32 -83q0 -54 -29.5 -85t-83.5 -31q-61 0 -88.5 32.5t-27.5 81.5zM457 350q0 49 29.5 81t82.5 32t85 -28t32 -83q0 -54 -29.5 -85t-83.5 -31q-61 0 -88.5 32.5t-27.5 81.5zM1028 610h-930v74h930v-74z" />
    <glyph glyph-name="oslash" unicode="&#xf8;" horiz-adv-x="1079" 
d="M61 483q0 246 130.5 379t357.5 133q80 0 137 -14l53 137l58 -22l-49 -129q270 -92 270 -471q0 -244 -123.5 -380t-355.5 -136q-80 0 -162 20l-53 -139l-58 20l53 137q-126 54 -192 172.5t-66 292.5zM760 494q0 252 -58 358l-294 -770q50 -53 135 -53q65 0 108.5 30t67 93
t32.5 143.5t9 198.5zM322 494q0 -240 47 -347l288 760q-45 39 -114 39q-55 0 -94.5 -22t-63.5 -59.5t-38.5 -97t-19.5 -123.5t-5 -150z" />
    <glyph glyph-name="ugrave" unicode="&#xf9;" horiz-adv-x="1236" 
d="M1198 0h-367l-14 178q-95 -198 -334 -198q-309 0 -309 342v600h-145v53h387v-680q0 -125 30.5 -179.5t116.5 -54.5q98 0 173 90t75 205v566h-141v53h383v-922h145v-53zM555 1505l143 -383l-30 -16l-226 254q-45 51 -45 90q0 33 19.5 51.5t52.5 18.5q13 0 29 -4z" />
    <glyph glyph-name="uacute" unicode="&#xfa;" horiz-adv-x="1236" 
d="M1198 0h-367l-14 178q-95 -198 -334 -198q-309 0 -309 342v600h-145v53h387v-680q0 -125 30.5 -179.5t116.5 -54.5q98 0 173 90t75 205v566h-141v53h383v-922h145v-53zM459 1122l143 383l55 11q20 4 29 4q34 0 54 -18.5t20 -51.5q0 -39 -45 -90l-226 -254z" />
    <glyph glyph-name="ucircumflex" unicode="&#xfb;" horiz-adv-x="1236" 
d="M1198 0h-367l-14 178q-95 -198 -334 -198q-309 0 -309 342v600h-145v53h387v-680q0 -125 30.5 -179.5t116.5 -54.5q98 0 173 90t75 205v566h-141v53h383v-922h145v-53zM307 1120l213 363q40 22 80 22q57 0 88 -63l166 -320l-27 -18l-249 235l-246 -237z" />
    <glyph glyph-name="udieresis" unicode="&#xfc;" horiz-adv-x="1236" 
d="M1198 0h-367l-14 178q-95 -198 -334 -198q-309 0 -309 342v600h-145v53h387v-680q0 -125 30.5 -179.5t116.5 -54.5q98 0 173 90t75 205v566h-141v53h383v-922h145v-53zM657 1286q0 49 31.5 84t87.5 35q55 0 89 -30t34 -89q0 -56 -31.5 -89.5t-89.5 -33.5
q-64 0 -92.5 35.5t-28.5 87.5zM258 1286q0 49 32.5 84t88.5 35q55 0 89 -30t34 -89q0 -55 -32 -89t-89 -34q-64 0 -93.5 35.5t-29.5 87.5z" />
    <glyph glyph-name="yacute" unicode="&#xfd;" horiz-adv-x="1040" 
d="M4 975v-53h92l373 -924h41l-45 -125q-61 -173 -115 -250.5t-135 -77.5q-78 0 -78 58q0 16 10 43h66q12 44 12 73q0 56 -32 84.5t-87 28.5q-57 0 -95 -41.5t-38 -112.5q0 -77 57.5 -133.5t164.5 -56.5q119 0 187 72.5t144 273.5l412 1088h102v53h-331v-53h151l-250 -691
l-256 691h152v53h-502zM453 1122l143 383l55 11q20 4 29 4q34 0 54 -18.5t20 -51.5q0 -39 -45 -90l-226 -254z" />
    <glyph glyph-name="thorn" unicode="&#xfe;" horiz-adv-x="1187" 
d="M174 -434v1917h-151v53h391v-719q104 178 319 178q183 0 284 -126.5t101 -372.5q0 -255 -108 -385.5t-310 -130.5q-199 0 -282 126v-540h264v-53h-670v53h162zM412 625v-324q0 -100 65.5 -178t175.5 -78q116 0 160.5 100t44.5 344q0 224 -41 323t-153 99
q-99 0 -175.5 -80.5t-76.5 -205.5z" />
    <glyph glyph-name="ydieresis" unicode="&#xff;" horiz-adv-x="1040" 
d="M4 922v53h502v-53h-152l256 -691l250 691h-151v53h331v-53h-102l-412 -1088q-76 -201 -144 -273.5t-187 -72.5q-107 0 -164.5 56.5t-57.5 133.5q0 71 38 112.5t95 41.5q55 0 87 -28.5t32 -84.5q0 -29 -12 -73h-66q-10 -27 -10 -43q0 -58 78 -58q81 0 135 77.5t115 250.5
l45 125h-41l-373 924h-92zM649 1286q0 49 31.5 84t87.5 35q55 0 89 -30t34 -89q0 -56 -31.5 -89.5t-89.5 -33.5q-64 0 -92.5 35.5t-28.5 87.5zM250 1286q0 49 32.5 84t88.5 35q55 0 89 -30t34 -89q0 -55 -32 -89t-89 -34q-64 0 -93.5 35.5t-29.5 87.5z" />
    <glyph glyph-name="Amacron" unicode="&#x100;" horiz-adv-x="1376" 
d="M956 59l-141 418h-448l-150 -418h174v-59h-389v59h133l518 1387h84l504 -1387h133v-59h-586v59h168zM598 1118l-211 -581h408zM418 1591v117h557v-117h-557z" />
    <glyph glyph-name="amacron" unicode="&#x101;" horiz-adv-x="1077" 
d="M512 489h106v150q0 163 -39 235t-147 72q-62 0 -103.5 -21.5t-41.5 -64.5q0 -17 6 -35h55q17 -46 17 -82q0 -59 -38 -94t-96 -35q-60 0 -91 38t-31 102q0 115 103.5 178t268.5 63q102 0 171.5 -19t117.5 -64t70 -119t22 -185v-409q0 -62 16.5 -87.5t49.5 -25.5
q38 0 58 38.5t28 154.5l47 -5q-6 -160 -57.5 -227t-165.5 -67q-187 0 -211 145q-76 -145 -273 -145q-60 0 -110 12t-92 38.5t-65.5 74.5t-23.5 114q0 62 21.5 108.5t59 77t95 49.5t123.5 27t150 8zM442 61q71 0 123.5 56t52.5 147v174h-59q-129 0 -184.5 -55t-55.5 -158
q0 -164 123 -164zM205 1210v121h557v-121h-557z" />
    <glyph glyph-name="Abreve" unicode="&#x102;" horiz-adv-x="1376" 
d="M956 59l-141 418h-448l-150 -418h174v-59h-389v59h133l518 1387h84l504 -1387h133v-59h-586v59h168zM598 1118l-211 -581h408zM406 1788l45 8q31 -70 86 -102.5t165 -32.5q77 0 125.5 15t75.5 43.5t45 76.5l43 -8q-6 -53 -24 -98t-51.5 -84t-90.5 -61.5t-131 -22.5
q-256 0 -288 266z" />
    <glyph glyph-name="abreve" unicode="&#x103;" horiz-adv-x="1077" 
d="M512 489h106v150q0 163 -39 235t-147 72q-62 0 -103.5 -21.5t-41.5 -64.5q0 -17 6 -35h55q17 -46 17 -82q0 -59 -38 -94t-96 -35q-60 0 -91 38t-31 102q0 115 103.5 178t268.5 63q102 0 171.5 -19t117.5 -64t70 -119t22 -185v-409q0 -62 16.5 -87.5t49.5 -25.5
q38 0 58 38.5t28 154.5l47 -5q-6 -160 -57.5 -227t-165.5 -67q-187 0 -211 145q-76 -145 -273 -145q-60 0 -110 12t-92 38.5t-65.5 74.5t-23.5 114q0 62 21.5 108.5t59 77t95 49.5t123.5 27t150 8zM442 61q71 0 123.5 56t52.5 147v174h-59q-129 0 -184.5 -55t-55.5 -158
q0 -164 123 -164zM193 1423l43 9q31 -90 87 -130t169 -40q116 0 168 37.5t79 132.5l43 -9q-6 -62 -24 -114.5t-52 -97t-91 -70t-132 -25.5q-259 0 -290 307z" />
    <glyph glyph-name="Aogonek" unicode="&#x104;" horiz-adv-x="1376" 
d="M958 59l-143 418h-448l-152 -418h176v-59h-389v59h131l520 1397h84l506 -1397h131v-59h-188q-75 -60 -111.5 -120t-36.5 -146q0 -105 82 -105q35 0 59.5 18.5t59.5 63.5l31 -20q-16 -28 -30.5 -47.5t-40.5 -44.5t-63 -38.5t-83 -13.5q-90 0 -139.5 42t-49.5 116
q0 46 19.5 88.5t58 80t75.5 65t91 61.5h-320v59h170zM598 1128l-211 -591h408z" />
    <glyph glyph-name="aogonek" unicode="&#x105;" horiz-adv-x="1077" 
d="M512 489h106v150q0 163 -39 235t-147 72q-62 0 -103.5 -21.5t-41.5 -64.5q0 -17 6 -35h55q17 -46 17 -82q0 -59 -38 -94t-96 -35q-60 0 -91 38t-31 102q0 115 103.5 178t268.5 63q102 0 171.5 -19t117.5 -64t70 -119t22 -185v-409q0 -62 16.5 -87.5t49.5 -25.5
q38 0 58 38.5t28 154.5l47 -5q-4 -117 -27.5 -174t-70.5 -90q-82 -58 -122 -121t-40 -155q0 -105 82 -105q35 0 59 18.5t59 63.5l31 -20q-16 -28 -30.5 -47.5t-40.5 -44.5t-63 -38.5t-83 -13.5q-90 0 -139 42t-49 116q0 81 56 146t155 129q-187 0 -211 145
q-76 -145 -273 -145q-60 0 -110 12t-92 38.5t-65.5 74.5t-23.5 114q0 62 21.5 108.5t59 77t95 49.5t123.5 27t150 8zM442 61q71 0 123.5 56t52.5 147v174h-59q-129 0 -184.5 -55t-55.5 -158q0 -164 123 -164z" />
    <glyph glyph-name="Cacute" unicode="&#x106;" horiz-adv-x="1349" 
d="M768 1393q-200 0 -303 -160.5t-103 -511.5q0 -328 105.5 -503t310.5 -175q308 0 418 399h47l-14 -440h-31q-12 23 -22.5 32t-30.5 9q-24 0 -83 -15.5t-142 -31.5t-166 -16q-318 0 -495 180.5t-177 554.5q0 179 51.5 321t143.5 233t215.5 139t269.5 48q75 0 151.5 -16
t132 -31.5t80.5 -15.5q23 0 32.5 9t19.5 32h32l15 -428h-47q-55 195 -154 291t-256 96zM598 1530l283 305l49 -12q76 -21 76 -78q0 -52 -74 -88l-311 -156z" />
    <glyph glyph-name="cacute" unicode="&#x107;" horiz-adv-x="976" 
d="M578 946q-135 0 -195.5 -104.5t-60.5 -343.5q0 -234 61 -338.5t199 -104.5q230 0 282 267l58 -11q-6 -32 -13.5 -57.5t-22.5 -61.5t-34 -63.5t-50.5 -56.5t-70 -48t-93.5 -31.5t-120 -12.5q-219 0 -338 127.5t-119 363.5q0 256 135 390t369 134q168 0 259 -70t91 -190
q0 -80 -37 -120t-100 -40q-60 0 -96.5 35.5t-36.5 100.5q0 39 10 75h58q8 24 8 54q0 49 -35.5 77.5t-107.5 28.5zM424 1122l143 383l56 11q20 4 28 4q34 0 54 -18.5t20 -51.5q0 -39 -45 -90l-225 -254z" />
    <glyph glyph-name="Ccircumflex" unicode="&#x108;" horiz-adv-x="1349" 
d="M768 1393q-200 0 -303 -160.5t-103 -511.5q0 -328 105.5 -503t310.5 -175q308 0 418 399h47l-14 -440h-31q-12 23 -22.5 32t-30.5 9q-24 0 -83 -15.5t-142 -31.5t-166 -16q-318 0 -495 180.5t-177 554.5q0 179 51.5 321t143.5 233t215.5 139t269.5 48q75 0 151.5 -16
t132 -31.5t80.5 -15.5q23 0 32.5 9t19.5 32h32l15 -428h-47q-55 195 -154 291t-256 96zM444 1522l256 276q37 25 76 25q26 0 45 -14.5t47 -49.5l199 -233l-20 -31l-287 170l-291 -170z" />
    <glyph glyph-name="ccircumflex" unicode="&#x109;" horiz-adv-x="976" 
d="M578 946q-135 0 -195.5 -104.5t-60.5 -343.5q0 -234 61 -338.5t199 -104.5q230 0 282 267l58 -11q-6 -32 -13.5 -57.5t-22.5 -61.5t-34 -63.5t-50.5 -56.5t-70 -48t-93.5 -31.5t-120 -12.5q-219 0 -338 127.5t-119 363.5q0 256 135 390t369 134q168 0 259 -70t91 -190
q0 -80 -37 -120t-100 -40q-60 0 -96.5 35.5t-36.5 100.5q0 39 10 75h58q8 24 8 54q0 49 -35.5 77.5t-107.5 28.5zM264 1120l213 363q40 22 80 22q57 0 88 -63l166 -320l-27 -18l-249 235l-246 -237z" />
    <glyph glyph-name="Cdotaccent" unicode="&#x10a;" horiz-adv-x="1349" 
d="M768 1393q-200 0 -303 -160.5t-103 -511.5q0 -328 105.5 -503t310.5 -175q308 0 418 399h47l-14 -440h-31q-12 23 -22.5 32t-30.5 9q-24 0 -83 -15.5t-142 -31.5t-166 -16q-318 0 -495 180.5t-177 554.5q0 179 51.5 321t143.5 233t215.5 139t269.5 48q75 0 151.5 -16
t132 -31.5t80.5 -15.5q23 0 32.5 9t19.5 32h32l15 -428h-47q-55 195 -154 291t-256 96zM614 1686q0 59 38 99t108 40q66 0 104.5 -35t38.5 -104q0 -64 -36.5 -103t-106.5 -39q-78 0 -112 41t-34 101z" />
    <glyph glyph-name="cdotaccent" unicode="&#x10b;" horiz-adv-x="976" 
d="M578 946q-135 0 -195.5 -104.5t-60.5 -343.5q0 -234 61 -338.5t199 -104.5q230 0 282 267l58 -11q-6 -32 -13.5 -57.5t-22.5 -61.5t-34 -63.5t-50.5 -56.5t-70 -48t-93.5 -31.5t-120 -12.5q-219 0 -338 127.5t-119 363.5q0 256 135 390t369 134q168 0 259 -70t91 -190
q0 -80 -37 -120t-100 -40q-60 0 -96.5 35.5t-36.5 100.5q0 39 10 75h58q8 24 8 54q0 49 -35.5 77.5t-107.5 28.5zM393 1311q0 59 38 98t108 39q66 0 104.5 -34.5t38.5 -102.5q0 -64 -36.5 -103t-106.5 -39q-78 0 -112 41t-34 101z" />
    <glyph glyph-name="Ccaron" unicode="&#x10c;" horiz-adv-x="1349" 
d="M768 1393q-200 0 -303 -160.5t-103 -511.5q0 -328 105.5 -503t310.5 -175q308 0 418 399h47l-14 -440h-31q-12 23 -22.5 32t-30.5 9q-24 0 -83 -15.5t-142 -31.5t-166 -16q-318 0 -495 180.5t-177 554.5q0 179 51.5 321t143.5 233t215.5 139t269.5 48q75 0 151.5 -16
t132 -31.5t80.5 -15.5q23 0 32.5 9t19.5 32h32l15 -428h-47q-55 195 -154 291t-256 96zM1079 1810l-254 -276q-35 -23 -75 -23q-26 0 -46.5 14.5t-48.5 47.5l-198 235l22 29l285 -168l293 170z" />
    <glyph glyph-name="ccaron" unicode="&#x10d;" horiz-adv-x="976" 
d="M578 946q-135 0 -195.5 -104.5t-60.5 -343.5q0 -234 61 -338.5t199 -104.5q230 0 282 267l58 -11q-6 -32 -13.5 -57.5t-22.5 -61.5t-34 -63.5t-50.5 -56.5t-70 -48t-93.5 -31.5t-120 -12.5q-219 0 -338 127.5t-119 363.5q0 256 135 390t369 134q168 0 259 -70t91 -190
q0 -80 -37 -120t-100 -40q-60 0 -96.5 35.5t-36.5 100.5q0 39 10 75h58q8 24 8 54q0 49 -35.5 77.5t-107.5 28.5zM463 1143l-203 362l27 19l262 -238l237 236l27 -19l-182 -319q-36 -64 -90 -64q-37 0 -78 23z" />
    <glyph glyph-name="Dcaron" unicode="&#x10e;" horiz-adv-x="1482" 
d="M1393 741q0 -169 -42.5 -298.5t-116 -212.5t-183 -135.5t-232 -73.5t-274.5 -21h-482v59h166v1315h-166v60h537q193 0 336 -37t247 -117.5t157 -215.5t53 -323zM489 59h89q277 0 404.5 165t127.5 509q0 155 -22.5 266t-65 184t-113.5 115t-157.5 59t-208.5 17h-54v-1315z
M977 1810l-254 -276q-35 -23 -76 -23q-26 0 -46 14.5t-48 47.5l-199 235l23 29l285 -168l292 170z" />
    <glyph glyph-name="dcaron" unicode="&#x10f;" horiz-adv-x="1327" 
d="M528 63q-114 0 -156 99.5t-42 322.5q0 230 51 336.5t168 106.5q99 0 163 -78.5t64 -169.5v-348q0 -120 -75 -194.5t-173 -74.5zM774 152l17 -152h372v53h-149v1483h-420v-53h176v-621q-85 133 -274 133q-201 0 -313.5 -132t-112.5 -384q0 -245 104 -372t287 -127
q210 0 313 172zM1130 1081l-32 35q104 98 104 189q0 47 -24.5 79.5t-75.5 67.5l41 51q37 43 84 43q54 0 82 -42t28 -101q0 -161 -207 -322z" />
    <glyph glyph-name="Dcroat" unicode="&#x110;" horiz-adv-x="1509" 
d="M1419 741q0 -169 -42.5 -298.5t-116 -212.5t-183 -135.5t-232 -73.5t-274.5 -21h-481v59h166v668h-178v59h178v588h-166v60h537q193 0 336 -37t247 -118t156.5 -215.5t52.5 -322.5zM516 59h88q277 0 405 165.5t128 508.5q0 155 -22.5 266t-65 184t-114 115t-158 59
t-208.5 17h-53v-588h361v-59h-361v-668z" />
    <glyph glyph-name="dcroat" unicode="&#x111;" horiz-adv-x="1187" 
d="M791 0l-17 152q-103 -172 -313 -172q-183 0 -287 127t-104 372q0 252 112.5 384t313.5 132q189 0 274 -133v332h-367v53h367v236h-176v53h420v-289h139v-53h-139v-1141h149v-53h-372zM528 63q98 0 173 74.5t75 194.5v348q0 91 -64 169.5t-163 78.5q-117 0 -168 -106.5
t-51 -336.5q0 -223 42 -322.5t156 -99.5z" />
    <glyph glyph-name="Emacron" unicode="&#x112;" horiz-adv-x="1265" 
d="M74 1434h1026l20 -390h-49q-16 87 -41.5 146t-58 95.5t-83 56t-104 26t-135.5 6.5h-164v-612h99q115 0 165.5 56t75.5 206h45v-606h-49q-30 168 -79 223t-179 55h-78v-637h183q213 0 316 85.5t140 285.5h43l-16 -430h-1077v59h151v1315h-151v60zM354 1591v117h557v-117
h-557z" />
    <glyph glyph-name="emacron" unicode="&#x113;" horiz-adv-x="1005" 
d="M61 479q0 -233 118.5 -366t355.5 -133q341 0 409 311l-57 8q-27 -117 -99 -182.5t-188 -65.5q-156 0 -217 106t-61 330v41h620q9 231 -89.5 349t-301.5 118q-107 0 -195 -31t-154.5 -93t-103.5 -162t-37 -230zM698 584h-374q6 188 56 275t152 87q99 0 135.5 -86.5
t30.5 -275.5zM254 1210v121h557v-121h-557z" />
    <glyph glyph-name="Ebreve" unicode="&#x114;" horiz-adv-x="1265" 
d="M74 1434h1026l20 -390h-49q-16 87 -41.5 146t-58 95.5t-83 56t-104 26t-135.5 6.5h-164v-612h99q115 0 165.5 56t75.5 206h45v-606h-49q-30 168 -79 223t-179 55h-78v-637h183q213 0 316 85.5t140 285.5h43l-16 -430h-1077v59h151v1315h-151v60zM342 1788l45 8
q31 -70 86.5 -102.5t165.5 -32.5q77 0 125.5 15t75.5 43.5t45 76.5l43 -8q-6 -53 -24 -98t-51.5 -84t-90.5 -61.5t-131 -22.5q-257 0 -289 266z" />
    <glyph glyph-name="ebreve" unicode="&#x115;" horiz-adv-x="1005" 
d="M61 479q0 130 37 230t103.5 162t154.5 93t195 31q203 0 301.5 -118t89.5 -349h-620v-41q0 -224 61 -330t217 -106q116 0 188 65.5t99 182.5l57 -8q-68 -311 -409 -311q-237 0 -355.5 133t-118.5 366zM324 584h374q6 189 -30.5 275.5t-135.5 86.5q-102 0 -152 -87
t-56 -275zM231 1423l43 9q31 -90 87 -130t169 -40q116 0 168.5 37.5t79.5 132.5l43 -9q-6 -62 -24 -114.5t-52 -97t-91 -70t-132 -25.5q-260 0 -291 307z" />
    <glyph glyph-name="Edotaccent" unicode="&#x116;" horiz-adv-x="1265" 
d="M74 1434h1026l20 -390h-49q-16 87 -41.5 146t-58 95.5t-83 56t-104 26t-135.5 6.5h-164v-612h99q115 0 165.5 56t75.5 206h45v-606h-49q-30 168 -79 223t-179 55h-78v-637h183q213 0 316 85.5t140 285.5h43l-16 -430h-1077v59h151v1315h-151v60zM487 1686q0 59 38 99
t108 40q66 0 104.5 -35t38.5 -104q0 -64 -36.5 -103t-106.5 -39q-78 0 -112 41t-34 101z" />
    <glyph glyph-name="edotaccent" unicode="&#x117;" horiz-adv-x="1005" 
d="M61 479q0 130 37 230t103.5 162t154.5 93t195 31q203 0 301.5 -118t89.5 -349h-620v-41q0 -224 61 -330t217 -106q116 0 188 65.5t99 182.5l57 -8q-68 -311 -409 -311q-237 0 -355.5 133t-118.5 366zM324 584h374q6 189 -30.5 275.5t-135.5 86.5q-102 0 -152 -87
t-56 -275zM379 1311q0 59 37.5 98t107.5 39q66 0 105 -34.5t39 -102.5q0 -64 -37 -103t-107 -39q-78 0 -111.5 41t-33.5 101z" />
    <glyph glyph-name="Eogonek" unicode="&#x118;" horiz-adv-x="1265" 
d="M74 1434h1026l20 -390h-49q-16 87 -41.5 146t-58 95.5t-83 56t-104 26t-135.5 6.5h-164v-612h99q115 0 165.5 56t75.5 206h45v-606h-49q-30 168 -79 223t-179 55h-78v-637h183q213 0 316 85.5t140 285.5h43l-16 -430h-137q-75 -60 -111.5 -120t-36.5 -146q0 -105 82 -105
q35 0 59.5 18.5t59.5 63.5l31 -20q-16 -28 -30.5 -47.5t-40.5 -44.5t-63 -38.5t-83 -13.5q-90 0 -139.5 42t-49.5 116q0 46 19.5 88.5t58 80t75.5 65t91 61.5h-862v59h151v1315h-151v60z" />
    <glyph glyph-name="eogonek" unicode="&#x119;" horiz-adv-x="1005" 
d="M61 479q0 130 37 230t103.5 162t154.5 93t195 31q203 0 301.5 -118t89.5 -349h-620v-41q0 -224 61 -330t217 -106q116 0 188 65.5t99 182.5l57 -8q-39 -181 -192 -275q-168 -104 -168 -282q0 -105 82 -105q35 0 59 18.5t59 63.5l31 -20q-16 -28 -30.5 -47.5t-40.5 -44.5
t-63 -38.5t-83 -13.5q-90 0 -139 42t-49 116q0 84 59.5 150t163.5 133q-41 -8 -98 -8q-237 0 -355.5 133t-118.5 366zM324 584h374q6 189 -30.5 275.5t-135.5 86.5q-102 0 -152 -87t-56 -275z" />
    <glyph glyph-name="Ecaron" unicode="&#x11a;" horiz-adv-x="1265" 
d="M74 1434h1026l20 -390h-49q-16 87 -41.5 146t-58 95.5t-83 56t-104 26t-135.5 6.5h-164v-612h99q115 0 165.5 56t75.5 206h45v-606h-49q-30 168 -79 223t-179 55h-78v-637h183q213 0 316 85.5t140 285.5h43l-16 -430h-1077v59h151v1315h-151v60zM952 1810l-254 -276
q-35 -23 -75 -23q-26 0 -46.5 14.5t-48.5 47.5l-198 235l22 29l285 -168l293 170z" />
    <glyph glyph-name="ecaron" unicode="&#x11b;" horiz-adv-x="1005" 
d="M61 479q0 130 37 230t103.5 162t154.5 93t195 31q203 0 301.5 -118t89.5 -349h-620v-41q0 -224 61 -330t217 -106q116 0 188 65.5t99 182.5l57 -8q-68 -311 -409 -311q-237 0 -355.5 133t-118.5 366zM324 584h374q6 189 -30.5 275.5t-135.5 86.5q-102 0 -152 -87
t-56 -275zM461 1143l-203 362l27 19l262 -238l237 236l27 -19l-182 -319q-36 -64 -90 -64q-37 0 -78 23z" />
    <glyph glyph-name="Gcircumflex" unicode="&#x11c;" horiz-adv-x="1454" 
d="M770 43q86 0 148 36.5t90 102.5v342h-174v60h550v-60h-122v-522h-33q-14 26 -30.5 38.5t-47.5 12.5q-27 0 -90 -18.5t-146.5 -36.5t-160.5 -18q-124 0 -226.5 26.5t-186 83t-140.5 141.5t-88 205.5t-31 270.5q0 181 53 325.5t146.5 236t217.5 139.5t271 48q76 0 151 -16
t129.5 -31.5t79.5 -15.5q20 0 30 9t20 32h32l15 -428h-45q-109 387 -414 387q-200 0 -303 -162.5t-103 -517.5q0 -324 104 -497t304 -173zM453 1522l256 276q37 25 75 25q26 0 45.5 -15t47.5 -49l198 -233l-20 -31l-287 170l-291 -170z" />
    <glyph glyph-name="gcircumflex" unicode="&#x11d;" horiz-adv-x="1032" 
d="M225 1120l213 363q40 22 80 22q54 0 88 -63l127 -256l-22 -19l-205 181l-256 -246zM872 662q0 153 -110 245q-4 20 -4 60q0 91 26.5 136.5t63.5 45.5q49 0 55 -49l-47 -53q10 -23 37.5 -41.5t62.5 -18.5q46 0 76.5 33.5t30.5 77.5q0 61 -40.5 97t-104.5 36
q-73 0 -124 -44.5t-71 -109t-14 -135.5q-92 53 -205 53q-102 0 -181.5 -28.5t-127 -77.5t-71.5 -109.5t-24 -130.5q0 -233 191 -305q-102 -75 -144.5 -125t-42.5 -108q0 -68 56 -110t176 -42h248q156 0 222 -38t66 -130q0 -114 -98 -182t-282 -68q-153 0 -222 53t-69 142
q0 54 20 104l-69 47q-154 -35 -154 -163q0 -113 111.5 -174.5t332.5 -61.5q152 0 262.5 28.5t175 81t94.5 120.5t30 155q0 75 -22 131t-58.5 89.5t-92.5 54t-115 27.5t-134 7h-265q-50 0 -69 7.5t-19 23.5q0 38 119 115q77 -15 150 -15q172 0 273 93.5t101 255.5zM334 651
q0 114 20.5 181t53.5 90.5t84 23.5q79 0 115 -64.5t36 -228.5q0 -111 -19.5 -176t-50.5 -87.5t-79 -22.5q-55 0 -88.5 24t-52.5 87.5t-19 172.5z" />
    <glyph glyph-name="Gbreve" unicode="&#x11e;" horiz-adv-x="1454" 
d="M770 43q86 0 148 36.5t90 102.5v342h-174v60h550v-60h-122v-522h-33q-14 26 -30.5 38.5t-47.5 12.5q-27 0 -90 -18.5t-146.5 -36.5t-160.5 -18q-124 0 -226.5 26.5t-186 83t-140.5 141.5t-88 205.5t-31 270.5q0 181 53 325.5t146.5 236t217.5 139.5t271 48q76 0 151 -16
t129.5 -31.5t79.5 -15.5q20 0 30 9t20 32h32l15 -428h-45q-109 387 -414 387q-200 0 -303 -162.5t-103 -517.5q0 -324 104 -497t304 -173zM461 1788l45 8q31 -70 86.5 -102.5t165.5 -32.5q77 0 125.5 15t75.5 43.5t45 76.5l43 -8q-6 -53 -24 -98t-51.5 -84t-90.5 -61.5
t-131 -22.5q-257 0 -289 266z" />
    <glyph glyph-name="gbreve" unicode="&#x11f;" horiz-adv-x="1052" 
d="M872 662q0 -162 -101 -255.5t-273 -93.5q-73 0 -150 15q-119 -77 -119 -115q0 -16 19 -23.5t69 -7.5h265q75 0 134 -7t115 -27.5t92.5 -54t58.5 -89.5t22 -131q0 -87 -30 -155t-94.5 -120.5t-175 -81t-262.5 -28.5q-221 0 -332.5 61.5t-111.5 174.5q0 128 154 163l69 -47
q-20 -50 -20 -104q0 -89 69 -142t222 -53q184 0 282 68t98 182q0 92 -66 130t-222 38h-248q-120 0 -176 42t-56 110q0 58 42.5 108t144.5 125q-191 72 -191 305q0 70 24 130.5t71.5 109.5t127 77.5t181.5 28.5q118 0 207 -53q47 260 227 260q72 0 119 -42t47 -105
q0 -51 -29 -82t-76 -31q-39 0 -67.5 21t-38.5 49l43 63q-6 39 -47 39q-39 0 -74 -45.5t-55 -159.5q112 -91 112 -247zM334 651q0 -109 19 -172.5t52.5 -87.5t88.5 -24q48 0 79 22.5t50.5 87.5t19.5 176q0 164 -36 228.5t-115 64.5q-51 0 -84 -23.5t-53.5 -90.5t-20.5 -181z
M209 1423l43 9q31 -90 87 -130t169 -40q116 0 168.5 37.5t79.5 132.5l43 -9q-6 -62 -24 -114.5t-52 -97t-91 -70t-132 -25.5q-260 0 -291 307z" />
    <glyph glyph-name="Gdotaccent" unicode="&#x120;" horiz-adv-x="1454" 
d="M770 43q86 0 148 36.5t90 102.5v342h-174v60h550v-60h-122v-522h-33q-14 26 -30.5 38.5t-47.5 12.5q-27 0 -90 -18.5t-146.5 -36.5t-160.5 -18q-124 0 -226.5 26.5t-186 83t-140.5 141.5t-88 205.5t-31 270.5q0 181 53 325.5t146.5 236t217.5 139.5t271 48q76 0 151 -16
t129.5 -31.5t79.5 -15.5q20 0 30 9t20 32h32l15 -428h-45q-109 387 -414 387q-200 0 -303 -162.5t-103 -517.5q0 -324 104 -497t304 -173zM606 1686q0 59 38 99t108 40q66 0 104.5 -35t38.5 -104q0 -64 -36.5 -103t-106.5 -39q-78 0 -112 41t-34 101z" />
    <glyph glyph-name="gdotaccent" unicode="&#x121;" horiz-adv-x="1032" 
d="M872 662q0 -162 -101 -255.5t-273 -93.5q-73 0 -150 15q-119 -77 -119 -115q0 -16 19 -23.5t69 -7.5h265q75 0 134 -7t115 -27.5t92.5 -54t58.5 -89.5t22 -131q0 -87 -30 -155t-94.5 -120.5t-175 -81t-262.5 -28.5q-221 0 -332.5 61.5t-111.5 174.5q0 128 154 163l69 -47
q-20 -50 -20 -104q0 -89 69 -142t222 -53q184 0 282 68t98 182q0 92 -66 130t-222 38h-248q-120 0 -176 42t-56 110q0 58 42.5 108t144.5 125q-191 72 -191 305q0 70 24 130.5t71.5 109.5t127 77.5t181.5 28.5q113 0 205 -53q-6 71 14 135.5t71 109t124 44.5q64 0 104.5 -36
t40.5 -97q0 -44 -30.5 -77.5t-76.5 -33.5q-35 0 -62.5 18.5t-37.5 41.5l47 53q-6 49 -55 49q-37 0 -63.5 -45.5t-26.5 -136.5q0 -40 4 -60q110 -92 110 -245zM334 651q0 -109 19 -172.5t52.5 -87.5t88.5 -24q48 0 79 22.5t50.5 87.5t19.5 176q0 164 -36 228.5t-115 64.5
q-51 0 -84 -23.5t-53.5 -90.5t-20.5 -181zM344 1311q0 59 37.5 98t107.5 39q66 0 105 -34.5t39 -102.5q0 -64 -37 -103t-107 -39q-78 0 -111.5 41t-33.5 101z" />
    <glyph glyph-name="Gcommaaccent" unicode="&#x122;" horiz-adv-x="1454" 
d="M770 43q86 0 148 36.5t90 102.5v342h-174v60h550v-60h-122v-522h-33q-14 26 -30.5 38.5t-47.5 12.5q-27 0 -90 -18.5t-146.5 -36.5t-160.5 -18q-124 0 -226.5 26.5t-186 83t-140.5 141.5t-88 205.5t-31 270.5q0 181 53 325.5t146.5 236t217.5 139.5t271 48q76 0 151 -16
t129.5 -31.5t79.5 -15.5q20 0 30 9t20 32h32l15 -428h-45q-109 387 -414 387q-200 0 -303 -162.5t-103 -517.5q0 -324 104 -497t304 -173zM680 -561l-33 37q73 62 97 102t24 82q0 50 -35 61l-47 -49q-30 10 -52 36t-22 65q0 46 31.5 75t77.5 29q66 0 101.5 -43.5
t35.5 -107.5q0 -150 -178 -287z" />
    <glyph glyph-name="gcommaaccent" unicode="&#x123;" horiz-adv-x="1032" 
d="M872 662q0 153 -110 245q-4 20 -4 60q0 91 26.5 136.5t63.5 45.5q49 0 55 -49l-47 -53q10 -23 37.5 -41.5t62.5 -18.5q46 0 76.5 33.5t30.5 77.5q0 61 -40.5 97t-104.5 36q-73 0 -124 -44.5t-71 -109t-14 -135.5q-92 53 -205 53q-102 0 -181.5 -28.5t-127 -77.5
t-71.5 -109.5t-24 -130.5q0 -233 191 -305q-102 -75 -144.5 -125t-42.5 -108q0 -68 56 -110t176 -42h248q156 0 222 -38t66 -130q0 -114 -98 -182t-282 -68q-153 0 -222 53t-69 142q0 54 20 104l-69 47q-154 -35 -154 -163q0 -113 111.5 -174.5t332.5 -61.5
q152 0 262.5 28.5t175 81t94.5 120.5t30 155q0 75 -22 131t-58.5 89.5t-92.5 54t-115 27.5t-134 7h-265q-50 0 -69 7.5t-19 23.5q0 38 119 115q77 -15 150 -15q172 0 273 93.5t101 255.5zM334 651q0 114 20.5 181t53.5 90.5t84 23.5q79 0 115 -64.5t36 -228.5
q0 -111 -19.5 -176t-50.5 -87.5t-79 -22.5q-55 0 -88.5 24t-52.5 87.5t-19 172.5zM541 1583l37 -41q-117 -110 -117 -190q0 -39 28 -47l48 49q30 -10 53.5 -39t23.5 -68q0 -46 -33 -75t-79 -29q-66 0 -100.5 43.5t-34.5 107.5q0 155 174 289z" />
    <glyph glyph-name="Hcircumflex" unicode="&#x124;" horiz-adv-x="1552" 
d="M74 1434h563v-60h-152v-606h582v606h-152v60h564v-60h-152v-1315h152v-59h-564v59h152v635h-582v-635h152v-59h-563v59h151v1315h-151v60zM463 1522l256 276q37 25 76 25q26 0 45 -14.5t47 -49.5l198 -233l-20 -31l-287 170l-291 -170z" />
    <glyph glyph-name="hcircumflex" unicode="&#x125;" horiz-adv-x="1255" 
d="M43 1536h385v-750q40 89 123.5 149t222.5 60q307 0 307 -342v-600h146v-53h-525v53h138v625q0 129 -32 182t-110 53q-109 0 -189.5 -92t-80.5 -227v-541h139v-53h-524v53h143v1430h-143v53zM-59 1595l256 277q36 24 75 24q26 0 46 -14.5t47 -48.5l198 -234l-20 -30
l-287 170l-291 -170z" />
    <glyph glyph-name="Hbar" unicode="&#x126;" horiz-adv-x="1552" 
d="M74 1434h563v-60h-152v-272h582v272h-152v60h564v-60h-152v-272h164v-60h-164v-983h152v-59h-564v59h152v635h-582v-635h152v-59h-563v59h151v983h-162v60h162v272h-151v60zM485 768h582v274h-582v-274z" />
    <glyph glyph-name="hbar" unicode="&#x127;" horiz-adv-x="1255" 
d="M43 1536h385v-289h360v-53h-360v-408q40 89 123.5 149t222.5 60q307 0 307 -342v-600h146v-53h-525v53h138v625q0 129 -32 182t-110 53q-109 0 -189.5 -92t-80.5 -227v-541h139v-53h-524v53h143v1141h-147v53h147v236h-143v53z" />
    <glyph glyph-name="Itilde" unicode="&#x128;" horiz-adv-x="710" 
d="M82 1434h547v-60h-144v-1315h144v-59h-547v59h143v1315h-143v60zM489 1575q-72 0 -184 47q-87 35 -127 35q-67 0 -104 -88l-39 12q30 105 80 163t141 58q15 0 31 -2.5t26.5 -4.5t28.5 -8.5t25 -9.5t29 -12.5t28 -11.5q89 -33 125 -33q37 0 61.5 17.5t44.5 68.5l41 -10
q-58 -221 -207 -221z" />
    <glyph glyph-name="itilde" unicode="&#x129;" horiz-adv-x="614" 
d="M47 975h387v-922h146v-53h-531v53h144v869h-146v53zM408 1188q-73 0 -185 47q-87 35 -127 35q-67 0 -104 -88l-39 12q30 106 80 163.5t141 57.5q15 0 31 -2.5t26.5 -4.5t28.5 -8.5t25 -9.5t29 -12.5t28 -11.5q89 -33 125 -33q37 0 61.5 18t44.5 70l41 -10
q-58 -223 -206 -223z" />
    <glyph glyph-name="Imacron" unicode="&#x12a;" horiz-adv-x="710" 
d="M82 1434h547v-60h-144v-1315h144v-59h-547v59h143v1315h-143v60zM78 1591v117h557v-117h-557z" />
    <glyph glyph-name="imacron" unicode="&#x12b;" horiz-adv-x="614" 
d="M47 975h387v-922h146v-53h-531v53h144v869h-146v53zM-4 1210v121h557v-121h-557z" />
    <glyph glyph-name="Ibreve" unicode="&#x12c;" horiz-adv-x="710" 
d="M82 1434h547v-60h-144v-1315h144v-59h-547v59h143v1315h-143v60zM66 1788l45 8q31 -70 86 -102.5t165 -32.5q77 0 125.5 15t75.5 43.5t45 76.5l43 -8q-6 -53 -24 -98t-51.5 -84t-90.5 -61.5t-131 -22.5q-256 0 -288 266z" />
    <glyph glyph-name="ibreve" unicode="&#x12d;" horiz-adv-x="614" 
d="M47 975h387v-922h146v-53h-531v53h144v869h-146v53zM-23 1423l43 9q31 -90 87 -130t169 -40q116 0 168.5 37.5t79.5 132.5l43 -9q-6 -62 -24 -114.5t-52 -97t-91 -70t-132 -25.5q-260 0 -291 307z" />
    <glyph glyph-name="Iogonek" unicode="&#x12e;" horiz-adv-x="710" 
d="M82 1434h547v-60h-144v-1315h144v-59h-154q-74 -59 -110.5 -119.5t-36.5 -146.5q0 -105 82 -105q35 0 59 18.5t59 63.5l31 -20q-16 -28 -30.5 -47.5t-40.5 -44.5t-63 -38.5t-83 -13.5q-90 0 -139 42t-49 116q0 46 19.5 88.5t58 80t75.5 65.5t90 61h-315v59h143v1315h-143
v60z" />
    <glyph glyph-name="iogonek" unicode="&#x12f;" horiz-adv-x="614" 
d="M47 975h387v-922h146v-53h-154q-74 -59 -110.5 -119.5t-36.5 -146.5q0 -105 81 -105q35 0 59.5 18.5t59.5 63.5l31 -20q-16 -28 -30.5 -47.5t-40.5 -44.5t-63 -38.5t-83 -13.5q-90 0 -139.5 42t-49.5 116q0 46 19.5 88.5t58 80t75.5 65t91 61.5h-299v53h144v869h-146v53z
M154 1311q0 59 36.5 98t106.5 39q67 0 106 -34.5t39 -102.5q0 -64 -37 -103t-108 -39q-76 0 -109.5 41t-33.5 101z" />
    <glyph glyph-name="Idotaccent" unicode="&#x130;" horiz-adv-x="710" 
d="M82 1434h547v-60h-144v-1315h144v-59h-547v59h143v1315h-143v60zM211 1686q0 59 37.5 99t107.5 40q66 0 105 -35t39 -104q0 -64 -37 -103t-107 -39q-78 0 -111.5 41t-33.5 101z" />
    <glyph glyph-name="dotlessi" unicode="&#x131;" horiz-adv-x="614" 
d="M47 975h387v-922h146v-53h-531v53h144v869h-146v53z" />
    <glyph glyph-name="IJ" unicode="&#x132;" horiz-adv-x="1660" 
d="M82 1434h547v-60h-144v-1315h144v-59h-547v59h143v1315h-143v60zM1034 1434h588v-60h-143v-907q0 -231 -105 -358t-307 -127q-146 0 -225.5 61t-79.5 164q0 79 41.5 122.5t107.5 43.5q57 0 90 -32.5t33 -92.5q0 -43 -14 -92h-64q-8 -16 -8 -35q0 -35 30.5 -56.5
t86.5 -21.5q92 0 123 48.5t31 187.5v1095h-185v60z" />
    <glyph glyph-name="Jcircumflex" unicode="&#x134;" horiz-adv-x="950" 
d="M324 1434h587v-60h-143v-907q0 -231 -105 -358t-307 -127q-146 0 -225.5 61t-79.5 164q0 79 42 122.5t108 43.5q57 0 90 -32.5t33 -92.5q0 -40 -15 -92h-63q-8 -16 -8 -35q0 -35 30.5 -56.5t85.5 -21.5q92 0 123 48.5t31 187.5v1095h-184v60zM299 1522l256 276
q37 25 76 25q26 0 45 -14.5t47 -49.5l199 -233l-21 -31l-287 170l-290 -170z" />
    <glyph glyph-name="jcircumflex" unicode="&#x135;" horiz-adv-x="595" 
d="M430 975v-877q0 -127 -21.5 -233.5t-67 -193t-123.5 -135t-183 -48.5q-63 0 -109 17.5t-69.5 47t-34 61.5t-10.5 67q0 72 39.5 112.5t99.5 40.5q54 0 84.5 -29.5t30.5 -85.5q0 -30 -13 -77h-59q-10 -18 -10 -45q0 -58 75 -58q29 0 50 9t35 30t22.5 46.5t12.5 69t5.5 85
t1.5 106.5v1037h-157v53h401zM-35 1120l213 363q40 22 80 22q57 0 88 -63l166 -320l-27 -18l-249 235l-246 -237z" />
    <glyph glyph-name="Kcommaaccent" unicode="&#x136;" horiz-adv-x="1372" 
d="M82 1434h547v-60h-144v-637l64 17l512 624h-168v56h401v-56h-137l-409 -504l520 -819h112v-55h-561v55h139l-399 623l-74 -16v-603h144v-59h-547v59h143v1315h-143v60zM639 -561l-33 37q73 62 97 102t24 82q0 50 -35 61l-47 -49q-30 10 -52 36t-22 65q0 46 31.5 75
t77.5 29q66 0 101.5 -43.5t35.5 -107.5q0 -150 -178 -287z" />
    <glyph glyph-name="kcommaaccent" unicode="&#x137;" horiz-adv-x="1185" 
d="M674 0v53h131l-293 457l-84 -18v-439h123v-53h-508v53h143v1430h-145v53h387v-981l66 14l393 353h-176v53h411v-53h-141l-291 -267l387 -602h99v-53h-502zM545 -561l-33 37q73 62 97 102t24 82q0 50 -35 61l-47 -49q-30 10 -52 36t-22 65q0 46 31.5 75t77.5 29
q66 0 101.5 -43.5t35.5 -107.5q0 -150 -178 -287z" />
    <glyph glyph-name="kgreenlandic" unicode="&#x138;" horiz-adv-x="1185" 
d="M674 0v53h131l-293 457l-84 -18v-439h123v-53h-508v53h143v869h-145v53h387v-420l66 14l393 353h-176v53h411v-53h-141l-291 -267l387 -602h99v-53h-502z" />
    <glyph glyph-name="Lacute" unicode="&#x139;" horiz-adv-x="1204" 
d="M74 1434h628v-60h-217v-1315h136q111 0 188 21.5t131 71.5t87.5 123.5t59.5 187.5h50l-25 -463h-1038v59h151v1315h-151v60zM217 1530l283 305l49 -12q76 -21 76 -78q0 -52 -74 -88l-311 -156z" />
    <glyph glyph-name="lacute" unicode="&#x13a;" horiz-adv-x="616" 
d="M41 1536h389v-1483h143v-53h-530v53h143v1430h-145v53zM92 1614l283 305l49 -12q76 -21 76 -78q0 -52 -74 -88l-311 -156z" />
    <glyph glyph-name="Lcommaaccent" unicode="&#x13b;" horiz-adv-x="1204" 
d="M74 1434h628v-60h-217v-1315h136q111 0 188 21.5t131 71.5t87.5 123.5t59.5 187.5h50l-25 -463h-1038v59h151v1315h-151v60zM575 -561l-32 37q73 62 97 102t24 82q0 50 -35 61l-47 -49q-30 10 -52 36t-22 65q0 46 31.5 75t76.5 29q66 0 102 -43.5t36 -107.5
q0 -150 -179 -287z" />
    <glyph glyph-name="lcommaaccent" unicode="&#x13c;" horiz-adv-x="616" 
d="M41 1536h389v-1483h143v-53h-530v53h143v1430h-145v53zM254 -561l-33 37q73 62 97 102t24 82q0 50 -35 61l-47 -49q-30 10 -52 36t-22 65q0 46 31.5 75t77.5 29q66 0 101.5 -43.5t35.5 -107.5q0 -150 -178 -287z" />
    <glyph glyph-name="Lcaron" unicode="&#x13d;" horiz-adv-x="1204" 
d="M74 1434h628v-60h-217v-1315h136q111 0 188 21.5t131 71.5t87.5 123.5t59.5 187.5h50l-25 -463h-1038v59h151v1315h-151v60zM840 993l-33 35q104 98 104 189q0 47 -24.5 79.5t-75.5 67.5l41 51q37 43 84 43q54 0 82.5 -42t28.5 -101q0 -161 -207 -322z" />
    <glyph glyph-name="lcaron" unicode="&#x13e;" horiz-adv-x="716" 
d="M41 1536h389v-1483h143v-53h-530v53h143v1430h-145v53zM520 1081l-33 35q105 99 105 189q0 47 -24.5 79.5t-75.5 67.5l40 51q37 43 84 43q54 0 82.5 -42t28.5 -101q0 -161 -207 -322z" />
    <glyph glyph-name="Ldot" unicode="&#x13f;" horiz-adv-x="1204" 
d="M74 1434h628v-60h-217v-1315h136q111 0 188 21.5t131 71.5t87.5 123.5t59.5 187.5h50l-25 -463h-1038v59h151v1315h-151v60zM791 805q0 -60 33.5 -100.5t111.5 -40.5q70 0 106.5 38.5t36.5 102.5q0 69 -38.5 104t-104.5 35q-70 0 -107.5 -40t-37.5 -99z" />
    <glyph glyph-name="ldot" unicode="&#x140;" horiz-adv-x="702" 
d="M41 1536h389v-1483h143v-53h-530v53h143v1430h-145v53zM516 815q0 -59 34 -100t112 -41q70 0 106.5 38.5t36.5 102.5q0 68 -38.5 102.5t-104.5 34.5q-70 0 -108 -39t-38 -98z" />
    <glyph glyph-name="Lslash" unicode="&#x141;" horiz-adv-x="1204" 
d="M74 1434h628v-60h-217v-557l332 189l17 -60l-349 -201v-686h136q111 0 188 21.5t131 71.5t87.5 123.5t59.5 187.5h50l-25 -463h-1038v59h151v570l-184 -107l-16 62l200 114v676h-151v60z" />
    <glyph glyph-name="lslash" unicode="&#x142;" horiz-adv-x="624" 
d="M41 1536h389v-616l162 100l16 -66l-178 -110v-791h143v-53h-530v53h143v676l-155 -94l-17 65l172 105v678h-145v53z" />
    <glyph glyph-name="Nacute" unicode="&#x143;" horiz-adv-x="1435" 
d="M1225 1374v-1384h-121l-807 1333v-1264h143v-59h-358v59h143v1315h-143v60h453l618 -1033v973h-143v60h358v-60h-143zM614 1530l283 305l49 -12q76 -21 76 -78q0 -52 -74 -88l-311 -156z" />
    <glyph glyph-name="nacute" unicode="&#x144;" horiz-adv-x="1259" 
d="M43 975h385v-189q40 89 123.5 149t222.5 60q307 0 307 -342v-600h146v-53h-525v53h138v631q0 121 -32 173t-112 52q-108 0 -188 -92t-80 -227v-537h139v-53h-524v53h143v869h-143v53zM541 1122l143 383l55 11q20 4 29 4q34 0 54 -18.5t20 -51.5q0 -39 -45 -90l-226 -254z
" />
    <glyph glyph-name="Ncommaaccent" unicode="&#x145;" horiz-adv-x="1435" 
d="M1225 1374v-1384h-121l-807 1333v-1264h143v-59h-358v59h143v1315h-143v60h453l618 -1033v973h-143v60h358v-60h-143zM688 -561l-33 37q73 62 97 102t24 82q0 50 -35 61l-47 -49q-30 10 -51.5 36t-21.5 65q0 46 31.5 75t76.5 29q66 0 101.5 -43.5t35.5 -107.5
q0 -150 -178 -287z" />
    <glyph glyph-name="ncommaaccent" unicode="&#x146;" horiz-adv-x="1259" 
d="M43 975h385v-189q40 89 123.5 149t222.5 60q307 0 307 -342v-600h146v-53h-525v53h138v631q0 121 -32 173t-112 52q-108 0 -188 -92t-80 -227v-537h139v-53h-524v53h143v869h-143v53zM582 -561l-33 37q73 62 97 102t24 82q0 50 -35 61l-47 -49q-30 10 -52 36t-22 65
q0 46 31.5 75t77.5 29q66 0 101.5 -43.5t35.5 -107.5q0 -150 -178 -287z" />
    <glyph glyph-name="Ncaron" unicode="&#x147;" horiz-adv-x="1435" 
d="M1225 1374v-1384h-121l-807 1333v-1264h143v-59h-358v59h143v1315h-143v60h453l618 -1033v973h-143v60h358v-60h-143zM1077 1810l-254 -276q-35 -23 -75 -23q-26 0 -46.5 14.5t-48.5 47.5l-198 235l22 29l285 -168l293 170z" />
    <glyph glyph-name="ncaron" unicode="&#x148;" horiz-adv-x="1259" 
d="M43 975h385v-189q40 89 123.5 149t222.5 60q307 0 307 -342v-600h146v-53h-525v53h138v631q0 121 -32 173t-112 52q-108 0 -188 -92t-80 -227v-537h139v-53h-524v53h143v869h-143v53zM584 1143l-203 362l27 19l262 -238l237 236l27 -19l-182 -319q-36 -64 -90 -64
q-37 0 -78 23z" />
    <glyph glyph-name="napostrophe" unicode="&#x149;" horiz-adv-x="1259" 
d="M43 975h385v-189q40 89 123.5 149t222.5 60q307 0 307 -342v-600h146v-53h-525v53h138v631q0 121 -32 173t-112 52q-108 0 -188 -92t-80 -227v-537h139v-53h-524v53h143v869h-143v53zM-102 940l-35 41q117 110 117 190q0 40 -31 48l-45 -50q-31 10 -54.5 38.5t-23.5 68.5
q0 46 32.5 75t78.5 29q67 0 102 -43.5t35 -107.5q0 -154 -176 -289z" />
    <glyph glyph-name="Eng" unicode="&#x14a;" horiz-adv-x="1435" 
d="M1225 1374v-1292q0 -230 -90 -357.5t-261 -127.5q-148 0 -226.5 56.5t-78.5 158.5q0 79 42 122t108 43q58 0 90.5 -32.5t32.5 -91.5q0 -41 -15 -93h-63q-8 -16 -8 -34q0 -35 30.5 -56.5t85.5 -21.5q92 0 123 53t31 193v225l-729 1204v-1264h143v-59h-358v59h143v1315
h-143v60h453l618 -1033v973h-143v60h358v-60h-143z" />
    <glyph glyph-name="eng" unicode="&#x14b;" horiz-adv-x="1247" 
d="M43 975h385v-189q40 89 123.5 149t222.5 60q307 0 307 -342v-555q0 -101 -13 -189t-42.5 -166.5t-74 -134t-112 -88t-151.5 -32.5q-63 0 -109 17.5t-69.5 47t-34 61.5t-10.5 67q0 72 39.5 112.5t99.5 40.5q54 0 84.5 -29.5t30.5 -85.5q0 -33 -12 -77h-60q-10 -18 -10 -45
q0 -58 76 -58q29 0 50 9t35 30t22.5 46.5t12.5 69t5.5 85t1.5 106.5v799q0 121 -32 173t-112 52q-108 0 -188 -92t-80 -227v-537h139v-53h-524v53h143v869h-143v53z" />
    <glyph glyph-name="Omacron" unicode="&#x14c;" horiz-adv-x="1478" 
d="M1110 721q0 110 -5.5 193t-20 162.5t-41 135t-66.5 98t-98 63t-134 20.5q-80 0 -140.5 -20.5t-102 -64t-69 -99t-42 -137t-20.5 -166t-6 -197.5q0 -102 6 -183t21 -159.5t43 -135t68.5 -100.5t100.5 -66t137 -22q90 0 155.5 31.5t106.5 86.5t65 142.5t33 186t9 231.5z
M82 709q0 341 184 544t490 203q300 0 469.5 -192t169.5 -535q0 -353 -169.5 -551t-488.5 -198q-318 0 -486.5 188.5t-168.5 540.5zM461 1591v117h557v-117h-557z" />
    <glyph glyph-name="omacron" unicode="&#x14d;" horiz-adv-x="1079" 
d="M760 494q0 84 -5 147.5t-19 123t-38 98t-63 61t-92 22.5q-55 0 -94.5 -22t-63.5 -59.5t-38.5 -97t-19.5 -123.5t-5 -150q0 -71 3.5 -127t12.5 -111t25 -94.5t40 -70.5t59 -46.5t81 -15.5q65 0 108.5 30t67 93t32.5 143.5t9 198.5zM61 483q0 246 130.5 379t357.5 133
q469 0 469 -499q0 -244 -123.5 -380t-355.5 -136q-228 0 -353 131.5t-125 371.5zM270 1210v121h557v-121h-557z" />
    <glyph glyph-name="Obreve" unicode="&#x14e;" horiz-adv-x="1478" 
d="M1110 721q0 110 -5.5 193t-20 162.5t-41 135t-66.5 98t-98 63t-134 20.5q-80 0 -140.5 -20.5t-102 -64t-69 -99t-42 -137t-20.5 -166t-6 -197.5q0 -102 6 -183t21 -159.5t43 -135t68.5 -100.5t100.5 -66t137 -22q90 0 155.5 31.5t106.5 86.5t65 142.5t33 186t9 231.5z
M82 709q0 341 184 544t490 203q300 0 469.5 -192t169.5 -535q0 -353 -169.5 -551t-488.5 -198q-318 0 -486.5 188.5t-168.5 540.5zM455 1788l45 8q31 -70 86.5 -102.5t165.5 -32.5q112 0 164.5 31t80.5 104l43 -8q-6 -53 -24 -98t-51.5 -84t-90.5 -61.5t-131 -22.5
q-256 0 -288 266z" />
    <glyph glyph-name="obreve" unicode="&#x14f;" horiz-adv-x="1079" 
d="M760 494q0 84 -5 147.5t-19 123t-38 98t-63 61t-92 22.5q-55 0 -94.5 -22t-63.5 -59.5t-38.5 -97t-19.5 -123.5t-5 -150q0 -71 3.5 -127t12.5 -111t25 -94.5t40 -70.5t59 -46.5t81 -15.5q65 0 108.5 30t67 93t32.5 143.5t9 198.5zM61 483q0 246 130.5 379t357.5 133
q469 0 469 -499q0 -244 -123.5 -380t-355.5 -136q-228 0 -353 131.5t-125 371.5zM254 1423l43 9q31 -90 87 -130t169 -40q116 0 168.5 37.5t79.5 132.5l43 -9q-6 -62 -24 -114.5t-52 -97t-91 -70t-132 -25.5q-260 0 -291 307z" />
    <glyph glyph-name="Ohungarumlaut" unicode="&#x150;" horiz-adv-x="1478" 
d="M1110 721q0 110 -5.5 193t-20 162.5t-41 135t-66.5 98t-98 63t-134 20.5q-80 0 -140.5 -20.5t-102 -64t-69 -99t-42 -137t-20.5 -166t-6 -197.5q0 -102 6 -183t21 -159.5t43 -135t68.5 -100.5t100.5 -66t137 -22q90 0 155.5 31.5t106.5 86.5t65 142.5t33 186t9 231.5z
M82 709q0 341 184 544t490 203q300 0 469.5 -192t169.5 -535q0 -353 -169.5 -551t-488.5 -198q-318 0 -486.5 188.5t-168.5 540.5zM551 1530l217 352h47q37 -2 63.5 -20.5t26.5 -55.5q0 -42 -55 -84l-270 -217zM831 1532l236 338l43 -2q36 -5 62 -23.5t26 -52.5
q0 -44 -59 -86l-279 -201z" />
    <glyph glyph-name="ohungarumlaut" unicode="&#x151;" horiz-adv-x="1079" 
d="M760 494q0 84 -5 147.5t-19 123t-38 98t-63 61t-92 22.5q-55 0 -94.5 -22t-63.5 -59.5t-38.5 -97t-19.5 -123.5t-5 -150q0 -71 3.5 -127t12.5 -111t25 -94.5t40 -70.5t59 -46.5t81 -15.5q65 0 108.5 30t67 93t32.5 143.5t9 198.5zM61 483q0 246 130.5 379t357.5 133
q469 0 469 -499q0 -244 -123.5 -380t-355.5 -136q-228 0 -353 131.5t-125 371.5zM647 1126l144 383l55 13q10 2 28 2q33 0 51.5 -18.5t18.5 -51.5q0 -40 -45 -88l-221 -256zM356 1126l144 383l55 13q10 2 29 2q32 0 50.5 -18t18.5 -52q0 -40 -45 -88l-221 -256z" />
    <glyph glyph-name="OE" unicode="&#x152;" horiz-adv-x="2144" 
d="M1153 1434h825l21 -390h-47q-17 87 -42.5 146t-58 95.5t-83 56t-104.5 26t-136 6.5h-162v-612h98q116 0 166.5 56t75.5 206h43v-606h-47q-15 86 -32 136.5t-46.5 84t-71 45.5t-108.5 12h-78v-637h180q213 0 316.5 85.5t142.5 285.5h41l-14 -430h-879v150
q-73 -74 -182.5 -123.5t-243.5 -49.5q-311 0 -478 190.5t-167 541.5q0 340 183.5 543.5t486.5 203.5q257 0 401 -170v148zM1110 721q0 110 -5.5 193t-20 162.5t-41 135t-66.5 98t-98 63t-134 20.5q-80 0 -140.5 -20.5t-102 -64t-69 -99t-42 -137t-20.5 -166t-6 -197.5
q0 -102 6 -183t21 -159.5t43 -135t68.5 -100.5t100.5 -66t137 -22q90 0 155.5 31.5t106.5 86.5t65 142.5t33 186t9 231.5z" />
    <glyph glyph-name="oe" unicode="&#x153;" horiz-adv-x="1687" 
d="M1006 584h374q6 189 -30.5 275.5t-135.5 86.5q-102 0 -152 -87t-56 -275zM760 494q0 84 -5 147.5t-19 123t-38 98t-63 61t-92 22.5q-55 0 -94.5 -22t-63.5 -59.5t-38.5 -97t-19.5 -123.5t-5 -150q0 -71 3.5 -127t12.5 -111t25 -94.5t40 -70.5t59 -46.5t81 -15.5
q65 0 108.5 30t67 93t32.5 143.5t9 198.5zM61 483q0 246 130.5 379t357.5 133q229 0 332 -176q57 83 151 129.5t205 46.5q201 0 298.5 -118t88.5 -349h-620v-41q0 -224 61 -330t217 -106q116 0 188 65.5t99 182.5l57 -8q-68 -311 -391 -311q-126 0 -215 48.5t-143 123.5
q-118 -172 -347 -172q-223 0 -346 132t-123 371z" />
    <glyph glyph-name="Racute" unicode="&#x154;" horiz-adv-x="1370" 
d="M618 709h-133v-650h195v-59h-619v59h164v1315h-164v60h519q79 0 140.5 -3.5t124.5 -13t109.5 -25t87.5 -41.5t67 -61.5t41 -84.5t15 -111q0 -90 -27.5 -155.5t-80.5 -105t-122.5 -60.5t-162.5 -28v-6q186 -22 262 -98t76 -252v-162q0 -77 14.5 -108t67.5 -31q44 0 62 37
t40 151l47 -8q-21 -124 -40 -168q-45 -104 -164 -118q-19 -2 -41 -2q-145 0 -200.5 63.5t-55.5 214.5v244q0 106 -49 156.5t-173 50.5zM485 1374v-606h50q183 0 264.5 75t81.5 247q0 89 -19.5 145.5t-64 86.5t-102.5 41t-150 11h-60zM440 1530l283 305l49 -12q76 -21 76 -78
q0 -52 -74 -88l-311 -156z" />
    <glyph glyph-name="racute" unicode="&#x155;" horiz-adv-x="911" 
d="M641 915q-84 0 -148.5 -110t-64.5 -248v-504h199v-53h-584v53h143v869h-143v53h385v-193q30 106 98 159.5t160 53.5q94 0 151.5 -54.5t57.5 -143.5q0 -85 -39 -126.5t-102 -41.5q-59 0 -93 35t-34 104q0 30 6 57h63q6 16 6 39q0 51 -61 51zM342 1122l143 383l56 11
q20 4 28 4q34 0 54 -18.5t20 -51.5q0 -39 -45 -90l-225 -254z" />
    <glyph glyph-name="Rcommaaccent" unicode="&#x156;" horiz-adv-x="1370" 
d="M618 709h-133v-650h195v-59h-619v59h164v1315h-164v60h519q79 0 140.5 -3.5t124.5 -13t109.5 -25t87.5 -41.5t67 -61.5t41 -84.5t15 -111q0 -90 -27.5 -155.5t-80.5 -105t-122.5 -60.5t-162.5 -28v-6q186 -22 262 -98t76 -252v-162q0 -77 14.5 -108t67.5 -31q44 0 62 37
t40 151l47 -8q-21 -124 -40 -168q-45 -104 -164 -118q-19 -2 -41 -2q-145 0 -200.5 63.5t-55.5 214.5v244q0 106 -49 156.5t-173 50.5zM485 1374v-606h50q183 0 264.5 75t81.5 247q0 89 -19.5 145.5t-64 86.5t-102.5 41t-150 11h-60zM647 -561l-33 37q73 62 97 102t24 82
q0 50 -35 61l-47 -49q-30 10 -51.5 36t-21.5 65q0 46 31.5 75t76.5 29q66 0 101.5 -43.5t35.5 -107.5q0 -150 -178 -287z" />
    <glyph glyph-name="rcommaaccent" unicode="&#x157;" horiz-adv-x="911" 
d="M641 915q-84 0 -148.5 -110t-64.5 -248v-504h199v-53h-584v53h143v869h-143v53h385v-193q30 106 98 159.5t160 53.5q94 0 151.5 -54.5t57.5 -143.5q0 -85 -39 -126.5t-102 -41.5q-59 0 -93 35t-34 104q0 30 6 57h63q6 16 6 39q0 51 -61 51zM272 -561l-32 37
q73 61 96.5 101t23.5 83q0 51 -34 61l-47 -49q-30 10 -52 36t-22 65q0 46 31.5 75t76.5 29q66 0 102 -43.5t36 -107.5q0 -150 -179 -287z" />
    <glyph glyph-name="Rcaron" unicode="&#x158;" horiz-adv-x="1370" 
d="M618 709h-133v-650h195v-59h-619v59h164v1315h-164v60h519q79 0 140.5 -3.5t124.5 -13t109.5 -25t87.5 -41.5t67 -61.5t41 -84.5t15 -111q0 -90 -27.5 -155.5t-80.5 -105t-122.5 -60.5t-162.5 -28v-6q186 -22 262 -98t76 -252v-162q0 -77 14.5 -108t67.5 -31q44 0 62 37
t40 151l47 -8q-21 -124 -40 -168q-45 -104 -164 -118q-19 -2 -41 -2q-145 0 -200.5 63.5t-55.5 214.5v244q0 106 -49 156.5t-173 50.5zM485 1374v-606h50q183 0 264.5 75t81.5 247q0 89 -19.5 145.5t-64 86.5t-102.5 41t-150 11h-60zM940 1810l-254 -276q-35 -23 -76 -23
q-26 0 -46 14.5t-48 47.5l-199 235l23 29l285 -168l293 170z" />
    <glyph glyph-name="rcaron" unicode="&#x159;" horiz-adv-x="911" 
d="M641 915q-84 0 -148.5 -110t-64.5 -248v-504h199v-53h-584v53h143v869h-143v53h385v-193q30 106 98 159.5t160 53.5q94 0 151.5 -54.5t57.5 -143.5q0 -85 -39 -126.5t-102 -41.5q-59 0 -93 35t-34 104q0 30 6 57h63q6 16 6 39q0 51 -61 51zM377 1143l-203 362l27 19
l262 -238l237 236l27 -19l-182 -319q-36 -64 -90 -64q-37 0 -78 23z" />
    <glyph glyph-name="Sacute" unicode="&#x15a;" horiz-adv-x="1175" 
d="M600 43q148 0 242 75t94 197q0 29 -4 54t-14 46t-20 38t-31 33t-37 27.5t-47 24.5t-52 21t-61.5 20t-66.5 19t-75 20q-79 21 -134.5 41.5t-107.5 53t-83 74.5t-49.5 103.5t-18.5 141.5q0 81 28 156t81.5 135.5t139 96.5t191.5 36q73 0 141.5 -16t117 -31.5t71.5 -15.5
q21 0 31 9t22 32h31l15 -414h-46q-29 96 -60.5 160.5t-77 115t-108.5 74t-147 23.5q-132 0 -207 -66.5t-75 -173.5q0 -47 18 -84.5t45.5 -63t75.5 -48t90.5 -36.5t108.5 -32q61 -16 97 -26.5t90.5 -31.5t87.5 -41.5t71.5 -54.5t59.5 -73t35.5 -94.5t14.5 -121.5
q0 -207 -127 -336.5t-350 -129.5q-84 0 -164.5 15t-135 30.5t-75.5 15.5q-15 0 -25 -8.5t-15 -18t-15 -34.5h-35l-20 471h47q56 -197 159.5 -302.5t278.5 -105.5zM418 1530l282 305l50 -12q75 -21 75 -78q0 -52 -73 -88l-312 -156z" />
    <glyph glyph-name="sacute" unicode="&#x15b;" horiz-adv-x="890" 
d="M80 -20v346h51q21 -141 113 -211t223 -70q233 0 233 168q0 29 -8.5 52.5t-29 40.5t-39 28.5t-55.5 22t-60 15.5t-70 15q-45 9 -71.5 15t-68 18.5t-66 26t-54 35.5t-45.5 48.5t-27.5 64t-11.5 83.5q0 136 95 226.5t249 90.5q102 0 201 -47q37 -14 57 -14q17 0 24.5 15
t10.5 50h45v-305h-49q-67 244 -287 244q-98 0 -155.5 -38.5t-57.5 -106.5q0 -27 8 -48.5t27 -37.5t36 -26.5t51 -20.5t55 -15t64 -14q13 -3 19 -4q43 -9 71.5 -15.5t68 -20t65.5 -28.5t54.5 -39t45.5 -53.5t28 -71.5t11 -92q0 -149 -97 -238t-267 -89q-142 0 -266 67
q-18 12 -33 12t-24.5 -16.5t-18.5 -62.5h-45zM328 1122l143 383l55 11q20 4 29 4q34 0 54 -18.5t20 -51.5q0 -39 -45 -90l-226 -254z" />
    <glyph glyph-name="Scircumflex" unicode="&#x15c;" horiz-adv-x="1175" 
d="M600 43q148 0 242 75t94 197q0 29 -4 54t-14 46t-20 38t-31 33t-37 27.5t-47 24.5t-52 21t-61.5 20t-66.5 19t-75 20q-79 21 -134.5 41.5t-107.5 53t-83 74.5t-49.5 103.5t-18.5 141.5q0 81 28 156t81.5 135.5t139 96.5t191.5 36q73 0 141.5 -16t117 -31.5t71.5 -15.5
q21 0 31 9t22 32h31l15 -414h-46q-29 96 -60.5 160.5t-77 115t-108.5 74t-147 23.5q-132 0 -207 -66.5t-75 -173.5q0 -47 18 -84.5t45.5 -63t75.5 -48t90.5 -36.5t108.5 -32q61 -16 97 -26.5t90.5 -31.5t87.5 -41.5t71.5 -54.5t59.5 -73t35.5 -94.5t14.5 -121.5
q0 -207 -127 -336.5t-350 -129.5q-84 0 -164.5 15t-135 30.5t-75.5 15.5q-15 0 -25 -8.5t-15 -18t-15 -34.5h-35l-20 471h47q56 -197 159.5 -302.5t278.5 -105.5zM285 1522l256 276q37 25 75 25q26 0 45.5 -15t47.5 -49l198 -233l-20 -31l-287 170l-291 -170z" />
    <glyph glyph-name="scircumflex" unicode="&#x15d;" horiz-adv-x="890" 
d="M80 -20v346h51q21 -141 113 -211t223 -70q233 0 233 168q0 29 -8.5 52.5t-29 40.5t-39 28.5t-55.5 22t-60 15.5t-70 15q-45 9 -71.5 15t-68 18.5t-66 26t-54 35.5t-45.5 48.5t-27.5 64t-11.5 83.5q0 136 95 226.5t249 90.5q102 0 201 -47q37 -14 57 -14q17 0 24.5 15
t10.5 50h45v-305h-49q-67 244 -287 244q-98 0 -155.5 -38.5t-57.5 -106.5q0 -27 8 -48.5t27 -37.5t36 -26.5t51 -20.5t55 -15t64 -14q13 -3 19 -4q43 -9 71.5 -15.5t68 -20t65.5 -28.5t54.5 -39t45.5 -53.5t28 -71.5t11 -92q0 -149 -97 -238t-267 -89q-142 0 -266 67
q-18 12 -33 12t-24.5 -16.5t-18.5 -62.5h-45zM176 1120l213 363q40 22 80 22q57 0 88 -63l166 -320l-27 -18l-250 235l-245 -237z" />
    <glyph glyph-name="Scedilla" unicode="&#x15e;" horiz-adv-x="1175" 
d="M600 43q148 0 242 75t94 197q0 29 -4 54t-14 46t-20 38t-31 33t-37 27.5t-47 24.5t-52 21t-61.5 20t-66.5 19t-75 20q-79 21 -134.5 41.5t-107.5 53t-83 74.5t-49.5 103.5t-18.5 141.5q0 81 28 156t81.5 135.5t139 96.5t191.5 36q73 0 141.5 -16t117 -31.5t71.5 -15.5
q21 0 31 9t22 32h31l15 -414h-46q-29 96 -60.5 160.5t-77 115t-108.5 74t-147 23.5q-132 0 -207 -66.5t-75 -173.5q0 -47 18 -84.5t45.5 -63t75.5 -48t90.5 -36.5t108.5 -32q61 -16 97 -26.5t90.5 -31.5t87.5 -41.5t71.5 -54.5t59.5 -73t35.5 -94.5t14.5 -121.5
q0 -204 -123 -333t-340 -133l-53 -93q28 4 53 4q87 0 133 -44.5t46 -118.5q0 -77 -60.5 -133t-171.5 -56q-78 0 -128 36t-50 87q0 33 19.5 50.5t46.5 17.5q24 0 44 -15t27 -41l-39 -34q0 -27 19.5 -45.5t56.5 -18.5q43 0 67.5 29.5t24.5 105.5q0 70 -20.5 102.5t-71.5 32.5
q-28 0 -61 -8l-7 25l70 119q-98 5 -207.5 32t-126.5 27q-15 0 -25 -8.5t-15 -18t-15 -34.5h-35l-20 471h47q56 -197 159.5 -302.5t278.5 -105.5z" />
    <glyph glyph-name="scedilla" unicode="&#x15f;" horiz-adv-x="890" 
d="M80 -20v346h51q21 -141 113 -211t223 -70q233 0 233 168q0 29 -8.5 52.5t-29 40.5t-39 28.5t-55.5 22t-60 15.5t-70 15q-45 9 -71.5 15t-68 18.5t-66 26t-54 35.5t-45.5 48.5t-27.5 64t-11.5 83.5q0 136 95 226.5t249 90.5q102 0 201 -47q37 -14 57 -14q17 0 24.5 15
t10.5 50h45v-305h-49q-67 244 -287 244q-98 0 -155.5 -38.5t-57.5 -106.5q0 -27 8 -48.5t27 -37.5t36 -26.5t51 -20.5t55 -15t64 -14q13 -3 19 -4q43 -9 71.5 -15.5t68 -20t65.5 -28.5t54.5 -39t45.5 -53.5t28 -71.5t11 -92q0 -147 -95.5 -235.5t-262.5 -91.5l-53 -93
q28 4 53 4q87 0 132.5 -44.5t45.5 -118.5q0 -77 -60 -133t-171 -56q-78 0 -128 36t-50 87q0 33 19 50.5t46 17.5q24 0 44.5 -15t27.5 -41l-39 -34q0 -27 19.5 -45.5t56.5 -18.5q43 0 67.5 29.5t24.5 105.5q0 70 -20.5 102.5t-71.5 32.5q-29 0 -62 -8l-6 25l70 119
q-120 11 -217 65q-18 12 -33 12t-24.5 -16.5t-18.5 -62.5h-45z" />
    <glyph glyph-name="Scaron" unicode="&#x160;" horiz-adv-x="1175" 
d="M600 43q148 0 242 75t94 197q0 29 -4 54t-14 46t-20 38t-31 33t-37 27.5t-47 24.5t-52 21t-61.5 20t-66.5 19t-75 20q-79 21 -134.5 41.5t-107.5 53t-83 74.5t-49.5 103.5t-18.5 141.5q0 81 28 156t81.5 135.5t139 96.5t191.5 36q73 0 141.5 -16t117 -31.5t71.5 -15.5
q21 0 31 9t22 32h31l15 -414h-46q-29 96 -60.5 160.5t-77 115t-108.5 74t-147 23.5q-132 0 -207 -66.5t-75 -173.5q0 -47 18 -84.5t45.5 -63t75.5 -48t90.5 -36.5t108.5 -32q61 -16 97 -26.5t90.5 -31.5t87.5 -41.5t71.5 -54.5t59.5 -73t35.5 -94.5t14.5 -121.5
q0 -207 -127 -336.5t-350 -129.5q-84 0 -164.5 15t-135 30.5t-75.5 15.5q-15 0 -25 -8.5t-15 -18t-15 -34.5h-35l-20 471h47q56 -197 159.5 -302.5t278.5 -105.5zM899 1810l-254 -276q-35 -23 -76 -23q-26 0 -46 14.5t-48 47.5l-199 235l23 29l285 -168l293 170z" />
    <glyph glyph-name="scaron" unicode="&#x161;" horiz-adv-x="890" 
d="M80 -20v346h51q21 -141 113 -211t223 -70q233 0 233 168q0 29 -8.5 52.5t-29 40.5t-39 28.5t-55.5 22t-60 15.5t-70 15q-45 9 -71.5 15t-68 18.5t-66 26t-54 35.5t-45.5 48.5t-27.5 64t-11.5 83.5q0 136 95 226.5t249 90.5q102 0 201 -47q37 -14 57 -14q17 0 24.5 15
t10.5 50h45v-305h-49q-67 244 -287 244q-98 0 -155.5 -38.5t-57.5 -106.5q0 -27 8 -48.5t27 -37.5t36 -26.5t51 -20.5t55 -15t64 -14q13 -3 19 -4q43 -9 71.5 -15.5t68 -20t65.5 -28.5t54.5 -39t45.5 -53.5t28 -71.5t11 -92q0 -149 -97 -238t-267 -89q-142 0 -266 67
q-18 12 -33 12t-24.5 -16.5t-18.5 -62.5h-45zM377 1143l-203 362l27 19l262 -238l237 236l27 -19l-182 -319q-36 -64 -90 -64q-37 0 -78 23z" />
    <glyph glyph-name="uni0162" unicode="&#x162;" horiz-adv-x="1316" 
d="M1239 1434l21 -437h-50q-17 84 -35.5 143.5t-44.5 101.5t-54 68t-70 40t-85 19t-106 5h-24v-1315h188v-59h-289l-65 -113q28 4 53 4q87 0 132.5 -44.5t45.5 -118.5q0 -77 -60 -133t-171 -56q-78 0 -128.5 36t-50.5 87q0 33 19.5 50.5t46.5 17.5q24 0 44.5 -15t27.5 -41
l-39 -34q0 -27 19.5 -45.5t56.5 -18.5q43 0 67.5 29.5t24.5 105.5q0 70 -20.5 102.5t-71.5 32.5q-29 0 -62 -8l-6 25l80 137h-293v59h188v1315h-26q-62 0 -106 -5t-85.5 -20t-69.5 -40.5t-54 -68t-45 -101.5t-36 -142h-49l21 437h1161z" />
    <glyph glyph-name="uni0163" unicode="&#x163;" horiz-adv-x="790" 
d="M172 240v682h-143v53h143v264l242 64v-328h282v-53h-282v-672q0 -93 27.5 -133.5t97.5 -40.5q77 0 119.5 55t56.5 162l49 -6q-7 -65 -23.5 -114.5t-49 -95t-89 -70.5t-135.5 -27l-53 -93q28 4 53 4q87 0 132.5 -44.5t45.5 -118.5q0 -77 -60 -133t-171 -56q-78 0 -128 36
t-50 87q0 33 19 50.5t46 17.5q24 0 44.5 -15t27.5 -41l-39 -34q0 -27 19.5 -45.5t56.5 -18.5q43 0 67.5 29.5t24.5 105.5q0 70 -20.5 102.5t-71.5 32.5q-29 0 -62 -8l-6 25l70 119q-115 8 -177.5 68t-62.5 190z" />
    <glyph glyph-name="Tcaron" unicode="&#x164;" horiz-adv-x="1316" 
d="M1239 1434l21 -437h-50q-17 84 -35.5 143.5t-44.5 101.5t-54 68t-70 40t-85 19t-106 5h-24v-1315h188v-59h-639v59h188v1315h-26q-62 0 -106 -5t-85.5 -20t-69.5 -40.5t-54 -68t-45 -101.5t-36 -142h-49l21 437h1161zM979 1810l-254 -276q-35 -23 -76 -23q-26 0 -46 14.5
t-48 47.5l-199 235l23 29l285 -168l292 170z" />
    <glyph glyph-name="tcaron" unicode="&#x165;" horiz-adv-x="790" 
d="M172 240v682h-143v53h143v264l242 64v-328h282v-53h-282v-672q0 -93 27.5 -133.5t97.5 -40.5q77 0 119.5 55t56.5 162l49 -6q-7 -66 -24 -116.5t-50.5 -96t-92 -70t-140.5 -24.5q-136 0 -210.5 59t-74.5 201zM530 1079l-32 35q104 98 104 189q0 47 -24.5 79.5t-75.5 67.5
l41 51q37 43 84 43q54 0 82 -42t28 -101q0 -161 -207 -322z" />
    <glyph glyph-name="Tbar" unicode="&#x166;" horiz-adv-x="1316" 
d="M1239 1434l21 -437h-50q-17 84 -35.5 143.5t-44.5 101.5t-54 68t-70 40t-85 19t-106 5h-24v-590h335v-59h-335v-666h188v-59h-639v59h188v666h-338v59h338v590h-26q-62 0 -106 -5t-85.5 -20t-69.5 -40.5t-54 -68t-45 -101.5t-36 -142h-49l21 437h1161z" />
    <glyph glyph-name="tbar" unicode="&#x167;" horiz-adv-x="790" 
d="M172 240v338h-141v53h141v291h-143v53h143v264l242 64v-328h282v-53h-282v-291h280v-53h-280v-328q0 -93 27.5 -133.5t97.5 -40.5q77 0 119.5 55t56.5 162l49 -6q-7 -66 -24 -116.5t-50.5 -96t-92 -70t-140.5 -24.5q-136 0 -210.5 59t-74.5 201z" />
    <glyph glyph-name="Utilde" unicode="&#x168;" horiz-adv-x="1439" 
d="M799 53q-96 0 -162.5 29.5t-102 84.5t-50.5 120t-15 151v936h147v60h-550v-60h143v-909q0 -134 36 -229t107 -150.5t165 -80.5t220 -25q140 0 238 33t154.5 99t82 154t25.5 207v901h141v60h-362v-60h145v-923q0 -195 -96 -296.5t-266 -101.5zM901 1575q-72 0 -184 47
q-88 35 -127 35q-68 0 -105 -88l-39 12q30 105 80.5 163t141.5 58q15 0 31 -2.5t26.5 -4.5t28.5 -8.5t25 -9.5t29 -12.5t28 -11.5q89 -33 125 -33q37 0 61.5 17.5t44.5 68.5l41 -10q-58 -221 -207 -221z" />
    <glyph glyph-name="utilde" unicode="&#x169;" horiz-adv-x="1236" 
d="M1198 0h-367l-14 178q-95 -198 -334 -198q-309 0 -309 342v600h-145v53h387v-680q0 -125 30.5 -179.5t116.5 -54.5q98 0 173 90t75 205v566h-141v53h383v-922h145v-53zM723 1188q-72 0 -184 47q-88 35 -127 35q-68 0 -105 -88l-39 12q30 106 80 163.5t141 57.5
q15 0 31 -2.5t26.5 -4.5t28.5 -8.5t25 -9.5t29 -12.5t28 -11.5q89 -33 125 -33q37 0 62 18t45 70l41 -10q-58 -223 -207 -223z" />
    <glyph glyph-name="Umacron" unicode="&#x16a;" horiz-adv-x="1439" 
d="M799 53q-96 0 -162.5 29.5t-102 84.5t-50.5 120t-15 151v936h147v60h-550v-60h143v-909q0 -134 36 -229t107 -150.5t165 -80.5t220 -25q140 0 238 33t154.5 99t82 154t25.5 207v901h141v60h-362v-60h145v-923q0 -195 -96 -296.5t-266 -101.5zM489 1591v117h558v-117h-558
z" />
    <glyph glyph-name="umacron" unicode="&#x16b;" horiz-adv-x="1236" 
d="M1198 0h-367l-14 178q-95 -198 -334 -198q-309 0 -309 342v600h-145v53h387v-680q0 -125 30.5 -179.5t116.5 -54.5q98 0 173 90t75 205v566h-141v53h383v-922h145v-53zM301 1210v121h557v-121h-557z" />
    <glyph glyph-name="Ubreve" unicode="&#x16c;" horiz-adv-x="1439" 
d="M799 53q170 0 266 101.5t96 296.5v923h-145v60h362v-60h-141v-901q0 -119 -25.5 -207t-82 -154t-154.5 -99t-238 -33q-126 0 -220 25t-165 80.5t-107 150.5t-36 229v909h-143v60h550v-60h-147v-936q0 -86 15 -151t50.5 -120t102 -84.5t162.5 -29.5zM477 1788l45 8
q31 -70 86.5 -102.5t165.5 -32.5q77 0 125.5 15t75.5 43.5t45 76.5l43 -8q-6 -53 -24 -98t-51.5 -84t-90.5 -61.5t-131 -22.5q-257 0 -289 266z" />
    <glyph glyph-name="ubreve" unicode="&#x16d;" horiz-adv-x="1236" 
d="M1198 0h-367l-14 178q-95 -198 -334 -198q-309 0 -309 342v600h-145v53h387v-680q0 -125 30.5 -179.5t116.5 -54.5q98 0 173 90t75 205v566h-141v53h383v-922h145v-53zM287 1423l43 9q31 -90 87 -130t169 -40q116 0 168.5 37.5t79.5 132.5l43 -9q-6 -62 -24 -114.5
t-52 -97t-91 -70t-132 -25.5q-260 0 -291 307z" />
    <glyph glyph-name="Uring" unicode="&#x16e;" horiz-adv-x="1439" 
d="M799 53q-96 0 -162.5 29.5t-102 84.5t-50.5 120t-15 151v936h147v60h-550v-60h143v-909q0 -134 36 -229t107 -150.5t165 -80.5t220 -25q140 0 238 33t154.5 99t82 154t25.5 207v901h141v60h-362v-60h145v-923q0 -195 -96 -296.5t-266 -101.5zM657 1702q0 -49 28 -83
t85 -34q53 0 81 33.5t28 83.5q0 49 -29.5 83t-83.5 34q-51 0 -80 -34.5t-29 -82.5zM582 1702q0 76 49 126t141 50q88 0 135 -47t47 -125q0 -82 -48.5 -132t-137.5 -50q-94 0 -140 48t-46 130z" />
    <glyph glyph-name="uring" unicode="&#x16f;" horiz-adv-x="1236" 
d="M1198 0h-367l-14 178q-95 -198 -334 -198q-309 0 -309 342v600h-145v53h387v-680q0 -125 30.5 -179.5t116.5 -54.5q98 0 173 90t75 205v566h-141v53h383v-922h145v-53zM467 1319q0 -51 28 -85t87 -34q54 0 82 33t28 86q0 51 -29 85t-85 34q-53 0 -82 -35t-29 -84z
M393 1319q0 76 49.5 126t141.5 50q88 0 135 -47t47 -125q0 -82 -48.5 -132t-137.5 -50q-94 0 -140.5 48t-46.5 130z" />
    <glyph glyph-name="Uhungarumlaut" unicode="&#x170;" horiz-adv-x="1439" 
d="M799 53q-96 0 -162.5 29.5t-102 84.5t-50.5 120t-15 151v936h147v60h-550v-60h143v-909q0 -134 36 -229t107 -150.5t165 -80.5t220 -25q140 0 238 33t154.5 99t82 154t25.5 207v901h141v60h-362v-60h145v-923q0 -195 -96 -296.5t-266 -101.5zM528 1530l217 352h48
q37 -2 63.5 -20.5t26.5 -55.5q0 -41 -56 -84l-270 -217zM809 1532l235 338l43 -2q37 -5 63 -23.5t26 -52.5q0 -43 -60 -86l-278 -201z" />
    <glyph glyph-name="uhungarumlaut" unicode="&#x171;" horiz-adv-x="1236" 
d="M1198 0h-367l-14 178q-95 -198 -334 -198q-309 0 -309 342v600h-145v53h387v-680q0 -125 30.5 -179.5t116.5 -54.5q98 0 173 90t75 205v566h-141v53h383v-922h145v-53zM672 1126l143 383l55 13q10 2 29 2q33 0 51.5 -18.5t18.5 -51.5q0 -40 -45 -88l-222 -256zM381 1126
l143 383l56 13q10 2 28 2q33 0 51.5 -18.5t18.5 -51.5q0 -40 -45 -88l-221 -256z" />
    <glyph glyph-name="Uogonek" unicode="&#x172;" horiz-adv-x="1439" 
d="M799 53q170 0 266 101.5t96 296.5v923h-145v60h362v-60h-141v-901q0 -166 -53.5 -271t-175.5 -177q-78 -44 -120 -120t-42 -171q0 -105 82 -105q35 0 59.5 18.5t59.5 63.5l30 -20q-16 -28 -30.5 -47.5t-40.5 -44.5t-63 -38.5t-83 -13.5q-90 0 -139 42t-49 116
q0 79 57 146t164 143q-100 -14 -156 -14q-126 0 -220 25t-165 80.5t-107 150.5t-36 229v909h-143v60h550v-60h-147v-936q0 -86 15 -151t50.5 -120t102 -84.5t162.5 -29.5z" />
    <glyph glyph-name="uogonek" unicode="&#x173;" horiz-adv-x="1236" 
d="M1198 0h-123q-74 -59 -110.5 -119.5t-36.5 -146.5q0 -105 82 -105q35 0 59 18.5t59 63.5l31 -20q-16 -28 -30.5 -47.5t-40.5 -44.5t-63 -38.5t-83 -13.5q-90 0 -139 42t-49 116q0 46 19.5 88.5t58 80t75.5 65.5t90 61h-166l-14 178q-95 -198 -334 -198q-309 0 -309 342
v600h-145v53h387v-680q0 -125 30.5 -179.5t116.5 -54.5q98 0 173 90t75 205v566h-141v53h383v-922h145v-53z" />
    <glyph glyph-name="Wcircumflex" unicode="&#x174;" horiz-adv-x="2062" 
d="M743 336l277 694l-125 344h-135v60h590v-60h-179l361 -1016l311 1016h-205v60h420v-60h-135l-438 -1384h-84l-342 934l-369 -934h-82l-475 1384h-131v60h598v-60h-184zM739 1522l256 276q37 25 76 25q26 0 45 -14.5t47 -49.5l199 -233l-21 -31l-286 170l-291 -170z" />
    <glyph glyph-name="wcircumflex" unicode="&#x175;" horiz-adv-x="1585" 
d="M618 975v-53h97l63 -179l-192 -501l-234 680h131v53h-483v-53h92l354 -936h107l264 671l258 -671h107l303 936h100v53h-330v-53h156l-205 -670l-250 670h119v53h-457zM573 1120l213 363q40 22 80 22q57 0 88 -63l166 -320l-26 -18l-250 235l-246 -237z" />
    <glyph glyph-name="Ycircumflex" unicode="&#x176;" horiz-adv-x="1263" 
d="M727 752l315 622h-200v60h418v-60h-140l-356 -698v-617h162v-59h-584v59h162v609l-369 706h-133v60h594v-60h-174zM342 1522l256 276q37 25 76 25q26 0 45 -14.5t47 -49.5l199 -233l-21 -31l-287 170l-290 -170z" />
    <glyph glyph-name="ycircumflex" unicode="&#x177;" horiz-adv-x="1040" 
d="M4 975v-53h92l373 -924h41l-45 -125q-61 -173 -115 -250.5t-135 -77.5q-78 0 -78 58q0 16 10 43h66q12 44 12 73q0 56 -32 84.5t-87 28.5q-57 0 -95 -41.5t-38 -112.5q0 -77 57.5 -133.5t164.5 -56.5q119 0 187 72.5t144 273.5l412 1088h102v53h-331v-53h151l-250 -691
l-256 691h152v53h-502zM276 1120l213 363q40 22 80 22q57 0 88 -63l166 -320l-26 -18l-250 235l-246 -237z" />
    <glyph glyph-name="Ydieresis" unicode="&#x178;" horiz-adv-x="1263" 
d="M727 752l315 622h-200v60h418v-60h-140l-356 -698v-617h162v-59h-584v59h162v609l-369 706h-133v60h594v-60h-174zM739 1669q0 50 31.5 84.5t87.5 34.5q55 0 89 -30t34 -89q0 -56 -31.5 -89.5t-89.5 -33.5q-63 0 -92 36t-29 87zM336 1669q0 50 32.5 84.5t88.5 34.5
q55 0 89 -30t34 -89q0 -56 -31.5 -89.5t-89.5 -33.5q-62 0 -92.5 36.5t-30.5 86.5z" />
    <glyph glyph-name="Zacute" unicode="&#x179;" horiz-adv-x="1275" 
d="M1128 1434v-58l-716 -1317h266q193 0 296.5 94.5t147.5 315.5h49l-24 -469h-1041v51l721 1323h-241q-66 0 -108.5 -4t-87 -16.5t-73.5 -36.5t-58 -64.5t-50.5 -99t-42.5 -141.5h-47l22 422h987zM469 1530l283 305l49 -12q76 -21 76 -78q0 -52 -74 -88l-311 -156z" />
    <glyph glyph-name="zacute" unicode="&#x17a;" horiz-adv-x="991" 
d="M913 975v-51l-559 -871h226q71 0 119 16.5t83.5 57t58 93t48.5 140.5h41l-25 -360h-827v45l569 877h-209q-51 0 -82.5 -3t-62.5 -13.5t-50.5 -27.5t-40 -49.5t-37 -74.5t-36.5 -107h-43l23 328h804zM383 1122l143 383l56 11q20 4 28 4q34 0 54 -18.5t20 -51.5
q0 -39 -45 -90l-225 -254z" />
    <glyph glyph-name="Zdotaccent" unicode="&#x17b;" horiz-adv-x="1275" 
d="M1128 1434v-58l-716 -1317h266q193 0 296.5 94.5t147.5 315.5h49l-24 -469h-1041v51l721 1323h-241q-66 0 -108.5 -4t-87 -16.5t-73.5 -36.5t-58 -64.5t-50.5 -99t-42.5 -141.5h-47l22 422h987zM479 1686q0 59 38 99t108 40q66 0 104.5 -35t38.5 -104q0 -64 -36.5 -103
t-106.5 -39q-78 0 -112 41t-34 101z" />
    <glyph glyph-name="zdotaccent" unicode="&#x17c;" horiz-adv-x="991" 
d="M913 975v-51l-559 -871h226q71 0 119 16.5t83.5 57t58 93t48.5 140.5h41l-25 -360h-827v45l569 877h-209q-51 0 -82.5 -3t-62.5 -13.5t-50.5 -27.5t-40 -49.5t-37 -74.5t-36.5 -107h-43l23 328h804zM356 1311q0 59 38 98t108 39q66 0 104.5 -34.5t38.5 -102.5
q0 -64 -36.5 -103t-106.5 -39q-78 0 -112 41t-34 101z" />
    <glyph glyph-name="Zcaron" unicode="&#x17d;" horiz-adv-x="1275" 
d="M1128 1434v-58l-716 -1317h266q193 0 296.5 94.5t147.5 315.5h49l-24 -469h-1041v51l721 1323h-241q-66 0 -108.5 -4t-87 -16.5t-73.5 -36.5t-58 -64.5t-50.5 -99t-42.5 -141.5h-47l22 422h987zM950 1810l-254 -276q-34 -23 -75 -23q-26 0 -46.5 14.5t-48.5 47.5
l-198 235l22 29l285 -168l293 170z" />
    <glyph glyph-name="zcaron" unicode="&#x17e;" horiz-adv-x="991" 
d="M913 975v-51l-559 -871h226q71 0 119 16.5t83.5 57t58 93t48.5 140.5h41l-25 -360h-827v45l569 877h-209q-51 0 -82.5 -3t-62.5 -13.5t-50.5 -27.5t-40 -49.5t-37 -74.5t-36.5 -107h-43l23 328h804zM432 1143l-203 362l27 19l262 -238l238 236l26 -19l-182 -319
q-36 -64 -90 -64q-37 0 -78 23z" />
    <glyph glyph-name="longs" unicode="&#x17f;" horiz-adv-x="700" 
d="M594 1534q-42 0 -72.5 -14.5t-48 -37.5t-27.5 -60t-13 -73.5t-3 -86.5v-1209h246v-53h-633v53h143v869h-149v53h149v92q0 516 414 516q127 0 203 -60t76 -159q0 -68 -35 -107.5t-94 -39.5q-62 0 -97 31.5t-35 88.5q0 17 13 76h61q6 16 6 45q0 76 -104 76z" />
    <glyph glyph-name="florin" unicode="&#x192;" horiz-adv-x="1052" 
d="M797 831l-11 -53h-276l-121 -706q-42 -240 -162 -371t-317 -131q-120 0 -184 56.5t-64 140.5q0 71 42 119t114 48q56 0 87.5 -31t31.5 -83q0 -27 -13 -68l-84 -4q-20 -33 -20 -59q0 -31 26 -50.5t76 -19.5q35 0 61.5 7.5t46 26.5t32 38t23 57.5t17 68.5t15.5 85l153 876
h-147l12 53h146l22 132q35 231 158.5 362t326.5 131q119 0 182.5 -53t63.5 -141q0 -73 -37 -118.5t-110 -45.5q-57 0 -90 31.5t-33 80.5q0 44 12 74l76 2q18 45 18 62q0 57 -98 57q-41 0 -71.5 -15t-50.5 -38t-35.5 -63.5t-24.5 -78.5t-19 -96l-49 -283h275z" />
    <glyph glyph-name="Aringacute" unicode="&#x1fa;" horiz-adv-x="1376" 
d="M510 1614q0 76 49 126t141 50q88 0 135.5 -47t47.5 -125q0 -70 -37 -118t-103 -60l498 -1381h133v-59h-586v59h168l-141 418h-448l-150 -418h174v-59h-389v59h133l512 1381q-69 12 -103 57.5t-34 116.5zM598 1128l-211 -591h408zM528 1825l283 305l49 -12q76 -21 76 -78
q0 -52 -74 -88l-311 -156zM586 1614q0 -50 27.5 -83.5t84.5 -33.5q53 0 81 33.5t28 83.5q0 49 -29.5 83t-83.5 34q-51 0 -79.5 -34.5t-28.5 -82.5z" />
    <glyph glyph-name="aringacute" unicode="&#x1fb;" horiz-adv-x="1077" 
d="M512 489h106v150q0 163 -39 235t-147 72q-62 0 -103.5 -21.5t-41.5 -64.5q0 -17 6 -35h55q17 -46 17 -82q0 -59 -38 -94t-96 -35q-60 0 -91 38t-31 102q0 115 103.5 178t268.5 63q102 0 171.5 -19t117.5 -64t70 -119t22 -185v-409q0 -62 16.5 -87.5t49.5 -25.5
q38 0 58 38.5t28 154.5l47 -5q-6 -160 -57.5 -227t-165.5 -67q-187 0 -211 145q-76 -145 -273 -145q-60 0 -110 12t-92 38.5t-65.5 74.5t-23.5 114q0 62 21.5 108.5t59 77t95 49.5t123.5 27t150 8zM442 61q71 0 123.5 56t52.5 147v174h-59q-129 0 -184.5 -55t-55.5 -158
q0 -164 123 -164zM371 1264q0 -51 27.5 -85t86.5 -34q55 0 83 33.5t28 85.5q0 50 -29.5 84t-85.5 34q-53 0 -81.5 -34.5t-28.5 -83.5zM297 1264q0 76 49 126t141 50q88 0 135.5 -47t47.5 -125q0 -82 -49 -132.5t-138 -50.5q-94 0 -140 48.5t-46 130.5zM322 1513l282 306
l49 -13q76 -21 76 -77q0 -53 -74 -89l-311 -155z" />
    <glyph glyph-name="AEacute" unicode="&#x1fc;" horiz-adv-x="1937" 
d="M635 1434h1137l20 -390h-47q-17 87 -42.5 146t-58 95.5t-83 56t-104.5 26t-136 6.5h-162v-631h84q124 0 177 54t79 209h43v-607h-47q-15 86 -32 136.5t-46.5 84.5t-71 46t-108.5 12h-78v-619h180q213 0 316.5 85.5t142.5 285.5h41l-14 -430h-1077v59h151v617h-385
l-313 -617h166v-59h-365v59h117l667 1315h-151v60zM899 1374h-33l-321 -633h354v633zM1073 1530l283 305l49 -12q76 -21 76 -78q0 -52 -74 -88l-311 -156z" />
    <glyph glyph-name="aeacute" unicode="&#x1fd;" horiz-adv-x="1556" 
d="M512 522h106v117q0 163 -39 235t-147 72q-79 0 -119 -31.5t-20 -89.5h55q5 -9 11 -34t6 -48q0 -59 -38 -94t-96 -35q-60 0 -91 37.5t-31 102.5q0 115 102.5 178t263.5 63q112 0 182.5 -36.5t110.5 -116.5q113 153 332 153q203 0 307 -140t84 -384h-621q0 -104 12 -177
t42.5 -130t86 -85t138.5 -28q116 0 188 65.5t99 182.5l57 -8q-68 -311 -410 -311q-263 0 -378 170q-106 -170 -338 -170q-61 0 -112.5 13t-96 41t-70 79.5t-25.5 122.5q0 286 449 286zM872 526h377q20 420 -170 420q-102 0 -154 -99.5t-53 -320.5zM467 61q61 0 119 38
t88 102q-53 109 -56 270h-71q-122 0 -175 -56.5t-53 -168.5q0 -185 148 -185zM659 1122l144 383l55 11q20 4 29 4q34 0 54 -18.5t20 -51.5q0 -38 -46 -90l-225 -254z" />
    <glyph glyph-name="Oslashacute" unicode="&#x1fe;" horiz-adv-x="1478" 
d="M82 709q0 341 184 544t490 203q105 0 211 -29l59 158l66 -22l-60 -160q174 -74 268.5 -247.5t94.5 -426.5q0 -353 -169.5 -551t-488.5 -198q-120 0 -229 28l-62 -164l-65 23l61 166q-177 73 -268.5 245.5t-91.5 430.5zM1110 721q0 214 -25.5 353.5t-93.5 219.5
l-448 -1196q76 -55 198 -55q90 0 155.5 31.5t106.5 86.5t65 142.5t33 186t9 231.5zM365 709q0 -200 26.5 -340t93.5 -222l449 1196q-79 50 -189 50q-80 0 -140.5 -20.5t-102 -64t-69 -99t-42 -137t-20.5 -166t-6 -197.5zM575 1530l283 305l49 -12q76 -21 76 -78
q0 -52 -74 -88l-311 -156z" />
    <glyph glyph-name="oslashacute" unicode="&#x1ff;" horiz-adv-x="1079" 
d="M61 483q0 246 130.5 379t357.5 133q80 0 137 -14l53 137l58 -22l-49 -129q270 -92 270 -471q0 -244 -123.5 -380t-355.5 -136q-80 0 -162 20l-53 -139l-58 20l53 137q-126 54 -192 172.5t-66 292.5zM760 494q0 252 -58 358l-294 -770q50 -53 135 -53q65 0 108.5 30t67 93
t32.5 143.5t9 198.5zM322 494q0 -240 47 -347l288 760q-45 39 -114 39q-55 0 -94.5 -22t-63.5 -59.5t-38.5 -97t-19.5 -123.5t-5 -150zM459 1122l143 383l55 11q20 4 29 4q34 0 54 -18.5t20 -51.5q0 -39 -45 -90l-226 -254z" />
    <glyph glyph-name="Scommaaccent" unicode="&#x218;" horiz-adv-x="1175" 
d="M600 43q148 0 242 75t94 197q0 29 -4 54t-14 46t-20 38t-31 33t-37 27.5t-47 24.5t-52 21t-61.5 20t-66.5 19t-75 20q-79 21 -134.5 41.5t-107.5 53t-83 74.5t-49.5 103.5t-18.5 141.5q0 81 28 156t81.5 135.5t139 96.5t191.5 36q73 0 141.5 -16t117 -31.5t71.5 -15.5
q21 0 31 9t22 32h31l15 -414h-46q-29 96 -60.5 160.5t-77 115t-108.5 74t-147 23.5q-132 0 -207 -66.5t-75 -173.5q0 -47 18 -84.5t45.5 -63t75.5 -48t90.5 -36.5t108.5 -32q61 -16 97 -26.5t90.5 -31.5t87.5 -41.5t71.5 -54.5t59.5 -73t35.5 -94.5t14.5 -121.5
q0 -207 -127 -336.5t-350 -129.5q-84 0 -164.5 15t-135 30.5t-75.5 15.5q-15 0 -25 -8.5t-15 -18t-15 -34.5h-35l-20 471h47q56 -197 159.5 -302.5t278.5 -105.5zM535 -561l-33 37q73 62 97 102t24 82q0 50 -35 61l-47 -49q-30 10 -52 36t-22 65q0 46 31.5 75t76.5 29
q66 0 102 -43.5t36 -107.5q0 -150 -178 -287z" />
    <glyph glyph-name="scommaaccent" unicode="&#x219;" horiz-adv-x="890" 
d="M80 -20v346h51q21 -141 113 -211t223 -70q233 0 233 168q0 29 -8.5 52.5t-29 40.5t-39 28.5t-55.5 22t-60 15.5t-70 15q-45 9 -71.5 15t-68 18.5t-66 26t-54 35.5t-45.5 48.5t-27.5 64t-11.5 83.5q0 136 95 226.5t249 90.5q102 0 201 -47q37 -14 57 -14q17 0 24.5 15
t10.5 50h45v-305h-49q-67 244 -287 244q-98 0 -155.5 -38.5t-57.5 -106.5q0 -27 8 -48.5t27 -37.5t36 -26.5t51 -20.5t55 -15t64 -14q13 -3 19 -4q43 -9 71.5 -15.5t68 -20t65.5 -28.5t54.5 -39t45.5 -53.5t28 -71.5t11 -92q0 -149 -97 -238t-267 -89q-142 0 -266 67
q-18 12 -33 12t-24.5 -16.5t-18.5 -62.5h-45zM406 -561l-33 37q73 62 97 102t24 82q0 50 -35 61l-47 -49q-30 10 -52 36t-22 65q0 46 31.5 75t76.5 29q66 0 102 -43.5t36 -107.5q0 -150 -178 -287z" />
    <glyph glyph-name="uni021A" unicode="&#x21a;" horiz-adv-x="1316" 
d="M1239 1434l21 -437h-50q-17 84 -35.5 143.5t-44.5 101.5t-54 68t-70 40t-85 19t-106 5h-24v-1315h188v-59h-639v59h188v1315h-26q-62 0 -106 -5t-85.5 -20t-69.5 -40.5t-54 -68t-45 -101.5t-36 -142h-49l21 437h1161zM604 -561l-33 37q73 62 97 102t24 82q0 50 -35 61
l-47 -49q-30 10 -51.5 36t-21.5 65q0 46 31.5 75t76.5 29q66 0 101.5 -43.5t35.5 -107.5q0 -150 -178 -287z" />
    <glyph glyph-name="uni021B" unicode="&#x21b;" horiz-adv-x="790" 
d="M172 240v682h-143v53h143v264l242 64v-328h282v-53h-282v-672q0 -93 27.5 -133.5t97.5 -40.5q77 0 119.5 55t56.5 162l49 -6q-7 -66 -24 -116.5t-50.5 -96t-92 -70t-140.5 -24.5q-136 0 -210.5 59t-74.5 201zM387 -561l-33 37q73 62 97 102t24 82q0 50 -35 61l-47 -49
q-30 10 -52 36t-22 65q0 46 31.5 75t77.5 29q66 0 101.5 -43.5t35.5 -107.5q0 -150 -178 -287z" />
    <glyph glyph-name="dotlessj" unicode="&#x237;" horiz-adv-x="595" 
d="M430 975v-877q0 -127 -21.5 -233.5t-67 -193t-123.5 -135t-183 -48.5q-63 0 -109 17.5t-69.5 47t-34 61.5t-10.5 67q0 72 39.5 112.5t99.5 40.5q54 0 84.5 -29.5t30.5 -85.5q0 -30 -13 -77h-59q-10 -18 -10 -45q0 -58 75 -58q29 0 50 9t35 30t22.5 46.5t12.5 69t5.5 85
t1.5 106.5v1037h-157v53h401z" />
    <glyph glyph-name="apostrophe" unicode="&#x2bc;" horiz-adv-x="432" 
d="M160 1024l-35 41q117 110 117 190q0 40 -31 48l-45 -50q-31 10 -54.5 38.5t-23.5 68.5q0 46 32.5 75t78.5 29q67 0 102 -43.5t35 -107.5q0 -154 -176 -289z" />
    <glyph glyph-name="circumflex" unicode="&#x2c6;" horiz-adv-x="1024" 
d="M242 1120l213 363q40 22 80 22q57 0 88 -63l165 -320l-26 -18l-250 235l-246 -237z" />
    <glyph glyph-name="caron" unicode="&#x2c7;" horiz-adv-x="1024" 
d="M438 1143l-202 362l26 19l262 -238l238 236l26 -19l-182 -319q-36 -64 -90 -64q-37 0 -78 23z" />
    <glyph glyph-name="uni02C9" unicode="&#x2c9;" horiz-adv-x="1024" 
d="M233 1210v121h558v-121h-558z" />
    <glyph glyph-name="breve" unicode="&#x2d8;" horiz-adv-x="1024" 
d="M217 1423l43 9q31 -90 87 -130t169 -40q116 0 168.5 37.5t79.5 132.5l43 -9q-6 -62 -24 -114.5t-52 -97t-91 -70t-132 -25.5q-260 0 -291 307z" />
    <glyph glyph-name="dotaccent" unicode="&#x2d9;" horiz-adv-x="1024" 
d="M365 1311q0 59 37.5 98t107.5 39q66 0 104.5 -34.5t38.5 -102.5q0 -64 -36.5 -103t-106.5 -39q-78 0 -111.5 41t-33.5 101z" />
    <glyph glyph-name="ring" unicode="&#x2da;" horiz-adv-x="1024" 
d="M399 1319q0 -51 28 -85t87 -34q55 0 83 33.5t28 85.5q0 51 -29.5 85t-85.5 34q-53 0 -82 -35t-29 -84zM326 1319q0 76 49 126t141 50q88 0 135 -47t47 -125q0 -82 -48.5 -132t-137.5 -50q-94 0 -140 48t-46 130z" />
    <glyph glyph-name="ogonek" unicode="&#x2db;" horiz-adv-x="1024" 
d="M575 25l37 -2l15 -13q-82 -64 -122 -125t-40 -151q0 -105 82 -105q35 0 59.5 18.5t59.5 63.5l30 -20q-16 -28 -30.5 -47.5t-40.5 -44.5t-63 -38.5t-83 -13.5q-90 0 -139 42t-49 116q0 41 18 81t42 69t68 64t74 54.5t82 51.5z" />
    <glyph glyph-name="tilde" unicode="&#x2dc;" horiz-adv-x="1024" 
d="M635 1188q-72 0 -184 47q-87 35 -127 35q-68 0 -105 -88l-39 12q30 106 80 163.5t141 57.5q15 0 31 -2.5t26.5 -4.5t28.5 -8.5t25 -9.5t29 -12.5t28 -11.5q89 -33 125 -33q37 0 62 18t45 70l41 -10q-58 -223 -207 -223z" />
    <glyph glyph-name="hungarumlaut" unicode="&#x2dd;" horiz-adv-x="1024" 
d="M510 1126l143 383l56 13q10 2 28 2q33 0 51.5 -18.5t18.5 -51.5q0 -40 -45 -88l-221 -256zM219 1126l143 383l56 13q10 2 28 2q33 0 51.5 -18.5t18.5 -51.5q0 -40 -45 -88l-221 -256z" />
    <glyph glyph-name="uni0394" unicode="&#x394;" horiz-adv-x="1228" 
d="M1214 0h-1200l572 1466h90zM524 1135l-401 -1041h756z" />
    <glyph glyph-name="uni03A9" unicode="&#x3a9;" horiz-adv-x="1724" 
d="M973 0v160q74 75 118.5 132t82 134t53.5 170.5t16 218.5q0 578 -362 578q-381 0 -381 -605q0 -102 11 -183.5t27.5 -140t48.5 -114.5t61.5 -94.5t78.5 -93.5v-162h-606l-25 465h47q35 -172 112.5 -229.5t270.5 -57.5h115q-218 114 -324 259t-106 354q0 191 82 341.5
t237 237t357 86.5q147 0 269 -47t204 -129.5t127 -196t45 -245.5q0 -400 -465 -660h133q192 0 270 57.5t111 229.5h47l-24 -465h-631z" />
    <glyph glyph-name="uni03BC" unicode="&#x3bc;" horiz-adv-x="1175" 
d="M422 997v-624q0 -258 151 -258q42 0 79 16t69 49.5t51 94t19 141.5v563l249 18v-804q0 -105 68 -105q38 0 59.5 40t28.5 153q8 -1 23.5 -2.5t23.5 -2.5q-6 -160 -60.5 -228t-168.5 -68q-101 0 -158 55.5t-63 157.5q-39 -100 -114 -156.5t-161 -56.5q-80 0 -141.5 35.5
t-102.5 129.5l-8 -6q26 -95 61 -205.5t57 -181.5t28 -108q6 -47 -33.5 -71.5t-91.5 -14.5l-123 24v1397z" />
    <glyph glyph-name="pi" unicode="&#x3c0;" horiz-adv-x="1222" 
d="M915 772h-75q-21 -180 -21 -330q0 -286 135 -286q102 0 138 137l38 -6q-48 -310 -229 -310q-53 0 -89 20t-55.5 58t-27.5 82.5t-8 102.5q0 44 2.5 85t9 95t12 92t18.5 122t21 140l-354 25q0 -438 -39 -643q-34 -179 -145 -179q-48 0 -73.5 26.5t-25.5 70.5q0 24 11 52.5
t23 49t46 74.5q70 108 104 229t46 322q-17 0 -52.5 3t-39.5 3q-52 0 -78 -17.5t-53 -72.5l-43 14q35 144 86 218.5t133 74.5q52 0 329 -15.5t330 -15.5q42 0 64 17t43 69l45 -12q-36 -151 -89.5 -223t-136.5 -72z" />
    <glyph glyph-name="Wgrave" unicode="&#x1e80;" horiz-adv-x="2062" 
d="M743 336l277 694l-125 344h-135v60h590v-60h-179l361 -1016l311 1016h-205v60h420v-60h-135l-438 -1384h-84l-342 934l-369 -934h-82l-475 1384h-131v60h598v-60h-184zM944 1835l283 -305l-23 -29l-311 156q-74 36 -74 88q0 57 76 78z" />
    <glyph glyph-name="wgrave" unicode="&#x1e81;" horiz-adv-x="1585" 
d="M618 975v-53h97l63 -179l-192 -501l-234 680h131v53h-483v-53h92l354 -936h107l264 671l258 -671h107l303 936h100v53h-330v-53h156l-205 -670l-250 670h119v53h-457zM823 1505l144 -383l-31 -16l-225 254q-45 51 -45 90q0 33 19 51.5t52 18.5q13 0 29 -4z" />
    <glyph glyph-name="Wacute" unicode="&#x1e82;" horiz-adv-x="2062" 
d="M743 336l277 694l-125 344h-135v60h590v-60h-179l361 -1016l311 1016h-205v60h420v-60h-135l-438 -1384h-84l-342 934l-369 -934h-82l-475 1384h-131v60h598v-60h-184zM893 1530l283 305l49 -12q75 -21 75 -78q0 -52 -73 -88l-312 -156z" />
    <glyph glyph-name="wacute" unicode="&#x1e83;" horiz-adv-x="1585" 
d="M618 975v-53h97l63 -179l-192 -501l-234 680h131v53h-483v-53h92l354 -936h107l264 671l258 -671h107l303 936h100v53h-330v-53h156l-205 -670l-250 670h119v53h-457zM725 1122l143 383l56 11q20 4 28 4q34 0 54 -18.5t20 -51.5q0 -39 -45 -90l-225 -254z" />
    <glyph glyph-name="Wdieresis" unicode="&#x1e84;" horiz-adv-x="2062" 
d="M743 336l277 694l-125 344h-135v60h590v-60h-179l361 -1016l311 1016h-205v60h420v-60h-135l-438 -1384h-84l-342 934l-369 -934h-82l-475 1384h-131v60h598v-60h-184zM1133 1669q0 50 31 84.5t87 34.5q55 0 89 -30t34 -89q0 -56 -31.5 -89.5t-89.5 -33.5q-63 0 -91.5 36
t-28.5 87zM729 1669q0 50 32.5 84.5t88.5 34.5q55 0 89 -30t34 -89q0 -56 -31.5 -89.5t-89.5 -33.5q-62 0 -92.5 36.5t-30.5 86.5z" />
    <glyph glyph-name="wdieresis" unicode="&#x1e85;" horiz-adv-x="1585" 
d="M618 922v53h457v-53h-119l250 -670l205 670h-156v53h330v-53h-100l-303 -936h-107l-258 671l-264 -671h-107l-354 936h-92v53h483v-53h-131l234 -680l192 501l-63 179h-97zM924 1286q0 49 31 84t87 35q55 0 89 -30t34 -89q0 -56 -31.5 -89.5t-89.5 -33.5q-64 0 -92 35.5
t-28 87.5zM524 1286q0 49 32.5 84t88.5 35q55 0 89 -30t34 -89q0 -55 -32 -89t-89 -34q-64 0 -93.5 35.5t-29.5 87.5z" />
    <glyph glyph-name="Ygrave" unicode="&#x1ef2;" horiz-adv-x="1263" 
d="M727 752l315 622h-200v60h418v-60h-140l-356 -698v-617h162v-59h-584v59h162v609l-369 706h-133v60h594v-60h-174zM551 1835l283 -305l-23 -29l-311 156q-74 36 -74 88q0 57 76 78z" />
    <glyph glyph-name="ygrave" unicode="&#x1ef3;" horiz-adv-x="1040" 
d="M4 975v-53h92l373 -924h41l-45 -125q-61 -173 -115 -250.5t-135 -77.5q-78 0 -78 58q0 16 10 43h66q12 44 12 73q0 56 -32 84.5t-87 28.5q-57 0 -95 -41.5t-38 -112.5q0 -77 57.5 -133.5t164.5 -56.5q119 0 187 72.5t144 273.5l412 1088h102v53h-331v-53h151l-250 -691
l-256 691h152v53h-502zM502 1505l143 -383l-31 -16l-225 254q-45 51 -45 90q0 33 19.5 51.5t52.5 18.5q12 0 28 -4z" />
    <glyph glyph-name="thinspace" unicode="&#x2009;" horiz-adv-x="102" 
 />
    <glyph glyph-name="endash" unicode="&#x2013;" horiz-adv-x="1024" 
d="M0 537v75h1024v-75h-1024z" />
    <glyph glyph-name="emdash" unicode="&#x2014;" horiz-adv-x="2048" 
d="M0 537v75h2048v-75h-2048z" />
    <glyph glyph-name="quoteleft" unicode="&#x2018;" horiz-adv-x="489" 
d="M365 1532l24 -39q-77 -47 -124.5 -105.5t-47.5 -123.5q0 -50 35 -64l70 64q81 -44 81 -129q0 -52 -35.5 -88.5t-93.5 -36.5q-69 0 -110 49.5t-41 126.5q0 196 242 346z" />
    <glyph glyph-name="quoteright" unicode="&#x2019;" horiz-adv-x="489" 
d="M133 940l-24 39q77 47 124.5 105.5t47.5 123.5q0 50 -35 64l-70 -64q-82 45 -82 129q0 52 35.5 88.5t93.5 36.5q69 0 110.5 -49.5t41.5 -126.5q0 -196 -242 -346z" />
    <glyph glyph-name="quotesinglbase" unicode="&#x201a;" horiz-adv-x="509" 
d="M154 -287l-25 39q77 47 124.5 106t47.5 124q0 49 -35 63l-69 -63q-82 45 -82 129q0 52 35.5 88.5t93.5 36.5q69 0 110 -50t41 -127q0 -197 -241 -346z" />
    <glyph glyph-name="quotedblleft" unicode="&#x201c;" horiz-adv-x="841" 
d="M365 1532l24 -39q-77 -47 -124.5 -105.5t-47.5 -123.5q0 -50 35 -64l70 64q81 -44 81 -129q0 -52 -35.5 -88.5t-93.5 -36.5q-69 0 -110 49.5t-41 126.5q0 196 242 346zM717 1532l24 -39q-77 -47 -124.5 -105.5t-47.5 -123.5q0 -50 35 -64l70 64q82 -45 82 -129
q0 -52 -35.5 -88.5t-93.5 -36.5q-69 0 -110.5 49.5t-41.5 126.5q0 196 242 346z" />
    <glyph glyph-name="quotedblright" unicode="&#x201d;" horiz-adv-x="837" 
d="M133 940l-24 39q77 47 124.5 105.5t47.5 123.5q0 50 -35 64l-70 -64q-82 45 -82 129q0 52 35.5 88.5t93.5 36.5q69 0 110.5 -49.5t41.5 -126.5q0 -196 -242 -346zM481 940l-24 39q77 47 124.5 105.5t47.5 123.5q0 50 -35 64l-70 -64q-82 45 -82 129q0 52 35.5 88.5
t93.5 36.5q69 0 110.5 -49.5t41.5 -126.5q0 -196 -242 -346z" />
    <glyph glyph-name="quotedblbase" unicode="&#x201e;" horiz-adv-x="858" 
d="M154 -287l-25 39q77 47 124.5 106t47.5 124q0 49 -35 63l-69 -63q-82 45 -82 129q0 52 35.5 88.5t93.5 36.5q69 0 110 -50t41 -127q0 -197 -241 -346zM502 -287l-25 39q77 47 124.5 106t47.5 124q0 49 -35 63l-69 -63q-82 45 -82 129q0 52 35.5 88.5t93.5 36.5
q69 0 110 -50t41 -127q0 -197 -241 -346z" />
    <glyph glyph-name="dagger" unicode="&#x2020;" horiz-adv-x="1040" 
d="M668 727v-12q-52 -100 -70 -156q-36 -113 -39 -276l-10 -529h-53l-9 527q0 61 -6.5 115.5t-12.5 88t-21 75.5t-21 56.5t-26 53.5t-23 45v12q39 49 78 128t49 138q-53 -3 -153.5 -41.5t-145.5 -38.5q-48 0 -77.5 28t-29.5 77q0 46 31 72t80 26q44 0 141 -44t156 -46
q-3 53 -27.5 107t-47.5 102t-23 90q0 56 32 92.5t95 36.5q58 0 85 -36t27 -93q0 -36 -15.5 -74t-34.5 -66.5t-35.5 -71.5t-18.5 -87q56 4 151 47t146 43q43 0 73.5 -24t30.5 -74q0 -51 -30 -78t-76 -27q-44 0 -143 38.5t-152 41.5q7 -55 46.5 -137.5t78.5 -128.5z" />
    <glyph glyph-name="daggerdbl" unicode="&#x2021;" horiz-adv-x="1060" 
d="M678 788v-12q-70 -76 -115 -174q46 -94 113 -170v-12q-35 -41 -55 -66t-42.5 -65.5t-29.5 -75.5q53 3 153 41.5t146 38.5q47 0 76.5 -28t29.5 -77q0 -46 -31 -72t-79 -26q-45 0 -141.5 44t-155.5 46q3 -53 27.5 -107t47.5 -102t23 -90q0 -56 -32.5 -92.5t-94.5 -36.5
q-59 0 -85.5 35.5t-26.5 93.5q0 36 15.5 74t34.5 66.5t35.5 71.5t18.5 87q-56 -4 -152 -47t-145 -43q-44 0 -75.5 24t-31.5 74q0 51 31.5 78t77.5 27q42 0 141.5 -38.5t153.5 -41.5q-15 87 -125 205v12q81 92 113 174q-32 77 -113 172v12q110 114 127 207
q-53 -3 -152.5 -42.5t-144.5 -39.5q-48 0 -78.5 28t-30.5 77q0 46 32 72t81 26q44 0 140 -44t155 -46q-3 53 -27 107t-46.5 102t-22.5 90q0 56 32 92.5t95 36.5q58 0 85 -36t27 -93q0 -36 -15.5 -74t-34.5 -66.5t-35.5 -71.5t-18.5 -87q56 4 151 47t146 43q43 0 73.5 -24
t30.5 -74q0 -51 -30 -78t-76 -27q-44 0 -143 39.5t-152 42.5q14 -83 125 -207z" />
    <glyph glyph-name="bullet" unicode="&#x2022;" horiz-adv-x="722" 
d="M131 653q0 101 60.5 166.5t170.5 65.5q107 0 170.5 -57.5t63.5 -172.5q0 -106 -59.5 -169.5t-171.5 -63.5q-63 0 -110 20t-73 54t-38.5 73t-12.5 84z" />
    <glyph glyph-name="ellipsis" unicode="&#x2026;" horiz-adv-x="1630" 
d="M1204 133q0 68 40.5 112t113.5 44q72 0 115 -38.5t43 -113.5q0 -72 -40 -114.5t-114 -42.5q-82 0 -120 44.5t-38 108.5zM662 133q0 69 40 112.5t113 43.5q71 0 114.5 -38.5t43.5 -113.5q0 -72 -40.5 -114.5t-115.5 -42.5q-81 0 -118 44.5t-37 108.5zM119 133
q0 69 40 112.5t113 43.5q72 0 115 -38.5t43 -113.5q0 -72 -40 -114.5t-114 -42.5q-82 0 -119.5 44.5t-37.5 108.5z" />
    <glyph glyph-name="perthousand" unicode="&#x2030;" horiz-adv-x="2111" 
d="M1389 291q0 150 92.5 238.5t234.5 88.5q89 0 158 -30.5t113.5 -102.5t44.5 -178q0 -156 -94.5 -241.5t-229.5 -85.5q-151 0 -235 84.5t-84 226.5zM666 291q0 150 93 238.5t234 88.5q139 0 227.5 -77t88.5 -234q0 -156 -94.5 -241.5t-229.5 -85.5q-150 0 -234.5 84.5
t-84.5 226.5zM84 1128q0 150 93.5 239t234.5 89q66 0 121.5 -18t99.5 -54t69 -97.5t25 -141.5q0 -156 -94.5 -242t-229.5 -86q-150 0 -234.5 84.5t-84.5 226.5zM260 1130q0 -144 35 -207t113 -63q82 0 114.5 66.5t32.5 214.5q0 149 -34 210.5t-111 61.5q-80 0 -115 -64
t-35 -219zM188 0l924 1434h82l-922 -1434h-84zM1563 293q0 -144 35.5 -207t113.5 -63q81 0 113.5 66.5t32.5 213.5q0 149 -34.5 210.5t-109.5 61.5q-80 0 -115.5 -63.5t-35.5 -218.5zM842 293q0 -144 34.5 -207t112.5 -63q82 0 115 66.5t33 213.5q0 149 -34.5 210.5
t-111.5 61.5q-79 0 -114 -63t-35 -219z" />
    <glyph glyph-name="guilsinglleft" unicode="&#x2039;" horiz-adv-x="628" 
d="M113 528l354 295l29 -24l-215 -326l211 -350l-27 -25l-320 279q-55 41 -55 80q0 30 23 71z" />
    <glyph glyph-name="guilsinglright" unicode="&#x203a;" horiz-adv-x="628" 
d="M516 393l-354 -295l-29 25l213 326l-211 348l29 26l319 -278q30 -26 43 -43.5t13 -36.5q0 -37 -23 -72z" />
    <glyph glyph-name="fraction" unicode="&#x2044;" horiz-adv-x="409" 
d="M-270 0l862 1434h82l-860 -1434h-84z" />
    <glyph glyph-name="zerosuperior" unicode="&#x2070;" horiz-adv-x="811" 
d="M41 1239q0 116 27.5 203t77.5 138t114 76t143 25q168 0 267.5 -106.5t99.5 -335.5q0 -118 -28 -205.5t-79 -138.5t-115.5 -75.5t-144.5 -24.5q-121 0 -204 58t-120.5 156t-37.5 230zM254 1235q0 -152 12 -231t44 -114.5t93 -35.5q91 0 121.5 78.5t30.5 300.5
q0 227 -31 309t-121 82q-87 0 -118 -84t-31 -305z" />
    <glyph glyph-name="foursuperior" unicode="&#x2074;" horiz-adv-x="772" 
d="M248 807v53h123v156h-357v53l365 598h190v-592h103v80h55v-219h-55v80h-103v-156h90v-53h-411zM84 1075h287v469z" />
    <glyph glyph-name="fivesuperior" unicode="&#x2075;" horiz-adv-x="696" 
d="M297 1282q-80 0 -170 -51l-27 12v410l23 16q81 -12 217 -26.5t164 -14.5q22 0 33.5 12t19.5 41l47 -6q-17 -126 -37 -168.5t-59 -42.5q-23 0 -109 23l-237 65l-4 -247q81 38 180 38q85 0 147 -22.5t95.5 -61.5t49 -84t15.5 -98q0 -131 -95.5 -206.5t-256.5 -75.5
q-48 0 -91 9.5t-82 30t-62 59t-23 91.5q0 45 25 75t73 30q42 0 69 -23.5t27 -62.5q0 -16 -10 -56h-41q-8 -16 -8 -35q0 -59 119 -59q83 0 115 56.5t32 176.5q0 106 -29.5 150.5t-109.5 44.5z" />
    <glyph glyph-name="sixsuperior" unicode="&#x2076;" horiz-adv-x="753" 
d="M57 1190q0 234 104.5 362.5t284.5 128.5q115 0 177.5 -47.5t62.5 -120.5q0 -43 -25 -69.5t-69 -26.5q-40 0 -66 20t-26 58q0 28 8 49h35q6 9 6 31q0 51 -96 51q-99 0 -146.5 -81t-50.5 -288q67 97 203 97q115 0 186.5 -66t71.5 -192q0 -139 -88.5 -220t-241.5 -81
q-161 0 -245.5 94.5t-84.5 300.5zM260 1077q0 -118 25 -171.5t102 -53.5q75 0 103 56t28 165q0 116 -24.5 163.5t-83.5 47.5q-150 0 -150 -207z" />
    <glyph glyph-name="sevensuperior" unicode="&#x2077;" horiz-adv-x="622" 
d="M152 928q0 73 52.5 164.5t219.5 302.5l98 123h-278q-92 0 -119.5 -21.5t-44.5 -103.5h-47l10 274h571v-102l-100 -181q-107 -196 -139.5 -288t-32.5 -160q0 -59 37 -102l-25 -37q-92 -13 -147 24t-55 107z" />
    <glyph glyph-name="eightsuperior" unicode="&#x2078;" horiz-adv-x="751" 
d="M307 1260q-115 9 -178 62.5t-63 137.5q0 102 80.5 161.5t228.5 59.5q149 0 229 -57.5t80 -159.5q0 -87 -61.5 -141t-176.5 -63v-5q265 -26 265 -225q0 -235 -336 -235q-168 0 -253 60t-85 175q0 99 68 157t202 68v5zM375 1227q-73 0 -107.5 -48.5t-34.5 -148.5
q0 -92 33.5 -135t108.5 -43t108 43.5t33 136.5q0 100 -34 147.5t-107 47.5zM258 1464q0 -91 28.5 -132.5t92.5 -41.5q62 0 88.5 41t26.5 133q0 160 -119 160q-117 0 -117 -160z" />
    <glyph glyph-name="ninesuperior" unicode="&#x2079;" horiz-adv-x="765" 
d="M709 1278q0 -235 -102 -359t-285 -124q-118 0 -182 48.5t-64 117.5q0 49 25 77.5t73 28.5q41 0 67.5 -21.5t26.5 -60.5q0 -29 -8 -53h-39q-6 -15 -6 -31q0 -49 100 -49t146 82.5t47 284.5q-67 -97 -203 -97q-115 0 -186.5 69t-71.5 198q0 138 89.5 214t242.5 76
q330 0 330 -401zM506 1386q0 125 -25 181.5t-102 56.5t-105 -54.5t-28 -162.5q0 -120 24.5 -168.5t85.5 -48.5q70 0 110 51t40 145z" />
    <glyph glyph-name="zeroinferior" unicode="&#x2080;" horiz-adv-x="811" 
d="M41 156q0 116 27.5 203t77.5 138t114 76t143 25q168 0 267.5 -106.5t99.5 -335.5q0 -118 -28 -205.5t-79 -139t-115.5 -76t-144.5 -24.5q-180 0 -271 121t-91 324zM254 152q0 -152 12 -231t44 -114.5t93 -35.5q91 0 121.5 78.5t30.5 300.5q0 227 -31 309t-121 82
q-87 0 -118 -84t-31 -305z" />
    <glyph glyph-name="oneinferior" unicode="&#x2081;" horiz-adv-x="557" 
d="M190 522l-149 -14l-6 53l280 37h80v-821h113v-53h-459v53h141v745z" />
    <glyph glyph-name="twoinferior" unicode="&#x2082;" horiz-adv-x="692" 
d="M45 -276v116l160 150q129 118 177 204.5t48 202.5q0 77 -29.5 110.5t-101.5 33.5q-59 0 -88 -17t-29 -45q0 -22 8 -41h39q11 -26 11 -55q0 -38 -27 -61t-70 -23q-49 0 -74.5 30t-25.5 77q0 86 77.5 139t213.5 53q144 0 218.5 -55t74.5 -156q0 -69 -33 -126t-127 -142.5
t-299 -243.5h256q61 0 96.5 17.5t50.5 46t25 81.5h49l-12 -296h-588z" />
    <glyph glyph-name="threeinferior" unicode="&#x2083;" horiz-adv-x="706" 
d="M334 598q140 0 210 -51t70 -144q0 -79 -56 -133t-163 -80q133 -15 200 -73t67 -150q0 -117 -99.5 -186.5t-265.5 -69.5q-51 0 -95.5 9.5t-84.5 30t-63 58.5t-23 89q0 46 25 76t75 30q42 0 68 -23.5t26 -60.5q0 -27 -10 -57h-41q-6 -15 -6 -35q0 -25 31 -42t92 -17
q166 0 166 194q0 83 -33 129.5t-90 73.5q-57 -14 -123 -19l-8 54q121 13 170 51t49 147q0 142 -121 142q-53 0 -82 -17.5t-29 -42.5q0 -14 7 -35h39q8 -21 8 -53q0 -35 -25.5 -57.5t-64.5 -22.5q-48 0 -73.5 28t-25.5 73q0 85 75.5 134.5t203.5 49.5z" />
    <glyph glyph-name="fourinferior" unicode="&#x2084;" horiz-adv-x="772" 
d="M248 -276v53h123v155h-357v54l365 598h190v-592h103v80h55v-219h-55v79h-103v-155h90v-53h-411zM84 -8h287v469z" />
    <glyph glyph-name="fiveinferior" unicode="&#x2085;" horiz-adv-x="696" 
d="M297 199q-78 0 -170 -52l-27 13v409l23 17q81 -12 217 -26.5t164 -14.5q22 0 33.5 12t19.5 41l47 -6q-17 -126 -37 -168.5t-59 -42.5q-27 0 -109 22l-237 66l-4 -248q83 39 180 39q85 0 147 -22.5t95.5 -61.5t49 -84t15.5 -98q0 -131 -95.5 -207t-256.5 -76
q-48 0 -91 9.5t-82 30.5t-62 59.5t-23 91.5q0 45 25 74.5t73 29.5q42 0 69 -23.5t27 -62.5q0 -15 -10 -55h-41q-8 -16 -8 -35q0 -59 119 -59q83 0 115 56.5t32 176.5q0 106 -29.5 150.5t-109.5 44.5z" />
    <glyph glyph-name="sixinferior" unicode="&#x2086;" horiz-adv-x="753" 
d="M57 106q0 234 104.5 363t284.5 129q115 0 177.5 -47.5t62.5 -120.5q0 -43 -25 -69.5t-69 -26.5q-40 0 -66 20t-26 58q0 28 8 49h35q6 9 6 31q0 51 -96 51q-99 0 -146.5 -81t-50.5 -288q67 96 203 96q115 0 186.5 -66t71.5 -192q0 -139 -88.5 -220t-241.5 -81
q-161 0 -245.5 94.5t-84.5 300.5zM260 -6q0 -118 25 -171.5t102 -53.5q75 0 103 56t28 165q0 116 -24.5 163.5t-83.5 47.5q-150 0 -150 -207z" />
    <glyph glyph-name="seveninferior" unicode="&#x2087;" horiz-adv-x="622" 
d="M152 -156q0 73 52.5 164.5t219.5 302.5l98 123h-278q-92 0 -119.5 -21.5t-44.5 -103.5h-47l10 275h571v-103l-100 -180q-107 -196 -139.5 -288t-32.5 -160q0 -60 37 -103l-25 -37q-92 -13 -147 24t-55 107z" />
    <glyph glyph-name="eightinferior" unicode="&#x2088;" horiz-adv-x="751" 
d="M309 176q-115 9 -178 62.5t-63 138.5q0 102 80.5 161.5t228.5 59.5q149 0 229 -57.5t80 -159.5q0 -88 -61 -142t-176 -63v-4q264 -26 264 -225q0 -116 -84.5 -176t-251.5 -60t-252.5 60.5t-85.5 175.5q0 99 68 157t202 68v4zM377 143q-73 0 -107 -48t-34 -148
q0 -92 33 -135t108 -43t108 43.5t33 136.5q0 100 -34 147t-107 47zM260 381q0 -91 28.5 -132.5t92.5 -41.5q62 0 88.5 41t26.5 133q0 160 -119 160q-117 0 -117 -160z" />
    <glyph glyph-name="nineinferior" unicode="&#x2089;" horiz-adv-x="765" 
d="M709 195q0 -235 -102 -359.5t-285 -124.5q-118 0 -182 48.5t-64 117.5q0 49 25 78t73 29q41 0 67.5 -21.5t26.5 -60.5q0 -30 -8 -54h-39q-6 -15 -6 -30q0 -49 100 -49t146 82t47 284q-67 -96 -203 -96q-115 0 -186.5 68.5t-71.5 197.5q0 138 89.5 214.5t242.5 76.5
q330 0 330 -401zM506 303q0 125 -25 181.5t-102 56.5t-105 -54.5t-28 -162.5q0 -120 24.5 -169t85.5 -49q70 0 110 51.5t40 145.5z" />
    <glyph glyph-name="Euro" unicode="&#x20ac;" horiz-adv-x="1251" 
d="M780 1399q-101 0 -164.5 -49t-99.5 -164t-43 -307h463l-14 -68h-451v-156h418l-17 -67h-399q9 -286 83 -417.5t230 -131.5q82 0 140.5 32.5t58.5 92.5q0 24 -8 43h-78q-12 35 -12 72q0 57 38 94t103 37q66 0 104.5 -42t38.5 -114q0 -87 -56 -150.5t-144 -93.5t-193 -30
q-274 0 -417 151.5t-171 456.5h-174l17 67h155v41q0 69 5 115h-150l16 68h140q36 286 188.5 431.5t392.5 145.5q174 0 279.5 -75.5t105.5 -198.5q0 -72 -38.5 -114t-104.5 -42q-64 0 -101.5 34t-37.5 93q0 41 10 72h78q8 19 8 45q0 56 -54 92.5t-145 36.5z" />
    <glyph glyph-name="afii61352" unicode="&#x2116;" horiz-adv-x="2136" 
d="M1296 1112v-1126h-116l-699 1224v-891q0 -339 -248 -339q-96 0 -159.5 50t-63.5 138q0 75 37.5 115.5t99.5 40.5q58 0 92.5 -30t34.5 -85q0 -35 -12 -72h-78q-12 -22 -12 -47q0 -55 74 -55q89 0 128.5 73.5t39.5 215.5v966l-58 88h-123v56h420l576 -1020v702q0 73 13 132
t41 107t77 74.5t117 26.5q96 0 158.5 -50t62.5 -138q0 -75 -36.5 -115.5t-98.5 -40.5q-58 0 -93.5 30.5t-35.5 84.5q0 21 12 71h80q10 22 10 48q0 55 -72 55q-168 0 -168 -289zM1415 655q0 167 88 256.5t223 89.5q60 0 111.5 -18t94 -56t67 -103t24.5 -152q0 -83 -26 -150
t-69 -108.5t-97 -63.5t-113 -22q-142 0 -222.5 87t-80.5 240zM1589 657q0 -161 31 -225.5t102 -64.5q73 0 102 68.5t29 232.5q0 162 -30 226t-97 64q-72 0 -104.5 -67.5t-32.5 -233.5zM1462 180v62h516v-62h-516z" />
    <glyph glyph-name="trademark" unicode="&#x2122;" horiz-adv-x="1912" 
d="M1511 1327h287v-41h-82v-678h82v-39h-330v39h80v674l-225 -713h-76l-270 703v-664h78v-39h-203v39h68v678h-68v41h289l196 -534zM776 1327l10 -237h-30q-26 119 -73 161.5t-132 42.5h-12v-682h104v-43h-377v43h107v682h-13q-82 0 -130 -43t-74 -161h-33l12 237h641z" />
    <glyph glyph-name="Omega" unicode="&#x2126;" horiz-adv-x="1724" 
d="M973 0v160q74 75 118.5 132t82 134t53.5 170.5t16 218.5q0 578 -362 578q-381 0 -381 -605q0 -102 11 -183.5t27.5 -140t48.5 -114.5t61.5 -94.5t78.5 -93.5v-162h-606l-25 465h47q35 -172 112.5 -229.5t270.5 -57.5h115q-218 114 -324 259t-106 354q0 191 82 341.5
t237 237t357 86.5q147 0 269 -47t204 -129.5t127 -196t45 -245.5q0 -400 -465 -660h133q192 0 270 57.5t111 229.5h47l-24 -465h-631z" />
    <glyph glyph-name="onethird" unicode="&#x2153;" horiz-adv-x="1740" 
d="M254 1360l-150 -14l-6 53l281 37h80v-822h112v-53h-458v53h141v746zM373 0l862 1434h82l-860 -1434h-84zM1327 874q140 0 210.5 -50.5t70.5 -143.5q0 -79 -56 -133t-163 -80q133 -15 199.5 -73t66.5 -150q0 -117 -99.5 -186.5t-265.5 -69.5q-51 0 -95.5 9.5t-84.5 29.5
t-63 58t-23 89q0 46 25 76.5t75 30.5q42 0 68.5 -23.5t26.5 -60.5q0 -25 -11 -58h-41q-6 -15 -6 -35q0 -25 31 -42t92 -17q166 0 166 195q0 83 -32.5 129t-90.5 73q-50 -12 -123 -18l-8 53q61 7 97.5 16.5t66.5 31t42.5 58t12.5 93.5q0 141 -121 141q-53 0 -81.5 -17
t-28.5 -42q0 -17 6 -35h39q8 -21 8 -53q0 -35 -25.5 -57.5t-64.5 -22.5q-48 0 -73 27.5t-25 72.5q0 85 75 134.5t203 49.5z" />
    <glyph glyph-name="twothirds" unicode="&#x2154;" horiz-adv-x="1740" 
d="M70 561v117l159 149q129 118 177.5 205t48.5 203q0 76 -29.5 109.5t-101.5 33.5q-59 0 -88 -16.5t-29 -44.5q0 -22 8 -41h39q10 -23 10 -55q0 -38 -26.5 -61t-69.5 -23q-49 0 -74.5 29.5t-25.5 76.5q0 86 77.5 139.5t212.5 53.5q144 0 218.5 -55t74.5 -156
q0 -69 -32.5 -126t-127 -143t-298.5 -243h256q61 0 96.5 17.5t50.5 46t25 81.5h49l-13 -297h-587zM426 0l862 1434h82l-860 -1434h-84zM1360 874q140 0 210 -50.5t70 -143.5q0 -79 -56 -133t-163 -80q133 -15 200 -73t67 -150q0 -117 -99.5 -186.5t-265.5 -69.5
q-51 0 -95.5 9.5t-84.5 29.5t-63 58t-23 89q0 46 25 76.5t75 30.5q42 0 68 -23.5t26 -60.5q0 -28 -10 -58h-41q-6 -15 -6 -35q0 -25 31 -42t92 -17q166 0 166 195q0 83 -32.5 129t-90.5 73q-50 -12 -123 -18l-8 53q61 7 97.5 16.5t66.5 31t42.5 58t12.5 93.5q0 141 -121 141
q-53 0 -81.5 -17t-28.5 -42q0 -17 6 -35h39q8 -21 8 -53q0 -35 -25.5 -57.5t-64.5 -22.5q-48 0 -73.5 27.5t-25.5 72.5q0 85 75.5 134.5t203.5 49.5z" />
    <glyph glyph-name="oneeighth" unicode="&#x215b;" horiz-adv-x="1740" 
d="M236 1360l-150 -14l-6 53l280 37h80v-822h113v-53h-459v53h142v746zM350 0l862 1434h82l-860 -1434h-84zM1272 453q-116 9 -179 62.5t-63 137.5q0 102 80.5 161.5t228.5 59.5q149 0 229.5 -57.5t80.5 -159.5q0 -87 -61.5 -141t-176.5 -63v-4q264 -26 264 -226
q0 -235 -336 -235q-168 0 -253 60t-85 175q0 99 68.5 157.5t202.5 68.5v4zM1339 420q-73 0 -107 -48t-34 -149q0 -92 33 -135t108 -43t108.5 44t33.5 136q0 100 -34.5 147.5t-107.5 47.5zM1223 657q0 -91 28 -132.5t92 -41.5q62 0 88.5 41t26.5 133q0 160 -119 160
q-116 0 -116 -160z" />
    <glyph glyph-name="threeeighths" unicode="&#x215c;" horiz-adv-x="1740" 
d="M356 1436q140 0 210.5 -51t70.5 -144q0 -79 -56 -133t-163 -80q133 -15 199.5 -73t66.5 -150q0 -117 -99.5 -186.5t-265.5 -69.5q-51 0 -95.5 9.5t-84.5 29.5t-63 58t-23 89q0 46 25.5 76.5t75.5 30.5q42 0 68 -23.5t26 -60.5q0 -28 -10 -58h-41q-7 -18 -7 -34
q0 -25 31 -42.5t92 -17.5q166 0 166 195q0 83 -33 129.5t-90 73.5q-57 -14 -123 -19l-8 53q61 7 97.5 16.5t66.5 31t42.5 58t12.5 93.5q0 141 -120 141q-53 0 -82 -17t-29 -42q0 -17 6 -35h39q8 -21 8 -53q0 -35 -25.5 -57.5t-64.5 -22.5q-48 0 -73 27.5t-25 72.5
q0 85 75.5 135t202.5 50zM389 0l862 1434h82l-860 -1434h-84zM1296 453q-115 9 -178 62.5t-63 137.5q0 102 80.5 161.5t228.5 59.5q149 0 229 -57.5t80 -159.5q0 -88 -61 -141.5t-176 -62.5v-4q264 -26 264 -226q0 -235 -336 -235q-168 0 -253 60t-85 175q0 99 68 157.5
t202 68.5v4zM1364 420q-73 0 -107 -48t-34 -149q0 -92 33 -135t108 -43t108 43.5t33 136.5q0 100 -34 147.5t-107 47.5zM1247 657q0 -91 28.5 -132.5t92.5 -41.5q62 0 88.5 41t26.5 133q0 160 -119 160q-117 0 -117 -160z" />
    <glyph glyph-name="fiveeighths" unicode="&#x215d;" horiz-adv-x="1740" 
d="M328 1036q-80 0 -170 -51l-27 12v410l23 16q81 -12 217 -26.5t164 -14.5q22 0 33.5 12.5t19.5 41.5l47 -6q-17 -126 -37 -168.5t-59 -42.5q-26 0 -109 22l-237 66l-5 -248q83 39 181 39q85 0 147 -22.5t95.5 -61.5t49 -84.5t15.5 -98.5q0 -131 -95.5 -206.5t-256.5 -75.5
q-48 0 -91 9.5t-82 30t-62 59t-23 91.5q0 45 25 75t73 30q42 0 69 -23.5t27 -62.5q0 -16 -10 -56h-41q-8 -16 -8 -34q0 -60 118 -60q83 0 115.5 57t32.5 177q0 105 -29 149.5t-110 44.5zM389 0l862 1434h82l-860 -1434h-84zM1288 453q-115 9 -178 62.5t-63 137.5
q0 102 80.5 161.5t228.5 59.5q149 0 229 -57.5t80 -159.5q0 -87 -61.5 -141t-176.5 -63v-4q265 -26 265 -226q0 -235 -336 -235q-168 0 -253 60t-85 175q0 99 68 157.5t202 68.5v4zM1356 420q-73 0 -107.5 -48.5t-34.5 -148.5q0 -92 33.5 -135t108.5 -43t108 43.5t33 136.5
q0 100 -34 147.5t-107 47.5zM1239 657q0 -91 28.5 -132.5t92.5 -41.5q62 0 88.5 41t26.5 133q0 160 -119 160q-117 0 -117 -160z" />
    <glyph glyph-name="seveneighths" unicode="&#x215e;" horiz-adv-x="1740" 
d="M221 682q0 72 52.5 163.5t220.5 303.5l98 123h-279q-91 0 -118.5 -21t-44.5 -104h-48l11 274h571v-102l-100 -180q-107 -196 -139.5 -288t-32.5 -161q0 -59 37 -102l-25 -37q-92 -13 -147.5 24t-55.5 107zM289 0l862 1434h82l-860 -1434h-84zM1249 453q-115 9 -178 62.5
t-63 137.5q0 102 80.5 161.5t228.5 59.5q149 0 229 -57.5t80 -159.5q0 -88 -61 -141.5t-176 -62.5v-4q264 -26 264 -226q0 -235 -336 -235q-168 0 -253 60t-85 175q0 99 68 157.5t202 68.5v4zM1317 420q-73 0 -107 -48t-34 -149q0 -92 33 -135t108 -43t108 43.5t33 136.5
q0 100 -34 147.5t-107 47.5zM1200 657q0 -91 28.5 -132.5t92.5 -41.5q62 0 88.5 41t26.5 133q0 160 -119 160q-117 0 -117 -160z" />
    <glyph glyph-name="partialdiff" unicode="&#x2202;" horiz-adv-x="1165" 
d="M588 752q-64 0 -113 -32t-76.5 -80t-45.5 -113.5t-23.5 -122.5t-5.5 -117q0 -126 34.5 -185t120.5 -59q70 0 125.5 42.5t88.5 112.5t50 152t17 168q0 112 -44 173t-128 61zM602 1374q212 0 337.5 -145t125.5 -432q0 -115 -18.5 -226t-63.5 -220t-112 -191t-172 -132.5
t-236 -50.5q-190 0 -289.5 99.5t-99.5 277.5q0 132 52.5 240.5t156.5 175t241 66.5q111 0 183.5 -49.5t101.5 -133.5q25 147 25 242q0 75 -6 133t-22.5 114.5t-44.5 93t-74 59t-109 22.5q-76 0 -118.5 -38t-21.5 -108l58 -4q6 -75 -24 -120.5t-99 -45.5q-61 0 -95 35t-34 94
q0 81 53.5 138t132 81.5t172.5 24.5z" />
    <glyph glyph-name="Delta" unicode="&#x2206;" horiz-adv-x="1228" 
d="M1214 0h-1200l572 1466h90zM524 1135l-401 -1041h756z" />
    <glyph glyph-name="product" unicode="&#x220f;" horiz-adv-x="1597" 
d="M80 1434h1438v-60h-162v-1624h162v-59h-588v59h149v1624h-561v-1624h148v-59h-586v59h162v1624h-162v60z" />
    <glyph glyph-name="summation" unicode="&#x2211;" horiz-adv-x="1245" 
d="M1149 -309h-1139l-20 37l571 761l-581 916l20 29h1081l17 -385h-54q-20 102 -46.5 162.5t-72.5 98.5t-108 51t-162 13h-344l465 -735l-563 -739h459q158 0 244.5 32.5t128.5 102t67 203.5h53z" />
    <glyph glyph-name="minus" unicode="&#x2212;" 
d="M1028 610h-930v74h930v-74z" />
    <glyph glyph-name="uni2215" unicode="&#x2215;" horiz-adv-x="409" 
d="M-285 -20l889 1476h86l-887 -1476h-88z" />
    <glyph glyph-name="uni2219" unicode="&#x2219;" horiz-adv-x="614" 
d="M127 653q0 68 41.5 112t114.5 44q71 0 114 -38.5t43 -113.5q0 -71 -40 -114t-115 -43q-82 0 -120 44.5t-38 108.5z" />
    <glyph glyph-name="radical" unicode="&#x221a;" horiz-adv-x="1120" 
d="M1092 1524l-344 -1524h-144l-364 774l-146 -67l-24 59l329 162l326 -731l301 1341z" />
    <glyph glyph-name="infinity" unicode="&#x221e;" horiz-adv-x="1318" 
d="M1217 504q0 -124 -73 -193t-173 -69q-86 0 -166.5 41.5t-173.5 132.5q-139 -174 -295 -174q-106 0 -170 67.5t-64 177.5q0 65 24.5 118t64.5 84.5t87.5 48t96.5 16.5q70 0 142 -36.5t167 -129.5q133 153 297 153q104 0 170 -61.5t66 -175.5zM350 305q124 0 242 154
q-104 97 -154.5 132.5t-103.5 35.5q-66 0 -112 -42t-46 -112q0 -74 49 -121t125 -47zM1135 508q0 70 -42 120t-120 50q-62 0 -129.5 -35t-122.5 -100q95 -102 145 -138t117 -36t109.5 34.5t42.5 104.5z" />
    <glyph glyph-name="integral" unicode="&#x222b;" horiz-adv-x="907" 
d="M471 1188q1 -63 11.5 -145.5t31 -207.5t29.5 -188q1 -6 9 -61t10 -70t9 -66.5t9.5 -75t7.5 -69t6.5 -75.5t3.5 -68t2 -70q0 -79 -14 -153t-46 -142t-78.5 -118.5t-117 -80.5t-156.5 -30q-107 0 -177 56.5t-70 148.5q0 71 37 116t106 45q50 0 82 -29t35 -75q4 -35 -6 -63
l-66 -9q-13 -31 -15 -62.5t21.5 -55t67.5 -23.5q75 0 128.5 84t53.5 211q0 62 -8 144t-17.5 145.5t-26 166.5t-24.5 158q-49 340 -49 478q0 79 15 151t48 136.5t81 111.5t118.5 74.5t155.5 27.5q107 0 178.5 -56.5t71.5 -148.5q0 -70 -36.5 -114.5t-103.5 -44.5
q-50 0 -82.5 28.5t-37.5 73.5q-4 37 4 66l65 6q13 29 13 57q0 41 -26 60.5t-67 19.5q-93 0 -141 -61.5t-45 -202.5z" />
    <glyph glyph-name="approxequal" unicode="&#x2248;" horiz-adv-x="1228" 
d="M870 240q-78 0 -257 54t-246 54q-54 0 -91 -26t-75 -86l-58 32q44 74 96.5 114t125.5 40q76 0 254 -55.5t247 -55.5q54 0 93 24.5t73 86.5l60 -33q-76 -149 -222 -149zM870 588q-78 0 -257 54t-246 54q-54 0 -91 -26t-75 -86l-58 32q44 74 96.5 114t125.5 40
q76 0 254 -55.5t247 -55.5q54 0 93 24.5t73 86.5l60 -33q-76 -149 -222 -149z" />
    <glyph glyph-name="notequal" unicode="&#x2260;" 
d="M1028 383h-586l-223 -262l-49 45l182 217h-254v74h318l207 245h-525v74h586l178 211l56 -45l-142 -166h252v-74h-315l-209 -245h524v-74z" />
    <glyph glyph-name="lessequal" unicode="&#x2264;" 
d="M1028 0h-930v74h930v-74zM1026 176l-926 395v58l926 389v-78l-813 -338l813 -344v-82z" />
    <glyph glyph-name="greaterequal" unicode="&#x2265;" 
d="M1028 0h-930v74h930v-74zM1026 571l-926 -395v82l813 344l-813 338v78l926 -389v-58z" />
    <glyph glyph-name="triangle" unicode="&#x25b3;" horiz-adv-x="870" 
d="M307 416v473l379 -234z" />
    <glyph glyph-name="lozenge" unicode="&#x25ca;" 
d="M977 635l-414 -660l-416 660l416 659zM895 633l-332 538l-338 -532l342 -543z" />
    <glyph glyph-name="circle" unicode="&#x25cb;" horiz-adv-x="1249" 
d="M205 602q0 173 123.5 296.5t296.5 123.5t296 -123.5t123 -296.5t-123 -296.5t-296 -123.5t-296.5 123.5t-123.5 296.5z" />
    <glyph glyph-name="s_t" unicode="&#xfb06;" horiz-adv-x="1660" 
d="M1042 240v682h-143v53h143v266q-44 15 -88.5 45.5t-80 62t-72 61t-79.5 48.5t-89 19q-90 0 -138.5 -55t-48.5 -146q0 -95 60.5 -188.5t126.5 -131.5q37 -22 63 -22q17 0 24.5 15t10.5 50h45v-305h-49q-67 244 -287 244q-98 0 -155.5 -38.5t-57.5 -106.5q0 -53 40.5 -87.5
t78.5 -46t128 -29.5q15 -3 22 -5q41 -8 70 -15.5t66.5 -20.5t63.5 -28.5t53.5 -39.5t44 -53.5t27 -70.5t10.5 -90q0 -149 -97 -238t-267 -89q-142 0 -266 67q-18 12 -33 12t-24.5 -16.5t-18.5 -62.5h-45v346h51q21 -141 113 -211t223 -70q233 0 233 168q0 35 -14.5 61.5
t-34 42.5t-58 30t-66 21t-78.5 17q-40 8 -56.5 12t-54.5 13.5t-56 17t-49 21.5t-46.5 27.5t-36.5 35t-31 45t-17.5 54.5t-7.5 67q0 136 95 226.5t249 90.5q41 0 76 -6q-131 142 -131 287q0 112 68.5 184t181.5 72q66 0 129 -29t103.5 -65t92.5 -77.5t91 -57.5
q15 118 85.5 187t182.5 69q87 0 137.5 -38.5t50.5 -113.5q0 -84 -62 -133t-157 -51v-248h281v-53h-281v-672q0 -94 27 -134t98 -40q148 0 176 217l47 -6q-7 -66 -24 -116.5t-50.5 -96t-92 -70t-140.5 -24.5q-136 0 -210.5 59t-74.5 201zM1286 1380v-100q66 2 108 37t42 98
q0 42 -21.5 64t-52.5 22q-76 0 -76 -121z" />
    <glyph glyph-name="question.alt" horiz-adv-x="1187" 
d="M782 1038q0 192 -64.5 270t-187.5 78q-87 0 -141.5 -34.5t-54.5 -89.5q0 -14 6 -35h55q17 -46 17 -82q0 -59 -37.5 -93t-95.5 -34q-60 0 -92.5 39t-32.5 104q0 118 117 195.5t304 77.5q205 0 328 -96.5t123 -278.5q0 -75 -24.5 -137.5t-65.5 -104.5t-94.5 -71
t-110.5 -42.5t-115 -13.5q-82 0 -139 23v-348h-59v366q-45 30 -45 78q0 20 12 34.5t37 14.5q26 0 42.5 -25t10.5 -71q49 -19 100 -19q95 0 151 70t56 225zM315 115q0 59 36.5 97t99.5 38t100 -33.5t37 -99.5q0 -63 -35 -100t-100 -37q-71 0 -104.5 39t-33.5 96z" />
    <glyph glyph-name="questiondown.alt" horiz-adv-x="1187" 
d="M399 -63q0 -192 64.5 -270.5t187.5 -78.5q87 0 142 35t55 90q0 14 -6 35h-56q-16 43 -16 82q0 59 37.5 93t95.5 34q60 0 92.5 -39t32.5 -104q0 -118 -117.5 -195.5t-304.5 -77.5q-205 0 -327.5 96.5t-122.5 278.5q0 93 37 166t97.5 116t131 65t143.5 22q83 0 140 -23v348
h59v-366q45 -30 45 -78q0 -20 -12 -34.5t-37 -14.5q-26 0 -42.5 25t-10.5 71q-47 18 -101 18q-95 0 -151 -69.5t-56 -224.5zM866 860q0 -59 -36 -97t-99 -38t-100 33.5t-37 99.5q0 63 35 100t100 37q71 0 104 -39t33 -96z" />
    <glyph glyph-name="at.case" horiz-adv-x="1753" 
d="M883 1106q114 0 198 -74l35 60h146l-66 -373q-25 -161 -25 -217q0 -87 26 -121.5t85 -34.5q105 0 186.5 116.5t81.5 317.5q0 294 -166 460.5t-466 166.5q-148 0 -277 -51t-226 -145t-152.5 -237.5t-55.5 -318.5q0 -144 40 -259.5t107.5 -191t160 -125.5t192.5 -71.5
t211 -21.5q275 0 473 164l39 -46q-92 -86 -231 -134t-288 -48q-127 0 -241 26.5t-214 84t-172.5 141t-114.5 205t-42 268.5q0 175 56 326t158 260.5t253 172t332 62.5q153 0 281 -44.5t221.5 -128.5t145.5 -212.5t52 -289.5q0 -247 -108.5 -378.5t-278.5 -131.5
q-199 0 -240 149q-84 -145 -243 -145q-72 0 -125.5 25t-84 70.5t-45 101.5t-14.5 124q0 100 23.5 183.5t62.5 140.5t90.5 97t107 58.5t112.5 18.5zM1001 565l66 416q-69 72 -162 72q-62 0 -109.5 -41t-74 -110t-39 -147.5t-12.5 -164.5q0 -122 29.5 -180t99.5 -58
q74 0 131 63.5t71 149.5z" />
    <glyph glyph-name="Q.alt" horiz-adv-x="1478" 
d="M82 696q0 351 181.5 555.5t492.5 204.5q301 0 470 -193.5t169 -541.5q0 -326 -151 -517t-451 -214v-8l286 -37q93 -93 170 -149t144 -56q75 0 153 59l29 -32q-191 -160 -320 -160q-85 0 -157 41.5t-164 136.5q-98 100 -155.5 145t-114.5 50q-280 23 -431 208t-151 508z
M1110 723q0 110 -5.5 193.5t-20.5 163t-41.5 134t-66.5 96.5t-99 62.5t-136 20.5q-67 0 -120.5 -16.5t-92.5 -45.5t-68 -75.5t-47 -100t-29 -125.5t-15 -146t-4 -167q0 -104 6 -185.5t21 -161.5t42.5 -137t68 -101.5t100.5 -66.5t138 -22q90 0 155.5 31.5t106.5 86.5t65 143
t33 187t9 232z" />
    <glyph glyph-name="R.alt" horiz-adv-x="1366" 
d="M666 711h-168v-652h194v-59h-618v59h164v1315h-164v60h542q103 0 179.5 -7t152.5 -28.5t123.5 -58t77 -99t29.5 -147.5q0 -177 -112.5 -265.5t-336.5 -109.5q23 -92 82 -120.5t162 -20.5l114 -367q11 -32 14.5 -42.5t14 -31.5t19 -28t24 -14t35.5 -7q47 0 61 39.5
t19 151.5l49 -3q-1 -41 -2 -65.5t-5.5 -60t-13 -56.5t-25 -45.5t-39.5 -37.5t-58 -22t-80 -9q-66 0 -112.5 14.5t-76.5 45.5t-47.5 65t-34.5 88zM498 1374v-606h32q198 0 280.5 72.5t82.5 242.5q0 88 -18 144t-61 89t-105 45.5t-158 12.5h-53z" />
    <glyph glyph-name="g.calt" horiz-adv-x="1009" 
d="M829 662q0 -162 -101 -255.5t-273 -93.5q-73 0 -150 15q-104 -69 -104 -115q0 -16 19 -23.5t69 -7.5h250q75 0 134 -7t115 -27.5t92.5 -54t58.5 -89.5t22 -131q0 -179 -130 -282t-413 -103q-213 0 -316.5 61.5t-103.5 174.5q0 128 152 163l71 -47q-20 -44 -20 -104
q0 -195 266 -195q167 0 264.5 69t97.5 181q0 92 -66 130t-222 38h-234q-120 0 -176.5 42t-56.5 110q0 60 39 111t135 122q-191 72 -191 305q0 70 24 130.5t71.5 109.5t127 77.5t181.5 28.5q114 0 205 -51q-5 71 14.5 134.5t70 108t123.5 44.5q64 0 105 -36t41 -97
q0 -44 -30.5 -77.5t-76.5 -33.5q-35 0 -62.5 18.5t-37.5 41.5l47 53q-6 49 -55 49q-37 0 -63.5 -45.5t-26.5 -136.5q0 -40 2 -58q112 -91 112 -247zM291 651q0 -109 19 -172.5t52.5 -87.5t88.5 -24q48 0 79 22.5t50.5 87.5t19.5 176q0 164 -36 228.5t-115 64.5
q-51 0 -84 -23.5t-53.5 -90.5t-20.5 -181z" />
    <glyph glyph-name="j.calt" horiz-adv-x="595" 
d="M430 975v-936q0 -102 -13 -182.5t-44.5 -149.5t-82.5 -115t-128 -74t-180 -32l-11 47q125 24 170 102t45 256v1031h-157v53h401zM137 1309q0 61 37 100t109 39q66 0 104.5 -34.5t38.5 -102.5q0 -64 -37 -103t-108 -39q-75 0 -109.5 41t-34.5 99z" />
    <glyph glyph-name="y.calt" horiz-adv-x="1040" 
d="M35 922v53h491v-53h-151l241 -705l244 705h-151v53h331v-53h-102l-403 -1123q-63 -173 -128.5 -242t-166.5 -69q-104 0 -156.5 54t-52.5 128q0 75 38.5 117.5t96.5 42.5q55 0 86 -28t31 -85q0 -26 -13 -73h-65q-27 -40 -13.5 -69.5t60.5 -29.5q32 0 60.5 16.5t50.5 42.5
t45 71t40 89t39 109l43 125h-61l-350 924h-84z" />
    <glyph glyph-name="hyphen.case" horiz-adv-x="681" 
d="M96 639v119h492v-119h-492z" />
    <glyph glyph-name="idotaccent" horiz-adv-x="614" 
d="M154 1311q0 59 36.5 98t106.5 39q67 0 106 -34.5t39 -102.5q0 -64 -37 -103t-108 -39q-76 0 -109.5 41t-33.5 101zM47 975h387v-922h146v-53h-531v53h144v869h-146v53z" />
    <glyph glyph-name="jcircumflex.calt" horiz-adv-x="595" 
d="M430 975v-936q0 -102 -13 -182.5t-44.5 -149.5t-82.5 -115t-128 -74t-180 -32l-11 47q125 24 170 102t45 256v1031h-157v53h401zM-10 1120l213 363q40 22 80 22q57 0 88 -63l166 -320l-27 -18l-250 235l-246 -237z" />
    <glyph glyph-name="Racute.alt" horiz-adv-x="1366" 
d="M666 711h-168v-652h194v-59h-618v59h164v1315h-164v60h542q103 0 179.5 -7t152.5 -28.5t123.5 -58t77 -99t29.5 -147.5q0 -177 -112.5 -265.5t-336.5 -109.5q23 -92 82 -120.5t162 -20.5l114 -367q11 -32 14.5 -42.5t14 -31.5t19 -28t24 -14t35.5 -7q47 0 61 39.5
t19 151.5l49 -3q-1 -41 -2 -65.5t-5.5 -60t-13 -56.5t-25 -45.5t-39.5 -37.5t-58 -22t-80 -9q-66 0 -112.5 14.5t-76.5 45.5t-47.5 65t-34.5 88zM498 1374v-606h32q198 0 280.5 72.5t82.5 242.5q0 88 -18 144t-61 89t-105 45.5t-158 12.5h-53zM475 1530l283 305l49 -12
q76 -21 76 -78q0 -52 -74 -88l-311 -156z" />
    <glyph glyph-name="Rcommaaccent.alt" horiz-adv-x="1366" 
d="M666 711h-168v-652h194v-59h-618v59h164v1315h-164v60h542q103 0 179.5 -7t152.5 -28.5t123.5 -58t77 -99t29.5 -147.5q0 -177 -112.5 -265.5t-336.5 -109.5q23 -92 82 -120.5t162 -20.5l114 -367q11 -32 14.5 -42.5t14 -31.5t19 -28t24 -14t35.5 -7q47 0 61 39.5
t19 151.5l49 -3q-1 -41 -2 -65.5t-5.5 -60t-13 -56.5t-25 -45.5t-39.5 -37.5t-58 -22t-80 -9q-66 0 -112.5 14.5t-76.5 45.5t-47.5 65t-34.5 88zM498 1374v-606h32q198 0 280.5 72.5t82.5 242.5q0 88 -18 144t-61 89t-105 45.5t-158 12.5h-53zM684 -561l-33 37q73 62 97 102
t24 82q0 50 -35 61l-47 -49q-30 10 -52 36t-22 65q0 46 31.5 75t77.5 29q66 0 101.5 -43.5t35.5 -107.5q0 -150 -178 -287z" />
    <glyph glyph-name="Rcaron.alt" horiz-adv-x="1366" 
d="M666 711h-168v-652h194v-59h-618v59h164v1315h-164v60h542q103 0 179.5 -7t152.5 -28.5t123.5 -58t77 -99t29.5 -147.5q0 -177 -112.5 -265.5t-336.5 -109.5q23 -92 82 -120.5t162 -20.5l114 -367q11 -32 14.5 -42.5t14 -31.5t19 -28t24 -14t35.5 -7q47 0 61 39.5
t19 151.5l49 -3q-1 -41 -2 -65.5t-5.5 -60t-13 -56.5t-25 -45.5t-39.5 -37.5t-58 -22t-80 -9q-66 0 -112.5 14.5t-76.5 45.5t-47.5 65t-34.5 88zM498 1374v-606h32q198 0 280.5 72.5t82.5 242.5q0 88 -18 144t-61 89t-105 45.5t-158 12.5h-53zM981 1810l-254 -276
q-35 -23 -76 -23q-26 0 -46 14.5t-48 47.5l-199 235l23 29l285 -168l292 170z" />
    <glyph glyph-name="s_p" horiz-adv-x="2043" 
d="M1270 1223v-406q104 178 319 178q183 0 283 -126t100 -373q0 -255 -108 -385.5t-310 -130.5q-199 0 -282 126v-540h264v-53h-668v53h162v1675q-44 15 -87.5 45t-77 61t-68.5 60t-76.5 47.5t-87.5 18.5q-90 0 -138.5 -53.5t-48.5 -143.5q0 -95 60.5 -188.5t126.5 -131.5
q37 -22 63 -22q17 0 24.5 15t10.5 50h45v-305h-49q-67 244 -287 244q-98 0 -155.5 -38.5t-57.5 -106.5q0 -27 8 -48.5t27 -37.5t36 -26.5t51 -20.5t55 -15t64 -14q13 -3 19 -4q43 -9 71.5 -15.5t68 -20t65.5 -28.5t54.5 -39t45.5 -53.5t28 -71.5t11 -92q0 -149 -97 -238
t-267 -89q-142 0 -266 67q-18 12 -33 12t-24.5 -16.5t-18.5 -62.5h-45v346h51q21 -141 113 -211t223 -70q233 0 233 168q0 29 -8.5 52.5t-29 40.5t-39 28.5t-55.5 22t-60 15.5t-70 15q-45 9 -71.5 15t-68 18.5t-66 26t-54 35.5t-45.5 48.5t-27.5 64t-11.5 83.5
q0 136 95 226.5t249 90.5q41 0 76 -6q-131 142 -131 287q0 110 69 183t181 73q66 0 126.5 -29t98.5 -65t87 -77t89 -58q15 118 85 187t181 69q87 0 138 -38.5t51 -113.5q0 -84 -62 -133t-157 -51zM1513 911q-94 0 -169.5 -81t-75.5 -205v-324q0 -100 65 -178t174 -78
q118 0 162.5 100t44.5 344q0 227 -41 324.5t-160 97.5zM1270 1405v-125q66 2 107.5 36.5t41.5 98.5q0 42 -21 64t-52 22q-39 0 -57.5 -28t-18.5 -68z" />
    <glyph glyph-name="s_h" horiz-adv-x="2097" 
d="M80 -20v346h51q21 -141 113 -211t223 -70q233 0 233 168q0 29 -8.5 52.5t-29 40.5t-39 28.5t-55.5 22t-60 15.5t-70 15q-45 9 -71.5 15t-68 18.5t-66 26t-54 35.5t-45.5 48.5t-27.5 64t-11.5 83.5q0 136 95 226.5t249 90.5q40 0 74 -6q-129 140 -129 287q0 110 69 183
t181 73q66 0 126.5 -29t98.5 -65t87 -77t89 -58q15 118 85 187t181 69q87 0 138 -38.5t51 -113.5q0 -84 -62 -133t-157 -51v-437q40 89 123.5 149t222.5 60q307 0 307 -342v-600h145v-53h-524v53h137v625q0 129 -31.5 182t-109.5 53q-109 0 -189.5 -92t-80.5 -227v-541h139
v-53h-524v53h143v1188q-44 15 -87.5 45.5t-77 61t-68 59.5t-76 47.5t-86.5 18.5q-90 0 -138.5 -53.5t-48.5 -143.5q0 -96 63 -193t130 -131q36 -18 57 -18q17 0 24.5 15t10.5 50h45v-305h-49q-67 244 -287 244q-98 0 -155.5 -38.5t-57.5 -106.5q0 -27 8 -48.5t27 -37.5
t36 -26.5t51 -20.5t55 -15t64 -14q13 -3 19 -4q43 -9 71.5 -15.5t68 -20t65.5 -28.5t54.5 -39t45.5 -53.5t28 -71.5t11 -92q0 -149 -97 -238t-267 -89q-142 0 -266 67q-18 12 -33 12t-24.5 -16.5t-18.5 -62.5h-45zM1270 1405v-125q66 2 107.5 36.5t41.5 98.5q0 42 -21 64
t-52 22q-39 0 -57.5 -28t-18.5 -68z" />
    <glyph glyph-name="c_t" horiz-adv-x="1761" 
d="M578 946q-135 0 -195.5 -104.5t-60.5 -343.5q0 -234 61 -338.5t199 -104.5q230 0 282 267l58 -11q-6 -32 -13.5 -57.5t-22.5 -61.5t-34 -63.5t-50.5 -56.5t-70 -48t-93.5 -31.5t-120 -12.5q-219 0 -338 127.5t-119 363.5q0 256 135 390t369 134q7 0 22.5 -1t22.5 -1
q-127 137 -127 283q0 112 68.5 184t181.5 72q66 0 129 -29t103.5 -65t92.5 -77.5t91 -57.5q15 118 85.5 187t182.5 69q87 0 138 -38.5t51 -113.5q0 -84 -62.5 -133t-157.5 -51v-248h281v-53h-281v-672q0 -94 27 -134t98 -40q149 0 177 217l47 -6q-6 -52 -17 -94t-34 -83
t-55.5 -68.5t-84 -44.5t-117.5 -17q-135 0 -209.5 59t-74.5 201v682h-144v53h144v266q-44 15 -89 45.5t-80 62t-72 61t-80 48.5t-89 19q-90 0 -138 -55t-48 -146q0 -83 45.5 -164.5t105.5 -130.5q105 -25 161 -89t56 -157q0 -80 -37 -120t-100 -40q-60 0 -96.5 35.5
t-36.5 100.5q0 39 10 75h58q8 24 8 54q0 49 -35.5 77.5t-107.5 28.5zM1386 1380v-100q66 2 108 37t42 98q0 42 -21.5 64t-52.5 22q-76 0 -76 -121z" />
    <glyph glyph-name="c_h" horiz-adv-x="2209" 
d="M578 946q-135 0 -195.5 -104.5t-60.5 -343.5q0 -234 61 -338.5t199 -104.5q230 0 282 267l58 -11q-6 -32 -13.5 -57.5t-22.5 -61.5t-34 -63.5t-50.5 -56.5t-70 -48t-93.5 -31.5t-120 -12.5q-219 0 -338 127.5t-119 363.5q0 256 135 390t369 134q120 0 209 -51
q-17 42 -40 88.5t-52 102.5t-39 75q-102 -24 -178 -24q-97 0 -160 45t-63 135q0 76 49 120t125 44q87 0 147.5 -65t118.5 -187q177 44 361 121t245 137h94v-750q40 89 124 149t223 60q307 0 307 -342v-600h145v-53h-524v53h137v625q0 129 -31.5 182t-109.5 53
q-110 0 -190.5 -92t-80.5 -227v-541h140v-53h-525v53h144v1329q-202 -95 -432 -155q117 -222 153 -307q53 -121 53 -189t-35.5 -112t-101.5 -44t-99.5 38t-33.5 98q0 39 10 75h58q8 24 8 54q0 49 -35.5 77.5t-107.5 28.5zM614 1264l-15.5 31t-18.5 35.5t-19 33t-23 34.5
t-25 27t-30 24.5t-32.5 14t-38.5 6.5q-44 0 -72.5 -26.5t-28.5 -69.5q0 -63 44.5 -96t117.5 -33q54 0 141 19z" />
    <glyph glyph-name="c_k" horiz-adv-x="2140" 
d="M1628 0v53h131l-293 457l-82 -18v-439h123v-53h-510v53h144v1329q-202 -95 -432 -155q117 -222 153 -307q53 -121 53 -189q0 -77 -37.5 -116.5t-99.5 -39.5q-60 0 -96.5 35.5t-36.5 100.5q0 39 10 75h58q8 24 8 54q0 49 -35.5 77.5t-107.5 28.5q-135 0 -195.5 -104.5
t-60.5 -343.5q0 -234 61 -338.5t199 -104.5q230 0 282 267l58 -11q-6 -32 -13.5 -57.5t-22.5 -61.5t-34 -63.5t-50.5 -56.5t-70 -48t-93.5 -31.5t-120 -12.5q-219 0 -338 127.5t-119 363.5q0 256 135 390t369 134q120 0 209 -51q-17 42 -40 88.5t-52 102.5t-39 75
q-102 -24 -178 -24q-97 0 -160 45t-63 135q0 76 49 120t125 44q87 0 147.5 -65t118.5 -187q177 44 361 121t245 137h96v-981l66 14l393 353h-176v53h412v-53h-142l-292 -267l389 -602h96v-53h-502zM614 1264l-15.5 31t-18.5 35.5t-19 33t-23 34.5t-25 27t-30 24.5t-32.5 14
t-38.5 6.5q-44 0 -72.5 -26.5t-28.5 -69.5q0 -63 44.5 -96t117.5 -33q54 0 141 19z" />
    <glyph glyph-name="t_t" horiz-adv-x="1556" 
d="M938 240v682h-461v-672q0 -93 27.5 -133.5t97.5 -40.5q77 0 119.5 55t56.5 162l49 -6q-7 -66 -24 -116.5t-50.5 -96t-92 -70t-140.5 -24.5q-135 0 -209.5 59t-74.5 201v682h-144v53h144v268q-96 2 -151.5 43.5t-55.5 124.5q0 75 55 115.5t139 40.5q214 0 248 -244
q37 12 80.5 38.5t81.5 54.5t81 55t94.5 44t106.5 17q120 0 192.5 -72t72.5 -219v-266h282v-53h-282v-672q0 -93 27.5 -133.5t97.5 -40.5q77 0 119.5 55t56.5 162l49 -6q-7 -66 -24 -116.5t-50.5 -96t-92 -70t-140.5 -24.5q-136 0 -210.5 59t-74.5 201zM477 1262v-287h461
v270q0 47 -0.5 71.5t-3 54t-7 43t-13.5 27.5t-22 18.5t-32 4.5q-36 0 -82.5 -25t-88 -57t-100.5 -68t-112 -52zM238 1300v105q0 104 -64 104q-31 0 -53.5 -24t-22.5 -66q0 -116 140 -119z" />
    <glyph glyph-name="T_h" horiz-adv-x="2375" 
d="M43 997l20 437h1250q11 106 85.5 181t188.5 75q81 0 129.5 -37.5t48.5 -112.5q0 -83 -60 -125.5t-157 -44.5v-584q40 89 123.5 149t222.5 60q308 0 308 -342v-600h145v-53h-524v53h137v625q0 43 -2 72t-10 63t-23 53.5t-42 33t-66 13.5q-108 0 -188.5 -92t-80.5 -227
v-541h140v-53h-525v53h144v1321h-531v-1315h191v-59h-641v59h190v1315h-29q-94 0 -151 -12.5t-106.5 -53t-80 -114.5t-55.5 -197h-51zM1548 1513v-81q70 2 109 27t39 87q0 42 -20.5 64t-51.5 22q-76 0 -76 -119z" />
    <glyph glyph-name="g_i" horiz-adv-x="1644" 
d="M852 662q0 -162 -101 -255.5t-274 -93.5q-72 0 -149 15q-99 -64 -99 -115q0 -16 19 -23.5t69 -7.5h244q75 0 134 -7t115 -27.5t92.5 -54t58.5 -89.5t22 -131q0 -178 -133 -281.5t-420 -103.5q-213 0 -322.5 62t-109.5 174q0 128 154 163l69 -47q-20 -50 -20 -104
q0 -89 64 -142t206 -53q184 0 282.5 68t98.5 182q0 92 -66.5 130t-222.5 38h-227q-120 0 -176 42t-56 110q0 62 36.5 113t129.5 120q-190 72 -190 305q0 70 24 130.5t71 109.5t126.5 77.5t181.5 28.5q118 0 207 -53q67 129 132 224t119.5 151.5t110 91t100 46t93.5 11.5
q97 0 155 -50.5t58 -131.5q0 -66 -39 -104.5t-100 -38.5q-62 0 -99 34.5t-42 84.5l71 57q10 34 -10.5 54t-52.5 20q-184 0 -447 -482q113 -92 113 -247zM313 651q0 -109 19 -172.5t52.5 -87.5t88.5 -24q36 0 62 12.5t46.5 43.5t31 88.5t10.5 141.5q0 111 -17 176t-49.5 91
t-85.5 26q-51 0 -84 -23.5t-53.5 -90.5t-20.5 -181zM1081 975h381v-922h146v-53h-531v53h144v869h-140v53z" />
    <glyph glyph-name="v_i" horiz-adv-x="1667" 
d="M0 922v53h512v-53h-156l256 -674q252 695 277 762q70 186 127.5 284t115.5 135t142 37q96 0 151.5 -50.5t55.5 -131.5q0 -66 -39.5 -104.5t-100.5 -38.5q-62 0 -99 34.5t-42 84.5l72 57q10 34 -11 54t-53 20q-49 0 -107.5 -89t-135.5 -292q-143 -373 -377 -1024h-105
l-391 936h-92zM1100 975h387v-922h145v-53h-530v53h143v869h-145v53z" />
    <glyph glyph-name="w_i" horiz-adv-x="2209" 
d="M618 922v53h457v-53h-119l250 -670q12 43 45.5 166t46 167.5t37 131.5t46 154t46.5 139q48 139 93.5 229t94.5 139.5t97.5 68.5t112.5 19q97 0 153 -50.5t56 -131.5q0 -66 -39.5 -104.5t-100.5 -38.5q-62 0 -99 34.5t-42 84.5l72 57q2 6 2 20q0 25 -19.5 39.5t-46.5 14.5
q-54 0 -122.5 -92.5t-135.5 -288.5q-125 -361 -301 -1024h-127l-258 671l-264 -671h-107l-354 936h-92v53h483v-53h-131l234 -680l192 501l-63 179h-97zM1642 975h388v-922h145v-53h-530v53h143v869h-146v53z" />
    <glyph glyph-name="y_i" horiz-adv-x="1654" 
d="M4 922v53h502v-53h-152l256 -697q54 151 153.5 426t129.5 359q97 269 175 362.5t206 93.5q96 0 151.5 -50.5t55.5 -131.5q0 -66 -39.5 -104.5t-100.5 -38.5q-62 0 -99 34.5t-42 84.5l72 57q10 34 -11 54t-53 20q-57 0 -109.5 -83.5t-133.5 -297.5q-77 -202 -231 -617
t-208 -559q-76 -201 -144 -273.5t-187 -72.5q-107 0 -164.5 56.5t-57.5 133.5q0 71 38 112.5t95 41.5q55 0 87 -28.5t32 -84.5q0 -29 -12 -73h-66q-10 -27 -10 -43q0 -58 78 -58q81 0 135 77.5t115 250.5l45 125h-41l-373 924h-92zM1087 975h388v-922h145v-53h-530v53h143
v869h-146v53z" />
    <glyph glyph-name="zero.num" horiz-adv-x="811" 
d="M41 993q0 116 27.5 203t77.5 138.5t114.5 76.5t142.5 25q168 0 267.5 -107t99.5 -336q0 -118 -28 -205.5t-79 -138.5t-115.5 -75.5t-144.5 -24.5q-121 0 -204 58t-120.5 156t-37.5 230zM254 989q0 -152 12 -231t44 -114.5t93 -35.5q91 0 121.5 78.5t30.5 300.5
q0 227 -31 309t-121 82q-87 0 -118 -84t-31 -305z" />
    <glyph glyph-name="one.num" horiz-adv-x="557" 
d="M190 1360l-149 -14l-6 53l280 37h80v-822h113v-53h-459v53h141v746z" />
    <glyph glyph-name="two.num" horiz-adv-x="692" 
d="M45 561v117l160 149q128 118 176.5 205t48.5 203q0 76 -29.5 109.5t-101.5 33.5q-59 0 -88 -16.5t-29 -44.5q0 -22 8 -41h39q11 -26 11 -55q0 -38 -27 -61t-70 -23q-49 0 -74.5 29.5t-25.5 76.5q0 86 77.5 139.5t213.5 53.5q144 0 218.5 -55t74.5 -156q0 -69 -33 -126
t-127 -142.5t-299 -243.5h256q61 0 96.5 17.5t50.5 46t25 81.5h49l-12 -297h-588z" />
    <glyph glyph-name="three.num" horiz-adv-x="706" 
d="M334 1436q140 0 210 -51t70 -144q0 -79 -56 -133t-163 -80q133 -15 200 -73t67 -150q0 -117 -99.5 -186.5t-265.5 -69.5q-51 0 -95.5 9.5t-84.5 29.5t-63 58t-23 89q0 46 25 76.5t75 30.5q42 0 68 -23.5t26 -60.5q0 -28 -10 -58h-41q-6 -15 -6 -34q0 -25 31 -42.5
t92 -17.5q166 0 166 195q0 83 -33 129.5t-90 73.5q-57 -14 -123 -19l-8 53q61 7 97.5 16.5t66.5 31t42.5 58t12.5 93.5q0 141 -121 141q-53 0 -82 -17t-29 -42q0 -14 7 -35h39q8 -21 8 -53q0 -35 -25.5 -57.5t-64.5 -22.5q-48 0 -73.5 27.5t-25.5 72.5q0 85 75.5 135
t203.5 50z" />
    <glyph glyph-name="four.num" horiz-adv-x="772" 
d="M248 561v53h123v156h-357v53l365 598h190v-592h103v80h55v-219h-55v80h-103v-156h90v-53h-411zM84 829h287v469z" />
    <glyph glyph-name="five.num" horiz-adv-x="696" 
d="M297 1036q-80 0 -170 -51l-27 12v410l23 16q81 -12 217 -26.5t164 -14.5q22 0 33.5 12.5t19.5 41.5l47 -6q-17 -126 -37 -168.5t-59 -42.5q-27 0 -109 22l-237 66l-4 -248q83 39 180 39q85 0 147 -22.5t95.5 -61.5t49 -84.5t15.5 -98.5q0 -131 -95.5 -206.5t-256.5 -75.5
q-48 0 -91 9.5t-82 30t-62 59t-23 91.5q0 45 25 75t73 30q42 0 69 -23.5t27 -62.5q0 -16 -10 -56h-41q-8 -16 -8 -34q0 -29 31.5 -44.5t87.5 -15.5q83 0 115 57t32 177q0 105 -29 149.5t-110 44.5z" />
    <glyph glyph-name="six.num" horiz-adv-x="753" 
d="M57 944q0 234 104.5 363t284.5 129q115 0 177.5 -47.5t62.5 -120.5q0 -43 -25 -70t-69 -27q-40 0 -66 20t-26 58q0 28 8 49h35q6 9 6 31q0 51 -96 51q-66 0 -106.5 -31.5t-64.5 -113.5t-26 -223q67 96 203 96q115 0 186.5 -66t71.5 -192q0 -139 -88.5 -220t-241.5 -81
q-161 0 -245.5 94.5t-84.5 300.5zM260 831q0 -118 25 -171.5t102 -53.5q75 0 103 56t28 165q0 116 -24.5 163.5t-83.5 47.5q-150 0 -150 -207z" />
    <glyph glyph-name="seven.num" horiz-adv-x="622" 
d="M152 682q0 73 52.5 164.5t219.5 302.5l98 123h-278q-92 0 -119.5 -21.5t-44.5 -103.5h-47l10 274h571v-102l-100 -180q-107 -196 -139.5 -288t-32.5 -161q0 -59 37 -102l-25 -37q-92 -13 -147 24t-55 107z" />
    <glyph glyph-name="eight.num" horiz-adv-x="751" 
d="M309 1014q-115 9 -178 62.5t-63 137.5q0 102 80.5 162t228.5 60q149 0 229 -57.5t80 -159.5q0 -88 -61 -142t-176 -63v-4q264 -26 264 -226q0 -235 -336 -235q-168 0 -253 60t-85 175q0 99 68 157.5t202 68.5v4zM377 981q-73 0 -107 -48t-34 -149q0 -92 33 -135t108 -43
t108 43.5t33 136.5q0 100 -34 147.5t-107 47.5zM260 1219q0 -91 28.5 -133t92.5 -42q62 0 88.5 41.5t26.5 133.5q0 159 -119 159q-117 0 -117 -159z" />
    <glyph glyph-name="nine.num" horiz-adv-x="765" 
d="M709 1032q0 -235 -102 -359t-285 -124q-118 0 -182 48.5t-64 117.5q0 49 25 77.5t73 28.5q41 0 67.5 -21.5t26.5 -60.5q0 -29 -8 -53h-39q-6 -15 -6 -31q0 -49 100 -49t146 82.5t47 284.5q-67 -96 -203 -96q-115 0 -186.5 68.5t-71.5 197.5q0 138 89.5 214.5t242.5 76.5
q330 0 330 -402zM506 1141q0 125 -25 181t-102 56t-105 -54.5t-28 -162.5q0 -120 24.5 -168.5t85.5 -48.5q70 0 110 51.5t40 145.5z" />
    <glyph glyph-name="zero.denom" horiz-adv-x="811" 
d="M41 432q0 116 27.5 203t77.5 138t114 76t143 25q168 0 267.5 -106.5t99.5 -335.5q0 -118 -28 -205.5t-79 -138.5t-115.5 -75.5t-144.5 -24.5q-121 0 -204 58t-120.5 156t-37.5 230zM254 428q0 -152 12 -231t44 -114.5t93 -35.5q91 0 121.5 78.5t30.5 300.5q0 227 -31 309
t-121 82q-87 0 -118 -84t-31 -305z" />
    <glyph glyph-name="one.denom" horiz-adv-x="557" 
d="M190 799l-149 -15l-6 54l280 36h80v-821h113v-53h-459v53h141v746z" />
    <glyph glyph-name="two.denom" horiz-adv-x="692" 
d="M45 0v117l160 149q128 118 176.5 205t48.5 203q0 76 -29.5 109.5t-101.5 33.5q-59 0 -88 -16.5t-29 -44.5q0 -22 8 -41h39q11 -26 11 -56q0 -38 -27 -61t-70 -23q-49 0 -74.5 30t-25.5 77q0 86 77.5 139t213.5 53q145 0 219 -54.5t74 -155.5q0 -69 -33 -126t-127 -142.5
t-299 -243.5h256q61 0 96.5 17.5t50.5 46t25 81.5h49l-12 -297h-588z" />
    <glyph glyph-name="three.denom" horiz-adv-x="706" 
d="M334 874q140 0 210 -50.5t70 -143.5q0 -79 -56 -133t-163 -80q133 -15 200 -73t67 -150q0 -117 -99.5 -186.5t-265.5 -69.5q-51 0 -95.5 9.5t-84.5 29.5t-63 58t-23 89q0 46 25 76.5t75 30.5q42 0 68 -23.5t26 -60.5q0 -28 -10 -58h-41q-6 -15 -6 -35q0 -25 31 -42
t92 -17q166 0 166 195q0 83 -32.5 129t-90.5 73q-50 -12 -123 -18l-8 53q61 7 97.5 16.5t66.5 31t42.5 58t12.5 93.5q0 141 -121 141q-53 0 -82 -17t-29 -42q0 -14 7 -35h39q8 -21 8 -53q0 -35 -25.5 -57.5t-64.5 -22.5q-48 0 -73.5 27.5t-25.5 72.5q0 85 75.5 134.5
t203.5 49.5z" />
    <glyph glyph-name="four.denom" horiz-adv-x="772" 
d="M248 0v53h123v156h-357v53l365 598h190v-592h103v80h55v-219h-55v80h-103v-156h90v-53h-411zM84 268h287v469z" />
    <glyph glyph-name="five.denom" horiz-adv-x="696" 
d="M297 475q-80 0 -170 -51l-27 12v410l23 16q81 -12 217 -26.5t164 -14.5q22 0 33.5 12t19.5 41l47 -6q-17 -126 -37 -168.5t-59 -42.5q-23 0 -109 23l-237 65l-4 -247q83 39 180 39q85 0 147 -22.5t95.5 -61.5t49 -84.5t15.5 -98.5q0 -131 -95.5 -206.5t-256.5 -75.5
q-48 0 -91 9.5t-82 30t-62 59t-23 91.5q0 45 25 75t73 30q42 0 69 -23.5t27 -62.5q0 -16 -10 -56h-41q-8 -16 -8 -35q0 -59 119 -59q83 0 115 57t32 177q0 105 -29 149.5t-110 44.5z" />
    <glyph glyph-name="six.denom" horiz-adv-x="753" 
d="M57 383q0 234 104.5 362.5t284.5 128.5q115 0 177.5 -47t62.5 -120q0 -43 -25 -70t-69 -27q-40 0 -66 20t-26 58q0 28 8 49h35q6 9 6 31q0 51 -96 51q-66 0 -106.5 -31.5t-64.5 -113.5t-26 -223q67 96 203 96q115 0 186.5 -66t71.5 -192q0 -139 -88.5 -220t-241.5 -81
q-161 0 -245.5 94.5t-84.5 300.5zM260 270q0 -118 25 -171.5t102 -53.5q75 0 103 56t28 165q0 116 -24.5 163.5t-83.5 47.5q-150 0 -150 -207z" />
    <glyph glyph-name="seven.denom" horiz-adv-x="622" 
d="M152 121q0 73 52.5 164.5t219.5 302.5l98 123h-278q-92 0 -119.5 -21.5t-44.5 -103.5h-47l10 274h571v-102l-100 -180q-107 -196 -139.5 -288t-32.5 -161q0 -59 37 -102l-25 -37q-92 -13 -147 24t-55 107z" />
    <glyph glyph-name="eight.denom" horiz-adv-x="751" 
d="M309 453q-115 9 -178 62.5t-63 137.5q0 102 80.5 161.5t228.5 59.5q149 0 229 -57.5t80 -159.5q0 -88 -61 -141.5t-176 -62.5v-4q264 -26 264 -226q0 -235 -336 -235q-168 0 -253 60t-85 175q0 99 68 157.5t202 68.5v4zM377 420q-73 0 -107 -48t-34 -149q0 -92 33 -135
t108 -43t108 43.5t33 136.5q0 100 -34 147.5t-107 47.5zM260 657q0 -91 28.5 -132.5t92.5 -41.5q62 0 88.5 41t26.5 133q0 160 -119 160q-117 0 -117 -160z" />
    <glyph glyph-name="nine.denom" horiz-adv-x="765" 
d="M709 471q0 -235 -102 -359t-285 -124q-118 0 -182 48.5t-64 117.5q0 49 25 77.5t73 28.5q41 0 67.5 -21.5t26.5 -60.5q0 -29 -8 -53h-39q-6 -15 -6 -31q0 -49 100 -49t146 82.5t47 284.5q-67 -97 -203 -97q-115 0 -186.5 69t-71.5 198q0 138 89.5 214t242.5 76
q330 0 330 -401zM506 580q0 125 -25 181t-102 56t-105 -54.5t-28 -162.5q0 -120 24.5 -168.5t85.5 -48.5q70 0 110 51.5t40 145.5z" />
    <glyph glyph-name="commaaccent" horiz-adv-x="1024" 
d="M459 -561l-33 37q73 62 97 102t24 82q0 50 -35 61l-47 -49q-30 10 -52 36t-22 65q0 46 31.5 75t77.5 29q66 0 101.5 -43.5t35.5 -107.5q0 -150 -178 -287z" />
    <glyph glyph-name="revcommaaccent" horiz-adv-x="1024" 
d="M563 1583l37 -41q-117 -110 -117 -190q0 -38 29 -47l47 49q30 -10 54 -39t24 -68q0 -46 -33.5 -75t-79.5 -29q-66 0 -100.5 43.5t-34.5 107.5q0 155 174 289z" />
    </font>
</defs>
</svg>
