<?xml version="1.0" standalone="no"?>
<!DOCTYPE svg PUBLIC "-//W3C//DTD SVG 1.1//EN" "http://www.w3.org/Graphics/SVG/1.1/DTD/svg11.dtd" >
<svg xmlns="http://www.w3.org/2000/svg" xmlns:xlink="http://www.w3.org/1999/xlink" version="1.1">
<metadata>
Created by FontForge 20170731 at Wed Feb 17 08:57:50 2021
 By Aleksey,,,
Copyright (c) 2011 by TypeTogether. All rights reserved.
</metadata>
<defs>
<font id="AbrilDisplay-SemiBoldItalic" horiz-adv-x="1126" >
  <font-face 
    font-family="Abril Display SB"
    font-weight="600"
    font-style="italic"
    font-stretch="normal"
    units-per-em="2048"
    panose-1="2 0 5 3 7 0 0 9 0 3"
    ascent="1536"
    descent="-512"
    x-height="991"
    cap-height="1434"
    bbox="-444 -944 2826 2150"
    underline-thickness="102"
    underline-position="-307"
    slope="-3.32999"
    unicode-range="U+0020-FB06"
  />
<missing-glyph horiz-adv-x="409" 
 />
    <glyph glyph-name="ij" unicode="ij" horiz-adv-x="1136" 
d="M379 1167q-131 0 -131 119q0 69 47 115.5t123 46.5q61 0 96 -29t35 -90q0 -71 -46.5 -116.5t-123.5 -45.5zM504 154l45 -33q-48 -72 -105.5 -108t-136.5 -36q-209 0 -209 193q0 66 31 215q12 52 61 276t58 265h-164l10 53h393q-18 -77 -84 -403.5t-71 -358.5
q-13 -60 -13 -92q0 -37 14.5 -52.5t43.5 -15.5q31 0 59 22t68 75zM436 -324l-78 -12q-24 -62 -3.5 -93.5t73.5 -31.5q32 0 57 9.5t44 34t32 51t25.5 76t20.5 93t20 117.5l164 1006h-162l10 53h393l-158 -977q-15 -90 -36.5 -162.5t-58 -140t-85 -112.5t-119 -72t-157.5 -27
q-106 0 -178 54t-72 145q0 70 42.5 118t115.5 48q65 0 100 -50.5t10 -126.5zM924 1167q-131 0 -131 119q0 70 46.5 116t123.5 46q61 0 96 -29t35 -90q0 -71 -47 -116.5t-123 -45.5z" />
    <glyph glyph-name="ff" unicode="ff" horiz-adv-x="1308" 
d="M43 -133l188 1059h-153l8 53h154l16 82q49 244 190 373t345 129q187 0 262 -129q61 66 147.5 107.5t183.5 41.5q114 0 188.5 -54t74.5 -147q0 -71 -42.5 -116t-113.5 -45q-58 0 -89.5 32.5t-31.5 85.5q0 30 8 54l74 8q14 32 14 57q0 36 -24.5 56t-65.5 20
q-51 0 -89.5 -26.5t-63.5 -78.5t-40 -105.5t-28 -129.5l-37 -215h279l-11 -53h-276l-162 -869q-49 -259 -181 -391.5t-339 -132.5q-178 0 -278 107q-128 -152 -314 -152q-116 0 -189 54t-73 145q0 72 44 120t118 48q55 0 89 -32t34 -85q0 -27 -13 -64l-77 -8
q-19 -31 -19 -57q0 -31 27.5 -49.5t68.5 -18.5q20 0 37.5 3t32 12t26 17t22 25.5t18 29.5t15.5 37.5t13 41.5t11.5 49t10.5 52.5t11 58.5zM702 -18l170 944h-403l-139 -779q-17 -95 -58 -249q45 -8 73 -39t28 -76q0 -20 -11 -57l-77 -9q-17 -25 -17 -51q0 -38 39 -59
t105 -21q220 0 290 396zM508 1149l-31 -170h404l39 209q-45 7 -70 39.5t-25 77.5q0 26 9 53l73 8q15 37 15 55q0 42 -36.5 67t-94.5 25q-112 0 -179 -80.5t-104 -283.5z" />
    <glyph glyph-name="fi" unicode="fi" horiz-adv-x="1222" 
d="M1122 154l43 -33q-95 -144 -239 -144q-102 0 -157.5 48t-55.5 145q0 41 52 303.5t97 452.5h-393l-176 -965q-43 -233 -151.5 -353t-305.5 -120q-116 0 -189 54t-73 145q0 72 44 120t118 48q55 0 89 -32t34 -85q0 -27 -13 -64l-77 -8q-19 -31 -19 -57q0 -32 25.5 -50
t64.5 -18q42 0 73 16t49 35.5t34 69t23 82t21 107.5q2 11 3 16l188 1059h-153l8 53h154l24 129q44 232 182.5 353.5t358.5 121.5q129 0 212 -54t83 -147q0 -72 -41.5 -116.5t-112.5 -44.5q-56 0 -89.5 30t-33.5 82q0 23 11 60l73 8q13 29 13 49q0 39 -32 61.5t-83 22.5
q-225 0 -287 -334l-41 -221h623q-18 -78 -84.5 -404.5t-71.5 -357.5q-12 -61 -12 -100q3 -60 63 -60q30 0 59 22.5t68 74.5z" />
    <glyph glyph-name="fl" unicode="fl" horiz-adv-x="1273" 
d="M43 -133l188 1059h-153l8 53h154l22 127q36 220 167.5 348.5t334.5 128.5q97 0 166 -49.5t90 -126.5l192 125l27 -6q-29 -124 -242 -1309q-8 -58 -8 -82q0 -78 58 -78q33 0 63.5 23t67.5 76l47 -33q-52 -75 -110 -110.5t-134 -35.5q-103 0 -159 51.5t-56 149.5
q0 94 72 461l123 612q-34 -22 -84 -22q-45 0 -77 30.5t-32 79.5q0 24 10 54l74 8q14 28 14 53q0 38 -29.5 59t-70.5 21q-108 0 -165.5 -87.5t-86.5 -252.5l-37 -215h279l-11 -53h-276l-176 -965q-41 -232 -150.5 -352.5t-306.5 -120.5q-116 0 -189 54t-73 145q0 72 44 120
t118 48q55 0 89 -32t34 -85q0 -27 -13 -64l-77 -8q-19 -32 -19 -57q0 -32 27 -50t69 -18q92 0 135 84q27 54 57 217z" />
    <glyph glyph-name="ffi" unicode="ffi" horiz-adv-x="1853" 
d="M43 -133l188 1059h-153l8 53h154l16 82q49 244 190 373t345 129q187 0 262 -129q61 66 147.5 107.5t183.5 41.5q114 0 188.5 -54t74.5 -147q0 -71 -42.5 -116t-113.5 -45q-58 0 -89.5 32.5t-31.5 85.5q0 30 8 54l74 8q14 32 14 57q0 36 -24.5 56t-65.5 20
q-51 0 -89.5 -26.5t-63.5 -78.5t-40 -105.5t-28 -129.5l-37 -215h613q-18 -78 -84.5 -404.5t-71.5 -357.5q-12 -62 -12 -100q3 -60 63 -60q30 0 59 22.5t68 74.5l43 -33q-95 -144 -240 -144q-102 0 -157.5 48t-55.5 145q0 41 52.5 302.5t97.5 453.5h-383l-162 -869
q-49 -259 -181 -391.5t-339 -132.5q-178 0 -278 107q-128 -152 -314 -152q-116 0 -189 54t-73 145q0 72 44 120t118 48q55 0 89 -32t34 -85q0 -27 -13 -64l-77 -8q-19 -31 -19 -57q0 -31 27.5 -49.5t68.5 -18.5q20 0 37.5 3t32 12t26 17t22 25.5t18 29.5t15.5 37.5t13 41.5
t11.5 49t10.5 52.5t11 58.5zM702 -18l170 944h-403l-139 -779q-17 -95 -58 -249q45 -8 73 -39t28 -76q0 -20 -11 -57l-77 -9q-17 -25 -17 -51q0 -38 39 -59t105 -21q220 0 290 396zM508 1149l-31 -170h404l39 209q-45 7 -70 39.5t-25 77.5q0 26 9 53l73 8q15 37 15 55
q0 42 -36.5 67t-94.5 25q-112 0 -179 -80.5t-104 -283.5z" />
    <glyph glyph-name="ffl" unicode="ffl" horiz-adv-x="1912" 
d="M1395 1534q-50 0 -89 -21t-62.5 -50.5t-42.5 -80t-27.5 -90t-18.5 -98.5l-37 -215h258l-10 -53h-256l-162 -869q-49 -259 -181 -391.5t-339 -132.5q-178 0 -278 107q-128 -152 -314 -152q-116 0 -189 54t-73 145q0 72 44 120t118 48q55 0 89 -32t34 -85q0 -27 -13 -64
l-77 -8q-19 -31 -19 -57q0 -31 27.5 -49.5t68.5 -18.5q20 0 37.5 3t32 12t26 17t22 25.5t18 29.5t15.5 37.5t13 41.5t11.5 49t10.5 52.5t11 58.5l188 1059h-153l8 53h154l16 82q49 244 190 373t345 129q187 0 262 -129q67 71 157 110t193 39q98 0 167 -48t93 -128l188 125
l27 -6l-209 -1114q-41 -209 -41 -277q0 -78 58 -78q33 0 63.5 23t67.5 76l47 -33q-52 -75 -110 -110.5t-134 -35.5q-103 0 -158 51.5t-55 149.5q0 108 72 461l127 623q-44 -35 -90 -35q-55 0 -82 28t-27 76q0 24 10 62l74 8q12 24 12 47q0 40 -31.5 63t-76.5 23zM702 -18
l170 944h-403l-139 -779q-17 -95 -58 -249q45 -8 73 -39t28 -76q0 -20 -11 -57l-77 -9q-17 -25 -17 -51q0 -38 39 -59t105 -21q220 0 290 396zM508 1149l-31 -170h404l39 209q-45 7 -70 39.5t-25 77.5q0 26 9 53l73 8q15 37 15 55q0 42 -36.5 67t-94.5 25q-112 0 -179 -80.5
t-104 -283.5z" />
    <glyph glyph-name="f_k" unicode="fk" horiz-adv-x="1789" 
d="M834 418l133 831q-36 -20 -80 -20q-48 0 -82.5 29t-34.5 83q0 28 8 52l74 8q12 24 12 47q0 40 -31.5 63t-76.5 23q-183 0 -242 -340l-37 -215h279l-11 -53h-276l-176 -965q-43 -233 -151.5 -353t-305.5 -120q-116 0 -189 54t-73 145q0 72 44 120t118 48q55 0 89 -32
t34 -85q0 -27 -13 -64l-77 -8q-19 -31 -19 -57q0 -31 27.5 -49.5t68.5 -18.5q20 0 37.5 3t32 12t26 17t22 25.5t18 29.5t15.5 37.5t13 41.5t11.5 49t10.5 52.5t11 58.5l188 1059h-153l8 53h154l22 127q39 221 167.5 349t330.5 128q99 0 169 -49.5t91 -124.5l192 123l27 -6
q-6 -25 -41.5 -221t-82 -460.5t-60.5 -342.5l180 96q231 123 231 209v6l-77 31q-3 12 -3 26q0 61 38.5 102.5t111.5 41.5q68 0 103.5 -39.5t35.5 -95.5q0 -34 -19 -67t-43.5 -57t-75.5 -56t-87 -51t-107 -55t-108 -56l6 -11q67 13 115 13q101 0 148.5 -40t47.5 -110
q0 -9 -10 -72q-9 -43 -20.5 -97t-17 -79.5t-5.5 -29.5q0 -56 57 -56q37 0 67 23.5t67 75.5l43 -29q-95 -148 -238 -148q-101 0 -159 43.5t-58 126.5q0 42 10 76l29 113q8 40 8 55q0 86 -98 86q-37 0 -88 -13.5t-88 -31.5l-68 -424q-49 0 -124.5 -7.5t-119.5 -18.5z" />
    <glyph glyph-name="f_b" unicode="fb" horiz-adv-x="1816" 
d="M836 625l137 637q-39 -31 -88 -31q-48 0 -81.5 28t-33.5 82q0 28 8 52l74 8q12 24 12 47q0 41 -26 63.5t-72 22.5q-56 0 -99 -24.5t-72 -72.5t-48 -106t-33 -137l-37 -215h279l-11 -53h-276l-176 -965q-43 -233 -151.5 -353t-305.5 -120q-116 0 -189 54t-73 145
q0 72 44 120t118 48q55 0 89 -32t34 -85q0 -27 -13 -64l-77 -8q-19 -31 -19 -57q0 -31 27.5 -49.5t68.5 -18.5q20 0 37.5 3t32 12t26 17t22 25.5t18 29.5t15.5 37.5t13 41.5t11.5 49t10.5 52.5t11 58.5l188 1059h-153l8 53h154l22 127q39 221 167.5 349t330.5 128
q100 0 168.5 -49t91.5 -127l192 125l27 -6l-172 -781l10 -4q136 258 377 258q140 0 211.5 -93t71.5 -261q0 -95 -20.5 -188t-66 -180.5t-109.5 -153.5t-158.5 -106t-206.5 -40q-195 0 -285 94.5t-90 260.5q0 118 35 293zM1362 911q-92 0 -184 -127q-73 -100 -114.5 -241.5
t-41.5 -274.5q0 -51 6.5 -88t23 -70t50.5 -50t84 -17q74 0 130.5 46.5t88.5 115t52.5 160t27 168t6.5 151.5q0 119 -26 173t-103 54z" />
    <glyph glyph-name="f_h" unicode="fh" horiz-adv-x="1863" 
d="M811 356l158 901q-41 -30 -86 -30q-46 0 -79.5 30t-33.5 84q0 28 8 52l74 8q12 24 12 47q0 42 -31 64t-77 22q-185 0 -242 -340l-37 -215h279l-11 -53h-276l-176 -965q-43 -232 -152 -352.5t-305 -120.5q-116 0 -189 54t-73 145q0 72 44 120t118 48q55 0 89 -32t34 -85
q0 -27 -13 -64l-77 -8q-19 -31 -19 -57q0 -31 27.5 -49.5t68.5 -18.5q25 0 45.5 5t37 18t29 26.5t23.5 39t18.5 45.5t16 57t13.5 62.5t14 72.5l188 1059h-153l8 53h154l22 127q39 222 168 349.5t334 127.5q97 0 164.5 -49t91.5 -127l192 125l27 -6l-199 -901l13 -7
q29 59 58 108t71 101.5t86.5 88.5t103 59.5t121.5 23.5q107 0 162 -55t55 -158q0 -61 -16 -133q-101 -396 -107 -422q-18 -74 -18 -110q0 -64 57 -64q64 0 135 95l43 -35q-96 -140 -245 -140q-100 0 -154.5 48t-54.5 141q0 61 23 161t57.5 223.5t46.5 176.5q14 57 14 100
q0 78 -70 78q-95 0 -189 -115.5t-149 -275.5q-63 -186 -96 -508q-48 2 -132 -4.5t-126 -15.5z" />
    <glyph glyph-name="f_t" unicode="ft" horiz-adv-x="1314" 
d="M43 -133l188 1059h-153l8 53h154l22 127q40 225 159 351t322 126q114 0 188.5 -54t74.5 -147q0 -71 -42.5 -116t-113.5 -45q-58 0 -89.5 32.5t-31.5 85.5q0 30 8 54l74 8q14 32 14 57q0 36 -24.5 56t-65.5 20q-51 0 -89.5 -26.5t-63.5 -78.5t-40 -105.5t-28 -129.5
l-37 -215h371l33 176l247 59l-43 -235h215l-8 -53h-215l-106 -574q-27 -144 -27 -186q0 -94 88 -94q53 0 94.5 32t92.5 103l47 -35q-125 -195 -305 -195q-125 0 -186.5 61.5t-61.5 160.5q0 81 39 270l88 457h-371l-176 -965q-43 -233 -151.5 -353t-305.5 -120
q-116 0 -189 54t-73 145q0 72 44 120t118 48q55 0 89 -32t34 -85q0 -27 -13 -64l-77 -8q-19 -31 -19 -57q0 -31 27.5 -49.5t68.5 -18.5q20 0 37.5 3t32 12t26 17t22 25.5t18 29.5t15.5 37.5t13 41.5t11.5 49t10.5 52.5t11 58.5z" />
    <glyph glyph-name="f_j" unicode="fj" horiz-adv-x="1204" 
d="M399 -512v51q126 19 193 102.5t98 278.5l164 1006h-385l-176 -965q-43 -233 -151.5 -353t-305.5 -120q-116 0 -189 54t-73 145q0 72 44 120t118 48q55 0 89 -32t34 -85q0 -27 -13 -64l-77 -8q-19 -31 -19 -57q0 -32 25.5 -50t64.5 -18q42 0 73 16t49 35.5t34 69t23 82
t21 107.5q2 11 3 16l188 1059h-153l8 53h154l24 129q44 232 182.5 353.5t358.5 121.5q129 0 212 -54t83 -147q0 -72 -41.5 -116.5t-112.5 -44.5q-57 0 -90 31.5t-35 80.5q0 27 13 60l73 8q13 29 13 49q0 39 -32 61.5t-83 22.5q-225 0 -287 -334l-41 -221h619l-162 -993
q-15 -87 -37 -156t-63.5 -135t-98 -110t-142 -70.5t-194.5 -26.5z" />
    <glyph glyph-name="f_f_j" unicode="ffj" horiz-adv-x="1837" 
d="M43 -133l188 1059h-153l8 53h154l16 82q49 244 190 373t345 129q187 0 262 -129q59 64 156 106.5t196 42.5q114 0 188 -54t74 -147q0 -71 -42.5 -116t-113.5 -45q-58 0 -89 32.5t-31 85.5q0 30 8 54l74 8q14 32 14 57q0 36 -24.5 56t-65.5 20q-183 0 -242 -340l-37 -215
h613l-162 -993q-15 -87 -37 -156t-63.5 -135t-98 -110t-142 -70.5t-194.5 -26.5v51q126 19 193 102.5t98 278.5l164 1006h-379l-170 -910q-50 -260 -180.5 -392t-339.5 -132q-103 0 -177.5 38t-103.5 91q-139 -133 -311 -133q-110 0 -182 54.5t-72 144.5q0 72 44 120t118 48
q55 0 89 -32t34 -85q0 -27 -13 -64l-77 -8q-19 -31 -19 -57q0 -31 25.5 -49.5t62.5 -18.5q27 0 49 5t39.5 18.5t30.5 26t24.5 39t18.5 45t16 57.5t13.5 62.5t13.5 72.5zM694 -59l178 985h-403l-139 -779q-26 -141 -64 -270q45 -8 73 -39t28 -76q0 -20 -11 -57l-77 -8
q-17 -25 -17 -55q0 -42 39 -69.5t102 -27.5q107 0 179.5 91t111.5 305zM508 1149l-31 -170h404l39 209q-45 7 -70 39.5t-25 77.5q0 26 9 53l73 8q15 37 15 55q0 42 -36.5 67t-94.5 25q-112 0 -179 -80.5t-104 -283.5z" />
    <glyph glyph-name="f_f_k" unicode="ffk" horiz-adv-x="2435" 
d="M1475 418l145 848q-37 -37 -98 -37q-52 0 -80.5 31.5t-28.5 80.5q0 25 6 52l72 8q12 24 12 47q0 40 -31.5 63t-76.5 23q-50 0 -89 -21t-62.5 -50.5t-42.5 -80t-27.5 -90t-18.5 -98.5l-37 -215h258l-10 -53h-256l-162 -869q-49 -259 -181 -391.5t-339 -132.5
q-178 0 -278 107q-128 -152 -314 -152q-116 0 -189 54t-73 145q0 72 44 120t118 48q55 0 89 -32t34 -85q0 -27 -13 -64l-77 -8q-19 -31 -19 -57q0 -31 27.5 -49.5t68.5 -18.5q20 0 37.5 3t32 12t26 17t22 25.5t18 29.5t15.5 37.5t13 41.5t11.5 49t10.5 52.5t11 58.5
l188 1059h-153l8 53h154l16 82q49 244 190 373t345 129q187 0 262 -129q67 71 157 110t193 39q98 0 165.5 -47.5t92.5 -128.5l194 125l27 -6l-184 -1024l178 96q231 123 231 209v6l-77 31q-2 8 -2 26q0 61 38 102.5t111 41.5q68 0 103.5 -39.5t35.5 -95.5q0 -34 -19 -67
t-43.5 -57t-75.5 -56t-87 -51t-107 -55t-108 -56l6 -11q67 13 115 13q101 0 148.5 -40t47.5 -110q0 -9 -10 -72q-9 -43 -20.5 -97t-17 -79.5t-5.5 -29.5q0 -56 58 -56q36 0 66 23t67 76l43 -29q-95 -148 -238 -148q-101 0 -159 43.5t-58 126.5q0 42 10 76l29 113q8 40 8 55
q0 86 -98 86q-37 0 -88 -13.5t-88 -31.5l-68 -424q-49 0 -124.5 -7.5t-119.5 -18.5zM702 -18l170 944h-403l-139 -779q-17 -95 -58 -249q45 -8 73 -39t28 -76q0 -20 -11 -57l-77 -9q-17 -25 -17 -51q0 -38 39 -59t105 -21q220 0 290 396zM508 1149l-31 -170h404l39 209
q-45 7 -70 39.5t-25 77.5q0 26 9 53l73 8q15 37 15 55q0 42 -36.5 67t-94.5 25q-112 0 -179 -80.5t-104 -283.5z" />
    <glyph glyph-name="f_f_b" unicode="ffb" horiz-adv-x="2455" 
d="M1481 625l133 641q-44 -35 -92 -35q-47 0 -79 31.5t-32 83.5q0 23 6 47l74 8q12 27 12 51q0 39 -29.5 60.5t-78.5 21.5q-51 0 -90 -21t-62.5 -50.5t-42 -80.5t-27 -89.5t-18.5 -98.5l-37 -215h258l-10 -53h-256l-162 -869q-49 -259 -181.5 -391.5t-338.5 -132.5
q-178 0 -278 107q-128 -152 -314 -152q-116 0 -189 54t-73 145q0 72 44 120t118 48q55 0 89 -32t34 -85q0 -27 -13 -64l-77 -8q-19 -31 -19 -57q0 -31 27.5 -49.5t68.5 -18.5q25 0 45.5 5t37 18t29 26.5t23.5 39t18.5 45.5t16 57t13.5 62.5t14 72.5l188 1059h-153l8 53h154
l16 82q49 244 190 373t345 129q187 0 262 -129q66 71 155 110t185 39q102 0 174.5 -50.5t93.5 -123.5l194 123l27 -6l-170 -781l10 -4q136 258 377 258q140 0 211.5 -93t71.5 -261q0 -95 -20.5 -188t-66 -180.5t-109.5 -153.5t-158.5 -106t-206.5 -40q-195 0 -285 94.5
t-90 260.5q0 118 35 293zM702 -18l170 944h-403l-139 -779q-17 -95 -58 -249q45 -8 73 -39t28 -76q0 -20 -11 -57l-77 -9q-17 -25 -17 -51q0 -38 39 -59t105 -21q220 0 290 396zM2007 911q-91 0 -172 -107.5t-124.5 -255t-43.5 -280.5q0 -51 6.5 -88t23 -70t50.5 -50t84 -17
q74 0 130.5 46.5t88.5 115t52.5 160t27 168t6.5 151.5q0 119 -26 173t-103 54zM508 1149l-31 -170h404l39 209q-45 7 -70 39.5t-25 77.5q0 26 9 53l73 8q15 37 15 55q0 42 -36.5 67t-94.5 25q-112 0 -179 -80.5t-104 -283.5z" />
    <glyph glyph-name="f_f_h" unicode="ffh" horiz-adv-x="2508" 
d="M1456 356l156 906q-35 -35 -92 -35q-54 0 -82.5 33t-28.5 81q0 31 8 52l74 8q12 24 12 47q0 40 -31.5 63t-76.5 23q-50 0 -89 -21t-62.5 -50.5t-42.5 -80t-27.5 -90t-18.5 -98.5l-37 -215h258l-10 -53h-256l-162 -869q-49 -259 -181 -391.5t-339 -132.5q-178 0 -278 107
q-128 -152 -314 -152q-116 0 -189 54t-73 145q0 72 44 120t118 48q55 0 89 -32t34 -85q0 -27 -13 -64l-77 -8q-19 -31 -19 -57q0 -31 27.5 -49.5t68.5 -18.5q20 0 37.5 3t32 12t26 17t22 25.5t18 29.5t15.5 37.5t13 41.5t11.5 49t10.5 52.5t11 58.5l188 1059h-153l8 53h154
l16 82q49 244 190 373t345 129q187 0 262 -129q67 71 157 110t193 39q97 0 166 -47.5t94 -126.5l192 123l27 -6l-196 -901l12 -7q29 59 58 108t71 101.5t86.5 88.5t103 59.5t121.5 23.5q107 0 162 -55t55 -158q0 -64 -70.5 -340.5t-70.5 -324.5q0 -64 57 -64q64 0 135 95
l43 -35q-96 -140 -245 -140q-100 0 -154.5 48t-54.5 141q0 74 35.5 214t70.5 269.5t35 177.5q0 78 -70 78q-95 0 -188.5 -115.5t-148.5 -275.5q-64 -191 -97 -508h-18q-138 0 -240 -20zM702 -18l170 944h-403l-139 -779q-17 -95 -58 -249q45 -8 73 -39t28 -76q0 -20 -11 -57
l-77 -9q-17 -25 -17 -51q0 -38 39 -59t105 -21q220 0 290 396zM508 1149l-31 -170h404l39 209q-45 7 -70 39.5t-25 77.5q0 26 9 53l73 8q15 37 15 55q0 42 -36.5 67t-94.5 25q-112 0 -179 -80.5t-104 -283.5z" />
    <glyph glyph-name="f_f_t" unicode="fft" horiz-adv-x="1951" 
d="M43 -133l188 1059h-153l8 53h154l16 82q49 244 190 373t345 129q187 0 262 -129q61 66 147.5 107.5t183.5 41.5q114 0 188.5 -54t74.5 -147q0 -71 -42.5 -116t-113.5 -45q-58 0 -89.5 32.5t-31.5 85.5q0 30 8 54l74 8q14 32 14 57q0 36 -24.5 56t-65.5 20
q-51 0 -89.5 -26.5t-63.5 -78.5t-40 -105.5t-28 -129.5l-37 -215h367l33 176l247 59l-43 -235h215l-8 -53h-215l-106 -574q-27 -144 -27 -186q0 -94 88 -94q53 0 94 32t92 103l48 -35q-125 -195 -306 -195q-125 0 -186 61.5t-61 160.5q0 81 39 270l88 457h-367l-162 -869
q-49 -259 -181 -391.5t-339 -132.5q-178 0 -278 107q-128 -152 -314 -152q-116 0 -189 54t-73 145q0 72 44 120t118 48q55 0 89 -32t34 -85q0 -27 -13 -64l-77 -8q-19 -31 -19 -57q0 -31 27.5 -49.5t68.5 -18.5q20 0 37.5 3t32 12t26 17t22 25.5t18 29.5t15.5 37.5t13 41.5
t11.5 49t10.5 52.5t11 58.5zM702 -18l170 944h-403l-139 -779q-17 -95 -58 -249q45 -8 73 -39t28 -76q0 -20 -11 -57l-77 -9q-17 -25 -17 -51q0 -38 39 -59t105 -21q220 0 290 396zM508 1149l-31 -170h404l39 209q-45 7 -70 39.5t-25 77.5q0 26 9 53l73 8q15 37 15 55
q0 42 -36.5 67t-94.5 25q-112 0 -179 -80.5t-104 -283.5z" />
    <glyph glyph-name="f_iacute" unicode="f&#xed;" horiz-adv-x="1222" 
d="M1122 154l43 -33q-95 -144 -239 -144q-102 0 -157.5 48t-55.5 145q0 41 52 303.5t97 452.5h-393l-176 -965q-43 -233 -151.5 -353t-305.5 -120q-116 0 -189 54t-73 145q0 72 44 120t118 48q55 0 89 -32t34 -85q0 -27 -13 -64l-77 -8q-19 -31 -19 -57q0 -32 25.5 -50
t64.5 -18q42 0 73 16t49 35.5t34 69t23 82t21 107.5q2 11 3 16l188 1059h-153l8 53h154l28 149q20 104 53.5 184t85.5 142.5t128.5 95.5t175.5 33q108 0 173.5 -52.5t65.5 -146.5q0 -72 -42 -116.5t-113 -44.5q-57 0 -90 31.5t-33 82.5q0 33 10 58l74 8q18 41 18 70
q0 61 -80 61q-184 0 -184 -279q0 -23 4 -77l-37 -199h623q-18 -73 -84 -399t-72 -363q-12 -58 -12 -94t15.5 -51t47.5 -15q30 0 59 22.5t68 74.5zM965 1137l186 374l90 17q8 2 23 2q30 0 51.5 -17t21.5 -49q0 -52 -59 -102l-283 -248z" />
    <glyph glyph-name="t_t.alt" unicode="tt" horiz-adv-x="1345" 
d="M1323 926h-215l-107 -574q-26 -139 -26 -186q0 -94 88 -94q53 0 94 32t92 103l47 -35q-125 -195 -305 -195q-125 0 -186.5 61.5t-61.5 160.5q0 81 39 270l88 457h-405l-107 -574q-26 -139 -26 -186q0 -94 88 -94q53 0 94 32t92 103l47 -35q-125 -195 -305 -195
q-125 0 -186.5 61.5t-61.5 160.5q0 81 39 270l88 457h-147l8 53h148l38 238l248 63l-49 -301h406l39 238l247 63l-49 -301h215z" />
    <glyph glyph-name=".notdef" horiz-adv-x="409" 
 />
    <glyph glyph-name=".null" horiz-adv-x="0" 
 />
    <glyph glyph-name="nonmarkingreturn" horiz-adv-x="682" 
 />
    <glyph glyph-name="space" unicode=" " horiz-adv-x="409" 
 />
    <glyph glyph-name="exclam" unicode="!" horiz-adv-x="784" 
d="M297 371l25 147q30 183 36 325t-3 270t-9 153q0 190 166 190q68 0 99.5 -37t31.5 -96q0 -57 -30 -139t-69.5 -163t-85.5 -219t-71 -286l-25 -145h-65zM309 258q-69 0 -117.5 -46t-48.5 -118q0 -47 29 -80.5t90 -33.5q72 0 120 48.5t48 121.5q0 53 -32.5 80.5t-88.5 27.5z
" />
    <glyph glyph-name="quotedbl" unicode="&#x22;" horiz-adv-x="765" 
d="M242 1085l20 441q69 49 119 49q31 0 50.5 -16.5t19.5 -45.5q0 -40 -33 -122l-131 -306h-45zM545 1085l20 441q69 49 119 49q31 0 50.5 -16.5t19.5 -45.5q0 -40 -33 -122l-131 -306h-45z" />
    <glyph glyph-name="numbersign" unicode="#" horiz-adv-x="1239" 
d="M250 0h-92l94 285h-244l33 86h240l122 362h-245l30 88h240l84 266h94l-86 -266h316l84 266h90l-86 -266h247l-28 -88h-244l-119 -362h244l-29 -86h-239l-94 -285h-93l95 285h-318zM809 733h-313l-123 -362h317z" />
    <glyph glyph-name="dollar" unicode="$" horiz-adv-x="1118" 
d="M463 -156l29 150q-55 0 -123 6l-27 -156h-63l30 168q-56 10 -127.5 35t-89.5 25q-19 0 -30 -15t-33 -59h-35l61 453h43q40 -287 224 -369l96 536q-118 48 -185 127t-67 211q0 161 104 283t283 150l31 180h63l-29 -172q63 0 119 -11l33 183h64l-35 -195q28 -8 63.5 -20.5
t58.5 -19.5t37 -7q18 0 31 13t27 42h31l-58 -403h-41q-35 245 -162 324l-90 -510q48 -21 83 -39t74 -47.5t63.5 -63t40.5 -82t16 -106.5q0 -185 -118.5 -307t-299.5 -148l-29 -156h-63zM795 324q0 71 -37 116.5t-109 83.5l-84 -465q101 21 165.5 85.5t64.5 179.5zM502 51
l88 500q-64 25 -115 43l-94 -531q43 -12 121 -12zM522 860l115 -45l90 512q-36 14 -119 14zM342 1094q0 -133 123 -203l78 440q-89 -19 -145 -78t-56 -159z" />
    <glyph glyph-name="percent" unicode="%" horiz-adv-x="1566" 
d="M750 236q0 186 110 310t287 124q120 0 195 -65.5t75 -196.5q0 -103 -36 -187.5t-94 -136.5t-127 -79.5t-140 -27.5q-133 0 -201.5 69t-68.5 190zM1137 623q-62 0 -107 -47t-67 -119.5t-31.5 -138.5t-9.5 -125q0 -84 26 -125t82 -41q62 0 107.5 47t67 120t31 137.5
t9.5 121.5q0 92 -26.5 131t-81.5 39zM156 1022q0 185 110 309.5t285 124.5q121 0 195.5 -65t74.5 -197q0 -104 -35.5 -188.5t-93.5 -135.5t-126.5 -78.5t-139.5 -27.5q-133 0 -201.5 69t-68.5 189zM541 1409q-62 0 -107 -47t-67 -119.5t-31.5 -138.5t-9.5 -125
q0 -168 110 -168q50 0 89.5 33t62 81t37 109t19.5 111t5 94q0 93 -26 131.5t-82 38.5zM182 0l1102 1434h86l-1102 -1434h-86z" />
    <glyph glyph-name="ampersand" unicode="&#x26;" horiz-adv-x="1732" 
d="M1538 662l-176 -29q-8 -64 -21.5 -123.5t-40 -127t-62 -124t-90 -110t-121.5 -90.5t-160 -59t-201 -22q-243 0 -389 100.5t-146 278.5q0 324 451 426v6q-126 26 -207.5 99t-81.5 198q0 120 73.5 205.5t192 125.5t266.5 40q164 0 273.5 -68.5t109.5 -201.5
q0 -81 -45 -125.5t-112 -44.5q-62 0 -92.5 34t-30.5 83q0 45 22 81h82q17 39 17 68q0 55 -46 88t-135 33q-141 0 -224 -87.5t-83 -234.5q0 -172 88 -268q89 33 127 33q36 0 61 -15t25 -49q0 -35 -31 -52t-69 -17q-73 0 -127 43q-213 -133 -213 -373q0 -147 80.5 -233.5
t245.5 -86.5q121 0 217 42t160.5 119t104.5 175.5t58 221.5l-246 -35q-38 -6 -53 -26t-24 -73l-45 5q5 138 39.5 206.5t115.5 83.5q28 5 239 36.5t261 41.5q30 6 43.5 24.5t19.5 67.5l50 -2q0 -267 -150 -288z" />
    <glyph glyph-name="quotesingle" unicode="'" horiz-adv-x="462" 
d="M238 1085l20 441q69 49 121 49q31 0 50.5 -16.5t19.5 -45.5q0 -43 -35 -122l-129 -306h-47z" />
    <glyph glyph-name="parenleft" unicode="(" horiz-adv-x="688" 
d="M113 682q38 212 145 408t260.5 329.5t315.5 161.5l2 -45q-63 -15 -115 -48.5t-93 -87.5t-73 -119.5t-59.5 -158t-49 -188t-43.5 -223.5q-63 -360 -63 -574q0 -173 40 -274t136 -142l-16 -38q-129 36 -224.5 149.5t-141.5 263.5t-46 316q0 129 25 270z" />
    <glyph glyph-name="parenright" unicode=")" horiz-adv-x="688" 
d="M586 856q0 -139 -29 -297q-32 -156 -98 -301.5t-158 -263.5t-212 -199.5t-251 -107.5l-2 45q63 16 114 50t91.5 88.5t72.5 119t60 157.5t50 187t46 223q66 362 66 573q0 171 -40.5 273t-135.5 143l16 39q129 -36 224 -149.5t140.5 -263.5t45.5 -316z" />
    <glyph glyph-name="asterisk" unicode="*" horiz-adv-x="1013" 
d="M952 1290l-340 -80l222 -71q45 -14 64.5 -31t19.5 -43q0 -34 -33.5 -65t-89.5 -54l-193 232l6 -322q-62 -43 -114 -43q-31 0 -46.5 19t-15.5 45q0 29 29 81l108 222l-280 -234q-86 37 -86 107q0 34 21.5 52.5t78.5 33.5l262 73l-317 76q0 36 7 68.5t30 60t59 27.5
q18 0 33.5 -7t25 -15t31.5 -29l150 -150l-17 320q60 43 113 43q61 0 61 -58q0 -32 -30 -94l-99 -213l183 150q63 53 114 53q58 0 58 -72q0 -24 -15 -82z" />
    <glyph glyph-name="plus" unicode="+" 
d="M1020 612h-430l-74 -424h-82l74 424h-418l14 74h418l70 399h82l-70 -399h430z" />
    <glyph glyph-name="comma" unicode="," horiz-adv-x="536" 
d="M41 -317l-31 45q230 156 230 284q0 23 -11 37.5t-30 16.5l-82 -68q-34 11 -59 45.5t-25 79.5q0 73 50.5 118.5t123.5 45.5q74 0 113.5 -50t39.5 -124q0 -127 -81 -228.5t-238 -201.5z" />
    <glyph glyph-name="hyphen" unicode="-" horiz-adv-x="696" 
d="M72 512l22 119h477l-20 -119h-479z" />
    <glyph glyph-name="period" unicode="." horiz-adv-x="509" 
d="M211 289q62 0 98.5 -31t36.5 -90q0 -84 -53.5 -136t-132.5 -52q-69 0 -100 37.5t-31 91.5q0 81 53.5 130.5t128.5 49.5z" />
    <glyph glyph-name="slash" unicode="/" horiz-adv-x="802" 
d="M-68 -199l908 1827h86l-906 -1827h-88z" />
    <glyph glyph-name="zero" unicode="0" horiz-adv-x="1185" 
d="M61 512q0 101 15.5 206t47 212.5t85 200.5t123.5 166.5t168.5 116t214.5 42.5q93 0 166.5 -28.5t129.5 -88.5t86.5 -162t30.5 -241q0 -126 -20.5 -253.5t-70 -256t-122 -227t-186.5 -160.5t-254 -62q-139 0 -233.5 70t-137.5 188t-43 277zM700 1393q-99 0 -178.5 -98.5
t-125.5 -252t-69.5 -319.5t-23.5 -322q0 -139 20 -217.5t59 -109.5t107 -31q83 0 151.5 64t113 166.5t75.5 235.5t44.5 267.5t13.5 265.5q0 186 -44.5 268.5t-142.5 82.5z" />
    <glyph glyph-name="one" unicode="1" horiz-adv-x="886" 
d="M250 59l186 1168q-36 -10 -96.5 -7t-113 11t-83.5 16l11 47q152 -12 272.5 31.5t191.5 130.5h103l-221 -1397h198l-8 -59h-674l11 59h223z" />
    <glyph glyph-name="two" unicode="2" horiz-adv-x="1042" 
d="M598 1456q102 0 178.5 -26t120 -71.5t65 -100.5t21.5 -119q0 -61 -20 -120t-48.5 -105.5t-86 -107.5t-104.5 -104t-132 -116l-440 -379h403q94 0 150 22t85.5 62t55.5 117h47l-76 -408h-856l23 143l317 320q226 227 313.5 382t87.5 298q0 131 -46 190.5t-146 59.5
q-72 0 -128 -38t-56 -102q0 -30 10 -59h72q0 -7 1 -23t1 -24q-3 -160 -152 -160q-61 0 -96 40.5t-35 107.5q0 76 40.5 138.5t108 101.5t150.5 60t172 21z" />
    <glyph glyph-name="three" unicode="3" horiz-adv-x="1099" 
d="M977 1188q0 -60 -22 -110t-57.5 -88t-96 -74.5t-122.5 -64t-151 -60.5v-11q59 13 127 13q154 0 231 -87t77 -217q0 -113 -55 -211t-144 -163t-202 -101.5t-230 -36.5q-159 0 -247.5 60t-88.5 176q0 85 48 136.5t126 51.5q66 0 97.5 -32.5t31.5 -83.5q0 -44 -23 -92h-81
q-21 -35 -21 -62q0 -40 38.5 -64t104.5 -24q166 0 270.5 113t104.5 321q0 122 -47 184t-125 62q-92 0 -227 -53l-12 65q99 32 172.5 69t134.5 89t93 122.5t32 158.5q0 107 -46.5 163t-134.5 56q-76 0 -120.5 -31t-44.5 -86q0 -23 8 -47h63q8 -36 8 -51q0 -65 -39 -105.5
t-112 -40.5q-59 0 -93 37.5t-34 97.5q0 134 131 211.5t326 77.5q172 0 262 -73.5t90 -194.5z" />
    <glyph glyph-name="four" unicode="4" horiz-adv-x="1140" 
d="M117 434h497l58 361l266 73l-74 -434h183l-9 -67h-186l-53 -308h184l-8 -59h-635l6 59h205l53 308h-584l13 71q629 645 629 873q0 50 -25 102l65 53q101 -3 158.5 -42.5t57.5 -114.5q0 -100 -93 -205t-487 -465z" />
    <glyph glyph-name="five" unicode="5" horiz-adv-x="1062" 
d="M487 805q-140 0 -278 -96l-43 20l176 694l33 15q192 -66 373 -66q106 0 165.5 32.5t85.5 119.5l41 -8q-40 -363 -426 -363q-58 0 -132 12.5t-120 30.5l-114 -403q64 39 157 67.5t189 28.5q171 0 257.5 -86t86.5 -228q0 -138 -51.5 -252t-139 -189t-203.5 -116t-245 -41
q-142 0 -233 60t-91 170q0 87 47 139.5t132 52.5q62 0 90 -29.5t28 -78.5q0 -41 -20 -96h-78q-20 -33 -20 -60q0 -42 41 -67t104 -25q164 0 264.5 137t100.5 371q0 127 -42.5 190.5t-134.5 63.5z" />
    <glyph glyph-name="six" unicode="6" horiz-adv-x="1105" 
d="M799 1393q-152 0 -266.5 -167t-178.5 -489q55 73 146.5 120.5t191.5 47.5q144 0 231 -84t87 -252q0 -176 -73.5 -312t-199 -208t-280.5 -72q-179 0 -280 114.5t-101 346.5q0 91 12.5 187t40 196t67.5 191.5t99 173t130.5 141t166 94.5t201.5 35q130 0 204 -57t74 -156
q0 -88 -44 -136t-114 -48q-57 0 -87.5 29t-30.5 75q0 44 26 86l68 6q16 31 16 62q0 36 -27 56t-79 20zM377 662q-74 -155 -74 -363q0 -254 170 -254q133 0 213 146.5t80 404.5q0 227 -150 227q-71 0 -137 -45.5t-102 -115.5z" />
    <glyph glyph-name="seven" unicode="7" horiz-adv-x="987" 
d="M229 731l15 62h284q67 92 178 234t136 175h-494q-83 0 -114 -27t-70 -128l-47 6l102 407l31 10q52 -36 199 -36h614l12 -37q-72 -76 -196.5 -259.5t-214.5 -344.5h243l-12 -62h-264q-182 -349 -182 -514q0 -100 49 -170l-47 -65q-117 -6 -189 48t-72 148q0 93 61.5 205
t235.5 348h-258z" />
    <glyph glyph-name="eight" unicode="8" horiz-adv-x="1116" 
d="M188 1049q0 178 141 292.5t361 114.5q180 0 283.5 -79.5t103.5 -229.5q0 -155 -113 -263.5t-292 -125.5l-2 -8q336 -36 336 -316q0 -141 -74 -246t-198.5 -158t-280.5 -53q-201 0 -313.5 88.5t-112.5 256.5q0 174 124.5 293.5t335.5 136.5l2 6q-140 14 -220.5 92
t-80.5 199zM571 715q-124 0 -206 -117.5t-82 -300.5q0 -252 184 -252q128 0 206.5 112t78.5 306q0 252 -181 252zM682 1391q-80 0 -137 -54.5t-83 -139.5t-26 -189q0 -220 152 -220q107 0 174 103.5t67 279.5q0 220 -147 220z" />
    <glyph glyph-name="nine" unicode="9" horiz-adv-x="1105" 
d="M328 -23q-148 0 -221.5 64t-73.5 162q0 93 48.5 143.5t125.5 50.5q58 0 86.5 -31t28.5 -79q0 -42 -23 -90h-72q-28 -35 -28 -70q0 -38 32 -61t88 -23q154 0 267 160t170 487q-54 -73 -142.5 -114t-189.5 -41q-142 0 -233 87.5t-91 262.5q0 263 152.5 417t392.5 154
q187 0 286 -118.5t99 -360.5q0 -83 -11 -172t-36 -187.5t-62 -189t-94.5 -173.5t-127.5 -144.5t-165.5 -97.5t-205.5 -36zM502 610q99 0 169 73.5t101 186t31 250.5q0 140 -39 205.5t-127 65.5q-93 0 -161 -76t-100 -193.5t-32 -257.5q0 -254 158 -254z" />
    <glyph glyph-name="colon" unicode=":" horiz-adv-x="509" 
d="M213 289q61 0 97 -31t36 -90q0 -84 -53 -136t-131 -52q-69 0 -101 37.5t-32 91.5q0 80 54.5 130t129.5 50zM340 967q61 0 97 -31t36 -90q0 -84 -53 -136.5t-131 -52.5q-69 0 -101 37.5t-32 91.5q0 80 54.5 130.5t129.5 50.5z" />
    <glyph glyph-name="semicolon" unicode=";" horiz-adv-x="536" 
d="M37 -317l-33 45q115 78 172 147t57 137q0 23 -10.5 38t-29.5 16l-82 -68q-33 11 -58.5 45.5t-25.5 79.5q0 73 51 118.5t125 45.5t113.5 -50t39.5 -124q0 -127 -81 -228t-238 -202zM336 967q63 0 99 -31t36 -90q0 -84 -53 -136.5t-131 -52.5q-69 0 -101 37.5t-32 91.5
q0 80 54 130.5t128 50.5z" />
    <glyph glyph-name="less" unicode="&#x3c;" 
d="M918 176l-857 395l11 58l993 389l-14 -84l-871 -338l752 -344z" />
    <glyph glyph-name="equal" unicode="=" 
d="M993 383h-930l15 74h930zM133 776h930l-12 -74h-930z" />
    <glyph glyph-name="greater" unicode="&#x3e;" 
d="M1055 571l-996 -395l15 86l870 344l-751 338l14 74l858 -389z" />
    <glyph glyph-name="question" unicode="?" horiz-adv-x="1058" 
d="M446 258q56 0 88.5 -27.5t32.5 -80.5q0 -73 -48 -121.5t-120 -48.5q-61 0 -89.5 33.5t-28.5 80.5q0 72 48 118t117 46zM612 1407q-108 0 -159 -46.5t-29 -125.5h63q18 -79 -15.5 -130.5t-115.5 -51.5q-63 0 -97 37.5t-34 93.5q0 70 39.5 124.5t102.5 85.5t132.5 46.5
t139.5 15.5q179 0 276 -77.5t97 -198.5q0 -57 -16 -105t-40.5 -81.5t-63 -62.5t-74.5 -48t-85 -39q-22 -9 -61 -24.5t-61.5 -24.5t-56 -24.5t-53 -28t-42.5 -31.5t-35 -38t-20.5 -45t-8.5 -55q0 -66 41 -105.5t113 -39.5q87 0 146 57.5t87 153.5l52 -12q-33 -114 -109 -185
t-203 -71q-141 0 -222 69t-81 183q0 38 6.5 71.5t21.5 61t31 50t42 42.5t47 34t54.5 30t55.5 26t58.5 25t56.5 24q50 22 85 42.5t68 50t49.5 69.5t16.5 90q0 83 -53.5 125.5t-145.5 42.5z" />
    <glyph glyph-name="at" unicode="@" horiz-adv-x="1757" 
d="M928 813q116 0 188 -76l47 62h146l-133 -377q-70 -197 -70 -281q0 -51 22.5 -72.5t69.5 -21.5q42 0 89.5 21.5t96.5 69t88 113t64 162t25 208.5q0 229 -145.5 360t-418.5 131q-182 0 -339 -69.5t-265 -188.5t-169.5 -282t-61.5 -347q0 -113 32.5 -204.5t88 -153
t133 -103.5t165.5 -60.5t187 -18.5q267 0 498 170l34 -50q-106 -85 -250 -132.5t-292 -47.5q-197 0 -347 66.5t-237.5 202.5t-87.5 327q0 163 44 309.5t127 262.5t196.5 201.5t258 131t306.5 45.5q180 0 318.5 -63t218 -187.5t79.5 -293.5q0 -127 -29.5 -235t-78 -181.5
t-111.5 -125t-129 -75.5t-131 -24q-108 0 -158 43t-57 110q-46 -64 -116.5 -107.5t-153.5 -43.5q-119 0 -175.5 63.5t-56.5 171.5q0 99 34 202t95 190t156 142.5t205 55.5zM950 264l142 426q-53 66 -146 66q-65 0 -120 -38.5t-90.5 -98.5t-61 -134.5t-36.5 -144t-11 -129.5
q0 -141 104 -141q71 0 131.5 55.5t87.5 138.5z" />
    <glyph glyph-name="A" unicode="A" horiz-adv-x="1245" 
d="M786 59l-61 418h-432l-215 -418h168l-8 -59h-373l8 59h127l723 1389h102l234 -1389h131l-8 -59h-559l8 59h155zM629 1139l-307 -602h395z" />
    <glyph glyph-name="B" unicode="B" horiz-adv-x="1239" 
d="M225 1434h475q244 0 371 -71.5t127 -242.5q0 -131 -104.5 -232t-290.5 -132l-2 -4q160 -18 255 -94.5t95 -206.5q0 -102 -40.5 -181.5t-106 -129.5t-158 -82.5t-188 -45t-203.5 -12.5h-465l6 59h151l222 1315h-154zM512 715l-115 -656h88q181 0 289.5 100t108.5 292
q0 139 -68.5 201.5t-216.5 62.5h-86zM618 1374l-100 -602h39q168 0 277.5 93.5t109.5 269.5q0 125 -67 182t-209 57h-50z" />
    <glyph glyph-name="C" unicode="C" horiz-adv-x="1259" 
d="M850 1397q-109 0 -198 -59t-145 -151.5t-94.5 -210.5t-54.5 -230.5t-16 -217.5q0 -226 82 -349.5t252 -123.5q149 0 267.5 94.5t184.5 294.5l56 -14q-32 -108 -86.5 -191.5t-114 -131.5t-130 -78.5t-129 -41t-116.5 -10.5q-256 0 -397 142.5t-141 421.5q0 128 30.5 256
t95 247t155 210.5t221 146.5t282.5 55q66 0 139.5 -15t125 -30.5t65.5 -15.5q15 0 25.5 6.5t14.5 12t17 24.5h41l-57 -428h-51q-17 387 -324 387z" />
    <glyph glyph-name="D" unicode="D" horiz-adv-x="1439" 
d="M1378 885q0 -198 -63.5 -361.5t-182 -279.5t-296.5 -180t-400 -64h-448l10 59h149l222 1315h-152l8 60h494q659 0 659 -549zM395 59h70q135 0 244.5 48t183.5 130t124 195t72.5 240t22.5 268q0 127 -29 213t-89 134t-138.5 67.5t-191.5 19.5h-46z" />
    <glyph glyph-name="E" unicode="E" horiz-adv-x="1220" 
d="M233 1434h981l-45 -390h-47q-1 75 -9.5 128.5t-29 90t-45.5 58.5t-68 34t-87 15.5t-111 3.5h-156l-102 -612h88q114 0 173 54.5t108 207.5h43l-103 -606h-45q4 168 -37 223t-168 55h-69l-107 -637h170q110 0 187 19t135.5 65t99 113.5t78.5 173.5h45l-86 -430h-1028
l10 59h142l217 1315h-144z" />
    <glyph glyph-name="F" unicode="F" horiz-adv-x="1155" 
d="M233 1434h984l-48 -398h-47q-1 75 -10 129t-29.5 91.5t-46 60.5t-68 35.5t-87.5 17t-111 4.5h-152l-104 -629h94q113 0 170.5 54.5t108.5 208.5h43l-101 -607h-47q0 89 -7.5 140t-31 84t-61 44t-102.5 11h-76l-105 -621h232l-10 -59h-623l10 59h142l217 1315h-144z" />
    <glyph glyph-name="G" unicode="G" horiz-adv-x="1339" 
d="M842 1399q-79 0 -147.5 -30.5t-119 -82.5t-91 -123t-67 -149t-44.5 -163.5t-25.5 -163.5t-7.5 -152q0 -490 309 -490q62 0 124.5 16t98.5 43l68 420h-170l10 60h539l-10 -60h-127l-70 -409q-84 -58 -229 -98t-277 -40q-256 0 -396 140.5t-140 412.5q0 128 30.5 257
t95 249.5t155.5 214t222.5 149.5t284.5 56q68 0 136.5 -15t117.5 -29.5t68 -14.5q15 0 25.5 5.5t15 11.5t16.5 24h39l-57 -428h-52q-10 202 -90 295.5t-235 93.5z" />
    <glyph glyph-name="H" unicode="H" horiz-adv-x="1531" 
d="M233 1434h541l-10 -60h-146l-100 -604h551l100 604h-145l10 60h537l-10 -60h-142l-219 -1315h146l-11 -59h-542l10 59h147l107 637h-551l-107 -637h148l-12 -59h-537l10 59h142l219 1315h-146z" />
    <glyph glyph-name="I" unicode="I" horiz-adv-x="731" 
d="M242 1434h532l-10 -60h-141l-228 -1315h144l-11 -59h-530l10 59h137l228 1315h-142z" />
    <glyph glyph-name="J" unicode="J" horiz-adv-x="1001" 
d="M500 1434h563l-10 -58h-135l-160 -952q-73 -447 -488 -447q-142 0 -211 57.5t-69 149.5q0 82 47.5 134.5t128.5 52.5q64 0 95.5 -33t30.5 -80.5t-26 -103.5h-78q-16 -29 -16 -56q0 -31 24 -49t70 -18q92 0 143.5 61.5t79.5 222.5l179 1059h-179z" />
    <glyph glyph-name="K" unicode="K" horiz-adv-x="1333" 
d="M238 1434h532l-10 -60h-142l-106 -635l84 29l584 606h-154l10 60h371l-10 -60h-125l-479 -508l350 -807h110l-10 -59h-524l8 59h141l-266 639l-102 -32l-103 -607h142l-11 -59h-526l10 59h138l219 1315h-140z" />
    <glyph glyph-name="L" unicode="L" horiz-adv-x="1161" 
d="M233 1434h596l-10 -60h-201l-221 -1315h127q222 0 330 85.5t188 318.5h48l-95 -463h-997l8 59h144l219 1315h-146z" />
    <glyph glyph-name="M" unicode="M" horiz-adv-x="1712" 
d="M1305 1434h440l-10 -60h-136l-219 -1315h142l-11 -59h-526l10 59h140l217 1307h-9l-636 -1366h-86l-179 1366h-8l-217 -1307h141l-10 -59h-342l10 59h131l224 1315h-135l10 60h432l141 -1037h2z" />
    <glyph glyph-name="N" unicode="N" horiz-adv-x="1415" 
d="M1313 1374l-232 -1384h-125l-526 1339h-2l-211 -1270h139l-10 -59h-350l10 59h139l220 1315h-142l10 60h429l413 -1051h2l166 991h-137l10 60h344l-10 -60h-137z" />
    <glyph glyph-name="O" unicode="O" horiz-adv-x="1392" 
d="M70 532q0 131 30 260.5t93.5 249.5t153 212t218 147t279.5 55q243 0 370 -142t127 -411q0 -107 -20 -214.5t-60 -212t-104 -194.5t-145.5 -158.5t-193 -107.5t-238.5 -39q-250 0 -380 142.5t-130 412.5zM600 43q83 0 153.5 37t119 97.5t87 144.5t61.5 171t38 183
t20.5 175.5t5.5 154.5q0 198 -58 291.5t-206 93.5q-86 0 -158 -35.5t-122 -94t-89 -140t-62.5 -166t-38 -180t-20 -174.5t-5.5 -155q0 -403 274 -403z" />
    <glyph glyph-name="P" unicode="P" horiz-adv-x="1241" 
d="M225 1434h516q510 0 510 -342q0 -108 -36.5 -194.5t-99.5 -143.5t-151.5 -95t-187.5 -54.5t-213 -16.5h-78l-88 -529h246l-10 -59h-645l8 59h151l222 1315h-154zM618 1374l-120 -731h65q100 0 180 36.5t131 100t78 145.5t27 175q0 154 -66 214t-206 60h-89z" />
    <glyph glyph-name="Q" unicode="Q" horiz-adv-x="1394" 
d="M70 532q0 131 30 260.5t93.5 249.5t153 212t218 147t279.5 55q243 0 370 -142t127 -411q0 -122 -23 -240.5t-74.5 -233t-126 -205t-186.5 -153.5t-247 -81l25 -6q150 -18 216 -54t130 -145q7 -12 21.5 -37.5t20.5 -36t19 -31t19.5 -29t18.5 -23t21 -20.5t20.5 -13.5
t24 -10t25.5 -2.5q63 0 139 96l43 -28q-34 -48 -63.5 -78t-82.5 -53t-120 -23q-125 0 -210 55t-148 187q-22 47 -35 71.5t-33 54t-37.5 44t-45 31t-61 26t-79.5 17.5q-216 17 -329 158t-113 392zM600 43q109 0 196 60.5t140.5 156t89.5 223t50 251.5t14 251q0 210 -60 308
t-209 98q-87 0 -159.5 -35.5t-123 -93t-89.5 -137t-62 -162t-37.5 -174t-20 -166.5t-5.5 -146q0 -210 64 -322t212 -112z" />
    <glyph glyph-name="R" unicode="R" horiz-adv-x="1337" 
d="M715 739v-6q146 -20 215 -80.5t80 -203.5l14 -191q3 -42 5 -62.5t8 -49.5t14.5 -42.5t23.5 -23.5t37 -10q30 0 54 19t57 69l45 -29q-27 -45 -53 -74.5t-76.5 -53.5t-114.5 -24q-226 0 -246 242l-18 211q-5 60 -12 98.5t-21 76t-35.5 58.5t-56.5 33.5t-84 12.5h-43
l-111 -650h181l-7 -59h-581l6 59h151l224 1315h-154l8 60h467q68 0 125.5 -4.5t120.5 -15.5t111 -32.5t88 -53t61 -79.5t21 -110q0 -95 -38.5 -168.5t-108.5 -121t-159 -74.5t-198 -36zM621 1374l-101 -610h33q79 0 148 23t123.5 67.5t86 117.5t31.5 167q0 125 -67 180
t-213 55h-41z" />
    <glyph glyph-name="S" unicode="S" horiz-adv-x="1099" 
d="M500 37q133 0 221 76.5t88 220.5q0 34 -9 64t-20.5 51.5t-37 43.5t-42.5 34.5t-55 30.5t-57.5 26t-63.5 26q-4 2 -5.5 2.5l-4.5 1.5t-5.5 2t-4.5 2q-38 15 -64 26.5t-62.5 31.5t-61.5 40t-52.5 50.5t-43.5 64.5t-27 80.5t-11 100.5q0 190 133 317t338 127q71 0 141 -21
t118 -42t63 -21q20 0 33 15t30 51h37l-59 -424h-47q-19 197 -97.5 291t-216.5 94q-74 0 -136.5 -25.5t-105 -84.5t-42.5 -144q0 -48 14 -87.5t34 -66t54 -51t64 -39.5t73 -33q143 -59 168 -71q141 -70 191 -175q32 -70 32 -161q0 -143 -68 -255t-180.5 -170.5t-248.5 -58.5
q-71 0 -140.5 15t-112.5 32.5t-82 32.5t-56 15q-20 0 -33.5 -18t-36.5 -68h-37l64 467h47q16 -193 108.5 -304.5t274.5 -111.5z" />
    <glyph glyph-name="T" unicode="T" horiz-adv-x="1288" 
d="M1348 1434l-54 -437h-49q-1 86 -8.5 147.5t-26.5 103.5t-42 66.5t-63.5 38t-81.5 17.5t-105 4h-23l-219 -1315h186l-8 -59h-625l11 59h186l221 1315h-24q-98 0 -156.5 -11.5t-114 -51t-97 -114t-85.5 -200.5h-49l94 437h1133z" />
    <glyph glyph-name="U" unicode="U" horiz-adv-x="1417" 
d="M690 53q80 0 143.5 20.5t117.5 66t91 125t56 192.5l151 917h-162l9 60h379l-11 -60h-133l-151 -911q-40 -244 -167.5 -365t-389.5 -121q-102 0 -179 18t-136 57.5t-90 108t-32 163.5q0 64 15 147l153 903h-141l10 60h531l-9 -60h-143l-153 -917q-17 -107 -17 -170
q3 -120 63.5 -177t194.5 -57z" />
    <glyph glyph-name="V" unicode="V" horiz-adv-x="1261" 
d="M655 291l559 1083h-178l8 60h375l-6 -60h-121l-725 -1388h-102l-240 1388h-121l7 60h557l-6 -60h-175z" />
    <glyph glyph-name="W" unicode="W" horiz-adv-x="1992" 
d="M651 297l406 727l-68 350h-133l8 60h578l-8 -60h-179l195 -1048l483 1048h-188l8 60h399l-8 -60h-129l-651 -1388h-107l-178 936l-526 -936h-104l-220 1388h-131l8 60h572l-8 -60h-174z" />
    <glyph glyph-name="X" unicode="X" horiz-adv-x="1265" 
d="M1169 0h-596l9 59h178l-215 564l-428 -564h186l-10 -59h-399l10 59h131l479 639l-268 676h-127l10 60h584l-8 -60h-177l199 -528l403 528h-178l9 60h391l-9 -60h-129l-456 -600l286 -715h134z" />
    <glyph glyph-name="Y" unicode="Y" horiz-adv-x="1161" 
d="M694 745l422 629h-176l10 60h375l-10 -60h-119l-481 -712l-103 -603h166l-10 -59h-580l11 59h163l101 600l-242 715h-129l8 60h578l-8 -60h-174z" />
    <glyph glyph-name="Z" unicode="Z" horiz-adv-x="1161" 
d="M1196 1434l-10 -60l-916 -1315h277q176 0 288.5 95t186.5 315h51l-102 -469h-1008l8 51l934 1323h-246q-64 0 -106 -4t-88 -16.5t-78 -36t-66 -64t-63 -99.5t-59 -142h-47l92 422h952z" />
    <glyph glyph-name="bracketleft" unicode="[" horiz-adv-x="667" 
d="M479 -291l-8 -55h-446l337 1927h447l-6 -55h-113q-76 0 -100.5 -18.5t-36.5 -88.5l-285 -1601q-13 -74 3.5 -91.5t93.5 -17.5h114z" />
    <glyph glyph-name="backslash" unicode="\" horiz-adv-x="798" 
d="M289 1628l299 -1827h-82l-297 1827h80z" />
    <glyph glyph-name="bracketright" unicode="]" horiz-adv-x="667" 
d="M205 1528l8 55h446l-337 -1927h-447l6 55h113q76 0 100.5 18.5t36.5 88.5l285 1601q13 76 -3 92.5t-94 16.5h-114z" />
    <glyph glyph-name="asciicircum" unicode="^" horiz-adv-x="1146" 
d="M1042 614l-75 -30l-389 688l-359 -690l-78 32l387 746h101z" />
    <glyph glyph-name="underscore" unicode="_" horiz-adv-x="1036" 
d="M1030 -217h-1024v76h1024v-76z" />
    <glyph glyph-name="grave" unicode="`" horiz-adv-x="1024" 
d="M770 1501l82 -377l-33 -14l-219 266q-35 49 -35 84q0 46 48.5 68t91.5 2z" />
    <glyph glyph-name="a" unicode="a" horiz-adv-x="1159" 
d="M1079 150l43 -33q-88 -140 -229 -140q-98 0 -144.5 44t-46.5 122q0 41 17 107l-10 2q-53 -121 -145 -198t-226 -77q-149 0 -225 94.5t-76 270.5q0 90 19.5 181.5t60.5 177.5t99 152t142.5 106t182.5 40q178 0 250 -157l34 133q108 -3 224 14q-113 -556 -148 -807
q-4 -20 -4 -53q0 -38 14 -55t45 -17q60 0 123 93zM420 66q89 0 166.5 91t120.5 229t43 280q0 266 -172 266q-76 0 -134.5 -50.5t-93.5 -138t-53 -196.5t-18 -234q0 -60 5.5 -101.5t20 -76.5t43.5 -52t72 -17z" />
    <glyph glyph-name="b" unicode="b" horiz-adv-x="1101" 
d="M121 625l153 858h-163l6 53h405l-170 -791l10 -4q136 258 377 258q140 0 211.5 -93t71.5 -261q0 -95 -20.5 -188t-66 -180.5t-109.5 -153.5t-158.5 -106t-206.5 -40q-195 0 -285 94.5t-90 260.5q0 99 35 293zM647 911q-92 0 -184 -127q-73 -100 -114.5 -241.5
t-41.5 -274.5q0 -51 6.5 -88t23 -70t50.5 -50t84 -17q74 0 130.5 46.5t88.5 115t52.5 160t27 168t6.5 151.5q0 119 -26 173t-103 54z" />
    <glyph glyph-name="c" unicode="c" horiz-adv-x="954" 
d="M801 340l59 -18q-15 -51 -38 -97t-60.5 -92.5t-85 -80t-114.5 -54.5t-146 -21q-183 0 -280 103t-97 287q0 127 38.5 240t110 201t183.5 139.5t250 51.5q147 0 223 -68.5t76 -174.5q0 -81 -42.5 -133t-125.5 -52q-59 0 -93 29t-34 76q0 54 30 100h74q16 39 16 76
q0 47 -31 71.5t-87 24.5q-89 0 -156.5 -52.5t-105 -139t-56 -184.5t-18.5 -203q0 -164 46 -237t152 -73q107 0 186.5 72t125.5 209z" />
    <glyph glyph-name="d" unicode="d" horiz-adv-x="1167" 
d="M1128 1536l-182 -1096q-6 -38 -18.5 -112t-17.5 -113t-5 -70q0 -86 64 -86q28 0 52 20t60 68l43 -30q-87 -140 -229 -140q-95 0 -141.5 46t-46.5 127q0 42 12 94l-12 2q-53 -122 -144.5 -195.5t-218.5 -73.5q-153 0 -231 94t-78 267q0 91 18.5 182t59 178t98.5 153.5
t143.5 107t186.5 40.5q177 0 245 -147l97 631h-166l6 53h405zM418 66q94 0 172 93t119 231.5t41 283.5q0 258 -170 258q-62 0 -111.5 -32.5t-81.5 -88.5t-54 -120.5t-33.5 -140t-16 -136t-4.5 -117.5q0 -121 31 -176t108 -55z" />
    <glyph glyph-name="e" unicode="e" horiz-adv-x="942" 
d="M602 999q138 0 213.5 -60.5t75.5 -174.5q0 -61 -24 -110t-60.5 -80.5t-91 -56t-102 -38t-107.5 -24.5q-113 -19 -217 -25v-29q0 -186 46.5 -263t156.5 -77q99 0 182 64.5t135 214.5l55 -16q-51 -171 -167 -259t-287 -88q-179 0 -274 101t-95 284q0 104 26 200t75.5 175
t117.5 138t156 91.5t186 32.5zM678 793q0 151 -109 151q-94 0 -173 -123.5t-103 -331.5q88 6 155 23.5t120.5 52t81.5 92t28 136.5z" />
    <glyph glyph-name="f" unicode="f" horiz-adv-x="669" 
d="M43 -133l188 1059h-153l8 53h154l22 127q36 223 158 350t323 127q114 0 188.5 -54t74.5 -147q0 -71 -42.5 -116t-113.5 -45t-102.5 51t-10.5 121l74 8q27 63 4 98t-80 35q-51 0 -89.5 -26.5t-63.5 -78.5t-40 -105.5t-28 -129.5l-37 -215h279l-11 -53h-276l-176 -965
q-41 -232 -150.5 -352.5t-306.5 -120.5q-116 0 -189 54t-73 145q0 72 44 120t118 48q71 0 104 -52.5t6 -128.5l-77 -8q-32 -60 -7.5 -92.5t84.5 -32.5q92 0 135 84q27 54 57 217z" />
    <glyph glyph-name="g" unicode="g" horiz-adv-x="1134" 
d="M260 -319l-90 -17q-23 -53 7.5 -86t111.5 -33q140 0 214 88.5t138 309.5q2 7 68 286l-11 4q-48 -100 -136.5 -164.5t-207.5 -64.5q-154 0 -232.5 92t-78.5 264q0 88 17.5 176t57 172t96.5 148.5t141.5 103.5t185.5 39q180 0 254 -157l36 133q129 0 224 14
q-32 -151 -176 -956q-26 -145 -80 -251.5t-132 -170t-171.5 -93.5t-206.5 -30q-146 0 -231 53t-85 154q0 74 44 120t118 46q64 0 101.5 -44.5t23.5 -135.5zM428 94q91 0 167.5 84.5t118.5 215.5t42 272q0 266 -174 266q-60 0 -108.5 -31t-79.5 -83.5t-53 -114t-33 -132
t-16 -127t-5 -108.5q0 -127 32 -184.5t109 -57.5z" />
    <glyph glyph-name="h" unicode="h" horiz-adv-x="1189" 
d="M885 -23q-100 0 -154.5 48t-54.5 141q0 61 23 161t57.5 223.5t46.5 176.5q14 57 14 100q0 40 -16.5 59t-52.5 19q-95 0 -189 -115.5t-149 -275.5q-64 -191 -97 -508q-48 2 -131 -4.5t-125 -15.5l80 370l176 1127h-153l6 53h387l-186 -911l12 -7q29 59 58 108t71 101.5
t86.5 88.5t103 59.5t121.5 23.5q107 0 162 -55t55 -158q0 -61 -16 -133q-101 -396 -107 -422q-18 -74 -18 -110q0 -64 57 -64q64 0 135 95l43 -35q-96 -140 -245 -140z" />
    <glyph glyph-name="i" unicode="i" horiz-adv-x="598" 
d="M379 1167q-131 0 -131 119q0 69 47 115.5t123 46.5q61 0 96 -29t35 -90q0 -71 -46.5 -116.5t-123.5 -45.5zM504 154l45 -33q-48 -72 -105.5 -108t-136.5 -36q-209 0 -209 193q0 66 31 215q12 52 61 276t58 265h-164l10 53h393q-18 -77 -84 -403.5t-71 -358.5
q-13 -60 -13 -92q0 -37 14.5 -52.5t43.5 -15.5q31 0 59 22t68 75z" />
    <glyph glyph-name="j" unicode="j" horiz-adv-x="573" 
d="M-127 -324l-78 -12q-24 -62 -3.5 -93.5t73.5 -31.5q32 0 57 9.5t44 34t31.5 50.5t25 76.5t20.5 93t20 117.5l164 1006h-161l10 53h393l-158 -977q-15 -90 -36.5 -162.5t-58 -140t-85 -112.5t-119 -72t-157.5 -27q-106 0 -178 54t-72 145q0 70 42.5 118t114.5 48
q65 0 100.5 -50.5t10.5 -126.5zM360 1167q-131 0 -131 119q0 70 46.5 116t123.5 46q61 0 96 -29t35 -90q0 -71 -47 -116.5t-123 -45.5z" />
    <glyph glyph-name="k" unicode="k" horiz-adv-x="1093" 
d="M993 154l43 -29q-95 -148 -237 -148q-101 0 -159 42.5t-58 125.5q0 35 12 78l31 113q19 69 -5.5 105t-89.5 36q-80 0 -172 -45l-67 -424q-49 0 -124.5 -7.5t-119.5 -18.5l94 436l158 1065h-160l8 53h394l-179 -1034l177 96q120 64 177.5 117t53.5 98l-78 31
q-10 72 28 121t120 49q68 0 103.5 -39.5t35.5 -95.5q0 -108 -137 -181q-25 -16 -83 -46.5t-130.5 -68t-89.5 -46.5l6 -11q67 13 114 13q126 0 168 -60t17 -162l-41 -163q-23 -99 57 -99q36 0 66 23t67 76z" />
    <glyph glyph-name="l" unicode="l" horiz-adv-x="604" 
d="M506 156l47 -33q-52 -75 -110 -110.5t-134 -35.5q-103 0 -158 51.5t-55 149.5q0 79 72 461l162 844h-158l8 53h393q-26 -119 -126 -658.5t-119 -660.5q-15 -69 -7 -114.5t54 -45.5q33 0 63.5 23t67.5 76z" />
    <glyph glyph-name="m" unicode="m" horiz-adv-x="1708" 
d="M614 -14q109 470 166 735q15 84 15 106q0 42 -16.5 60t-51.5 18q-48 0 -95 -33t-86.5 -90t-72 -122.5t-59.5 -141.5q-64 -172 -103 -512q-48 2 -131 -4.5t-125 -15.5l86 381l74 559h-158l9 53h389l-88 -352l14 -6q35 78 69.5 135.5t86 117.5t119.5 92.5t149 32.5
q79 0 126.5 -42t47.5 -126q0 -76 -41 -188l14 -4q87 187 175 273.5t210 86.5q110 0 166 -59t56 -164q0 -49 -19 -131q-8 -31 -35 -132t-47.5 -181.5t-27.5 -118.5q-15 -66 -15 -92q3 -62 60 -62q65 0 131 93l43 -35q-90 -140 -244 -140q-101 0 -155 47.5t-54 141.5
q0 64 23 162.5t59 221t47 171.5q14 57 14 100q0 84 -73 84q-141 0 -293 -389q-66 -169 -115 -512q-43 1 -121.5 -4.5t-122.5 -13.5z" />
    <glyph glyph-name="n" unicode="n" horiz-adv-x="1189" 
d="M885 -23q-100 0 -154.5 48t-54.5 141q0 73 63 315l64 246q14 57 14 100q0 40 -16.5 59t-52.5 19q-95 0 -189 -115.5t-149 -275.5q-64 -191 -97 -508q-48 2 -131 -4.5t-125 -15.5l80 370l74 570h-154l6 53h388l-84 -354l12 -7q29 59 58 108t71 101.5t86.5 88.5t103 59.5
t121.5 23.5q106 0 161.5 -56.5t55.5 -160.5q0 -57 -16 -129q-66 -245 -107 -422q-16 -66 -16 -110q0 -64 55 -64q64 0 135 95l43 -35q-96 -140 -245 -140z" />
    <glyph glyph-name="o" unicode="o" horiz-adv-x="1054" 
d="M434 31q56 0 102 26.5t76.5 68t54 100.5t36.5 117.5t21 125.5t10.5 116.5t2.5 98.5q0 135 -39 200.5t-131 65.5q-62 0 -112.5 -35t-82.5 -94.5t-55 -128t-34 -145.5t-16 -136.5t-5 -111.5q0 -132 40.5 -200t131.5 -68zM414 -23q-191 0 -287 101t-96 284q0 122 36.5 234.5
t104.5 203t177 145t243 54.5q190 0 285.5 -99t95.5 -282q0 -127 -37.5 -241.5t-106.5 -204t-176.5 -142.5t-238.5 -53z" />
    <glyph glyph-name="p" unicode="p" horiz-adv-x="1165" 
d="M-123 -434h127l221 1360h-164l11 53h383l-64 -268l10 -4q148 292 404 292q137 0 207.5 -93.5t70.5 -262.5q0 -123 -36 -241t-100 -213t-163.5 -153.5t-216.5 -58.5q-91 0 -155 41.5t-90 106.5l-91 -559h244l-10 -53h-598zM709 907q-105 0 -199 -135q-71 -104 -107 -231.5
t-36 -255.5q0 -107 41.5 -170.5t128.5 -63.5q74 0 132 51.5t89 124.5t51.5 165.5t26.5 161t6 124.5q0 118 -31 173.5t-102 55.5z" />
    <glyph glyph-name="q" unicode="q" horiz-adv-x="1122" 
d="M969 -487h-588l8 53h197l123 655l-13 4q-55 -109 -143.5 -178.5t-206.5 -69.5q-154 0 -232.5 95t-78.5 268q0 96 20 189.5t61.5 178.5t100.5 149.5t143 103t183 38.5q182 0 264 -170l139 150h90l-229 -1413h170zM414 66q94 0 173 93t121 232t42 283q0 122 -42 190
t-130 68q-72 0 -128 -47t-87.5 -115.5t-51 -157t-26 -158t-6.5 -132.5q0 -135 29.5 -195.5t105.5 -60.5z" />
    <glyph glyph-name="r" unicode="r" horiz-adv-x="966" 
d="M51 -16l92 419l74 523h-158l11 53h379l-93 -391l13 -6q23 51 40.5 86.5t43.5 82.5t49.5 79.5t55.5 66.5t64.5 54.5t73 34t84.5 13.5q78 0 126 -35.5t48 -113.5q0 -76 -43.5 -117t-111.5 -43q-43 0 -86 15l-6 135q-68 15 -135.5 -52t-117 -173.5t-85.5 -239.5
q-34 -124 -58 -365q-145 -4 -260 -26z" />
    <glyph glyph-name="s" unicode="s" horiz-adv-x="913" 
d="M348 41q107 0 171.5 47.5t64.5 136.5q0 37 -14 64.5t-45.5 48.5t-57 33t-72.5 30l-56 21t-51.5 22.5t-51.5 28.5t-41 34.5t-36.5 46t-20.5 56.5t-9 72q0 146 123.5 231.5t300.5 85.5q140 0 223.5 -51.5t83.5 -150.5q0 -66 -37 -108t-108 -42q-49 0 -82 24t-33 64
q0 49 31 88h61q8 19 8 39q0 37 -36 58.5t-103 21.5q-105 0 -172 -49t-67 -131q0 -32 14 -58t44 -47t58 -35t74 -32q34 -13 50.5 -20t48.5 -21t49 -25t42 -28.5t38.5 -35.5t28 -41t20.5 -51t6 -59q0 -150 -126.5 -241t-320.5 -91q-165 0 -250.5 63t-85.5 163q0 70 40.5 112.5
t111.5 42.5q49 0 79.5 -28t30.5 -72q0 -47 -26 -82h-66q-8 -16 -8 -39q0 -44 43.5 -70t130.5 -26z" />
    <glyph glyph-name="t" unicode="t" horiz-adv-x="702" 
d="M680 926h-215l-107 -574q-26 -139 -26 -186q0 -94 88 -94q53 0 94 32t92 103l47 -35q-125 -195 -305 -195q-125 0 -186.5 61.5t-61.5 160.5q0 81 39 270l88 457h-147l8 53h148l38 238l248 63l-49 -301h215z" />
    <glyph glyph-name="u" unicode="u" horiz-adv-x="1208" 
d="M111 299q22 121 125 627h-154l8 53h389q-17 -67 -78.5 -371t-70.5 -352q-11 -60 -11 -88q0 -46 21 -70t74 -24q103 0 194 137t148 352q54 194 71 406q47 -1 131 6t127 16q-111 -522 -147 -727q-14 -83 -14 -133q0 -76 61 -76q32 0 60.5 22t64.5 73l43 -31
q-95 -142 -233 -142q-197 0 -197 166q0 56 20 123l17 62l-12 4q-26 -58 -51.5 -103t-64 -94.5t-80 -82t-99 -54t-121.5 -21.5q-120 0 -175 61.5t-55 168.5q0 43 9 92z" />
    <glyph glyph-name="v" unicode="v" horiz-adv-x="1101" 
d="M842 811l-58 -80q-52 13 -81 49t-29 82q0 60 40.5 98.5t110.5 38.5q97 0 150 -76t53 -175q0 -69 -16 -150t-47 -168t-82 -167.5t-114.5 -144.5t-151.5 -102.5t-187 -38.5q-130 0 -206.5 63t-76.5 189q0 39 19 144q5 23 35 181t51 259q8 36 8 57q0 50 -39 50
q-35 0 -68 -28t-87 -108l-50 33q59 98 126.5 140t150.5 42q93 0 143.5 -45.5t50.5 -134.5q0 -30 -12 -98q-10 -54 -35 -177t-41 -212q-18 -93 -18 -135q0 -68 31 -98.5t100 -30.5q86 0 168 64t136.5 157t88 194.5t33.5 180.5q0 141 -96 147z" />
    <glyph glyph-name="w" unicode="w" horiz-adv-x="1652" 
d="M934 268q-8 -44 -8 -84q0 -62 32 -89t99 -27q103 0 205.5 98.5t164.5 239t62 264.5q0 135 -92 143l-58 -82q-52 10 -82 48t-30 85q0 59 38 97t111 38q102 0 152.5 -76.5t50.5 -189.5q0 -67 -17 -147t-48.5 -165t-83 -164t-115 -142t-150 -100.5t-182.5 -37.5
q-213 0 -270 156q-54 -64 -138 -110t-190 -46q-113 0 -176.5 58.5t-63.5 177.5q0 31 7 82q17 101 55 289.5t49 246.5q17 91 -35 91q-33 0 -69.5 -32t-85.5 -104l-50 31q59 100 127 141t158 41q85 0 134.5 -42.5t49.5 -127.5q0 -26 -16 -108q-6 -27 -41 -216t-41 -218
q-25 -104 -6.5 -160.5t88.5 -56.5q63 0 115.5 37.5t111.5 107.5q15 91 69.5 350.5t78.5 405.5q49 -2 124.5 3.5t118.5 14.5q-103 -427 -153 -721z" />
    <glyph glyph-name="x" unicode="x" horiz-adv-x="1204" 
d="M383 999q39 0 69.5 -9.5t51.5 -23.5t40 -42t31.5 -54t30.5 -69l70 -172q82 136 104 164q33 51 56.5 82t57 63t71.5 46.5t84 14.5q66 0 106.5 -35.5t40.5 -99.5q0 -62 -40.5 -99.5t-98.5 -37.5q-37 0 -64 8l-14 109q-33 19 -62.5 2.5t-70.5 -78.5l-141 -213l159 -373
q25 -57 44.5 -79.5t49.5 -22.5q29 0 55.5 28t57.5 91l53 -27q-84 -195 -260 -195q-92 0 -143 43.5t-92 141.5l-92 221l-136 -201q-22 -33 -32 -47.5t-30 -41t-33 -39t-33.5 -30t-39 -25t-42.5 -13.5t-50 -6q-68 0 -109.5 34.5t-41.5 96.5t39.5 99.5t97.5 37.5q38 0 63 -10
l15 -105q33 -20 61.5 -4t69.5 78l170 250l-144 348q-24 57 -39.5 77.5t-41.5 20.5q-29 0 -54.5 -26t-66.5 -93l-49 23q105 192 272 192z" />
    <glyph glyph-name="y" unicode="y" horiz-adv-x="1083" 
d="M111 -315l-91 -15q-22 -31 -22 -61q0 -26 19.5 -42t56.5 -16q189 0 436 375q-142 526 -238 836q-18 62 -36 84t-46 22q-32 0 -59 -35t-59 -120l-60 24q23 60 44.5 100t53.5 76.5t76 54t101 17.5q80 0 131 -46t82 -148q92 -302 176 -641q98 150 176 305t78 247
q0 40 -18.5 65.5t-47.5 27.5l-65 -82q-48 15 -77.5 51.5t-29.5 85.5q0 66 42.5 107.5t113.5 41.5q87 0 135.5 -60t48.5 -157q0 -226 -295 -661q-21 -31 -57.5 -86t-59.5 -89.5t-59.5 -85.5t-63 -84.5t-63.5 -76.5t-68 -70.5t-70 -56.5t-75.5 -46t-78.5 -27.5t-85 -10.5
q-113 0 -178 58.5t-65 158.5q0 77 46.5 125.5t119.5 48.5t113 -53t18 -141z" />
    <glyph glyph-name="z" unicode="z" horiz-adv-x="1044" 
d="M905 387l51 -10q-85 -400 -303 -400q-63 0 -105.5 16t-101.5 54l-186 123q-48 -190 -158 -190q-50 0 -76 28.5t-26 69.5q0 61 59.5 101t145.5 42q125 134 500 516l-273 29q-113 10 -158 10q-51 0 -81 -31t-60 -120l-51 10q51 201 120.5 282.5t178.5 81.5q56 0 101 -17.5
t102 -55.5l184 -117q14 94 60 141t96 47q44 0 71 -25.5t27 -64.5q0 -54 -55.5 -98t-147.5 -51q-77 -80 -270 -278.5t-227 -233.5q278 -17 413 -17q72 0 105 29.5t65 128.5z" />
    <glyph glyph-name="braceleft" unicode="{" horiz-adv-x="743" 
d="M119 653q61 3 106 25.5t71.5 56.5t42 84.5t21 100.5t5.5 114q0 23 -2.5 86.5t-2.5 112.5q0 66 19.5 124t59.5 106t107.5 76t155.5 28q68 0 138 -27l-25 -47q-46 16 -84 16q-103 0 -125 -131q-11 -60 -12 -233.5t-14 -243.5q-10 -57 -32.5 -100t-49 -70t-68.5 -47.5
t-76.5 -31.5t-87.5 -23q50 -13 85 -27.5t69 -39t51.5 -62t17.5 -88.5q0 -90 -73 -295q-26 -74 -39 -112t-26 -93.5t-13 -93.5q0 -105 100 -105q49 0 92 19l7 -51q-75 -29 -172 -29q-122 0 -185 54t-63 147t69 272q26 68 39.5 105t28 99.5t14.5 110.5q0 156 -157 160z" />
    <glyph glyph-name="bar" unicode="|" horiz-adv-x="665" 
d="M113 -260l317 1888h80l-317 -1888h-80z" />
    <glyph glyph-name="braceright" unicode="}" horiz-adv-x="743" 
d="M635 561q-61 -3 -106 -25.5t-71.5 -56.5t-42 -84.5t-21 -100.5t-5.5 -114q0 -23 2 -86t2 -112q0 -66 -19.5 -124t-59.5 -106t-107.5 -76t-155.5 -28q-70 0 -137 26l25 47q46 -16 84 -16q102 0 124 131q11 60 12.5 233.5t14.5 243.5q10 57 32.5 100t49 70t67.5 48t76 32
t88 23q-50 13 -85 27.5t-69 39t-51.5 62t-17.5 88.5q0 87 74 295q26 74 39 112t26 93.5t13 93.5q0 104 -101 104q-51 0 -92 -18l-6 51q75 29 172 29q122 0 185 -54t63 -147q0 -90 -70 -272q-82 -213 -82 -320q0 -152 158 -156z" />
    <glyph glyph-name="asciitilde" unicode="~" horiz-adv-x="1097" 
d="M823 573q-90 0 -278 48q-9 2 -51.5 12.5t-61.5 14.5t-51.5 9t-56.5 5q-39 0 -70 -19.5t-59 -73.5l-37 13q80 233 237 233q20 0 42 -2t37 -4t42.5 -7.5t37 -7.5t42 -9.5t37.5 -8.5q172 -43 246 -43q44 0 71 18.5t56 69.5l38 -10q-41 -124 -95 -181t-126 -57z" />
    <glyph glyph-name="uni00A0" unicode="&#xa0;" horiz-adv-x="409" 
 />
    <glyph glyph-name="exclamdown" unicode="&#xa1;" horiz-adv-x="784" 
d="M449 608l-25 -147q-24 -142 -32.5 -270t-6 -199.5t8 -156.5t5.5 -122q0 -190 -166 -190q-68 0 -99.5 37t-31.5 96q0 57 30 139t69.5 163t85.5 219t71 286l25 145h66zM436 721q-56 0 -88.5 27.5t-32.5 80.5q0 73 48 121.5t120 48.5q61 0 90 -33.5t29 -80.5
q0 -72 -48.5 -118t-117.5 -46z" />
    <glyph glyph-name="cent" unicode="&#xa2;" horiz-adv-x="1036" 
d="M211 -29l92 232q-209 68 -209 317q0 113 36.5 212t105.5 175t176 121t239 47l86 215l66 -16l-82 -203q116 -12 175.5 -71.5t59.5 -147.5q0 -75 -41 -122.5t-124 -47.5q-56 0 -89.5 27t-33.5 69q0 48 30 92h72q16 43 16 70q0 71 -84 84l-292 -733q44 -35 120 -35
q205 0 293 225l62 -14q-15 -54 -45 -102t-78 -91.5t-122 -69.5t-165 -26q-62 0 -106 8l-93 -231zM340 508q0 -98 22 -154l269 672q-76 -10 -134.5 -60t-91.5 -125.5t-49 -159t-16 -173.5z" />
    <glyph glyph-name="sterling" unicode="&#xa3;" horiz-adv-x="1171" 
d="M78 680l12 68h193q-37 136 -37 221q0 146 76 258t204 170.5t285 58.5q163 0 250.5 -67t87.5 -175q0 -96 -46.5 -146t-123.5 -50q-64 0 -95.5 30t-31.5 76q0 47 29 97h77q23 48 23 75q0 45 -35.5 71t-93.5 26q-77 0 -132.5 -25t-92.5 -78t-60 -119.5t-41 -164.5l-47 -258
h377l-14 -68h-371l-12 -76q-9 -60 -70 -268q88 -22 248 -84q202 -82 246 -82q53 0 81 39t48 145l51 -6q-23 -195 -91.5 -283t-162.5 -88q-50 0 -121 23.5t-121.5 48.5t-126.5 66t-96 51q-76 -170 -235 -170q-87 0 -133 43.5t-46 114.5q0 54 22 97t58.5 68t77.5 37.5t84 12.5
q74 0 154 -17q18 156 -27 328h-221zM121 231q-50 0 -78.5 -23t-28.5 -61q0 -86 103 -86q110 0 164 127q-97 43 -160 43z" />
    <glyph glyph-name="currency" unicode="&#xa4;" horiz-adv-x="1067" 
d="M203 696q0 108 59 197l-158 182l39 37l185 -145q92 63 213 63q124 0 200 -61l185 141l35 -33l-154 -174q57 -85 57 -201q0 -110 -61 -204l153 -201l-36 -35l-193 158q-75 -60 -192 -60q-123 0 -203 56l-182 -152l-37 37l147 182q-57 83 -57 213zM283 696
q0 -122 60.5 -197t193.5 -75q118 0 182.5 77.5t64.5 194.5q0 124 -63 199.5t-189 75.5q-123 0 -186 -78.5t-63 -196.5z" />
    <glyph glyph-name="yen" unicode="&#xa5;" horiz-adv-x="1212" 
d="M168 717l12 67h279l-213 596h-115l8 54h563l-8 -54h-176l195 -567l352 567h-170l10 54h398l-9 -54h-137l-381 -596h289l-14 -67h-308l-30 -191h309l-12 -67h-308l-65 -400h168l-8 -59h-607l11 59h168l63 400h-305l10 67h307l31 191h-307z" />
    <glyph glyph-name="brokenbar" unicode="&#xa6;" horiz-adv-x="665" 
d="M299 844l131 784h80l-131 -784h-80zM113 -260l149 895h80l-149 -895h-80z" />
    <glyph glyph-name="section" unicode="&#xa7;" horiz-adv-x="1232" 
d="M379 -143q127 0 225 84t133 211q-114 55 -206 125.5t-155 144.5t-105.5 155t-61.5 158.5t-19 153.5q0 118 37.5 215.5t98 161.5t141 108t162.5 63t166 19q152 0 236.5 -60.5t84.5 -174.5q0 -72 -40 -118t-111 -46q-60 0 -93.5 31.5t-35.5 82.5q0 38 14 70l72 12
q14 32 14 60q0 45 -35 70.5t-92 25.5q-139 0 -229.5 -70.5t-133.5 -185.5q260 -96 413 -291.5t153 -427.5q0 -120 -38.5 -224.5t-102.5 -177t-145.5 -125t-168 -77.5t-170.5 -25q-147 0 -229 61t-82 175q0 71 42.5 117.5t114.5 46.5q57 0 89 -33t32 -86q0 -36 -12 -70
l-72 -12q-20 -42 -20 -72q3 -75 129 -75zM430 1106q-22 -83 -22 -170q0 -207 94.5 -411.5t255.5 -315.5q28 112 28 225q0 221 -96.5 398t-259.5 274z" />
    <glyph glyph-name="dieresis" unicode="&#xa8;" horiz-adv-x="1024" 
d="M563 1407q48 0 77.5 -24t29.5 -68q0 -65 -41 -108.5t-105 -43.5q-56 0 -82 29t-26 72q0 60 43.5 101.5t103.5 41.5zM967 1407q48 0 78 -23t30 -67q0 -66 -40.5 -110t-106.5 -44q-107 0 -107 101q0 63 45.5 103t100.5 40z" />
    <glyph glyph-name="copyright" unicode="&#xa9;" horiz-adv-x="1599" 
d="M1468 655q0 -207 -85.5 -361.5t-238.5 -235.5t-353 -81q-165 0 -294.5 48.5t-212.5 135.5t-126 205t-43 261q0 155 53 283.5t145.5 214t216.5 132t265 46.5q312 0 492.5 -176t180.5 -472zM825 1016q-106 0 -156.5 -83t-50.5 -282q0 -191 50 -277.5t159 -86.5
q78 0 137.5 59.5t84.5 159.5h24l-8 -244h-21q-2 3 -5.5 10.5t-5.5 10.5t-6.5 6.5t-10.5 3.5q-1 0 -73 -21.5t-134 -21.5q-171 0 -276 100t-105 301q0 126 54 218.5t141 138t194 45.5q54 0 121.5 -20.5t71.5 -20.5q5 0 8.5 1.5t6 5t4.5 6.5t4.5 8.5t4.5 8.5h19l6 -243h-29
q-25 103 -80 160t-129 57zM1399 643q0 190 -79 327.5t-214 206t-311 68.5q-129 0 -240 -42.5t-192.5 -120t-128 -194.5t-46.5 -259q0 -275 161 -433.5t442 -158.5q279 0 443.5 163.5t164.5 442.5z" />
    <glyph glyph-name="ordfeminine" unicode="&#xaa;" horiz-adv-x="946" 
d="M887 739l35 -24q-32 -47 -79 -78t-102 -31q-91 0 -121.5 53t-9.5 144l-8 2q-35 -85 -102 -142t-162 -57q-110 0 -164.5 64.5t-54.5 185.5q0 85 24 168t68.5 152t116.5 112t159 43q131 0 175 -108l26 92q140 0 193 8q-89 -368 -121 -565q-13 -82 41 -82q42 0 86 63z
M403 676q49 0 93 53t71.5 128t43.5 149t16 122q0 140 -103 140q-52 0 -95 -51.5t-67.5 -127t-37.5 -150.5t-13 -132q0 -65 21 -98t71 -33z" />
    <glyph glyph-name="guillemotleft" unicode="&#xab;" horiz-adv-x="1015" 
d="M113 541l409 276l27 -29l-281 -329l166 -332l-31 -23l-282 256q-53 45 -53 97q0 43 45 84zM483 541l410 276l27 -29l-279 -329l166 -332l-33 -23l-282 258q-52 46 -52 95q0 41 43 84z" />
    <glyph glyph-name="logicalnot" unicode="&#xac;" horiz-adv-x="1228" 
d="M1001 336v274h-851v74h929v-348h-78z" />
    <glyph glyph-name="uni00AD" unicode="&#xad;" horiz-adv-x="690" 
d="M98 512l23 119h477l-20 -119h-480z" />
    <glyph glyph-name="registered" unicode="&#xae;" horiz-adv-x="940" 
d="M920 983q0 -171 -109 -278t-281 -107q-186 0 -286.5 103t-100.5 268q0 175 111.5 281t277.5 106q178 0 283 -102t105 -271zM514 987h-20v-172h47v-22h-187v22h45v348h-45v23h162q82 0 125 -18.5t43 -73.5q0 -48 -32.5 -70t-92.5 -27v-2q65 -5 90 -26t25 -70v-45
q0 -18 5 -25.5t19 -7.5q27 0 35 60l21 -2q-2 -28 -8 -46t-25.5 -32.5t-52.5 -14.5q-86 0 -86 70v66q0 32 -15 48.5t-53 16.5zM494 1163v-155h6q51 0 72.5 20.5t21.5 61.5q0 39 -19.5 56t-70.5 17h-10zM858 977q0 153 -92 240.5t-234 87.5q-145 0 -235 -90.5t-90 -243.5
q0 -149 85 -234.5t240 -85.5q149 0 237.5 88.5t88.5 237.5z" />
    <glyph glyph-name="macron" unicode="&#xaf;" horiz-adv-x="1024" 
d="M449 1210l20 121h557l-20 -121h-557z" />
    <glyph glyph-name="degree" unicode="&#xb0;" horiz-adv-x="673" 
d="M227 1284q0 -81 45 -130.5t131 -49.5q78 0 125 50.5t47 129.5q0 83 -47.5 131.5t-130.5 48.5q-78 0 -124 -49.5t-46 -130.5zM145 1284q0 104 69.5 175t191.5 71q120 0 184.5 -66t64.5 -176q0 -109 -68 -180.5t-188 -71.5q-124 0 -189 68.5t-65 179.5z" />
    <glyph glyph-name="plusminus" unicode="&#xb1;" 
d="M1073 612h-432l-68 -383h-81l67 383h-416l15 74h415l62 358h82l-62 -358h432zM967 0h-930l12 74h930z" />
    <glyph glyph-name="twosuperior" unicode="&#xb2;" horiz-adv-x="671" 
d="M469 1681q135 0 197.5 -55.5t62.5 -142.5q0 -39 -11 -74.5t-39.5 -72.5t-55.5 -65.5t-82 -71t-94.5 -71t-116.5 -81.5l-127 -89h221q61 0 99.5 7t63 25.5t37 39.5t27.5 60h37l-51 -283h-561l20 119l174 161q136 127 192 221.5t56 188.5q0 63 -31 96t-88 33
q-51 0 -79 -30.5t-11 -69.5h47q4 -14 4 -39q0 -45 -27.5 -71.5t-76.5 -26.5q-44 0 -67 27t-23 69q0 88 88 142t215 54z" />
    <glyph glyph-name="threesuperior" unicode="&#xb3;" horiz-adv-x="712" 
d="M500 1681q239 0 239 -163q0 -45 -22.5 -81t-67 -63.5t-94.5 -48t-121 -41.5q0 -1 1 -3t1 -3q40 4 62 4q63 0 111.5 -15.5t83 -58.5t34.5 -110q0 -73 -36.5 -132.5t-96 -96.5t-131.5 -56.5t-148 -19.5q-108 0 -164.5 46t-56.5 117q0 54 34 89.5t91 35.5q44 0 65 -21.5
t21 -55.5q0 -27 -14 -62h-55q-15 -21 -15 -41q0 -24 21.5 -37.5t60.5 -13.5q96 0 155.5 59.5t59.5 175.5q0 73 -30.5 108.5t-84.5 35.5q-48 0 -118 -25l-11 60q134 41 201.5 95t67.5 150q0 117 -117 117q-48 0 -74.5 -24.5t-3.5 -63.5h41q4 -24 4 -33q0 -45 -28.5 -72.5
t-81.5 -27.5q-42 0 -65 25.5t-23 64.5q0 88 85.5 137t219.5 49z" />
    <glyph glyph-name="acute" unicode="&#xb4;" horiz-adv-x="1024" 
d="M586 1122l186 375l90 16q36 8 66 -8t30 -55q0 -49 -59 -102l-283 -248z" />
    <glyph glyph-name="mu" unicode="&#xb5;" horiz-adv-x="1181" 
d="M213 981l244 18l-105 -653q-10 -65 -10 -108q0 -67 27 -102.5t92 -35.5q90 0 159.5 80.5t92.5 218.5l96 582l238 18l-136 -827q-15 -100 60 -100q69 0 116 121l48 -21q-29 -94 -93.5 -144.5t-156.5 -50.5q-109 0 -154 59.5t-35 158.5l-6 2q-45 -93 -124 -156.5
t-183 -63.5q-40 0 -71.5 8t-64 28.5t-56 64t-35.5 108.5l-17 -2q8 -59 50 -259t42 -271q0 -51 -41.5 -79t-95.5 -17l-108 24z" />
    <glyph glyph-name="paragraph" unicode="&#xb6;" horiz-adv-x="1286" 
d="M1210 1380l-194 -1159q-48 -284 -173 -412t-331 -128q-166 0 -262 74t-96 184q0 91 50 145.5t134 54.5q76 0 115.5 -57.5t15.5 -157.5l-96 -16q-13 -29 -13 -55q0 -48 40 -78.5t122 -30.5q56 0 105.5 13t98 45.5t86.5 82t68.5 126t47.5 175.5l202 1194h-176l-151 -878
h-160q-201 0 -327 106t-126 305q0 135 47.5 236.5t134 163t200.5 91.5t255 30h525l-11 -54h-131z" />
    <glyph glyph-name="periodcentered" unicode="&#xb7;" horiz-adv-x="565" 
d="M309 793q63 0 99 -32t36 -91q0 -83 -53 -136t-131 -53q-69 0 -101 38t-32 91q0 80 54.5 131.5t127.5 51.5z" />
    <glyph glyph-name="cedilla" unicode="&#xb8;" horiz-adv-x="1024" 
d="M492 27h67l-115 -146q35 13 78 13q76 0 118 -39.5t42 -106.5q0 -92 -78 -150.5t-198 -58.5q-82 0 -125 34.5t-43 80.5q0 35 22 60.5t57 25.5q28 0 48.5 -19t21.5 -51l-45 -30q-8 -27 8 -45.5t53 -18.5q53 0 88 42t35 116q0 110 -86 110q-31 0 -67 -12l-8 31z" />
    <glyph glyph-name="onesuperior" unicode="&#xb9;" horiz-adv-x="579" 
d="M250 860l110 664q-42 -7 -96.5 -2.5t-87.5 12.5l10 45q95 -7 178.5 21.5t127.5 80.5h96l-139 -821h124l-10 -53h-465l11 53h141z" />
    <glyph glyph-name="ordmasculine" unicode="&#xba;" horiz-adv-x="886" 
d="M440 653q57 0 100.5 34.5t68 84.5t40 115.5t20.5 117.5t5 101q0 88 -29 132t-98 44q-47 0 -85 -24t-62.5 -64t-42.5 -86.5t-27 -98t-13 -92t-4 -73.5q0 -94 28.5 -142.5t98.5 -48.5zM424 604q-152 0 -227.5 72t-75.5 203q0 86 29 165.5t83 143.5t140.5 102.5t193.5 38.5
q151 0 227 -70t76 -200q0 -89 -30 -170.5t-85 -145t-141 -101.5t-190 -38z" />
    <glyph glyph-name="guillemotright" unicode="&#xbb;" horiz-adv-x="1015" 
d="M496 379l-410 -275l-27 29l281 334l-166 326l31 22l282 -256q52 -49 52 -94q0 -39 -43 -86zM866 379l-409 -275l-27 29l281 334l-166 326l30 22l283 -256q53 -48 53 -94q0 -41 -45 -86z" />
    <glyph glyph-name="onequarter" unicode="&#xbc;" horiz-adv-x="1843" 
d="M319 639l111 664q-42 -7 -96.5 -2.5t-87.5 12.5l10 45q95 -7 178 21.5t127 80.5h96l-139 -821h125l-10 -53h-465l10 53h141zM379 -23l1134 1479h86l-1132 -1479h-88zM1501 41h121l-10 -53h-453l8 53h138l28 156h-356l12 67q199 186 291 314.5t92 195.5q0 39 -14 64l37 30
q161 0 161 -108q0 -45 -22.5 -84t-89 -100.5t-199.5 -163.5l-205 -156h303l33 195l207 43l-41 -238h111l-11 -59h-112z" />
    <glyph glyph-name="onehalf" unicode="&#xbd;" horiz-adv-x="1843" 
d="M276 639l111 664q-42 -7 -96.5 -2.5t-87.5 12.5l10 45q95 -7 178 21.5t127 80.5h96l-139 -821h125l-10 -53h-465l10 53h141zM319 -23l1135 1479h86l-1132 -1479h-89zM1460 862q135 0 197.5 -55.5t62.5 -142.5q0 -39 -11 -74.5t-39 -72.5t-55.5 -66t-82 -71t-95 -71.5
t-116.5 -81.5l-127 -88h221q61 0 99.5 7t63 25t37 39t27.5 60h37l-51 -282h-561l20 118l175 162q135 126 191 221t56 189q0 63 -30.5 96t-87.5 33q-52 0 -80 -30.5t-11 -69.5h48q4 -14 4 -39q0 -45 -28 -72t-77 -27q-44 0 -67 27.5t-23 69.5q0 88 88 142t215 54z" />
    <glyph glyph-name="threequarters" unicode="&#xbe;" horiz-adv-x="1843" 
d="M547 1460q123 0 181 -43.5t58 -120.5q0 -45 -22.5 -80.5t-67 -63.5t-94 -48t-121.5 -41q0 -1 1 -3t1 -3q40 4 62 4q63 0 111.5 -15.5t83 -58.5t34.5 -110q0 -97 -63 -168.5t-154.5 -104.5t-194.5 -33q-108 0 -164.5 46t-56.5 118q0 54 34 89.5t91 35.5q44 0 65 -22
t21 -56q0 -26 -14 -61h-55q-15 -21 -15 -41q0 -24 21.5 -37.5t60.5 -13.5q96 0 155.5 59.5t59.5 175.5q0 144 -114 144q-49 0 -119 -25l-10 59q134 41 201 95.5t67 150.5q0 117 -117 117q-48 0 -74.5 -24.5t-3.5 -63.5h41q4 -24 4 -33q0 -45 -28.5 -72.5t-81.5 -27.5
q-42 0 -65 25.5t-23 64.5q0 88 85.5 137t219.5 49zM393 -23l1135 1479h86l-1133 -1479h-88zM1507 41h121l-10 -53h-453l9 53h137l28 156h-356l12 67q199 186 291 314.5t92 195.5q0 39 -14 64l37 30q162 0 162 -108q0 -45 -23 -84t-89 -100.5t-200 -163.5l-204 -156h303
l32 195l207 43l-41 -238h111l-10 -59h-113z" />
    <glyph glyph-name="questiondown" unicode="&#xbf;" horiz-adv-x="1050" 
d="M578 721q-56 0 -88.5 27.5t-32.5 80.5q0 73 48 121.5t120 48.5q61 0 89.5 -33.5t28.5 -80.5q0 -72 -48 -118t-117 -46zM412 -428q108 0 159 46.5t29 125.5h-63q-18 79 15.5 130.5t115.5 51.5q63 0 97 -37.5t34 -93.5q0 -70 -39.5 -124.5t-102.5 -85.5t-132.5 -46.5
t-139.5 -15.5q-179 0 -276 77.5t-97 198.5q0 57 16 105t40.5 81.5t63 62.5t74.5 48t85 39q22 9 61 24.5t61.5 24.5t56 24.5t53 28t42.5 31.5t35 38t20.5 45t8.5 55q0 66 -41 105.5t-113 39.5q-87 0 -146 -57.5t-87 -153.5l-52 12q33 114 109 185t203 71q141 0 222 -69
t81 -183q0 -38 -6.5 -71.5t-21.5 -61t-31 -50t-42 -42.5t-47 -34t-54.5 -30t-55.5 -26t-58.5 -25t-56.5 -24q-50 -22 -85 -42.5t-68 -50t-49.5 -69.5t-16.5 -90q0 -83 53.5 -125.5t145.5 -42.5z" />
    <glyph glyph-name="Agrave" unicode="&#xc0;" horiz-adv-x="1245" 
d="M786 59l-61 418h-432l-215 -418h168l-8 -59h-373l8 59h127l723 1389h102l234 -1389h131l-8 -59h-559l8 59h155zM629 1139l-307 -602h395zM717 1858l252 -330l-27 -27l-307 164q-39 21 -56.5 40t-17.5 50q0 35 26.5 58.5t67.5 31.5z" />
    <glyph glyph-name="Aacute" unicode="&#xc1;" horiz-adv-x="1245" 
d="M786 59l-61 418h-432l-215 -418h168l-8 -59h-373l8 59h127l723 1389h102l234 -1389h131l-8 -59h-559l8 59h155zM629 1139l-307 -602h395zM608 1528l310 325l69 -18q70 -16 70 -76q0 -62 -94 -106l-332 -154z" />
    <glyph glyph-name="Acircumflex" unicode="&#xc2;" horiz-adv-x="1245" 
d="M786 59l-61 418h-432l-215 -418h168l-8 -59h-373l8 59h127l723 1389h102l234 -1389h131l-8 -59h-559l8 59h155zM629 1139l-307 -602h395zM473 1522l289 282q46 23 82 23q35 0 56.5 -16.5t43.5 -53.5l143 -239l-26 -23l-242 164l-327 -168z" />
    <glyph glyph-name="Atilde" unicode="&#xc3;" horiz-adv-x="1245" 
d="M786 59l-61 418h-432l-215 -418h168l-8 -59h-373l8 59h127l723 1389h102l234 -1389h131l-8 -59h-559l8 59h155zM629 1139l-307 -602h395zM930 1575q-72 0 -176 47q-79 33 -117 33q-66 0 -117 -88l-37 12q53 115 105.5 169t138.5 54q17 0 34 -2t28.5 -4.5t28.5 -9t25 -9.5
t27.5 -12t26.5 -12q76 -31 113 -31t64 18t56 70l39 -12q-52 -120 -109.5 -171.5t-129.5 -51.5z" />
    <glyph glyph-name="Adieresis" unicode="&#xc4;" horiz-adv-x="1245" 
d="M786 59l-61 418h-432l-215 -418h168l-8 -59h-373l8 59h127l723 1389h102l234 -1389h131l-8 -59h-559l8 59h155zM629 1139l-307 -602h395zM633 1792q47 0 76.5 -24t29.5 -68q0 -65 -40.5 -108.5t-104.5 -43.5q-56 0 -82.5 29t-26.5 72q0 60 44 101.5t104 41.5zM1036 1792
q48 0 78.5 -23t30.5 -67q0 -66 -41 -110t-107 -44q-106 0 -106 101q0 63 45 103t100 40z" />
    <glyph glyph-name="Aring" unicode="&#xc5;" horiz-adv-x="1245" 
d="M786 59l-61 418h-432l-215 -418h168l-8 -59h-373l8 59h127l723 1389h102l234 -1389h131l-8 -59h-559l8 59h155zM629 1139l-307 -602h395zM823 1780q-57 0 -96 -40t-39 -98q0 -41 23.5 -70.5t72.5 -29.5q61 0 98.5 38.5t37.5 96.5q0 43 -24.5 73t-72.5 30zM614 1628
q0 91 63.5 150t162.5 59q75 0 115 -39t40 -102q0 -95 -61.5 -154t-161.5 -59q-80 0 -119 40t-39 105z" />
    <glyph glyph-name="AE" unicode="&#xc6;" horiz-adv-x="1957" 
d="M780 1374l11 60h1151l-44 -390h-47q-2 87 -17 146t-39.5 95.5t-69 56t-95 26t-129.5 6.5h-158l-106 -631h92q112 0 171.5 57t107.5 206h43l-103 -607h-45q2 165 -38.5 222t-166.5 57h-71l-99 -619h170q204 0 316 85t182 286h45l-86 -430h-1034l10 59h143l103 617h-424
l-418 -617h174l-12 -59h-379l12 59h117l905 1315h-172zM1094 1374h-62l-434 -633h391z" />
    <glyph glyph-name="Ccedilla" unicode="&#xc7;" horiz-adv-x="1259" 
d="M850 1397q-109 0 -198 -59t-145 -151.5t-94.5 -210.5t-54.5 -230.5t-16 -217.5q0 -226 82 -349.5t252 -123.5q149 0 267.5 94.5t184.5 294.5l56 -14q-29 -98 -76 -175.5t-99.5 -125.5t-115.5 -81t-117.5 -48t-111.5 -20l-78 -99q35 13 78 13q75 0 117 -39.5t42 -106.5
q0 -92 -78 -150.5t-198 -58.5q-82 0 -125 34.5t-43 80.5q0 35 22 60.5t58 25.5q28 0 48 -19t21 -51l-45 -30q-8 -27 8.5 -45.5t53.5 -18.5q53 0 88 42t35 116q0 110 -86 110q-32 0 -68 -12l-8 31l88 114q-250 5 -387 146.5t-137 417.5q0 128 30.5 256t95 247t155 210.5
t221 146.5t282.5 55q66 0 139.5 -15t125 -30.5t65.5 -15.5q15 0 25.5 6.5t14.5 12t17 24.5h41l-57 -428h-51q-17 387 -324 387z" />
    <glyph glyph-name="Egrave" unicode="&#xc8;" horiz-adv-x="1220" 
d="M233 1434h981l-45 -390h-47q-1 75 -9.5 128.5t-29 90t-45.5 58.5t-68 34t-87 15.5t-111 3.5h-156l-102 -612h88q114 0 173 54.5t108 207.5h43l-103 -606h-45q4 168 -37 223t-168 55h-69l-107 -637h170q110 0 187 19t135.5 65t99 113.5t78.5 173.5h45l-86 -430h-1028
l10 59h142l217 1315h-144zM700 1858l252 -330l-26 -27l-308 164q-39 21 -56 39.5t-17 50.5q0 35 26.5 58.5t67.5 31.5z" />
    <glyph glyph-name="Eacute" unicode="&#xc9;" horiz-adv-x="1220" 
d="M233 1434h981l-45 -390h-47q-1 75 -9.5 128.5t-29 90t-45.5 58.5t-68 34t-87 15.5t-111 3.5h-156l-102 -612h88q114 0 173 54.5t108 207.5h43l-103 -606h-45q4 168 -37 223t-168 55h-69l-107 -637h170q110 0 187 19t135.5 65t99 113.5t78.5 173.5h45l-86 -430h-1028
l10 59h142l217 1315h-144zM586 1528l309 325l70 -18q69 -16 69 -76q0 -62 -94 -106l-332 -154z" />
    <glyph glyph-name="Ecircumflex" unicode="&#xca;" horiz-adv-x="1220" 
d="M233 1434h981l-45 -390h-47q-1 75 -9.5 128.5t-29 90t-45.5 58.5t-68 34t-87 15.5t-111 3.5h-156l-102 -612h88q114 0 173 54.5t108 207.5h43l-103 -606h-45q4 168 -37 223t-168 55h-69l-107 -637h170q110 0 187 19t135.5 65t99 113.5t78.5 173.5h45l-86 -430h-1028
l10 59h142l217 1315h-144zM457 1522l288 282q46 23 82 23q35 0 57 -16.5t44 -53.5l143 -239l-27 -23l-241 164l-328 -168z" />
    <glyph glyph-name="Edieresis" unicode="&#xcb;" horiz-adv-x="1220" 
d="M233 1434h981l-45 -390h-47q-1 75 -9.5 128.5t-29 90t-45.5 58.5t-68 34t-87 15.5t-111 3.5h-156l-102 -612h88q114 0 173 54.5t108 207.5h43l-103 -606h-45q4 168 -37 223t-168 55h-69l-107 -637h170q110 0 187 19t135.5 65t99 113.5t78.5 173.5h45l-86 -430h-1028
l10 59h142l217 1315h-144zM616 1792q48 0 77.5 -24t29.5 -68q0 -65 -40.5 -108.5t-104.5 -43.5q-56 0 -82.5 29t-26.5 72q0 60 43.5 101.5t103.5 41.5zM1020 1792q48 0 78 -23t30 -67q0 -66 -40.5 -110t-106.5 -44q-107 0 -107 101q0 63 45.5 103t100.5 40z" />
    <glyph glyph-name="Igrave" unicode="&#xcc;" horiz-adv-x="731" 
d="M242 1434h532l-10 -60h-141l-228 -1315h144l-11 -59h-530l10 59h137l228 1315h-142zM451 1858l251 -330l-26 -27l-307 164q-39 21 -56.5 40t-17.5 50q0 35 26.5 58.5t67.5 31.5z" />
    <glyph glyph-name="Iacute" unicode="&#xcd;" horiz-adv-x="731" 
d="M242 1434h532l-10 -60h-141l-228 -1315h144l-11 -59h-530l10 59h137l228 1315h-142zM336 1528l309 325l70 -18q69 -16 69 -76q0 -62 -94 -106l-332 -154z" />
    <glyph glyph-name="Icircumflex" unicode="&#xce;" horiz-adv-x="731" 
d="M242 1434h532l-10 -60h-141l-228 -1315h144l-11 -59h-530l10 59h137l228 1315h-142zM205 1522l289 282q46 23 81 23t57 -16.5t44 -53.5l143 -239l-26 -23l-242 164l-328 -168z" />
    <glyph glyph-name="Idieresis" unicode="&#xcf;" horiz-adv-x="731" 
d="M242 1434h532l-10 -60h-141l-228 -1315h144l-11 -59h-530l10 59h137l228 1315h-142zM367 1792q47 0 76.5 -24t29.5 -68q0 -65 -40.5 -108.5t-104.5 -43.5q-56 0 -82.5 29t-26.5 72q0 60 44 101.5t104 41.5zM770 1792q48 0 78.5 -23t30.5 -67q0 -66 -41 -110t-107 -44
q-106 0 -106 101q0 63 45 103t100 40z" />
    <glyph glyph-name="Eth" unicode="&#xd0;" horiz-adv-x="1439" 
d="M1378 885q0 -198 -63.5 -361.5t-182 -279.5t-296.5 -180t-400 -64h-448l10 59h149l113 670h-166l8 59h168l99 586h-152l8 60h494q659 0 659 -549zM395 59h70q135 0 244.5 48t183.5 130t124 195t72.5 240t22.5 268q0 127 -29 213t-89 134t-138.5 67.5t-191.5 19.5h-46
l-100 -586h363l-9 -59h-364z" />
    <glyph glyph-name="Ntilde" unicode="&#xd1;" horiz-adv-x="1415" 
d="M1313 1374l-232 -1384h-125l-526 1339h-2l-211 -1270h139l-10 -59h-350l10 59h139l220 1315h-142l10 60h429l413 -1051h2l166 991h-137l10 60h344l-10 -60h-137zM997 1575q-72 0 -176 47q-79 33 -116 33q-66 0 -117 -88l-37 12q53 115 105.5 169t138.5 54q17 0 34 -2
t28.5 -4.5t28.5 -9t25 -9.5t27.5 -12t26.5 -12q76 -31 112 -31q37 0 64.5 18t56.5 70l39 -12q-52 -120 -110 -171.5t-130 -51.5z" />
    <glyph glyph-name="Ograve" unicode="&#xd2;" horiz-adv-x="1392" 
d="M70 532q0 131 30 260.5t93.5 249.5t153 212t218 147t279.5 55q243 0 370 -142t127 -411q0 -107 -20 -214.5t-60 -212t-104 -194.5t-145.5 -158.5t-193 -107.5t-238.5 -39q-250 0 -380 142.5t-130 412.5zM600 43q83 0 153.5 37t119 97.5t87 144.5t61.5 171t38 183
t20.5 175.5t5.5 154.5q0 198 -58 291.5t-206 93.5q-86 0 -158 -35.5t-122 -94t-89 -140t-62.5 -166t-38 -180t-20 -174.5t-5.5 -155q0 -403 274 -403zM776 1858l252 -330l-27 -27l-307 164q-39 21 -56 39.5t-17 50.5q0 35 26.5 58.5t67.5 31.5z" />
    <glyph glyph-name="Oacute" unicode="&#xd3;" horiz-adv-x="1392" 
d="M70 532q0 131 30 260.5t93.5 249.5t153 212t218 147t279.5 55q243 0 370 -142t127 -411q0 -107 -20 -214.5t-60 -212t-104 -194.5t-145.5 -158.5t-193 -107.5t-238.5 -39q-250 0 -380 142.5t-130 412.5zM600 43q83 0 153.5 37t119 97.5t87 144.5t61.5 171t38 183
t20.5 175.5t5.5 154.5q0 198 -58 291.5t-206 93.5q-86 0 -158 -35.5t-122 -94t-89 -140t-62.5 -166t-38 -180t-20 -174.5t-5.5 -155q0 -403 274 -403zM672 1522l309 325l70 -18q69 -16 69 -76q0 -62 -94 -106l-332 -154z" />
    <glyph glyph-name="Ocircumflex" unicode="&#xd4;" horiz-adv-x="1392" 
d="M70 532q0 131 30 260.5t93.5 249.5t153 212t218 147t279.5 55q243 0 370 -142t127 -411q0 -107 -20 -214.5t-60 -212t-104 -194.5t-145.5 -158.5t-193 -107.5t-238.5 -39q-250 0 -380 142.5t-130 412.5zM600 43q83 0 153.5 37t119 97.5t87 144.5t61.5 171t38 183
t20.5 175.5t5.5 154.5q0 198 -58 291.5t-206 93.5q-86 0 -158 -35.5t-122 -94t-89 -140t-62.5 -166t-38 -180t-20 -174.5t-5.5 -155q0 -403 274 -403zM530 1522l289 282q46 23 82 23q35 0 56.5 -16.5t43.5 -53.5l144 -239l-27 -23l-241 164l-328 -168z" />
    <glyph glyph-name="Otilde" unicode="&#xd5;" horiz-adv-x="1392" 
d="M70 532q0 131 30 260.5t93.5 249.5t153 212t218 147t279.5 55q243 0 370 -142t127 -411q0 -107 -20 -214.5t-60 -212t-104 -194.5t-145.5 -158.5t-193 -107.5t-238.5 -39q-250 0 -380 142.5t-130 412.5zM600 43q83 0 153.5 37t119 97.5t87 144.5t61.5 171t38 183
t20.5 175.5t5.5 154.5q0 198 -58 291.5t-206 93.5q-86 0 -158 -35.5t-122 -94t-89 -140t-62.5 -166t-38 -180t-20 -174.5t-5.5 -155q0 -403 274 -403zM1001 1575q-72 0 -176 47q-79 33 -116 33q-66 0 -117 -88l-37 12q53 115 105.5 169t138.5 54q17 0 34 -2t28.5 -4.5
t28.5 -9t25 -9.5t27.5 -12t26.5 -12q76 -31 112 -31q37 0 64.5 18t56.5 70l39 -12q-52 -120 -110 -171.5t-130 -51.5z" />
    <glyph glyph-name="Odieresis" unicode="&#xd6;" horiz-adv-x="1392" 
d="M70 532q0 131 30 260.5t93.5 249.5t153 212t218 147t279.5 55q243 0 370 -142t127 -411q0 -107 -20 -214.5t-60 -212t-104 -194.5t-145.5 -158.5t-193 -107.5t-238.5 -39q-250 0 -380 142.5t-130 412.5zM600 43q83 0 153.5 37t119 97.5t87 144.5t61.5 171t38 183
t20.5 175.5t5.5 154.5q0 198 -58 291.5t-206 93.5q-86 0 -158 -35.5t-122 -94t-89 -140t-62.5 -166t-38 -180t-20 -174.5t-5.5 -155q0 -403 274 -403zM692 1792q48 0 77.5 -24t29.5 -68q0 -65 -41 -108.5t-105 -43.5q-56 0 -82 29t-26 72q0 60 43.5 101.5t103.5 41.5z
M1096 1792q48 0 78 -23t30 -67q0 -66 -40.5 -110t-106.5 -44q-107 0 -107 101q0 63 45.5 103t100.5 40z" />
    <glyph glyph-name="multiply" unicode="&#xd7;" 
d="M971 946l-359 -303l246 -301l-61 -49l-246 297l-352 -299l-43 51l352 301l-246 303l62 53l245 -303l359 303z" />
    <glyph glyph-name="Oslash" unicode="&#xd8;" horiz-adv-x="1392" 
d="M70 532q0 131 30 260.5t93.5 249.5t153 212t218 147t279.5 55q92 0 162 -20l77 151l66 -33l-72 -141q129 -57 196.5 -187t67.5 -323q0 -107 -20 -214.5t-60 -212t-104 -194.5t-145.5 -158.5t-193 -107.5t-238.5 -39q-111 0 -215 33l-86 -170l-68 33l86 170
q-227 127 -227 489zM600 43q83 0 153.5 37t119 97.5t87 144.5t61.5 171t38 183t20.5 175.5t5.5 154.5q0 211 -63 299l-604 -1192q67 -70 182 -70zM326 446q0 -166 43 -260l596 1170q-56 35 -144 35q-86 0 -158 -35.5t-122 -94t-89 -140t-62.5 -166t-38 -180t-20 -174.5
t-5.5 -155z" />
    <glyph glyph-name="Ugrave" unicode="&#xd9;" horiz-adv-x="1417" 
d="M690 53q80 0 143.5 20.5t117.5 66t91 125t56 192.5l151 917h-162l9 60h379l-11 -60h-133l-151 -911q-40 -244 -167.5 -365t-389.5 -121q-102 0 -179 18t-136 57.5t-90 108t-32 163.5q0 64 15 147l153 903h-141l10 60h531l-9 -60h-143l-153 -917q-17 -107 -17 -170
q3 -120 63.5 -177t194.5 -57zM819 1858l252 -330l-27 -27l-307 164q-39 21 -56 39.5t-17 50.5q0 35 26.5 58.5t67.5 31.5z" />
    <glyph glyph-name="Uacute" unicode="&#xda;" horiz-adv-x="1417" 
d="M690 53q-134 0 -194.5 57t-63.5 177q0 63 17 170l153 917h143l9 60h-531l-10 -60h141l-153 -903q-15 -83 -15 -147q1 -95 32 -163.5t90 -108t136 -57.5t179 -18q262 0 389.5 121t167.5 365l151 911h133l11 60h-379l-9 -60h162l-151 -917q-19 -113 -56 -192.5t-91 -125
t-117.5 -66t-143.5 -20.5zM737 1522l310 325l69 -18q70 -16 70 -76q0 -62 -94 -106l-332 -154z" />
    <glyph glyph-name="Ucircumflex" unicode="&#xdb;" horiz-adv-x="1417" 
d="M690 53q-134 0 -194.5 57t-63.5 177q0 63 17 170l153 917h143l9 60h-531l-10 -60h141l-153 -903q-15 -83 -15 -147q1 -95 32 -163.5t90 -108t136 -57.5t179 -18q262 0 389.5 121t167.5 365l151 911h133l11 60h-379l-9 -60h162l-151 -917q-19 -113 -56 -192.5t-91 -125
t-117.5 -66t-143.5 -20.5zM596 1522l289 282q46 23 82 23q35 0 56.5 -16.5t43.5 -53.5l143 -239l-26 -23l-242 164l-328 -168z" />
    <glyph glyph-name="Udieresis" unicode="&#xdc;" horiz-adv-x="1417" 
d="M690 53q80 0 143.5 20.5t117.5 66t91 125t56 192.5l151 917h-162l9 60h379l-11 -60h-133l-151 -911q-40 -244 -167.5 -365t-389.5 -121q-102 0 -179 18t-136 57.5t-90 108t-32 163.5q0 64 15 147l153 903h-141l10 60h531l-9 -60h-143l-153 -917q-17 -107 -17 -170
q3 -120 63.5 -177t194.5 -57zM758 1792q47 0 76.5 -24t29.5 -68q0 -65 -40.5 -108.5t-104.5 -43.5q-56 0 -82.5 29t-26.5 72q0 60 44 101.5t104 41.5zM1161 1792q48 0 78.5 -23t30.5 -67q0 -66 -41 -110t-107 -44q-106 0 -106 101q0 63 45 103t100 40z" />
    <glyph glyph-name="Yacute" unicode="&#xdd;" horiz-adv-x="1161" 
d="M694 745l422 629h-176l10 60h375l-10 -60h-119l-481 -712l-103 -603h166l-10 -59h-580l11 59h163l101 600l-242 715h-129l8 60h578l-8 -60h-174zM580 1528l309 325l69 -18q70 -16 70 -76q0 -62 -94 -106l-332 -154z" />
    <glyph glyph-name="Thorn" unicode="&#xde;" horiz-adv-x="1241" 
d="M219 1434h645l-8 -60h-238l-36 -215h112q117 0 207.5 -16.5t164.5 -54.5t113.5 -107t39.5 -166q0 -110 -39 -196.5t-104.5 -142.5t-157.5 -93t-192 -52.5t-214 -15.5h-72l-43 -256h246l-8 -59h-653l8 59h157l222 1315h-160zM573 1100l-122 -727h61q106 0 191 36
t138.5 99.5t82 147.5t28.5 182q0 145 -71 203.5t-211 58.5h-97z" />
    <glyph glyph-name="germandbls" unicode="&#xdf;" horiz-adv-x="1333" 
d="M57 -121l222 1219q43 234 179 359.5t386 125.5q162 0 244.5 -57t82.5 -158q0 -54 -26.5 -103.5t-66.5 -84.5t-87 -73.5t-87 -72.5t-66.5 -80t-26.5 -96q0 -27 10.5 -51t24 -40.5t41.5 -37t46 -31.5t56 -32q53 -29 87 -53t73.5 -62.5t59.5 -89t20 -111.5
q0 -162 -115 -267.5t-293 -105.5q-162 0 -242.5 64t-80.5 168q0 74 41.5 120t111.5 46q53 0 85 -31t32 -78q0 -37 -25 -82h-71q-8 -19 -8 -45q0 -45 39.5 -74.5t123.5 -29.5q99 0 161.5 55t62.5 146q0 42 -14 75.5t-45 61t-56.5 44.5t-71.5 42q-103 57 -141 91
q-80 73 -80 177q0 59 20.5 111t53.5 91.5t73 77.5t79.5 75.5t72.5 77.5t53.5 92.5t20.5 111.5q0 172 -182 172q-59 0 -106.5 -19.5t-79 -50.5t-55 -78.5t-37 -93t-24.5 -104.5l-221 -1217q-88 -485 -481 -485q-112 0 -184 56.5t-72 148.5q0 73 44.5 122.5t117.5 49.5
q71 0 102.5 -52t7.5 -126l-77 -9q-19 -34 -19 -63q0 -33 24.5 -51.5t65.5 -18.5q32 0 57.5 8.5t44.5 21.5t35 38t26.5 48.5t21 63t17 71t15.5 83.5z" />
    <glyph glyph-name="agrave" unicode="&#xe0;" horiz-adv-x="1159" 
d="M1079 150l43 -33q-88 -140 -229 -140q-98 0 -144.5 44t-46.5 122q0 41 17 107l-10 2q-53 -121 -145 -198t-226 -77q-149 0 -225 94.5t-76 270.5q0 90 19.5 181.5t60.5 177.5t99 152t142.5 106t182.5 40q178 0 250 -157l34 133q108 -3 224 14q-113 -556 -148 -807
q-4 -20 -4 -53q0 -38 14 -55t45 -17q60 0 123 93zM420 66q89 0 166.5 91t120.5 229t43 280q0 266 -172 266q-76 0 -134.5 -50.5t-93.5 -138t-53 -196.5t-18 -234q0 -60 5.5 -101.5t20 -76.5t43.5 -52t72 -17zM680 1501l82 -377l-33 -14l-219 266q-35 49 -35 84q0 46 48 68
t91 2z" />
    <glyph glyph-name="aacute" unicode="&#xe1;" horiz-adv-x="1159" 
d="M1079 150l43 -33q-88 -140 -229 -140q-98 0 -144.5 44t-46.5 122q0 41 17 107l-10 2q-53 -121 -145 -198t-226 -77q-149 0 -225 94.5t-76 270.5q0 90 19.5 181.5t60.5 177.5t99 152t142.5 106t182.5 40q178 0 250 -157l34 133q108 -3 224 14q-113 -556 -148 -807
q-4 -20 -4 -53q0 -38 14 -55t45 -17q60 0 123 93zM420 66q89 0 166.5 91t120.5 229t43 280q0 266 -172 266q-76 0 -134.5 -50.5t-93.5 -138t-53 -196.5t-18 -234q0 -60 5.5 -101.5t20 -76.5t43.5 -52t72 -17zM494 1130l186 375l90 17q36 8 66 -8.5t30 -55.5q0 -49 -59 -102
l-283 -248z" />
    <glyph glyph-name="acircumflex" unicode="&#xe2;" horiz-adv-x="1159" 
d="M1079 150l43 -33q-88 -140 -229 -140q-98 0 -144.5 44t-46.5 122q0 41 17 107l-10 2q-53 -121 -145 -198t-226 -77q-149 0 -225 94.5t-76 270.5q0 90 19.5 181.5t60.5 177.5t99 152t142.5 106t182.5 40q178 0 250 -157l34 133q108 -3 224 14q-113 -556 -148 -807
q-4 -20 -4 -53q0 -38 14 -55t45 -17q60 0 123 93zM420 66q89 0 166.5 91t120.5 229t43 280q0 266 -172 266q-76 0 -134.5 -50.5t-93.5 -138t-53 -196.5t-18 -234q0 -60 5.5 -101.5t20 -76.5t43.5 -52t72 -17zM360 1133l246 346q12 9 43 18.5t56 9.5q69 0 90 -71l96 -310
l-33 -18l-184 227l-285 -231z" />
    <glyph glyph-name="atilde" unicode="&#xe3;" horiz-adv-x="1159" 
d="M1079 150l43 -33q-88 -140 -229 -140q-98 0 -144.5 44t-46.5 122q0 41 17 107l-10 2q-53 -121 -145 -198t-226 -77q-149 0 -225 94.5t-76 270.5q0 90 19.5 181.5t60.5 177.5t99 152t142.5 106t182.5 40q178 0 250 -157l34 133q108 -3 224 14q-113 -556 -148 -807
q-4 -20 -4 -53q0 -38 14 -55t45 -17q60 0 123 93zM420 66q89 0 166.5 91t120.5 229t43 280q0 266 -172 266q-76 0 -134.5 -50.5t-93.5 -138t-53 -196.5t-18 -234q0 -60 5.5 -101.5t20 -76.5t43.5 -52t72 -17zM764 1188q-74 0 -178 47q-75 33 -117 33q-64 0 -115 -88l-37 14
q51 114 104.5 167.5t139.5 53.5q15 0 28 -1t27 -4.5t22.5 -5.5t24 -8.5t21 -9t23 -10.5t22.5 -10q76 -31 113 -31q38 0 65 18.5t56 69.5l38 -12q-52 -120 -109.5 -171.5t-127.5 -51.5z" />
    <glyph glyph-name="adieresis" unicode="&#xe4;" horiz-adv-x="1159" 
d="M1079 150l43 -33q-88 -140 -229 -140q-98 0 -144.5 44t-46.5 122q0 41 17 107l-10 2q-53 -121 -145 -198t-226 -77q-149 0 -225 94.5t-76 270.5q0 90 19.5 181.5t60.5 177.5t99 152t142.5 106t182.5 40q178 0 250 -157l34 133q108 -3 224 14q-113 -556 -148 -807
q-4 -20 -4 -53q0 -38 14 -55t45 -17q60 0 123 93zM420 66q89 0 166.5 91t120.5 229t43 280q0 266 -172 266q-76 0 -134.5 -50.5t-93.5 -138t-53 -196.5t-18 -234q0 -60 5.5 -101.5t20 -76.5t43.5 -52t72 -17zM469 1407q47 0 76.5 -24t29.5 -68q0 -65 -40.5 -108.5
t-104.5 -43.5q-56 0 -82 29t-26 72q0 60 43.5 101.5t103.5 41.5zM872 1407q48 0 78.5 -23t30.5 -67q0 -66 -40.5 -110t-106.5 -44q-107 0 -107 101q0 63 45 103t100 40z" />
    <glyph glyph-name="aring" unicode="&#xe5;" horiz-adv-x="1159" 
d="M1079 150l43 -33q-88 -140 -229 -140q-98 0 -144.5 44t-46.5 122q0 41 17 107l-10 2q-53 -121 -145 -198t-226 -77q-149 0 -225 94.5t-76 270.5q0 90 19.5 181.5t60.5 177.5t99 152t142.5 106t182.5 40q178 0 250 -157l34 133q108 -3 224 14q-113 -556 -148 -807
q-4 -20 -4 -53q0 -38 14 -55t45 -17q60 0 123 93zM420 66q89 0 166.5 91t120.5 229t43 280q0 266 -172 266q-76 0 -134.5 -50.5t-93.5 -138t-53 -196.5t-18 -234q0 -60 5.5 -101.5t20 -76.5t43.5 -52t72 -17zM686 1438q-57 0 -96 -40t-39 -98q0 -41 23.5 -70.5t72.5 -29.5
q60 0 97.5 38.5t37.5 96.5q0 44 -24 73.5t-72 29.5zM477 1286q0 91 63 150t162 59q75 0 115.5 -39t40.5 -102q0 -95 -61.5 -154t-161.5 -59q-80 0 -119 40t-39 105z" />
    <glyph glyph-name="ae" unicode="&#xe6;" horiz-adv-x="1615" 
d="M1473 340l55 -16q-52 -171 -169 -259t-288 -88q-154 0 -239 76t-103 219q-58 -127 -159 -211t-232 -84q-149 0 -225 94.5t-76 270.5q0 90 19.5 181.5t60.5 177.5t99 152t142.5 106t182.5 40q178 0 250 -157l36 133q81 -2 174 10l-20 -70q130 84 291 84q133 0 207.5 -59.5
t74.5 -173.5q0 -61 -24 -110.5t-59.5 -81.5t-89.5 -56.5t-101.5 -38t-108.5 -24.5q-127 -22 -219 -25q0 -5 -1 -35t-1 -35q0 -159 49 -229t156 -70q62 0 117.5 23.5t110.5 88.5t90 167zM420 66q89 0 166.5 91t120.5 229t43 280q0 266 -172 266q-73 0 -129 -47.5t-87 -116
t-51 -157t-26 -157.5t-6 -130q0 -138 31.5 -198t109.5 -60zM1341 791q0 153 -110 153q-94 0 -172.5 -123.5t-102.5 -331.5q79 4 144 21t121.5 51t88 92.5t31.5 137.5z" />
    <glyph glyph-name="ccedilla" unicode="&#xe7;" horiz-adv-x="954" 
d="M801 340l59 -18q-18 -60 -47.5 -113t-75.5 -103t-114.5 -83t-151.5 -41l-78 -101q35 13 78 13q76 0 118 -39.5t42 -106.5q0 -92 -78 -150.5t-199 -58.5q-82 0 -125 34.5t-43 80.5q0 35 22 60.5t58 25.5q28 0 48.5 -19t21.5 -51l-45 -30q-8 -27 8 -45.5t53 -18.5
q53 0 88 42t35 116q0 110 -86 110q-31 0 -67 -12l-9 31l88 114q-177 4 -269.5 106.5t-92.5 283.5q0 127 38.5 240t110 201t183.5 139.5t250 51.5q147 0 223 -68.5t76 -174.5q0 -81 -42.5 -133t-125.5 -52q-59 0 -93 29t-34 76q0 54 30 100h74q16 39 16 76q0 47 -31 71.5
t-87 24.5q-89 0 -156.5 -52.5t-105 -139t-56 -184.5t-18.5 -203q0 -164 46 -237t152 -73q107 0 186.5 72t125.5 209z" />
    <glyph glyph-name="egrave" unicode="&#xe8;" horiz-adv-x="942" 
d="M602 999q138 0 213.5 -60.5t75.5 -174.5q0 -61 -24 -110t-60.5 -80.5t-91 -56t-102 -38t-107.5 -24.5q-113 -19 -217 -25v-29q0 -186 46.5 -263t156.5 -77q99 0 182 64.5t135 214.5l55 -16q-51 -171 -167 -259t-287 -88q-179 0 -274 101t-95 284q0 104 26 200t75.5 175
t117.5 138t156 91.5t186 32.5zM678 793q0 151 -109 151q-94 0 -173 -123.5t-103 -331.5q88 6 155 23.5t120.5 52t81.5 92t28 136.5zM666 1501l82 -377l-33 -14l-219 266q-35 49 -35 84q0 46 48 68t91 2z" />
    <glyph glyph-name="eacute" unicode="&#xe9;" horiz-adv-x="942" 
d="M602 999q138 0 213.5 -60.5t75.5 -174.5q0 -61 -24 -110t-60.5 -80.5t-91 -56t-102 -38t-107.5 -24.5q-113 -19 -217 -25v-29q0 -186 46.5 -263t156.5 -77q99 0 182 64.5t135 214.5l55 -16q-51 -171 -167 -259t-287 -88q-179 0 -274 101t-95 284q0 104 26 200t75.5 175
t117.5 138t156 91.5t186 32.5zM678 793q0 151 -109 151q-94 0 -173 -123.5t-103 -331.5q88 6 155 23.5t120.5 52t81.5 92t28 136.5zM483 1122l187 375l90 16q36 8 66 -8t30 -55q0 -49 -59 -102l-283 -248z" />
    <glyph glyph-name="ecircumflex" unicode="&#xea;" horiz-adv-x="942" 
d="M602 999q138 0 213.5 -60.5t75.5 -174.5q0 -61 -24 -110t-60.5 -80.5t-91 -56t-102 -38t-107.5 -24.5q-113 -19 -217 -25v-29q0 -186 46.5 -263t156.5 -77q99 0 182 64.5t135 214.5l55 -16q-51 -171 -167 -259t-287 -88q-179 0 -274 101t-95 284q0 104 26 200t75.5 175
t117.5 138t156 91.5t186 32.5zM678 793q0 151 -109 151q-94 0 -173 -123.5t-103 -331.5q88 6 155 23.5t120.5 52t81.5 92t28 136.5zM340 1130l246 347q12 9 42.5 18.5t55.5 9.5q69 0 90 -71l96 -310l-32 -18l-185 227l-284 -231z" />
    <glyph glyph-name="edieresis" unicode="&#xeb;" horiz-adv-x="942" 
d="M602 999q138 0 213.5 -60.5t75.5 -174.5q0 -61 -24 -110t-60.5 -80.5t-91 -56t-102 -38t-107.5 -24.5q-113 -19 -217 -25v-29q0 -186 46.5 -263t156.5 -77q99 0 182 64.5t135 214.5l55 -16q-51 -171 -167 -259t-287 -88q-179 0 -274 101t-95 284q0 104 26 200t75.5 175
t117.5 138t156 91.5t186 32.5zM678 793q0 151 -109 151q-94 0 -173 -123.5t-103 -331.5q88 6 155 23.5t120.5 52t81.5 92t28 136.5zM461 1407q47 0 76.5 -24t29.5 -68q0 -65 -40.5 -108.5t-104.5 -43.5q-56 0 -82.5 29t-26.5 72q0 60 44 101.5t104 41.5zM864 1407
q48 0 78.5 -23t30.5 -67q0 -66 -41 -110t-107 -44q-106 0 -106 101q0 63 45 103t100 40z" />
    <glyph glyph-name="igrave" unicode="&#xec;" horiz-adv-x="616" 
d="M504 154l45 -33q-48 -72 -105.5 -108t-136.5 -36q-209 0 -209 193q0 66 31 215q12 52 61 276t58 265h-164l10 53h393q-18 -77 -84 -403.5t-71 -358.5q-13 -60 -13 -92q0 -37 14.5 -52.5t43.5 -15.5q31 0 59 22t68 75zM371 1501l82 -377l-33 -14l-219 266q-35 49 -35 84
q0 46 48 68t91 2z" />
    <glyph glyph-name="iacute" unicode="&#xed;" horiz-adv-x="616" 
d="M504 154l45 -33q-48 -72 -105.5 -108t-136.5 -36q-209 0 -209 193q0 66 31 215q12 52 61 276t58 265h-164l10 53h393q-18 -77 -84 -403.5t-71 -358.5q-13 -60 -13 -92q0 -37 14.5 -52.5t43.5 -15.5q31 0 59 22t68 75zM199 1122l186 375l90 16q36 8 66 -8t30 -55
q0 -49 -59 -102l-283 -248z" />
    <glyph glyph-name="icircumflex" unicode="&#xee;" horiz-adv-x="616" 
d="M504 154l45 -33q-48 -72 -105.5 -108t-136.5 -36q-209 0 -209 193q0 66 31 215q12 52 61 276t58 265h-164l10 53h393q-18 -77 -84 -403.5t-71 -358.5q-13 -60 -13 -92q0 -37 14.5 -52.5t43.5 -15.5q31 0 59 22t68 75zM78 1130l246 347q12 9 42.5 18.5t55.5 9.5
q69 0 90 -71l96 -310l-33 -18l-184 227l-285 -231z" />
    <glyph glyph-name="idieresis" unicode="&#xef;" horiz-adv-x="616" 
d="M504 154l45 -33q-48 -72 -105.5 -108t-136.5 -36q-209 0 -209 193q0 66 31 215q12 52 61 276t58 265h-164l10 53h393q-18 -77 -84 -403.5t-71 -358.5q-13 -60 -13 -92q0 -37 14.5 -52.5t43.5 -15.5q31 0 59 22t68 75zM186 1407q48 0 77.5 -24t29.5 -68q0 -65 -41 -108.5
t-105 -43.5q-56 0 -82 29t-26 72q0 60 43.5 101.5t103.5 41.5zM590 1407q48 0 78 -23t30 -67q0 -66 -40.5 -110t-106.5 -44q-107 0 -107 101q0 63 45.5 103t100.5 40z" />
    <glyph glyph-name="eth" unicode="&#xf0;" horiz-adv-x="1105" 
d="M535 1157l-17 64l195 131q-117 128 -328 170l14 43q125 -2 246.5 -33.5t202.5 -87.5l211 139l16 -59l-178 -121q72 -79 108.5 -193.5t36.5 -304.5q0 -82 -9.5 -167t-32.5 -177t-56.5 -175.5t-85 -158.5t-115 -130t-150 -87.5t-185.5 -32.5q-182 0 -278.5 100.5
t-96.5 287.5q0 274 142.5 452t371.5 178q104 0 168.5 -52.5t91.5 -137.5q10 117 10 153q0 227 -69 342zM571 944q-132 0 -219.5 -170.5t-87.5 -451.5q0 -142 37 -217.5t125 -75.5q65 0 118 35t87 94t58.5 128t37 146.5t18 139t5.5 114.5q0 117 -47.5 187.5t-131.5 70.5z" />
    <glyph glyph-name="ntilde" unicode="&#xf1;" horiz-adv-x="1189" 
d="M885 -23q-100 0 -154.5 48t-54.5 141q0 73 63 315l64 246q14 57 14 100q0 40 -16.5 59t-52.5 19q-95 0 -189 -115.5t-149 -275.5q-64 -191 -97 -508q-48 2 -131 -4.5t-125 -15.5l80 370l74 570h-154l6 53h388l-84 -354l12 -7q29 59 58 108t71 101.5t86.5 88.5t103 59.5
t121.5 23.5q106 0 161.5 -56.5t55.5 -160.5q0 -57 -16 -129q-66 -245 -107 -422q-16 -66 -16 -110q0 -64 55 -64q64 0 135 95l43 -35q-96 -140 -245 -140zM786 1188q-74 0 -178 47q-75 33 -116 33q-64 0 -115 -88l-37 14q51 114 104.5 167.5t139.5 53.5q15 0 28 -1t27 -4.5
t22.5 -5.5t24 -8.5t21 -9t23 -10.5t22.5 -10q76 -31 112 -31q38 0 65 18.5t56 69.5l39 -12q-52 -120 -109.5 -171.5t-128.5 -51.5z" />
    <glyph glyph-name="ograve" unicode="&#xf2;" horiz-adv-x="1054" 
d="M434 31q56 0 102 26.5t76.5 68t54 100.5t36.5 117.5t21 125.5t10.5 116.5t2.5 98.5q0 135 -39 200.5t-131 65.5q-62 0 -112.5 -35t-82.5 -94.5t-55 -128t-34 -145.5t-16 -136.5t-5 -111.5q0 -132 40.5 -200t131.5 -68zM414 -23q-191 0 -287 101t-96 284q0 122 36.5 234.5
t104.5 203t177 145t243 54.5q190 0 285.5 -99t95.5 -282q0 -127 -37.5 -241.5t-106.5 -204t-176.5 -142.5t-238.5 -53zM655 1501l82 -377l-32 -14l-220 266q-34 47 -34 84q0 46 48 68t91 2z" />
    <glyph glyph-name="oacute" unicode="&#xf3;" horiz-adv-x="1054" 
d="M434 31q56 0 102 26.5t76.5 68t54 100.5t36.5 117.5t21 125.5t10.5 116.5t2.5 98.5q0 135 -39 200.5t-131 65.5q-62 0 -112.5 -35t-82.5 -94.5t-55 -128t-34 -145.5t-16 -136.5t-5 -111.5q0 -132 40.5 -200t131.5 -68zM414 -23q-191 0 -287 101t-96 284q0 122 36.5 234.5
t104.5 203t177 145t243 54.5q190 0 285.5 -99t95.5 -282q0 -127 -37.5 -241.5t-106.5 -204t-176.5 -142.5t-238.5 -53zM473 1122l186 375l91 16q36 8 66 -8t30 -55q0 -48 -60 -102l-282 -248z" />
    <glyph glyph-name="ocircumflex" unicode="&#xf4;" horiz-adv-x="1054" 
d="M434 31q56 0 102 26.5t76.5 68t54 100.5t36.5 117.5t21 125.5t10.5 116.5t2.5 98.5q0 135 -39 200.5t-131 65.5q-62 0 -112.5 -35t-82.5 -94.5t-55 -128t-34 -145.5t-16 -136.5t-5 -111.5q0 -132 40.5 -200t131.5 -68zM414 -23q-191 0 -287 101t-96 284q0 122 36.5 234.5
t104.5 203t177 145t243 54.5q190 0 285.5 -99t95.5 -282q0 -127 -37.5 -241.5t-106.5 -204t-176.5 -142.5t-238.5 -53zM330 1130l245 347q12 9 43 18.5t56 9.5q69 0 90 -71l96 -310l-33 -18l-184 227l-285 -231z" />
    <glyph glyph-name="otilde" unicode="&#xf5;" horiz-adv-x="1054" 
d="M434 31q56 0 102 26.5t76.5 68t54 100.5t36.5 117.5t21 125.5t10.5 116.5t2.5 98.5q0 135 -39 200.5t-131 65.5q-62 0 -112.5 -35t-82.5 -94.5t-55 -128t-34 -145.5t-16 -136.5t-5 -111.5q0 -132 40.5 -200t131.5 -68zM414 -23q-191 0 -287 101t-96 284q0 122 36.5 234.5
t104.5 203t177 145t243 54.5q190 0 285.5 -99t95.5 -282q0 -127 -37.5 -241.5t-106.5 -204t-176.5 -142.5t-238.5 -53zM739 1188q-74 0 -178 47q-75 33 -117 33q-63 0 -114 -88l-37 14q51 114 104.5 167.5t139.5 53.5q15 0 28 -1t27 -4.5t22.5 -5.5t24 -8.5t21 -9t23 -10.5
t22.5 -10q76 -31 112 -31q38 0 65 18.5t56 69.5l39 -12q-52 -120 -109.5 -171.5t-128.5 -51.5z" />
    <glyph glyph-name="odieresis" unicode="&#xf6;" horiz-adv-x="1054" 
d="M434 31q56 0 102 26.5t76.5 68t54 100.5t36.5 117.5t21 125.5t10.5 116.5t2.5 98.5q0 135 -39 200.5t-131 65.5q-62 0 -112.5 -35t-82.5 -94.5t-55 -128t-34 -145.5t-16 -136.5t-5 -111.5q0 -132 40.5 -200t131.5 -68zM414 -23q-191 0 -287 101t-96 284q0 122 36.5 234.5
t104.5 203t177 145t243 54.5q190 0 285.5 -99t95.5 -282q0 -127 -37.5 -241.5t-106.5 -204t-176.5 -142.5t-238.5 -53zM457 1407q47 0 76.5 -24t29.5 -68q0 -65 -40.5 -108.5t-104.5 -43.5q-56 0 -82.5 29t-26.5 72q0 60 44 101.5t104 41.5zM860 1407q48 0 78.5 -23
t30.5 -67q0 -66 -41 -110t-107 -44q-106 0 -106 101q0 63 45 103t100 40z" />
    <glyph glyph-name="divide" unicode="&#xf7;" 
d="M643 1063q46 0 72 -21t26 -63q0 -63 -37.5 -103t-97.5 -40q-98 0 -98 88q0 60 40 99.5t95 39.5zM537 463q46 0 73 -21.5t27 -64.5q0 -62 -37.5 -101.5t-97.5 -39.5q-52 0 -75.5 24.5t-23.5 63.5q0 60 39.5 99.5t94.5 39.5zM1022 610h-930l12 74h930z" />
    <glyph glyph-name="oslash" unicode="&#xf8;" horiz-adv-x="1054" 
d="M418 -23q-58 0 -115 13l-76 -156l-57 29l72 143q-207 81 -207 356q0 122 36.5 234.5t104.5 203t177 145t243 54.5q76 0 131 -14l82 166l55 -25l-80 -161q193 -82 193 -347q0 -127 -37.5 -241.5t-106.5 -204t-176.5 -142.5t-238.5 -53zM266 299q0 -121 31 -182l389 788
q-42 45 -115 45q-62 0 -112.5 -35t-82.5 -94.5t-55 -128t-34 -145.5t-16 -136.5t-5 -111.5zM438 31q56 0 102 26.5t76.5 68t54 100.5t36.5 117.5t21 125.5t10.5 116.5t2.5 98.5q0 94 -18 156l-383 -779q38 -30 98 -30z" />
    <glyph glyph-name="ugrave" unicode="&#xf9;" horiz-adv-x="1208" 
d="M111 299q22 121 125 627h-154l8 53h389q-17 -67 -78.5 -371t-70.5 -352q-11 -60 -11 -88q0 -46 21 -70t74 -24q103 0 194 137t148 352q54 194 71 406q47 -1 131 6t127 16q-111 -522 -147 -727q-14 -83 -14 -133q0 -76 61 -76q32 0 60.5 22t64.5 73l43 -31
q-95 -142 -233 -142q-197 0 -197 166q0 56 20 123l17 62l-12 4q-26 -58 -51.5 -103t-64 -94.5t-80 -82t-99 -54t-121.5 -21.5q-120 0 -175 61.5t-55 168.5q0 43 9 92zM707 1501l81 -377l-32 -14l-219 266q-35 49 -35 84q0 46 48 68t91 2z" />
    <glyph glyph-name="uacute" unicode="&#xfa;" horiz-adv-x="1208" 
d="M111 299q22 121 125 627h-154l8 53h389q-17 -67 -78.5 -371t-70.5 -352q-11 -60 -11 -88q0 -46 21 -70t74 -24q103 0 194 137t148 352q54 194 71 406q47 -1 131 6t127 16q-111 -522 -147 -727q-14 -83 -14 -133q0 -76 61 -76q32 0 60.5 22t64.5 73l43 -31
q-95 -142 -233 -142q-197 0 -197 166q0 56 20 123l17 62l-12 4q-26 -58 -51.5 -103t-64 -94.5t-80 -82t-99 -54t-121.5 -21.5q-120 0 -175 61.5t-55 168.5q0 43 9 92zM524 1122l187 375l90 16q36 8 66 -8t30 -55q0 -49 -59 -102l-283 -248z" />
    <glyph glyph-name="ucircumflex" unicode="&#xfb;" horiz-adv-x="1208" 
d="M111 299q22 121 125 627h-154l8 53h389q-17 -67 -78.5 -371t-70.5 -352q-11 -60 -11 -88q0 -46 21 -70t74 -24q103 0 194 137t148 352q54 194 71 406q47 -1 131 6t127 16q-111 -522 -147 -727q-14 -83 -14 -133q0 -76 61 -76q32 0 60.5 22t64.5 73l43 -31
q-95 -142 -233 -142q-197 0 -197 166q0 56 20 123l17 62l-12 4q-26 -58 -51.5 -103t-64 -94.5t-80 -82t-99 -54t-121.5 -21.5q-120 0 -175 61.5t-55 168.5q0 43 9 92zM381 1130l246 347q12 9 42.5 18.5t55.5 9.5q69 0 90 -71l96 -310l-32 -18l-185 227l-284 -231z" />
    <glyph glyph-name="udieresis" unicode="&#xfc;" horiz-adv-x="1208" 
d="M111 299q22 121 125 627h-154l8 53h389q-17 -67 -78.5 -371t-70.5 -352q-11 -60 -11 -88q0 -46 21 -70t74 -24q103 0 194 137t148 352q54 194 71 406q47 -1 131 6t127 16q-111 -522 -147 -727q-14 -83 -14 -133q0 -76 61 -76q32 0 60.5 22t64.5 73l43 -31
q-95 -142 -233 -142q-197 0 -197 166q0 56 20 123l17 62l-12 4q-26 -58 -51.5 -103t-64 -94.5t-80 -82t-99 -54t-121.5 -21.5q-120 0 -175 61.5t-55 168.5q0 43 9 92zM502 1407q47 0 76.5 -24t29.5 -68q0 -65 -40.5 -108.5t-104.5 -43.5q-56 0 -82.5 29t-26.5 72
q0 60 44 101.5t104 41.5zM905 1407q48 0 78.5 -23t30.5 -67q0 -66 -41 -110t-107 -44q-106 0 -106 101q0 63 45 103t100 40z" />
    <glyph glyph-name="yacute" unicode="&#xfd;" horiz-adv-x="1083" 
d="M111 -315l-91 -15q-22 -31 -22 -61q0 -26 19.5 -42t56.5 -16q189 0 436 375q-142 526 -238 836q-18 62 -36 84t-46 22q-32 0 -59 -35t-59 -120l-60 24q23 60 44.5 100t53.5 76.5t76 54t101 17.5q80 0 131 -46t82 -148q92 -302 176 -641q98 150 176 305t78 247
q0 40 -18.5 65.5t-47.5 27.5l-65 -82q-48 15 -77.5 51.5t-29.5 85.5q0 66 42.5 107.5t113.5 41.5q87 0 135.5 -60t48.5 -157q0 -226 -295 -661q-21 -31 -57.5 -86t-59.5 -89.5t-59.5 -85.5t-63 -84.5t-63.5 -76.5t-68 -70.5t-70 -56.5t-75.5 -46t-78.5 -27.5t-85 -10.5
q-113 0 -178 58.5t-65 158.5q0 77 46.5 125.5t119.5 48.5t113 -53t18 -141zM506 1128l186 375l90 17q36 8 66.5 -8.5t30.5 -55.5q0 -48 -60 -102l-282 -248z" />
    <glyph glyph-name="thorn" unicode="&#xfe;" horiz-adv-x="1165" 
d="M1083 643q0 -122 -36 -240.5t-100 -213.5t-161.5 -153.5t-210.5 -58.5q-98 0 -163 41t-93 107l-90 -559h246l-10 -53h-598l10 53h125l315 1917h-161l8 53h393l-164 -823l10 -4q143 290 402 290q137 0 207.5 -93.5t70.5 -262.5zM707 907q-119 0 -220 -166
q-122 -200 -122 -460q0 -109 38.5 -169.5t137.5 -60.5q75 0 134.5 58.5t93.5 153.5t51.5 202.5t17.5 218.5q0 114 -29 168.5t-102 54.5z" />
    <glyph glyph-name="ydieresis" unicode="&#xff;" horiz-adv-x="1083" 
d="M111 -315l-91 -15q-22 -31 -22 -61q0 -26 19.5 -42t56.5 -16q189 0 436 375q-142 526 -238 836q-18 62 -36 84t-46 22q-32 0 -59 -35t-59 -120l-60 24q23 60 44.5 100t53.5 76.5t76 54t101 17.5q80 0 131 -46t82 -148q92 -302 176 -641q98 150 176 305t78 247
q0 40 -18.5 65.5t-47.5 27.5l-65 -82q-48 15 -77.5 51.5t-29.5 85.5q0 66 42.5 107.5t113.5 41.5q87 0 135.5 -60t48.5 -157q0 -226 -295 -661q-21 -31 -57.5 -86t-59.5 -89.5t-59.5 -85.5t-63 -84.5t-63.5 -76.5t-68 -70.5t-70 -56.5t-75.5 -46t-78.5 -27.5t-85 -10.5
q-113 0 -178 58.5t-65 158.5q0 77 46.5 125.5t119.5 48.5t113 -53t18 -141zM469 1407q47 0 76.5 -24t29.5 -68q0 -65 -40.5 -108.5t-104.5 -43.5q-56 0 -82 29t-26 72q0 60 43.5 101.5t103.5 41.5zM872 1407q48 0 78.5 -23t30.5 -67q0 -66 -40.5 -110t-106.5 -44
q-107 0 -107 101q0 63 45 103t100 40z" />
    <glyph glyph-name="Amacron" unicode="&#x100;" horiz-adv-x="1245" 
d="M786 59l-61 418h-432l-215 -418h168l-8 -59h-373l8 59h127l723 1389h102l234 -1389h131l-8 -59h-559l8 59h155zM629 1139l-307 -602h395zM516 1593l21 121h557l-21 -121h-557z" />
    <glyph glyph-name="amacron" unicode="&#x101;" horiz-adv-x="1159" 
d="M1079 150l43 -33q-88 -140 -229 -140q-98 0 -144.5 44t-46.5 122q0 41 17 107l-10 2q-53 -121 -145 -198t-226 -77q-149 0 -225 94.5t-76 270.5q0 90 19.5 181.5t60.5 177.5t99 152t142.5 106t182.5 40q178 0 250 -157l34 133q108 -3 224 14q-113 -556 -148 -807
q-4 -20 -4 -53q0 -38 14 -55t45 -17q60 0 123 93zM420 66q89 0 166.5 91t120.5 229t43 280q0 266 -172 266q-76 0 -134.5 -50.5t-93.5 -138t-53 -196.5t-18 -234q0 -60 5.5 -101.5t20 -76.5t43.5 -52t72 -17zM358 1210l21 121h557l-21 -121h-557z" />
    <glyph glyph-name="Abreve" unicode="&#x102;" horiz-adv-x="1245" 
d="M786 59l-61 418h-432l-215 -418h168l-8 -59h-373l8 59h127l723 1389h102l234 -1389h131l-8 -59h-559l8 59h155zM629 1139l-307 -602h395zM553 1778l45 8q14 -73 61.5 -106t155.5 -33q105 0 163.5 32.5t94.5 106.5l43 -6q-15 -54 -38 -99t-61 -88t-97 -67.5t-134 -24.5
q-58 0 -101.5 16.5t-69 42.5t-41 63t-20 74.5t-1.5 80.5z" />
    <glyph glyph-name="abreve" unicode="&#x103;" horiz-adv-x="1159" 
d="M1079 150l43 -33q-88 -140 -229 -140q-98 0 -144.5 44t-46.5 122q0 41 17 107l-10 2q-53 -121 -145 -198t-226 -77q-149 0 -225 94.5t-76 270.5q0 90 19.5 181.5t60.5 177.5t99 152t142.5 106t182.5 40q178 0 250 -157l34 133q108 -3 224 14q-113 -556 -148 -807
q-4 -20 -4 -53q0 -38 14 -55t45 -17q60 0 123 93zM420 66q89 0 166.5 91t120.5 229t43 280q0 266 -172 266q-76 0 -134.5 -50.5t-93.5 -138t-53 -196.5t-18 -234q0 -60 5.5 -101.5t20 -76.5t43.5 -52t72 -17zM395 1430l47 8q15 -90 63 -135.5t152 -45.5q98 0 158 47t100 134
l43 -11q-13 -59 -38 -111.5t-64 -99.5t-98 -74.5t-131 -27.5q-252 0 -232 316z" />
    <glyph glyph-name="Aogonek" unicode="&#x104;" horiz-adv-x="1245" 
d="M786 59l-61 418h-432l-215 -418h168l-8 -59h-373l8 59h127l723 1391h102l234 -1391h131l-8 -59h-178q-195 -144 -195 -293q0 -37 17.5 -59.5t52.5 -22.5t61 21t57 63l37 -26q-86 -152 -241 -152q-85 0 -131 38.5t-46 106.5q0 54 25.5 102.5t73.5 89.5t94 70t109 62h-295
l8 59h155zM629 1139l-307 -602h395z" />
    <glyph glyph-name="aogonek" unicode="&#x105;" horiz-adv-x="1159" 
d="M1079 150l43 -33q-47 -72 -127 -119q-83 -49 -139.5 -128t-56.5 -163q0 -82 69 -82q58 0 117 84l39 -26q-16 -27 -32.5 -48t-46 -47.5t-72 -41.5t-93.5 -15q-84 0 -130 38.5t-46 106.5q0 48 21 93t60.5 83t81.5 67.5t97 60.5q-214 14 -145 270l-10 2q-53 -121 -145 -198
t-226 -77q-149 0 -225 94.5t-76 270.5q0 90 19.5 181.5t60.5 177.5t99 152t142.5 106t182.5 40q178 0 250 -157l36 135q118 -3 222 12q-105 -521 -148 -807q-11 -66 2 -95.5t53 -29.5q60 0 123 93zM420 66q90 0 167 90t120 227.5t43 282.5q0 266 -172 266
q-76 0 -133.5 -48.5t-92.5 -134t-53 -191.5t-20 -232q-1 -60 4.5 -103.5t20.5 -81t44 -56.5t72 -19z" />
    <glyph glyph-name="Cacute" unicode="&#x106;" horiz-adv-x="1259" 
d="M850 1397q-109 0 -198 -59t-145 -151.5t-94.5 -210.5t-54.5 -230.5t-16 -217.5q0 -226 82 -349.5t252 -123.5q149 0 267.5 94.5t184.5 294.5l56 -14q-32 -108 -86.5 -191.5t-114 -131.5t-130 -78.5t-129 -41t-116.5 -10.5q-256 0 -397 142.5t-141 421.5q0 128 30.5 256
t95 247t155 210.5t221 146.5t282.5 55q66 0 139.5 -15t125 -30.5t65.5 -15.5q15 0 25.5 6.5t14.5 12t17 24.5h41l-57 -428h-51q-17 387 -324 387zM668 1528l309 325l70 -18q69 -16 69 -76q0 -62 -94 -106l-332 -154z" />
    <glyph glyph-name="cacute" unicode="&#x107;" horiz-adv-x="954" 
d="M801 340l59 -18q-15 -51 -38 -97t-60.5 -92.5t-85 -80t-114.5 -54.5t-146 -21q-183 0 -280 103t-97 287q0 127 38.5 240t110 201t183.5 139.5t250 51.5q147 0 223 -68.5t76 -174.5q0 -81 -42.5 -133t-125.5 -52q-59 0 -93 29t-34 76q0 54 30 100h74q16 39 16 76
q0 47 -31 71.5t-87 24.5q-89 0 -156.5 -52.5t-105 -139t-56 -184.5t-18.5 -203q0 -164 46 -237t152 -73q107 0 186.5 72t125.5 209zM483 1128l187 375l90 17q36 8 66 -8.5t30 -55.5q0 -49 -59 -102l-283 -248z" />
    <glyph glyph-name="Ccircumflex" unicode="&#x108;" horiz-adv-x="1259" 
d="M850 1397q-109 0 -198 -59t-145 -151.5t-94.5 -210.5t-54.5 -230.5t-16 -217.5q0 -226 82 -349.5t252 -123.5q149 0 267.5 94.5t184.5 294.5l56 -14q-32 -108 -86.5 -191.5t-114 -131.5t-130 -78.5t-129 -41t-116.5 -10.5q-256 0 -397 142.5t-141 421.5q0 128 30.5 256
t95 247t155 210.5t221 146.5t282.5 55q66 0 139.5 -15t125 -30.5t65.5 -15.5q15 0 25.5 6.5t14.5 12t17 24.5h41l-57 -428h-51q-17 387 -324 387zM541 1522l288 282q46 23 82 23q35 0 57 -16.5t44 -53.5l143 -239l-27 -23l-241 164l-328 -168z" />
    <glyph glyph-name="ccircumflex" unicode="&#x109;" horiz-adv-x="954" 
d="M801 340l59 -18q-15 -51 -38 -97t-60.5 -92.5t-85 -80t-114.5 -54.5t-146 -21q-183 0 -280 103t-97 287q0 127 38.5 240t110 201t183.5 139.5t250 51.5q147 0 223 -68.5t76 -174.5q0 -81 -42.5 -133t-125.5 -52q-59 0 -93 29t-34 76q0 54 30 100h74q16 39 16 76
q0 47 -31 71.5t-87 24.5q-89 0 -156.5 -52.5t-105 -139t-56 -184.5t-18.5 -203q0 -164 46 -237t152 -73q107 0 186.5 72t125.5 209zM330 1135l245 346q12 9 43 18.5t56 9.5q69 0 90 -71l96 -310l-33 -18l-184 227l-285 -231z" />
    <glyph glyph-name="Cdotaccent" unicode="&#x10a;" horiz-adv-x="1259" 
d="M850 1397q-109 0 -198 -59t-145 -151.5t-94.5 -210.5t-54.5 -230.5t-16 -217.5q0 -226 82 -349.5t252 -123.5q149 0 267.5 94.5t184.5 294.5l56 -14q-32 -108 -86.5 -191.5t-114 -131.5t-130 -78.5t-129 -41t-116.5 -10.5q-256 0 -397 142.5t-141 421.5q0 128 30.5 256
t95 247t155 210.5t221 146.5t282.5 55q66 0 139.5 -15t125 -30.5t65.5 -15.5q15 0 25.5 6.5t14.5 12t17 24.5h41l-57 -428h-51q-17 387 -324 387zM858 1546q-129 0 -129 119q0 69 46 114.5t124 45.5q129 0 129 -117q0 -71 -46.5 -116.5t-123.5 -45.5z" />
    <glyph glyph-name="cdotaccent" unicode="&#x10b;" horiz-adv-x="954" 
d="M801 340l59 -18q-15 -51 -38 -97t-60.5 -92.5t-85 -80t-114.5 -54.5t-146 -21q-183 0 -280 103t-97 287q0 127 38.5 240t110 201t183.5 139.5t250 51.5q147 0 223 -68.5t76 -174.5q0 -81 -42.5 -133t-125.5 -52q-59 0 -93 29t-34 76q0 54 30 100h74q16 39 16 76
q0 47 -31 71.5t-87 24.5q-89 0 -156.5 -52.5t-105 -139t-56 -184.5t-18.5 -203q0 -164 46 -237t152 -73q107 0 186.5 72t125.5 209zM616 1165q-129 0 -129 119q0 70 46.5 116t123.5 46q129 0 129 -119q0 -71 -46.5 -116.5t-123.5 -45.5z" />
    <glyph glyph-name="Ccaron" unicode="&#x10c;" horiz-adv-x="1259" 
d="M850 1397q-109 0 -198 -59t-145 -151.5t-94.5 -210.5t-54.5 -230.5t-16 -217.5q0 -226 82 -349.5t252 -123.5q149 0 267.5 94.5t184.5 294.5l56 -14q-32 -108 -86.5 -191.5t-114 -131.5t-130 -78.5t-129 -41t-116.5 -10.5q-256 0 -397 142.5t-141 421.5q0 128 30.5 256
t95 247t155 210.5t221 146.5t282.5 55q66 0 139.5 -15t125 -30.5t65.5 -15.5q15 0 25.5 6.5t14.5 12t17 24.5h41l-57 -428h-51q-17 387 -324 387zM1225 1821l-295 -285q-45 -18 -80 -18t-53.5 14t-42.5 51l-150 242l29 24l250 -170l321 170z" />
    <glyph glyph-name="ccaron" unicode="&#x10d;" horiz-adv-x="954" 
d="M801 340l59 -18q-15 -51 -38 -97t-60.5 -92.5t-85 -80t-114.5 -54.5t-146 -21q-183 0 -280 103t-97 287q0 127 38.5 240t110 201t183.5 139.5t250 51.5q147 0 223 -68.5t76 -174.5q0 -81 -42.5 -133t-125.5 -52q-59 0 -93 29t-34 76q0 54 30 100h74q16 39 16 76
q0 47 -31 71.5t-87 24.5q-89 0 -156.5 -52.5t-105 -139t-56 -184.5t-18.5 -203q0 -164 46 -237t152 -73q107 0 186.5 72t125.5 209zM518 1147l-133 348l33 21l205 -232l282 236l25 -25l-203 -305q-47 -68 -123 -68q-24 0 -50 8t-36 17z" />
    <glyph glyph-name="Dcaron" unicode="&#x10e;" horiz-adv-x="1439" 
d="M1378 885q0 -198 -63.5 -361.5t-182 -279.5t-296.5 -180t-400 -64h-448l10 59h149l222 1315h-152l8 60h494q659 0 659 -549zM395 59h70q135 0 244.5 48t183.5 130t124 195t72.5 240t22.5 268q0 127 -29 213t-89 134t-138.5 67.5t-191.5 19.5h-46zM1157 1821l-295 -285
q-45 -18 -80 -18t-53.5 14t-42.5 51l-149 242l28 24l250 -170l322 170z" />
    <glyph glyph-name="dcaron" unicode="&#x10f;" horiz-adv-x="1273" 
d="M1128 1536l-182 -1096q-6 -38 -18.5 -112t-17.5 -113t-5 -70q0 -86 64 -86q28 0 52 20t60 68l43 -30q-87 -140 -229 -140q-95 0 -141.5 46t-46.5 127q0 42 12 94l-12 2q-53 -122 -144.5 -195.5t-218.5 -73.5q-153 0 -231 94t-78 267q0 91 18.5 182t59 178t98.5 153.5
t143.5 107t186.5 40.5q177 0 245 -147l97 631h-166l6 53h405zM418 66q94 0 172 93t119 231.5t41 283.5q0 258 -170 258q-62 0 -111.5 -32.5t-81.5 -88.5t-54 -120.5t-33.5 -140t-16 -136t-4.5 -117.5q0 -121 31 -176t108 -55zM1147 1071l-31 37q137 104 137 217
q0 76 -65 129l43 43q46 49 98 49q49 0 73.5 -31t24.5 -83q0 -54 -24 -106t-68.5 -98.5t-87.5 -82t-100 -74.5z" />
    <glyph glyph-name="Dcroat" unicode="&#x110;" horiz-adv-x="1439" 
d="M1378 885q0 -198 -63.5 -361.5t-182 -279.5t-296.5 -180t-400 -64h-448l10 59h149l113 670h-166l8 59h168l99 586h-152l8 60h494q659 0 659 -549zM395 59h70q135 0 244.5 48t183.5 130t124 195t72.5 240t22.5 268q0 127 -29 213t-89 134t-138.5 67.5t-191.5 19.5h-46
l-100 -586h363l-9 -59h-364z" />
    <glyph glyph-name="dcroat" unicode="&#x111;" horiz-adv-x="1167" 
d="M1128 1536l-49 -289h152l-8 -53h-154l-106 -647q-36 -191 -60 -367q-10 -65 3 -94t52 -29q63 0 123 90l43 -30q-87 -140 -229 -140q-122 0 -164.5 71.5t-11.5 195.5l-12 2q-53 -122 -144.5 -195.5t-218.5 -73.5q-153 0 -231 94t-78 267q0 91 18.5 182t59 178t98.5 153.5
t143.5 107t186.5 40.5q177 0 245 -147l52 342h-381l8 53h381l37 236h-166l6 53h405zM418 66q94 0 170 94t116.5 230.5t45.5 283.5q5 122 -38.5 190t-131.5 68q-230 0 -289 -455q-12 -102 -12 -180q0 -121 31 -176t108 -55z" />
    <glyph glyph-name="Emacron" unicode="&#x112;" horiz-adv-x="1220" 
d="M233 1434h981l-45 -390h-47q-1 75 -9.5 128.5t-29 90t-45.5 58.5t-68 34t-87 15.5t-111 3.5h-156l-102 -612h88q114 0 173 54.5t108 207.5h43l-103 -606h-45q4 168 -37 223t-168 55h-69l-107 -637h170q110 0 187 19t135.5 65t99 113.5t78.5 173.5h45l-86 -430h-1028
l10 59h142l217 1315h-144zM500 1595l20 121h557l-20 -121h-557z" />
    <glyph glyph-name="emacron" unicode="&#x113;" horiz-adv-x="942" 
d="M602 999q138 0 213.5 -60.5t75.5 -174.5q0 -61 -24 -110t-60.5 -80.5t-91 -56t-102 -38t-107.5 -24.5q-113 -19 -217 -25v-29q0 -186 46.5 -263t156.5 -77q99 0 182 64.5t135 214.5l55 -16q-51 -171 -167 -259t-287 -88q-179 0 -274 101t-95 284q0 104 26 200t75.5 175
t117.5 138t156 91.5t186 32.5zM678 793q0 151 -109 151q-94 0 -173 -123.5t-103 -331.5q88 6 155 23.5t120.5 52t81.5 92t28 136.5zM342 1210l20 121h558l-21 -121h-557z" />
    <glyph glyph-name="Ebreve" unicode="&#x114;" horiz-adv-x="1220" 
d="M233 1434h981l-45 -390h-47q-1 75 -9.5 128.5t-29 90t-45.5 58.5t-68 34t-87 15.5t-111 3.5h-156l-102 -612h88q114 0 173 54.5t108 207.5h43l-103 -606h-45q4 168 -37 223t-168 55h-69l-107 -637h170q110 0 187 19t135.5 65t99 113.5t78.5 173.5h45l-86 -430h-1028
l10 59h142l217 1315h-144zM537 1778l45 8q14 -73 61.5 -106t155.5 -33q105 0 163.5 32.5t94.5 106.5l43 -6q-15 -54 -38 -99t-61 -88t-97 -67.5t-134 -24.5q-58 0 -101.5 16.5t-69 42.5t-41 63t-20 74.5t-1.5 80.5z" />
    <glyph glyph-name="ebreve" unicode="&#x115;" horiz-adv-x="942" 
d="M602 999q138 0 213.5 -60.5t75.5 -174.5q0 -61 -24 -110t-60.5 -80.5t-91 -56t-102 -38t-107.5 -24.5q-113 -19 -217 -25v-29q0 -186 46.5 -263t156.5 -77q99 0 182 64.5t135 214.5l55 -16q-51 -171 -167 -259t-287 -88q-179 0 -274 101t-95 284q0 104 26 200t75.5 175
t117.5 138t156 91.5t186 32.5zM678 793q0 151 -109 151q-94 0 -173 -123.5t-103 -331.5q88 6 155 23.5t120.5 52t81.5 92t28 136.5zM371 1430l47 8q15 -90 63 -135.5t152 -45.5q98 0 158 47t100 134l43 -11q-13 -59 -38 -111.5t-64 -99.5t-98.5 -74.5t-131.5 -27.5
q-251 0 -231 316z" />
    <glyph glyph-name="Edotaccent" unicode="&#x116;" horiz-adv-x="1220" 
d="M233 1434h981l-45 -390h-47q-1 75 -9.5 128.5t-29 90t-45.5 58.5t-68 34t-87 15.5t-111 3.5h-156l-102 -612h88q114 0 173 54.5t108 207.5h43l-103 -606h-45q4 168 -37 223t-168 55h-69l-107 -637h170q110 0 187 19t135.5 65t99 113.5t78.5 173.5h45l-86 -430h-1028
l10 59h142l217 1315h-144zM776 1546q-129 0 -129 119q0 69 46 114.5t124 45.5q129 0 129 -117q0 -71 -46.5 -116.5t-123.5 -45.5z" />
    <glyph glyph-name="edotaccent" unicode="&#x117;" horiz-adv-x="942" 
d="M602 999q138 0 213.5 -60.5t75.5 -174.5q0 -61 -24 -110t-60.5 -80.5t-91 -56t-102 -38t-107.5 -24.5q-113 -19 -217 -25v-29q0 -186 46.5 -263t156.5 -77q99 0 182 64.5t135 214.5l55 -16q-51 -171 -167 -259t-287 -88q-179 0 -274 101t-95 284q0 104 26 200t75.5 175
t117.5 138t156 91.5t186 32.5zM678 793q0 151 -109 151q-94 0 -173 -123.5t-103 -331.5q88 6 155 23.5t120.5 52t81.5 92t28 136.5zM618 1167q-129 0 -129 119q0 70 46.5 116t123.5 46q129 0 129 -119q0 -71 -46.5 -116.5t-123.5 -45.5z" />
    <glyph glyph-name="Eogonek" unicode="&#x118;" horiz-adv-x="1220" 
d="M233 1434h981l-45 -390h-47q-1 75 -9.5 128.5t-29 90t-45.5 58.5t-68 34t-87 15.5t-111 3.5h-156l-102 -612h88q114 0 173 54.5t108 207.5h43l-103 -606h-45q4 168 -37 223t-168 55h-69l-107 -637h170q110 0 187 19t135.5 65t99 113.5t78.5 173.5h45l-86 -430h-133
q-193 -143 -193 -293q0 -82 68 -82q35 0 61.5 21t57.5 63l37 -26q-86 -152 -242 -152q-85 0 -130.5 38.5t-45.5 106.5q0 54 25.5 102.5t73 89t93.5 70.5t109 62h-809l10 59h142l217 1315h-144z" />
    <glyph glyph-name="eogonek" unicode="&#x119;" horiz-adv-x="942" 
d="M602 999q138 0 213.5 -60.5t75.5 -174.5q0 -59 -22.5 -107t-57 -79.5t-86 -56t-98.5 -38t-105 -24.5q-116 -25 -233 -29v-37q-6 -178 43 -255t160 -77q99 0 182 64.5t135 214.5l55 -16q-64 -211 -248 -312q-88 -49 -151.5 -133.5t-63.5 -171.5q0 -82 68 -82q35 0 61.5 21
t57.5 63l37 -26q-86 -152 -242 -152q-85 0 -130.5 38.5t-45.5 106.5q0 48 22 93t63 83.5t84.5 68.5t100.5 61q-50 -5 -67 -5q-179 0 -274 101t-95 284q0 104 26 200t75.5 175t117.5 138t156 91.5t186 32.5zM678 793q0 151 -109 151q-94 0 -173 -123.5t-103 -331.5
q73 4 113 15q130 29 201 94.5t71 194.5z" />
    <glyph glyph-name="Ecaron" unicode="&#x11a;" horiz-adv-x="1220" 
d="M233 1434h981l-45 -390h-47q-1 75 -9.5 128.5t-29 90t-45.5 58.5t-68 34t-87 15.5t-111 3.5h-156l-102 -612h88q114 0 173 54.5t108 207.5h43l-103 -606h-45q4 168 -37 223t-168 55h-69l-107 -637h170q110 0 187 19t135.5 65t99 113.5t78.5 173.5h45l-86 -430h-1028
l10 59h142l217 1315h-144zM1141 1821l-295 -285q-45 -18 -80 -18t-53.5 14t-42.5 51l-150 242l29 24l250 -170l321 170z" />
    <glyph glyph-name="ecaron" unicode="&#x11b;" horiz-adv-x="942" 
d="M602 999q138 0 213.5 -60.5t75.5 -174.5q0 -61 -24 -110t-60.5 -80.5t-91 -56t-102 -38t-107.5 -24.5q-113 -19 -217 -25v-29q0 -186 46.5 -263t156.5 -77q99 0 182 64.5t135 214.5l55 -16q-51 -171 -167 -259t-287 -88q-179 0 -274 101t-95 284q0 104 26 200t75.5 175
t117.5 138t156 91.5t186 32.5zM678 793q0 151 -109 151q-94 0 -173 -123.5t-103 -331.5q88 6 155 23.5t120.5 52t81.5 92t28 136.5zM526 1143l-133 348l33 20l205 -231l282 236l25 -25l-203 -305q-47 -68 -123 -68q-24 0 -50 8t-36 17z" />
    <glyph glyph-name="Gcircumflex" unicode="&#x11c;" horiz-adv-x="1329" 
d="M842 1399q-79 0 -147.5 -30.5t-119 -82.5t-91 -123t-67 -149t-44.5 -163.5t-25.5 -163.5t-7.5 -152q0 -490 309 -490q62 0 124.5 16t98.5 43l68 420h-170l10 60h539l-10 -60h-127l-70 -409q-84 -58 -229 -98t-277 -40q-256 0 -396 140.5t-140 412.5q0 128 30.5 257
t95 249.5t155.5 214t222.5 149.5t284.5 56q68 0 136.5 -15t117.5 -29.5t68 -14.5q15 0 25.5 5.5t15 11.5t16.5 24h39l-57 -428h-52q-10 202 -90 295.5t-235 93.5zM545 1522l289 282q46 23 81 23t57 -16.5t44 -53.5l143 -239l-26 -23l-242 164l-328 -168z" />
    <glyph glyph-name="gcircumflex" unicode="&#x11d;" horiz-adv-x="1134" 
d="M260 -319l-90 -17q-23 -53 7.5 -86t111.5 -33q140 0 214 88.5t138 309.5q2 7 68 286l-11 4q-48 -100 -136.5 -164.5t-207.5 -64.5q-154 0 -232.5 92t-78.5 264q0 88 17.5 176t57 172t96.5 148.5t141.5 103.5t185.5 39q180 0 254 -157l36 133q129 0 224 14
q-32 -151 -176 -956q-26 -145 -80 -251.5t-132 -170t-171.5 -93.5t-206.5 -30q-146 0 -231 53t-85 154q0 74 44 120t118 46q64 0 101.5 -44.5t23.5 -135.5zM428 94q91 0 167.5 84.5t118.5 215.5t42 272q0 266 -174 266q-60 0 -108.5 -31t-79.5 -83.5t-53 -114t-33 -132
t-16 -127t-5 -108.5q0 -127 32 -184.5t109 -57.5zM365 1130l245 347q12 9 43 18.5t56 9.5q69 0 90 -71l96 -310l-33 -18l-184 227l-285 -231z" />
    <glyph glyph-name="Gbreve" unicode="&#x11e;" horiz-adv-x="1329" 
d="M842 1399q-79 0 -147.5 -30.5t-119 -82.5t-91 -123t-67 -149t-44.5 -163.5t-25.5 -163.5t-7.5 -152q0 -490 309 -490q62 0 124.5 16t98.5 43l68 420h-170l10 60h539l-10 -60h-127l-70 -409q-84 -58 -229 -98t-277 -40q-256 0 -396 140.5t-140 412.5q0 128 30.5 257
t95 249.5t155.5 214t222.5 149.5t284.5 56q68 0 136.5 -15t117.5 -29.5t68 -14.5q15 0 25.5 5.5t15 11.5t16.5 24h39l-57 -428h-52q-10 202 -90 295.5t-235 93.5zM625 1776l45 8q14 -73 61.5 -106t155.5 -33q105 0 163.5 32.5t94.5 106.5l43 -6q-15 -54 -38 -99t-61 -88
t-97 -67.5t-134 -24.5q-58 0 -101.5 16.5t-69 42.5t-41 63t-20 74.5t-1.5 80.5z" />
    <glyph glyph-name="gbreve" unicode="&#x11f;" horiz-adv-x="1134" 
d="M260 -319l-90 -17q-23 -53 7.5 -86t111.5 -33q140 0 214 88.5t138 309.5q2 7 68 286l-11 4q-48 -100 -136.5 -164.5t-207.5 -64.5q-154 0 -232.5 92t-78.5 264q0 88 17.5 176t57 172t96.5 148.5t141.5 103.5t185.5 39q180 0 254 -157l36 133q129 0 224 14
q-32 -151 -176 -956q-26 -145 -80 -251.5t-132 -170t-171.5 -93.5t-206.5 -30q-146 0 -231 53t-85 154q0 74 44 120t118 46q64 0 101.5 -44.5t23.5 -135.5zM428 94q91 0 167.5 84.5t118.5 215.5t42 272q0 266 -174 266q-60 0 -108.5 -31t-79.5 -83.5t-53 -114t-33 -132
t-16 -127t-5 -108.5q0 -127 32 -184.5t109 -57.5zM397 1430l47 8q15 -90 63 -135.5t152 -45.5q98 0 158.5 47t100.5 134l43 -11q-13 -59 -38 -111.5t-64 -99.5t-98.5 -74.5t-131.5 -27.5q-252 0 -232 316z" />
    <glyph glyph-name="Gdotaccent" unicode="&#x120;" horiz-adv-x="1329" 
d="M842 1399q-79 0 -147.5 -30.5t-119 -82.5t-91 -123t-67 -149t-44.5 -163.5t-25.5 -163.5t-7.5 -152q0 -490 309 -490q62 0 124.5 16t98.5 43l68 420h-170l10 60h539l-10 -60h-127l-70 -409q-84 -58 -229 -98t-277 -40q-256 0 -396 140.5t-140 412.5q0 128 30.5 257
t95 249.5t155.5 214t222.5 149.5t284.5 56q68 0 136.5 -15t117.5 -29.5t68 -14.5q15 0 25.5 5.5t15 11.5t16.5 24h39l-57 -428h-52q-10 202 -90 295.5t-235 93.5zM858 1546q-129 0 -129 119q0 69 46 114.5t124 45.5q129 0 129 -117q0 -71 -46.5 -116.5t-123.5 -45.5z" />
    <glyph glyph-name="gdotaccent" unicode="&#x121;" horiz-adv-x="1134" 
d="M260 -319l-90 -17q-23 -53 7.5 -86t111.5 -33q140 0 214 88.5t138 309.5q2 7 68 286l-11 4q-48 -100 -136.5 -164.5t-207.5 -64.5q-154 0 -232.5 92t-78.5 264q0 88 17.5 176t57 172t96.5 148.5t141.5 103.5t185.5 39q180 0 254 -157l36 133q129 0 224 14
q-32 -151 -176 -956q-26 -145 -80 -251.5t-132 -170t-171.5 -93.5t-206.5 -30q-146 0 -231 53t-85 154q0 74 44 120t118 46q64 0 101.5 -44.5t23.5 -135.5zM428 94q91 0 167.5 84.5t118.5 215.5t42 272q0 266 -174 266q-60 0 -108.5 -31t-79.5 -83.5t-53 -114t-33 -132
t-16 -127t-5 -108.5q0 -127 32 -184.5t109 -57.5zM637 1167q-129 0 -129 119q0 70 46 116t124 46q129 0 129 -119q0 -71 -46.5 -116.5t-123.5 -45.5z" />
    <glyph glyph-name="Gcommaaccent" unicode="&#x122;" horiz-adv-x="1329" 
d="M842 1399q-79 0 -147.5 -30.5t-119 -82.5t-91 -123t-67 -149t-44.5 -163.5t-25.5 -163.5t-7.5 -152q0 -490 309 -490q62 0 124.5 16t98.5 43l68 420h-170l10 60h539l-10 -60h-127l-70 -409q-84 -58 -229 -98t-277 -40q-256 0 -396 140.5t-140 412.5q0 128 30.5 257
t95 249.5t155.5 214t222.5 149.5t284.5 56q68 0 136.5 -15t117.5 -29.5t68 -14.5q15 0 25.5 5.5t15 11.5t16.5 24h39l-57 -428h-52q-10 202 -90 295.5t-235 93.5zM526 -571l-30 45q58 36 103.5 87.5t45.5 92.5q0 42 -35 53l-59 -53q-25 12 -44.5 38t-19.5 60q0 55 39 90
t97 35q65 0 98 -40.5t33 -96.5q0 -95 -59.5 -168t-168.5 -143z" />
    <glyph glyph-name="gcommaaccent" unicode="&#x123;" horiz-adv-x="1134" 
d="M260 -319l-90 -17q-23 -53 7.5 -86t111.5 -33q140 0 214 88.5t138 309.5q2 7 68 286l-11 4q-48 -100 -136.5 -164.5t-207.5 -64.5q-154 0 -232.5 92t-78.5 264q0 88 17.5 176t57 172t96.5 148.5t141.5 103.5t185.5 39q180 0 254 -157l36 133q129 0 224 14
q-32 -151 -176 -956q-26 -145 -80 -251.5t-132 -170t-171.5 -93.5t-206.5 -30q-146 0 -231 53t-85 154q0 74 44 120t118 46q64 0 101.5 -44.5t23.5 -135.5zM428 94q91 0 167.5 84.5t118.5 215.5t42 272q0 266 -174 266q-60 0 -108.5 -31t-79.5 -83.5t-53 -114t-33 -132
t-16 -127t-5 -108.5q0 -127 32 -184.5t109 -57.5zM760 1606l28 -47q-62 -35 -113.5 -90t-51.5 -97q0 -43 36 -55l62 53q26 -12 44.5 -38t18.5 -62q0 -56 -41.5 -91.5t-99.5 -35.5q-67 0 -101 40t-34 97q0 98 66 175.5t186 150.5z" />
    <glyph glyph-name="Hcircumflex" unicode="&#x124;" horiz-adv-x="1531" 
d="M233 1434h541l-10 -60h-146l-100 -604h551l100 604h-145l10 60h537l-10 -60h-142l-219 -1315h146l-11 -59h-542l10 59h147l107 637h-551l-107 -637h148l-12 -59h-537l10 59h142l219 1315h-146zM594 1522l289 282q46 23 82 23q35 0 56.5 -16.5t43.5 -53.5l143 -239
l-26 -23l-242 164l-328 -168z" />
    <glyph glyph-name="hcircumflex" unicode="&#x125;" horiz-adv-x="1189" 
d="M885 -23q-100 0 -154.5 48t-54.5 141q0 61 23 161t57.5 223.5t46.5 176.5q14 57 14 100q0 40 -16.5 59t-52.5 19q-95 0 -189 -115.5t-149 -275.5q-64 -191 -97 -508q-48 2 -131 -4.5t-125 -15.5l80 370l176 1127h-153l6 53h387l-186 -911l12 -7q29 59 58 108t71 101.5
t86.5 88.5t103 59.5t121.5 23.5q107 0 162 -55t55 -158q0 -61 -16 -133q-101 -396 -107 -422q-18 -74 -18 -110q0 -64 57 -64q64 0 135 95l43 -35q-96 -140 -245 -140zM76 1595l289 283q46 23 81 23t57 -16.5t44 -53.5l143 -240l-26 -22l-242 164l-328 -168z" />
    <glyph glyph-name="Hbar" unicode="&#x126;" horiz-adv-x="1531" 
d="M233 1434h541l-10 -60h-146l-45 -272h551l45 272h-145l10 60h537l-10 -60h-142l-45 -272h152l-10 -60h-152l-164 -983h146l-11 -59h-542l10 59h147l107 637h-551l-107 -637h148l-12 -59h-537l10 59h142l163 983h-153l10 60h154l45 272h-146zM518 770h551l45 272h-551z
" />
    <glyph glyph-name="hbar" unicode="&#x127;" horiz-adv-x="1177" 
d="M874 -23q-100 0 -153 48t-53 143q0 64 21.5 161t57 220.5t46.5 171.5q24 95 10 139.5t-70 44.5q-93 0 -185.5 -114t-146.5 -275q-66 -193 -98 -510q-48 2 -132 -4.5t-126 -15.5l86 381l131 827h-160l11 53h157l37 236h-157l6 53h391l-62 -289h379l-10 -53h-379l-117 -567
l15 -6q178 378 438 378q106 0 160.5 -56.5t54.5 -160.5q0 -67 -20 -137q-9 -37 -34 -135t-45.5 -182t-27.5 -119q-12 -50 -12 -86q0 -66 61 -66q54 0 131 93l41 -33q-92 -140 -246 -140z" />
    <glyph glyph-name="Itilde" unicode="&#x128;" horiz-adv-x="731" 
d="M242 1434h532l-10 -60h-141l-228 -1315h144l-11 -59h-530l10 59h137l228 1315h-142zM657 1575q-72 0 -176 47q-79 33 -116 33q-66 0 -117 -88l-37 12q53 115 105.5 169t138.5 54q17 0 34 -2t28.5 -4.5t28.5 -9t25 -9.5t27.5 -12t26.5 -12q76 -31 112 -31q37 0 64.5 18
t56.5 70l39 -12q-52 -120 -110 -171.5t-130 -51.5z" />
    <glyph glyph-name="itilde" unicode="&#x129;" horiz-adv-x="616" 
d="M504 154l45 -33q-48 -72 -105.5 -108t-136.5 -36q-209 0 -209 193q0 66 31 215q12 52 61 276t58 265h-164l10 53h393q-18 -77 -84 -403.5t-71 -358.5q-13 -60 -13 -92q0 -37 14.5 -52.5t43.5 -15.5q31 0 59 22t68 75zM481 1188q-74 0 -178 47q-75 33 -117 33
q-63 0 -114 -88l-37 14q51 114 104.5 167.5t139.5 53.5q17 0 34 -2.5t27.5 -4.5t29 -9t23.5 -9t27.5 -12.5t25.5 -11.5q76 -31 113 -31q38 0 65 18.5t56 69.5l39 -12q-52 -120 -109.5 -171.5t-128.5 -51.5z" />
    <glyph glyph-name="Imacron" unicode="&#x12a;" horiz-adv-x="731" 
d="M242 1434h532l-10 -60h-141l-228 -1315h144l-11 -59h-530l10 59h137l228 1315h-142zM248 1593l20 121h557l-20 -121h-557z" />
    <glyph glyph-name="imacron" unicode="&#x12b;" horiz-adv-x="616" 
d="M504 154l45 -33q-48 -72 -105.5 -108t-136.5 -36q-209 0 -209 193q0 66 31 215q12 52 61 276t58 265h-164l10 53h393q-18 -77 -84 -403.5t-71 -358.5q-13 -60 -13 -92q0 -37 14.5 -52.5t43.5 -15.5q31 0 59 22t68 75zM68 1210l20 121h557l-20 -121h-557z" />
    <glyph glyph-name="Ibreve" unicode="&#x12c;" horiz-adv-x="731" 
d="M242 1434h532l-10 -60h-141l-228 -1315h144l-11 -59h-530l10 59h137l228 1315h-142zM287 1778l45 8q14 -73 61.5 -106t155.5 -33q105 0 163.5 32.5t94.5 106.5l43 -6q-15 -54 -38 -99t-61 -88t-97 -67.5t-134 -24.5q-58 0 -101.5 16.5t-69 42.5t-41 63t-20 74.5
t-1.5 80.5z" />
    <glyph glyph-name="ibreve" unicode="&#x12d;" horiz-adv-x="616" 
d="M504 154l45 -33q-48 -72 -105.5 -108t-136.5 -36q-209 0 -209 193q0 66 31 215q12 52 61 276t58 265h-164l10 53h393q-18 -77 -84 -403.5t-71 -358.5q-13 -60 -13 -92q0 -37 14.5 -52.5t43.5 -15.5q31 0 59 22t68 75zM135 1430l47 8q15 -90 63 -135.5t152 -45.5
q98 0 158 47t100 134l43 -11q-13 -59 -38 -111.5t-64 -99.5t-98 -74.5t-131 -27.5q-252 0 -232 316z" />
    <glyph glyph-name="Iogonek" unicode="&#x12e;" horiz-adv-x="735" 
d="M242 1434h532l-10 -60h-141l-228 -1315h144l-11 -59h-170q-194 -144 -194 -293q0 -82 69 -82q58 0 117 84l39 -26q-16 -27 -32.5 -48t-46 -47.5t-72 -41.5t-93.5 -15q-84 0 -130 38.5t-46 106.5q0 54 25.5 102.5t73 89t94.5 70.5t110 62h-274l10 59h137l228 1315h-142z
" />
    <glyph glyph-name="iogonek" unicode="&#x12f;" horiz-adv-x="616" 
d="M504 154l45 -33q-50 -75 -125 -121q-86 -51 -143.5 -129t-57.5 -164q0 -37 17.5 -59.5t52.5 -22.5t61.5 21t57.5 63l37 -26q-86 -152 -242 -152q-85 0 -130.5 38.5t-45.5 106.5q0 92 70.5 164.5t187.5 136.5q-191 9 -191 193q0 66 31 215q12 52 61 276t58 265h-164l10 53
h393q-18 -77 -84 -403.5t-71 -358.5q-13 -63 -13 -96q0 -64 58 -64q31 0 59 22t68 75zM379 1167q-131 0 -131 119q0 69 47 115.5t123 46.5q61 0 96 -29t35 -90q0 -71 -46.5 -116.5t-123.5 -45.5z" />
    <glyph glyph-name="Idotaccent" unicode="&#x130;" horiz-adv-x="731" 
d="M242 1434h532l-10 -60h-141l-228 -1315h144l-11 -59h-530l10 59h137l228 1315h-142zM524 1546q-129 0 -129 119q0 69 46 114.5t124 45.5q129 0 129 -117q0 -71 -46.5 -116.5t-123.5 -45.5z" />
    <glyph glyph-name="dotlessi" unicode="&#x131;" horiz-adv-x="616" 
d="M504 154l45 -33q-48 -72 -105.5 -108t-136.5 -36q-209 0 -209 193q0 66 31 215q12 52 61 276t58 265h-164l10 53h393q-18 -77 -84 -403.5t-71 -358.5q-13 -60 -13 -92q0 -37 14.5 -52.5t43.5 -15.5q31 0 59 22t68 75z" />
    <glyph glyph-name="IJ" unicode="&#x132;" horiz-adv-x="1710" 
d="M242 1434h532l-10 -60h-141l-228 -1315h144l-11 -59h-530l10 59h137l228 1315h-142zM1235 1434h563l-10 -58h-135l-160 -952q-73 -447 -487 -447q-142 0 -211.5 57.5t-69.5 149.5q0 82 47.5 134.5t128.5 52.5q64 0 95.5 -33t30.5 -80.5t-26 -103.5h-77q-17 -31 -17 -56
q0 -31 24 -49t70 -18q92 0 144 61.5t80 222.5l178 1059h-178z" />
    <glyph glyph-name="Jcircumflex" unicode="&#x134;" horiz-adv-x="1001" 
d="M500 1434h563l-10 -58h-135l-160 -952q-73 -447 -488 -447q-142 0 -211 57.5t-69 149.5q0 82 47.5 134.5t128.5 52.5q64 0 95.5 -33t30.5 -80.5t-26 -103.5h-78q-16 -29 -16 -56q0 -31 24 -49t70 -18q92 0 143.5 61.5t79.5 222.5l179 1059h-179zM483 1522l289 282
q46 23 82 23q35 0 56.5 -16.5t43.5 -53.5l144 -239l-27 -23l-242 164l-327 -168z" />
    <glyph glyph-name="jcircumflex" unicode="&#x135;" horiz-adv-x="573" 
d="M-127 -324l-78 -12q-24 -62 -3.5 -93.5t73.5 -31.5q32 0 57 9.5t44 34t31.5 50.5t25 76.5t20.5 93t20 117.5l164 1006h-161l10 53h393l-158 -977q-15 -90 -36.5 -162.5t-58 -140t-85 -112.5t-119 -72t-157.5 -27q-106 0 -178 54t-72 145q0 70 42.5 118t114.5 48
q65 0 100.5 -50.5t10.5 -126.5zM31 1133l245 346q12 9 43 18.5t56 9.5q69 0 90 -71l96 -310l-33 -18l-184 227l-285 -231z" />
    <glyph glyph-name="Kcommaaccent" unicode="&#x136;" horiz-adv-x="1333" 
d="M238 1434h532l-10 -60h-142l-106 -635l84 29l584 606h-154l10 60h371l-10 -60h-125l-479 -508l350 -807h110l-10 -59h-524l8 59h141l-266 639l-102 -32l-103 -607h142l-11 -59h-526l10 59h138l219 1315h-140zM477 -571l-31 45q58 36 104 87.5t46 92.5q0 42 -35 53
l-59 -53q-25 12 -44.5 38t-19.5 60q0 55 38.5 90t96.5 35q65 0 98.5 -40.5t33.5 -96.5q0 -95 -59.5 -168t-168.5 -143z" />
    <glyph glyph-name="kcommaaccent" unicode="&#x137;" horiz-adv-x="1093" 
d="M993 154l43 -29q-95 -148 -237 -148q-101 0 -159 42.5t-58 125.5q0 35 12 78l31 113q19 69 -5.5 105t-89.5 36q-80 0 -172 -45l-67 -424q-49 0 -124.5 -7.5t-119.5 -18.5l94 436l158 1065h-160l8 53h394l-179 -1034l177 96q120 64 177.5 117t53.5 98l-78 31
q-10 72 28 121t120 49q68 0 103.5 -39.5t35.5 -95.5q0 -108 -137 -181q-25 -16 -83 -46.5t-130.5 -68t-89.5 -46.5l6 -11q67 13 114 13q126 0 168 -60t17 -162l-41 -163q-23 -99 57 -99q36 0 66 23t67 76zM328 -571l-31 45q58 36 103.5 87.5t45.5 92.5q0 42 -34 53l-60 -53
q-25 12 -44 38t-19 60q0 55 38.5 90t96.5 35q65 0 98 -40.5t33 -96.5q0 -95 -59 -168t-168 -143z" />
    <glyph glyph-name="kgreenlandic" unicode="&#x138;" horiz-adv-x="1093" 
d="M993 154l43 -29q-95 -148 -237 -148q-122 0 -178.5 63t-26.5 183l31 113q35 141 -95 141q-80 0 -172 -45l-67 -424q-49 0 -124.5 -7.5t-119.5 -18.5l94 436l68 504h-158l8 53h385l-82 -473l177 96q120 64 177.5 117t53.5 98l-78 31q-10 70 28 120t120 50
q68 0 103.5 -39.5t35.5 -95.5q0 -108 -137 -181q-25 -16 -83 -46.5t-130.5 -68t-89.5 -46.5l6 -11q67 13 114 13q126 0 169 -61t16 -161q-2 -13 -11.5 -53t-17.5 -73.5t-8 -36.5q-10 -49 2 -74t51 -25q36 0 66 23t67 76z" />
    <glyph glyph-name="Lacute" unicode="&#x139;" horiz-adv-x="1161" 
d="M233 1434h596l-10 -60h-201l-221 -1315h127q222 0 330 85.5t188 318.5h48l-95 -463h-997l8 59h144l219 1315h-146zM338 1528l309 325l70 -18q69 -16 69 -76q0 -62 -94 -106l-332 -154z" />
    <glyph glyph-name="lacute" unicode="&#x13a;" horiz-adv-x="604" 
d="M506 156l47 -33q-52 -75 -110 -110.5t-134 -35.5q-103 0 -158 51.5t-55 149.5q0 79 72 461l162 844h-158l8 53h393q-26 -119 -126 -658.5t-119 -660.5q-15 -69 -7 -114.5t54 -45.5q33 0 63.5 23t67.5 76zM203 1618l309 326l70 -19q69 -16 69 -76q0 -62 -94 -106
l-332 -154z" />
    <glyph glyph-name="Lcommaaccent" unicode="&#x13b;" horiz-adv-x="1161" 
d="M233 1434h596l-10 -60h-201l-221 -1315h127q222 0 330 85.5t188 318.5h48l-95 -463h-997l8 59h144l219 1315h-146zM436 -571l-30 45q58 36 103.5 87.5t45.5 92.5q0 42 -35 53l-59 -53q-25 12 -44.5 38t-19.5 60q0 55 38.5 90t96.5 35q65 0 98.5 -40.5t33.5 -96.5
q0 -95 -59.5 -168t-168.5 -143z" />
    <glyph glyph-name="lcommaaccent" unicode="&#x13c;" horiz-adv-x="604" 
d="M506 156l47 -33q-52 -75 -110 -110.5t-134 -35.5q-103 0 -158 51.5t-55 149.5q0 79 72 461l162 844h-158l8 53h393q-26 -119 -126 -658.5t-119 -660.5q-15 -69 -7 -114.5t54 -45.5q33 0 63.5 23t67.5 76zM158 -571l-31 45q58 36 103.5 87.5t45.5 92.5q0 42 -34 53
l-60 -53q-25 12 -44 38t-19 60q0 55 38.5 90t96.5 35q65 0 98 -40.5t33 -96.5q0 -95 -59 -168t-168 -143z" />
    <glyph glyph-name="Lcaron" unicode="&#x13d;" horiz-adv-x="1161" 
d="M233 1434h596l-10 -60h-201l-221 -1315h127q222 0 330 85.5t188 318.5h48l-95 -463h-997l8 59h144l219 1315h-146zM913 983l-30 37q137 104 137 217q0 75 -66 129l43 43q46 49 99 49q49 0 73.5 -31.5t24.5 -83.5q0 -53 -24 -105t-69 -99t-87.5 -81.5t-100.5 -74.5z" />
    <glyph glyph-name="lcaron" unicode="&#x13e;" horiz-adv-x="710" 
d="M506 156l47 -33q-52 -75 -110 -110.5t-134 -35.5q-103 0 -158 51.5t-55 149.5q0 79 72 461l162 844h-158l8 53h393q-26 -119 -126 -658.5t-119 -660.5q-15 -69 -7 -114.5t54 -45.5q33 0 63.5 23t67.5 76zM584 1071l-31 37q137 104 137 217q0 76 -65 129l43 43
q46 49 98 49q49 0 73.5 -31t24.5 -83q0 -54 -24 -106t-68.5 -98.5t-87.5 -82t-100 -74.5z" />
    <glyph glyph-name="Ldot" unicode="&#x13f;" horiz-adv-x="1161" 
d="M233 1434h596l-10 -60h-201l-221 -1315h127q222 0 330 85.5t188 318.5h48l-95 -463h-997l8 59h144l219 1315h-146zM954 682q-129 0 -129 119q0 69 46 114.5t124 45.5q129 0 129 -117q0 -71 -46.5 -116.5t-123.5 -45.5z" />
    <glyph glyph-name="ldot" unicode="&#x140;" horiz-adv-x="710" 
d="M506 156l47 -33q-52 -75 -110 -110.5t-134 -35.5q-103 0 -158 51.5t-55 149.5q0 79 72 461l162 844h-158l8 53h393q-26 -119 -126 -658.5t-119 -660.5q-15 -69 -7 -114.5t54 -45.5q33 0 63.5 23t67.5 76zM657 692q-129 0 -129 119q0 69 46 115.5t124 46.5q129 0 129 -119
q0 -71 -46.5 -116.5t-123.5 -45.5z" />
    <glyph glyph-name="Lslash" unicode="&#x141;" horiz-adv-x="1161" 
d="M233 1434h596l-10 -60h-201l-100 -586l436 199l19 -65l-467 -211l-109 -652h127q222 0 330 85.5t188 318.5h48l-95 -463h-997l8 59h144l90 549l-199 -90l-21 66l234 106l115 684h-146z" />
    <glyph glyph-name="lslash" unicode="&#x142;" horiz-adv-x="604" 
d="M2 651l-22 62l221 100q13 62 39 198.5t54.5 287t35.5 184.5h-160l8 53h393q-7 -35 -28.5 -147t-50 -265.5t-39.5 -210.5l188 86l23 -61l-226 -107l-110 -614q-16 -69 -8 -114.5t53 -45.5q34 0 64 22.5t69 76.5l45 -33q-52 -75 -110 -110.5t-134 -35.5q-103 0 -157 51.5
t-54 149.5q0 79 72 461l18 96z" />
    <glyph glyph-name="Nacute" unicode="&#x143;" horiz-adv-x="1415" 
d="M1313 1374l-232 -1384h-125l-526 1339h-2l-211 -1270h139l-10 -59h-350l10 59h139l220 1315h-142l10 60h429l413 -1051h2l166 991h-137l10 60h344l-10 -60h-137zM705 1522l309 325l69 -18q70 -16 70 -76q0 -62 -94 -106l-332 -154z" />
    <glyph glyph-name="nacute" unicode="&#x144;" horiz-adv-x="1189" 
d="M885 -23q-100 0 -154.5 48t-54.5 141q0 73 63 315l64 246q14 57 14 100q0 40 -16.5 59t-52.5 19q-95 0 -189 -115.5t-149 -275.5q-64 -191 -97 -508q-48 2 -131 -4.5t-125 -15.5l80 370l74 570h-154l6 53h388l-84 -354l12 -7q29 59 58 108t71 101.5t86.5 88.5t103 59.5
t121.5 23.5q106 0 161.5 -56.5t55.5 -160.5q0 -57 -16 -129q-66 -245 -107 -422q-16 -66 -16 -110q0 -64 55 -64q64 0 135 95l43 -35q-96 -140 -245 -140zM530 1122l187 375l90 16q36 8 66 -8t30 -55q0 -49 -59 -102l-283 -248z" />
    <glyph glyph-name="Ncommaaccent" unicode="&#x145;" horiz-adv-x="1415" 
d="M1313 1374l-232 -1384h-125l-526 1339h-2l-211 -1270h139l-10 -59h-350l10 59h139l220 1315h-142l10 60h429l413 -1051h2l166 991h-137l10 60h344l-10 -60h-137zM520 -571l-31 45q58 36 104 87.5t46 92.5q0 42 -35 53l-59 -53q-25 12 -44.5 38t-19.5 60q0 55 38.5 90
t96.5 35q65 0 98.5 -40.5t33.5 -96.5q0 -95 -59.5 -168t-168.5 -143z" />
    <glyph glyph-name="ncommaaccent" unicode="&#x146;" horiz-adv-x="1189" 
d="M885 -23q-100 0 -154.5 48t-54.5 141q0 73 63 315l64 246q14 57 14 100q0 40 -16.5 59t-52.5 19q-95 0 -189 -115.5t-149 -275.5q-64 -191 -97 -508q-48 2 -131 -4.5t-125 -15.5l80 370l74 570h-154l6 53h388l-84 -354l12 -7q29 59 58 108t71 101.5t86.5 88.5t103 59.5
t121.5 23.5q106 0 161.5 -56.5t55.5 -160.5q0 -57 -16 -129q-66 -245 -107 -422q-16 -66 -16 -110q0 -64 55 -64q64 0 135 95l43 -35q-96 -140 -245 -140zM385 -571l-31 45q58 36 104 87.5t46 92.5q0 42 -35 53l-59 -53q-25 12 -44.5 38t-19.5 60q0 55 38.5 90t96.5 35
q65 0 98 -40.5t33 -96.5q0 -95 -59 -168t-168 -143z" />
    <glyph glyph-name="Ncaron" unicode="&#x147;" horiz-adv-x="1415" 
d="M1313 1374l-232 -1384h-125l-526 1339h-2l-211 -1270h139l-10 -59h-350l10 59h139l220 1315h-142l10 60h429l413 -1051h2l166 991h-137l10 60h344l-10 -60h-137zM1251 1821l-295 -285q-45 -18 -79 -18q-35 0 -54 14t-43 51l-149 242l28 24l250 -170l322 170z" />
    <glyph glyph-name="ncaron" unicode="&#x148;" horiz-adv-x="1189" 
d="M885 -23q-100 0 -154.5 48t-54.5 141q0 73 63 315l64 246q14 57 14 100q0 40 -16.5 59t-52.5 19q-95 0 -189 -115.5t-149 -275.5q-64 -191 -97 -508q-48 2 -131 -4.5t-125 -15.5l80 370l74 570h-154l6 53h388l-84 -354l12 -7q29 59 58 108t71 101.5t86.5 88.5t103 59.5
t121.5 23.5q106 0 161.5 -56.5t55.5 -160.5q0 -57 -16 -129q-66 -245 -107 -422q-16 -66 -16 -110q0 -64 55 -64q64 0 135 95l43 -35q-96 -140 -245 -140zM573 1143l-133 348l33 20l205 -231l283 236l24 -25l-203 -305q-47 -68 -123 -68q-24 0 -50 8t-36 17z" />
    <glyph glyph-name="napostrophe" unicode="&#x149;" horiz-adv-x="1189" 
d="M885 -23q-100 0 -154.5 48t-54.5 141q0 73 63 315l64 246q14 57 14 100q0 40 -16.5 59t-52.5 19q-95 0 -189 -115.5t-149 -275.5q-64 -191 -97 -508q-48 2 -131 -4.5t-125 -15.5l80 370l74 570h-154l6 53h388l-84 -354l12 -7q29 59 58 108t71 101.5t86.5 88.5t103 59.5
t121.5 23.5q106 0 161.5 -56.5t55.5 -160.5q0 -57 -16 -129q-66 -245 -107 -422q-16 -66 -16 -110q0 -64 55 -64q64 0 135 95l43 -35q-96 -140 -245 -140zM-86 940l-31 43q59 38 104.5 89.5t45.5 92.5q0 43 -35 54l-59 -56q-25 12 -44.5 39.5t-19.5 61.5q0 55 38.5 88.5
t96.5 33.5q65 0 98 -39.5t33 -97.5q0 -94 -59.5 -166.5t-167.5 -142.5z" />
    <glyph glyph-name="Eng" unicode="&#x14a;" horiz-adv-x="1415" 
d="M1462 1434l-10 -60h-137l-225 -1349q-67 -441 -459 -441q-134 0 -200 57t-66 150q0 81 46.5 133.5t127.5 52.5q49 0 79.5 -19t40 -51t5 -70t-22.5 -79h-76q-14 -22 -14 -53q-2 -31 17.5 -48t58.5 -17q91 0 150 61t85 217l35 215l-465 1196h-2l-211 -1270h139l-10 -59
h-350l10 59h139l220 1315h-142l11 60h428l413 -1051h2l166 991h-137l10 60h344z" />
    <glyph glyph-name="eng" unicode="&#x14b;" horiz-adv-x="1167" 
d="M662 -80l145 823q15 83 2.5 122.5t-61.5 39.5q-95 0 -189 -115.5t-149 -275.5q-64 -191 -97 -508q-48 2 -131 -4.5t-125 -15.5l80 370l74 570h-154l6 53h388l-84 -354l12 -7q29 59 58 108t71 101.5t86.5 88.5t103 59.5t121.5 23.5q69 0 116.5 -24.5t69 -66t28 -97
t-6.5 -117.5l-121 -692q-16 -91 -37.5 -163t-57.5 -139.5t-84 -112.5t-118 -72t-157 -27q-106 0 -178 54t-72 145q0 71 41.5 118.5t115.5 47.5q65 0 100 -50.5t11 -126.5l-80 -12q-22 -62 -1.5 -93.5t73.5 -31.5q32 0 56.5 9.5t43.5 34t32 50.5t26 76.5t21.5 92.5t21.5 118z
" />
    <glyph glyph-name="Omacron" unicode="&#x14c;" horiz-adv-x="1392" 
d="M70 532q0 131 30 260.5t93.5 249.5t153 212t218 147t279.5 55q243 0 370 -142t127 -411q0 -107 -20 -214.5t-60 -212t-104 -194.5t-145.5 -158.5t-193 -107.5t-238.5 -39q-250 0 -380 142.5t-130 412.5zM600 43q83 0 153.5 37t119 97.5t87 144.5t61.5 171t38 183
t20.5 175.5t5.5 154.5q0 198 -58 291.5t-206 93.5q-86 0 -158 -35.5t-122 -94t-89 -140t-62.5 -166t-38 -180t-20 -174.5t-5.5 -155q0 -403 274 -403zM590 1593l20 121h557l-20 -121h-557z" />
    <glyph glyph-name="omacron" unicode="&#x14d;" horiz-adv-x="1054" 
d="M434 31q56 0 102 26.5t76.5 68t54 100.5t36.5 117.5t21 125.5t10.5 116.5t2.5 98.5q0 135 -39 200.5t-131 65.5q-62 0 -112.5 -35t-82.5 -94.5t-55 -128t-34 -145.5t-16 -136.5t-5 -111.5q0 -132 40.5 -200t131.5 -68zM414 -23q-191 0 -287 101t-96 284q0 122 36.5 234.5
t104.5 203t177 145t243 54.5q190 0 285.5 -99t95.5 -282q0 -127 -37.5 -241.5t-106.5 -204t-176.5 -142.5t-238.5 -53zM340 1210l20 121h558l-21 -121h-557z" />
    <glyph glyph-name="Obreve" unicode="&#x14e;" horiz-adv-x="1392" 
d="M70 532q0 131 30 260.5t93.5 249.5t153 212t218 147t279.5 55q243 0 370 -142t127 -411q0 -107 -20 -214.5t-60 -212t-104 -194.5t-145.5 -158.5t-193 -107.5t-238.5 -39q-250 0 -380 142.5t-130 412.5zM600 43q83 0 153.5 37t119 97.5t87 144.5t61.5 171t38 183
t20.5 175.5t5.5 154.5q0 198 -58 291.5t-206 93.5q-86 0 -158 -35.5t-122 -94t-89 -140t-62.5 -166t-38 -180t-20 -174.5t-5.5 -155q0 -403 274 -403zM621 1796l45 8q14 -73 61.5 -106t155.5 -33q105 0 163.5 32.5t94.5 106.5l43 -6q-15 -54 -38 -99t-61 -87.5t-97 -67
t-134 -24.5q-58 0 -101.5 16t-69 42.5t-41 63.5t-20 74t-1.5 80z" />
    <glyph glyph-name="obreve" unicode="&#x14f;" horiz-adv-x="1054" 
d="M434 31q56 0 102 26.5t76.5 68t54 100.5t36.5 117.5t21 125.5t10.5 116.5t2.5 98.5q0 135 -39 200.5t-131 65.5q-62 0 -112.5 -35t-82.5 -94.5t-55 -128t-34 -145.5t-16 -136.5t-5 -111.5q0 -132 40.5 -200t131.5 -68zM414 -23q-191 0 -287 101t-96 284q0 122 36.5 234.5
t104.5 203t177 145t243 54.5q190 0 285.5 -99t95.5 -282q0 -127 -37.5 -241.5t-106.5 -204t-176.5 -142.5t-238.5 -53zM377 1430l47 8q15 -90 63 -135.5t152 -45.5q98 0 158 47t100 134l43 -11q-13 -59 -38 -111.5t-64 -99.5t-98.5 -74.5t-131.5 -27.5q-251 0 -231 316z" />
    <glyph glyph-name="Ohungarumlaut" unicode="&#x150;" horiz-adv-x="1392" 
d="M70 532q0 131 30 260.5t93.5 249.5t153 212t218 147t279.5 55q243 0 370 -142t127 -411q0 -107 -20 -214.5t-60 -212t-104 -194.5t-145.5 -158.5t-193 -107.5t-238.5 -39q-250 0 -380 142.5t-130 412.5zM600 43q83 0 153.5 37t119 97.5t87 144.5t61.5 171t38 183
t20.5 175.5t5.5 154.5q0 198 -58 291.5t-206 93.5q-86 0 -158 -35.5t-122 -94t-89 -140t-62.5 -166t-38 -180t-20 -174.5t-5.5 -155q0 -403 274 -403zM934 1534l242 350l81 -2q37 -2 59.5 -19.5t22.5 -47.5q0 -35 -18 -58.5t-59 -50.5l-304 -197zM621 1528l219 364l78 4
q41 3 66.5 -14t25.5 -51q0 -33 -17.5 -56t-52.5 -49l-289 -221z" />
    <glyph glyph-name="ohungarumlaut" unicode="&#x151;" horiz-adv-x="1054" 
d="M434 31q56 0 102 26.5t76.5 68t54 100.5t36.5 117.5t21 125.5t10.5 116.5t2.5 98.5q0 135 -39 200.5t-131 65.5q-62 0 -112.5 -35t-82.5 -94.5t-55 -128t-34 -145.5t-16 -136.5t-5 -111.5q0 -132 40.5 -200t131.5 -68zM414 -23q-191 0 -287 101t-96 284q0 122 36.5 234.5
t104.5 203t177 145t243 54.5q190 0 285.5 -99t95.5 -282q0 -127 -37.5 -241.5t-106.5 -204t-176.5 -142.5t-238.5 -53zM700 1145l183 387l86 18q38 8 66 -8.5t28 -54.5q0 -49 -62 -107l-268 -256zM385 1143l178 385l86 18q40 8 68 -6.5t28 -52.5q0 -29 -15 -52.5t-46 -52.5
l-264 -260z" />
    <glyph glyph-name="OE" unicode="&#x152;" horiz-adv-x="2037" 
d="M70 555q0 185 57 349t160 286.5t259 194t343 71.5q140 0 217 -22h915l-45 -390h-47q-1 75 -9.5 128.5t-29 90t-45.5 58.5t-68 34t-87 15.5t-111 3.5h-156l-102 -612h88q114 0 173 54.5t108 207.5h43l-103 -606h-45q4 168 -37 223t-168 55h-69l-107 -637h170q110 0 187 19
t135.5 65t99 113.5t78.5 173.5h45l-86 -430h-897q-153 -23 -301 -23q-122 0 -223 34.5t-178.5 103.5t-120.5 181.5t-43 258.5zM324 549q0 -122 17.5 -211t58.5 -158.5t114.5 -105t179.5 -35.5q76 0 149 16t120 39l204 1243q-112 56 -274 56q-100 0 -185 -36t-146 -99.5
t-107.5 -145.5t-74.5 -178t-42 -192t-14 -193z" />
    <glyph glyph-name="oe" unicode="&#x153;" horiz-adv-x="1615" 
d="M1473 340l55 -16q-52 -170 -166.5 -258.5t-274.5 -88.5q-115 0 -192.5 49.5t-112.5 129.5q-151 -179 -368 -179q-191 0 -287 101t-96 284q0 122 36.5 234.5t104 203t176 145t242.5 54.5q219 0 305 -180q160 180 369 180q138 0 214 -60.5t76 -174.5q0 -60 -23 -108
t-57.5 -79.5t-87 -56t-99 -38t-105.5 -25.5q-124 -23 -230 -27q0 -5 -1 -35t-1 -35q0 -161 49 -230t156 -69q62 0 117.5 23.5t110.5 88.5t90 167zM737 672q0 144 -38.5 211t-131.5 67q-84 0 -146.5 -63.5t-95 -165.5t-48 -208t-15.5 -214q0 -132 40.5 -200t131.5 -68
q56 0 102 27.5t76.5 70.5t54 103t36.5 118.5t21 123t10.5 111t2.5 87.5zM956 489q385 29 385 306q0 149 -110 149q-94 0 -172.5 -123.5t-102.5 -331.5z" />
    <glyph glyph-name="Racute" unicode="&#x154;" horiz-adv-x="1337" 
d="M715 739v-6q146 -20 215 -80.5t80 -203.5l14 -191q3 -42 5 -62.5t8 -49.5t14.5 -42.5t23.5 -23.5t37 -10q30 0 54 19t57 69l45 -29q-27 -45 -53 -74.5t-76.5 -53.5t-114.5 -24q-226 0 -246 242l-18 211q-5 60 -12 98.5t-21 76t-35.5 58.5t-56.5 33.5t-84 12.5h-43
l-111 -650h181l-7 -59h-581l6 59h151l224 1315h-154l8 60h467q68 0 125.5 -4.5t120.5 -15.5t111 -32.5t88 -53t61 -79.5t21 -110q0 -95 -38.5 -168.5t-108.5 -121t-159 -74.5t-198 -36zM621 1374l-101 -610h33q79 0 148 23t123.5 67.5t86 117.5t31.5 167q0 125 -67 180
t-213 55h-41zM559 1528l309 325l70 -18q70 -16 70 -76q0 -35 -25 -60t-70 -46l-331 -154z" />
    <glyph glyph-name="racute" unicode="&#x155;" horiz-adv-x="966" 
d="M51 -16l92 419l74 523h-158l11 53h379l-93 -391l13 -6q23 51 40.5 86.5t43.5 82.5t49.5 79.5t55.5 66.5t64.5 54.5t73 34t84.5 13.5q78 0 126 -35.5t48 -113.5q0 -76 -43.5 -117t-111.5 -43q-43 0 -86 15l-6 135q-68 15 -135.5 -52t-117 -173.5t-85.5 -239.5
q-34 -124 -58 -365q-145 -4 -260 -26zM362 1122l187 375l90 16q36 8 66 -8t30 -55q0 -49 -59 -102l-283 -248z" />
    <glyph glyph-name="Rcommaaccent" unicode="&#x156;" horiz-adv-x="1337" 
d="M715 739v-6q146 -20 215 -80.5t80 -203.5l14 -191q3 -42 5 -62.5t8 -49.5t14.5 -42.5t23.5 -23.5t37 -10q30 0 54 19t57 69l45 -29q-27 -45 -53 -74.5t-76.5 -53.5t-114.5 -24q-226 0 -246 242l-18 211q-5 60 -12 98.5t-21 76t-35.5 58.5t-56.5 33.5t-84 12.5h-43
l-111 -650h181l-7 -59h-581l6 59h151l224 1315h-154l8 60h467q68 0 125.5 -4.5t120.5 -15.5t111 -32.5t88 -53t61 -79.5t21 -110q0 -95 -38.5 -168.5t-108.5 -121t-159 -74.5t-198 -36zM621 1374l-101 -610h33q79 0 148 23t123.5 67.5t86 117.5t31.5 167q0 125 -67 180
t-213 55h-41zM467 -571l-31 45q58 36 104 87.5t46 92.5q0 42 -35 53l-59 -53q-25 12 -44.5 38t-19.5 60q0 55 38.5 90t96.5 35q65 0 98 -40.5t33 -96.5q0 -95 -59 -168t-168 -143z" />
    <glyph glyph-name="rcommaaccent" unicode="&#x157;" horiz-adv-x="966" 
d="M51 -16l92 419l74 523h-158l11 53h379l-93 -391l13 -6q23 51 40.5 86.5t43.5 82.5t49.5 79.5t55.5 66.5t64.5 54.5t73 34t84.5 13.5q78 0 126 -35.5t48 -113.5q0 -76 -43.5 -117t-111.5 -43q-43 0 -86 15l-6 135q-68 15 -135.5 -52t-117 -173.5t-85.5 -239.5
q-34 -124 -58 -365q-145 -4 -260 -26zM61 -571l-30 45q58 36 103.5 87.5t45.5 92.5q0 42 -35 53l-59 -53q-25 12 -44 38t-19 60q0 55 38.5 90t96.5 35q65 0 98 -40.5t33 -96.5q0 -95 -59.5 -168t-168.5 -143z" />
    <glyph glyph-name="Rcaron" unicode="&#x158;" horiz-adv-x="1337" 
d="M715 739v-6q146 -20 215 -80.5t80 -203.5l14 -191q3 -42 5 -62.5t8 -49.5t14.5 -42.5t23.5 -23.5t37 -10q30 0 54 19t57 69l45 -29q-27 -45 -53 -74.5t-76.5 -53.5t-114.5 -24q-226 0 -246 242l-18 211q-5 60 -12 98.5t-21 76t-35.5 58.5t-56.5 33.5t-84 12.5h-43
l-111 -650h181l-7 -59h-581l6 59h151l224 1315h-154l8 60h467q68 0 125.5 -4.5t120.5 -15.5t111 -32.5t88 -53t61 -79.5t21 -110q0 -95 -38.5 -168.5t-108.5 -121t-159 -74.5t-198 -36zM621 1374l-101 -610h33q79 0 148 23t123.5 67.5t86 117.5t31.5 167q0 125 -67 180
t-213 55h-41zM1104 1821l-295 -285q-45 -18 -80 -18t-53.5 14t-42.5 51l-150 242l29 24l250 -170l321 170z" />
    <glyph glyph-name="rcaron" unicode="&#x159;" horiz-adv-x="966" 
d="M51 -16l92 419l74 523h-158l11 53h379l-93 -391l13 -6q23 51 40.5 86.5t43.5 82.5t49.5 79.5t55.5 66.5t64.5 54.5t73 34t84.5 13.5q78 0 126 -35.5t48 -113.5q0 -76 -43.5 -117t-111.5 -43q-43 0 -86 15l-6 135q-68 15 -135.5 -52t-117 -173.5t-85.5 -239.5
q-34 -124 -58 -365q-145 -4 -260 -26zM408 1143l-134 348l33 20l205 -231l283 236l24 -25l-203 -305q-47 -68 -122 -68q-24 0 -50 8t-36 17z" />
    <glyph glyph-name="Sacute" unicode="&#x15a;" horiz-adv-x="1099" 
d="M500 37q133 0 221 76.5t88 220.5q0 34 -9 64t-20.5 51.5t-37 43.5t-42.5 34.5t-55 30.5t-57.5 26t-63.5 26q-4 2 -5.5 2.5l-4.5 1.5t-5.5 2t-4.5 2q-38 15 -64 26.5t-62.5 31.5t-61.5 40t-52.5 50.5t-43.5 64.5t-27 80.5t-11 100.5q0 190 133 317t338 127q71 0 141 -21
t118 -42t63 -21q20 0 33 15t30 51h37l-59 -424h-47q-19 197 -97.5 291t-216.5 94q-74 0 -136.5 -25.5t-105 -84.5t-42.5 -144q0 -48 14 -87.5t34 -66t54 -51t64 -39.5t73 -33q143 -59 168 -71q141 -70 191 -175q32 -70 32 -161q0 -143 -68 -255t-180.5 -170.5t-248.5 -58.5
q-71 0 -140.5 15t-112.5 32.5t-82 32.5t-56 15q-20 0 -33.5 -18t-36.5 -68h-37l64 467h47q16 -193 108.5 -304.5t274.5 -111.5zM494 1522l309 325l69 -18q70 -16 70 -76q0 -62 -94 -106l-332 -154z" />
    <glyph glyph-name="sacute" unicode="&#x15b;" horiz-adv-x="913" 
d="M348 41q107 0 171.5 47.5t64.5 136.5q0 37 -14 64.5t-45.5 48.5t-57 33t-72.5 30l-56 21t-51.5 22.5t-51.5 28.5t-41 34.5t-36.5 46t-20.5 56.5t-9 72q0 146 123.5 231.5t300.5 85.5q140 0 223.5 -51.5t83.5 -150.5q0 -66 -37 -108t-108 -42q-49 0 -82 24t-33 64
q0 49 31 88h61q8 19 8 39q0 37 -36 58.5t-103 21.5q-105 0 -172 -49t-67 -131q0 -32 14 -58t44 -47t58 -35t74 -32q34 -13 50.5 -20t48.5 -21t49 -25t42 -28.5t38.5 -35.5t28 -41t20.5 -51t6 -59q0 -150 -126.5 -241t-320.5 -91q-165 0 -250.5 63t-85.5 163q0 70 40.5 112.5
t111.5 42.5q49 0 79.5 -28t30.5 -72q0 -47 -26 -82h-66q-8 -16 -8 -39q0 -44 43.5 -70t130.5 -26zM428 1122l186 375l91 16q36 8 66 -8t30 -55q0 -48 -60 -102l-282 -248z" />
    <glyph glyph-name="Scircumflex" unicode="&#x15c;" horiz-adv-x="1099" 
d="M500 37q133 0 221 76.5t88 220.5q0 34 -9 64t-20.5 51.5t-37 43.5t-42.5 34.5t-55 30.5t-57.5 26t-63.5 26q-4 2 -5.5 2.5l-4.5 1.5t-5.5 2t-4.5 2q-38 15 -64 26.5t-62.5 31.5t-61.5 40t-52.5 50.5t-43.5 64.5t-27 80.5t-11 100.5q0 190 133 317t338 127q71 0 141 -21
t118 -42t63 -21q20 0 33 15t30 51h37l-59 -424h-47q-19 197 -97.5 291t-216.5 94q-74 0 -136.5 -25.5t-105 -84.5t-42.5 -144q0 -48 14 -87.5t34 -66t54 -51t64 -39.5t73 -33q143 -59 168 -71q141 -70 191 -175q32 -70 32 -161q0 -143 -68 -255t-180.5 -170.5t-248.5 -58.5
q-71 0 -140.5 15t-112.5 32.5t-82 32.5t-56 15q-20 0 -33.5 -18t-36.5 -68h-37l64 467h47q16 -193 108.5 -304.5t274.5 -111.5zM352 1522l289 282q46 23 82 23q35 0 56.5 -16.5t43.5 -53.5l144 -239l-27 -23l-242 164l-327 -168z" />
    <glyph glyph-name="scircumflex" unicode="&#x15d;" horiz-adv-x="913" 
d="M348 41q107 0 171.5 47.5t64.5 136.5q0 37 -14 64.5t-45.5 48.5t-57 33t-72.5 30l-56 21t-51.5 22.5t-51.5 28.5t-41 34.5t-36.5 46t-20.5 56.5t-9 72q0 146 123.5 231.5t300.5 85.5q140 0 223.5 -51.5t83.5 -150.5q0 -66 -37 -108t-108 -42q-49 0 -82 24t-33 64
q0 49 31 88h61q8 19 8 39q0 37 -36 58.5t-103 21.5q-105 0 -172 -49t-67 -131q0 -32 14 -58t44 -47t58 -35t74 -32q34 -13 50.5 -20t48.5 -21t49 -25t42 -28.5t38.5 -35.5t28 -41t20.5 -51t6 -59q0 -150 -126.5 -241t-320.5 -91q-165 0 -250.5 63t-85.5 163q0 70 40.5 112.5
t111.5 42.5q49 0 79.5 -28t30.5 -72q0 -47 -26 -82h-66q-8 -16 -8 -39q0 -44 43.5 -70t130.5 -26zM272 1130l246 347q12 9 42.5 18.5t55.5 9.5q70 0 91 -71l96 -310l-33 -18l-184 227l-285 -231z" />
    <glyph glyph-name="Scedilla" unicode="&#x15e;" horiz-adv-x="1099" 
d="M500 37q133 0 221 76.5t88 220.5q0 34 -9 64t-20.5 51.5t-37 43.5t-42.5 34.5t-55 30.5t-57.5 26t-63.5 26q-4 2 -5.5 2.5l-4.5 1.5t-5.5 2t-4.5 2q-38 15 -64 26.5t-62.5 31.5t-61.5 40t-52.5 50.5t-43.5 64.5t-27 80.5t-11 100.5q0 190 133 317t338 127q71 0 141 -21
t118 -42t63 -21q20 0 33 15t30 51h37l-59 -424h-47q-19 197 -97.5 291t-216.5 94q-74 0 -136.5 -25.5t-105 -84.5t-42.5 -144q0 -48 14 -87.5t34 -66t54 -51t64 -39.5t73 -33q143 -59 168 -71q141 -70 191 -175q32 -70 32 -161q0 -143 -68 -255t-180.5 -170.5t-248.5 -58.5
h-12l-76 -96q35 13 78 13q75 0 117 -39.5t42 -106.5q0 -92 -78 -150.5t-198 -58.5q-82 0 -125 34.5t-43 80.5q0 35 22 60.5t58 25.5q28 0 48 -19t21 -51l-45 -30q-8 -27 8.5 -45.5t53.5 -18.5q53 0 88 42t35 116q0 110 -86 110q-32 0 -68 -12l-8 31l92 119
q-71 8 -139.5 30.5t-113 41t-62.5 18.5q-20 0 -33.5 -18t-36.5 -68h-37l64 467h47q16 -193 108.5 -304.5t274.5 -111.5z" />
    <glyph glyph-name="scedilla" unicode="&#x15f;" horiz-adv-x="913" 
d="M348 41q107 0 171.5 47.5t64.5 136.5q0 37 -14 64.5t-45.5 48.5t-57 33t-72.5 30l-56 21t-51.5 22.5t-51.5 28.5t-41 34.5t-36.5 46t-20.5 56.5t-9 72q0 146 123.5 231.5t300.5 85.5q140 0 223.5 -51.5t83.5 -150.5q0 -66 -37 -108t-108 -42q-49 0 -82 24t-33 64
q0 49 31 88h61q8 19 8 39q0 37 -36 58.5t-103 21.5q-105 0 -172 -49t-67 -131q0 -32 14 -58t44 -47t58 -35t74 -32q34 -13 50.5 -20t48.5 -21t49 -25t42 -28.5t38.5 -35.5t28 -41t20.5 -51t6 -59q0 -137 -107 -225t-278 -102l-78 -101q35 13 78 13q75 0 117 -39.5t42 -106.5
q0 -92 -78 -150.5t-198 -58.5q-82 0 -125 34.5t-43 80.5q0 35 22 60.5t58 25.5q28 0 48 -19t21 -51l-45 -30q-8 -27 8.5 -45.5t53.5 -18.5q53 0 88 42t35 116q0 110 -86 110q-32 0 -68 -12l-8 31l88 114q-161 1 -244.5 63.5t-83.5 162.5q0 70 40.5 112.5t111.5 42.5
q49 0 79.5 -28t30.5 -72q0 -47 -26 -82h-66q-8 -16 -8 -39q0 -44 43.5 -70t130.5 -26z" />
    <glyph glyph-name="Scaron" unicode="&#x160;" horiz-adv-x="1099" 
d="M500 37q133 0 221 76.5t88 220.5q0 34 -9 64t-20.5 51.5t-37 43.5t-42.5 34.5t-55 30.5t-57.5 26t-63.5 26q-4 2 -5.5 2.5l-4.5 1.5t-5.5 2t-4.5 2q-38 15 -64 26.5t-62.5 31.5t-61.5 40t-52.5 50.5t-43.5 64.5t-27 80.5t-11 100.5q0 190 133 317t338 127q71 0 141 -21
t118 -42t63 -21q20 0 33 15t30 51h37l-59 -424h-47q-19 197 -97.5 291t-216.5 94q-74 0 -136.5 -25.5t-105 -84.5t-42.5 -144q0 -48 14 -87.5t34 -66t54 -51t64 -39.5t73 -33q143 -59 168 -71q141 -70 191 -175q32 -70 32 -161q0 -143 -68 -255t-180.5 -170.5t-248.5 -58.5
q-71 0 -140.5 15t-112.5 32.5t-82 32.5t-56 15q-20 0 -33.5 -18t-36.5 -68h-37l64 467h47q16 -193 108.5 -304.5t274.5 -111.5zM1040 1821l-295 -285q-45 -18 -79 -18q-35 0 -54 14t-43 51l-149 242l29 24l249 -170l322 170z" />
    <glyph glyph-name="scaron" unicode="&#x161;" horiz-adv-x="913" 
d="M348 41q107 0 171.5 47.5t64.5 136.5q0 37 -14 64.5t-45.5 48.5t-57 33t-72.5 30l-56 21t-51.5 22.5t-51.5 28.5t-41 34.5t-36.5 46t-20.5 56.5t-9 72q0 146 123.5 231.5t300.5 85.5q140 0 223.5 -51.5t83.5 -150.5q0 -66 -37 -108t-108 -42q-49 0 -82 24t-33 64
q0 49 31 88h61q8 19 8 39q0 37 -36 58.5t-103 21.5q-105 0 -172 -49t-67 -131q0 -32 14 -58t44 -47t58 -35t74 -32q34 -13 50.5 -20t48.5 -21t49 -25t42 -28.5t38.5 -35.5t28 -41t20.5 -51t6 -59q0 -150 -126.5 -241t-320.5 -91q-165 0 -250.5 63t-85.5 163q0 70 40.5 112.5
t111.5 42.5q49 0 79.5 -28t30.5 -72q0 -47 -26 -82h-66q-8 -16 -8 -39q0 -44 43.5 -70t130.5 -26zM473 1143l-133 348l33 20l205 -231l282 236l25 -25l-203 -305q-47 -68 -123 -68q-24 0 -50 8t-36 17z" />
    <glyph glyph-name="uni0162" unicode="&#x162;" horiz-adv-x="1288" 
d="M1348 1434l-54 -437h-49q-1 86 -8.5 147.5t-26.5 103.5t-42 66.5t-63.5 38t-81.5 17.5t-105 4h-23l-219 -1315h186l-8 -59h-270l-92 -119q35 13 77 13q76 0 118 -39.5t42 -106.5q0 -92 -78 -150.5t-198 -58.5q-82 0 -125 34.5t-43 80.5q0 35 22 60.5t58 25.5q28 0 48 -19
t21 -51l-45 -30q-8 -27 8.5 -45.5t53.5 -18.5q53 0 87.5 42t34.5 116q0 110 -86 110q-31 0 -67 -12l-8 31l106 137h-289l11 59h186l221 1315h-24q-98 0 -156.5 -11.5t-114 -51t-97 -114t-85.5 -200.5h-49l94 437h1133z" />
    <glyph glyph-name="uni0163" unicode="&#x163;" horiz-adv-x="702" 
d="M680 926h-215l-107 -574q-26 -139 -26 -186q0 -94 88 -94q53 0 94 32t92 103l47 -35q-123 -192 -303 -195l-76 -96q35 13 78 13q76 0 118 -39.5t42 -106.5q0 -92 -78 -150.5t-198 -58.5q-82 0 -125 34.5t-43 80.5q0 35 22 60.5t57 25.5q28 0 48.5 -19t21.5 -51l-45 -30
q-8 -27 8 -45.5t53 -18.5q53 0 88 42t35 116q0 110 -86 110q-31 0 -67 -12l-8 31l92 119q-95 14 -141 72t-46 145q0 81 39 270l88 457h-147l8 53h148l38 238l248 63l-49 -301h215z" />
    <glyph glyph-name="Tcaron" unicode="&#x164;" horiz-adv-x="1288" 
d="M1348 1434l-54 -437h-49q-1 86 -8.5 147.5t-26.5 103.5t-42 66.5t-63.5 38t-81.5 17.5t-105 4h-23l-219 -1315h186l-8 -59h-625l11 59h186l221 1315h-24q-98 0 -156.5 -11.5t-114 -51t-97 -114t-85.5 -200.5h-49l94 437h1133zM1163 1821l-295 -285q-45 -18 -80 -18
t-53.5 14t-42.5 51l-149 242l28 24l250 -170l322 170z" />
    <glyph glyph-name="tcaron" unicode="&#x165;" horiz-adv-x="702" 
d="M680 926h-215l-107 -574q-26 -139 -26 -186q0 -94 88 -94q53 0 94 32t92 103l47 -35q-125 -195 -305 -195q-125 0 -186.5 61.5t-61.5 160.5q0 81 39 270l88 457h-147l8 53h148l38 238l248 63l-49 -301h215zM590 1069l-31 37q137 104 137 217q0 76 -65 129l43 43
q46 49 98 49q49 0 73.5 -31t24.5 -83q0 -54 -24 -106t-68.5 -98.5t-87.5 -82t-100 -74.5z" />
    <glyph glyph-name="Tbar" unicode="&#x166;" horiz-adv-x="1288" 
d="M1348 1434l-54 -437h-49q-1 86 -8.5 147.5t-26.5 103.5t-42 66.5t-63.5 38t-81.5 17.5t-105 4h-23l-98 -590h338l-11 -59h-338l-110 -666h186l-8 -59h-625l11 59h186l111 666h-332l10 59h332l100 590h-24q-98 0 -156.5 -11.5t-114 -51t-97 -114t-85.5 -200.5h-49l94 437
h1133z" />
    <glyph glyph-name="tbar" unicode="&#x167;" horiz-adv-x="702" 
d="M680 926h-215l-55 -295h219l-8 -53h-222l-41 -226q-26 -139 -26 -186q0 -94 88 -94q53 0 94 32t92 103l47 -35q-125 -195 -305 -195q-125 0 -186.5 61.5t-61.5 160.5q0 81 39 270l21 109h-142l9 53h143l57 295h-147l8 53h148l38 238l248 63l-49 -301h215z" />
    <glyph glyph-name="Utilde" unicode="&#x168;" horiz-adv-x="1417" 
d="M690 53q-134 0 -194.5 57t-63.5 177q0 63 17 170l153 917h143l9 60h-531l-10 -60h141l-153 -903q-15 -83 -15 -147q1 -95 32 -163.5t90 -108t136 -57.5t179 -18q262 0 389.5 121t167.5 365l151 911h133l11 60h-379l-9 -60h162l-151 -917q-19 -113 -56 -192.5t-91 -125
t-117.5 -66t-143.5 -20.5zM1059 1575q-72 0 -176 47q-79 33 -117 33q-66 0 -117 -88l-37 12q53 115 105.5 169t138.5 54q17 0 34 -2t28.5 -4.5t28.5 -9t25 -9.5t27.5 -12t26.5 -12q76 -31 113 -31t64.5 18t56.5 70l38 -12q-52 -120 -109.5 -171.5t-129.5 -51.5z" />
    <glyph glyph-name="utilde" unicode="&#x169;" horiz-adv-x="1208" 
d="M111 299q22 121 125 627h-154l8 53h389q-17 -67 -78.5 -371t-70.5 -352q-11 -60 -11 -88q0 -46 21 -70t74 -24q103 0 194 137t148 352q54 194 71 406q47 -1 131 6t127 16q-111 -522 -147 -727q-14 -83 -14 -133q0 -76 61 -76q32 0 60.5 22t64.5 73l43 -31
q-95 -142 -233 -142q-197 0 -197 166q0 56 20 123l17 62l-12 4q-26 -58 -51.5 -103t-64 -94.5t-80 -82t-99 -54t-121.5 -21.5q-120 0 -175 61.5t-55 168.5q0 43 9 92zM799 1188q-74 0 -178 47q-75 33 -117 33q-64 0 -115 -88l-37 14q51 114 104.5 167.5t139.5 53.5
q15 0 28 -1t27 -4.5t22.5 -5.5t24 -8.5t21 -9t23 -10.5t22.5 -10q76 -31 113 -31t64 18t56 70l39 -12q-52 -120 -109.5 -171.5t-127.5 -51.5z" />
    <glyph glyph-name="Umacron" unicode="&#x16a;" horiz-adv-x="1417" 
d="M690 53q-134 0 -194.5 57t-63.5 177q0 63 17 170l153 917h143l9 60h-531l-10 -60h141l-153 -903q-15 -83 -15 -147q1 -95 32 -163.5t90 -108t136 -57.5t179 -18q262 0 389.5 121t167.5 365l151 911h133l11 60h-379l-9 -60h162l-151 -917q-19 -113 -56 -192.5t-91 -125
t-117.5 -66t-143.5 -20.5zM647 1593l21 121h557l-21 -121h-557z" />
    <glyph glyph-name="umacron" unicode="&#x16b;" horiz-adv-x="1208" 
d="M111 299q22 121 125 627h-154l8 53h389q-17 -67 -78.5 -371t-70.5 -352q-11 -60 -11 -88q0 -46 21 -70t74 -24q103 0 194 137t148 352q54 194 71 406q47 -1 131 6t127 16q-111 -522 -147 -727q-14 -83 -14 -133q0 -76 61 -76q32 0 60.5 22t64.5 73l43 -31
q-95 -142 -233 -142q-197 0 -197 166q0 56 20 123l17 62l-12 4q-26 -58 -51.5 -103t-64 -94.5t-80 -82t-99 -54t-121.5 -21.5q-120 0 -175 61.5t-55 168.5q0 43 9 92zM393 1210l21 121h557l-21 -121h-557z" />
    <glyph glyph-name="Ubreve" unicode="&#x16c;" horiz-adv-x="1417" 
d="M690 53q80 0 143.5 20.5t117.5 66t91 125t56 192.5l151 917h-162l9 60h379l-11 -60h-133l-151 -911q-40 -244 -167.5 -365t-389.5 -121q-102 0 -179 18t-136 57.5t-90 108t-32 163.5q0 64 15 147l153 903h-141l10 60h531l-9 -60h-143l-153 -917q-17 -107 -17 -170
q3 -120 63.5 -177t194.5 -57zM670 1796l45 8q14 -73 61.5 -106t155.5 -33q105 0 163.5 32.5t94.5 106.5l43 -6q-15 -54 -38 -99t-61 -87.5t-97 -67t-134 -24.5q-58 0 -101.5 16t-69 42.5t-41 63.5t-20 74t-1.5 80z" />
    <glyph glyph-name="ubreve" unicode="&#x16d;" horiz-adv-x="1208" 
d="M111 299q22 121 125 627h-154l8 53h389q-17 -67 -78.5 -371t-70.5 -352q-11 -60 -11 -88q0 -46 21 -70t74 -24q103 0 194 137t148 352q54 194 71 406q47 -1 131 6t127 16q-111 -522 -147 -727q-14 -83 -14 -133q0 -76 61 -76q32 0 60.5 22t64.5 73l43 -31
q-95 -142 -233 -142q-197 0 -197 166q0 56 20 123l17 62l-12 4q-26 -58 -51.5 -103t-64 -94.5t-80 -82t-99 -54t-121.5 -21.5q-120 0 -175 61.5t-55 168.5q0 43 9 92zM432 1430l47 8q15 -90 63 -135.5t152 -45.5q98 0 158 47t100 134l43 -11q-13 -59 -38 -111.5t-64 -99.5
t-98 -74.5t-131 -27.5q-252 0 -232 316z" />
    <glyph glyph-name="Uring" unicode="&#x16e;" horiz-adv-x="1417" 
d="M690 53q-134 0 -194.5 57t-63.5 177q0 63 17 170l153 917h143l9 60h-531l-10 -60h141l-153 -903q-15 -83 -15 -147q1 -95 32 -163.5t90 -108t136 -57.5t179 -18q262 0 389.5 121t167.5 365l151 911h133l11 60h-379l-9 -60h162l-151 -917q-19 -113 -56 -192.5t-91 -125
t-117.5 -66t-143.5 -20.5zM967 1821q-57 0 -96.5 -40t-39.5 -98q0 -41 24 -70.5t73 -29.5q60 0 97.5 38.5t37.5 96.5q0 44 -24 73.5t-72 29.5zM758 1669q0 91 63 150t162 59q75 0 115.5 -39t40.5 -102q0 -95 -62 -154t-162 -59q-80 0 -118.5 40t-38.5 105z" />
    <glyph glyph-name="uring" unicode="&#x16f;" horiz-adv-x="1208" 
d="M111 299q22 121 125 627h-154l8 53h389q-17 -67 -78.5 -371t-70.5 -352q-11 -60 -11 -88q0 -46 21 -70t74 -24q103 0 194 137t148 352q54 194 71 406q47 -1 131 6t127 16q-111 -522 -147 -727q-14 -83 -14 -133q0 -76 61 -76q32 0 60.5 22t64.5 73l43 -31
q-95 -142 -233 -142q-197 0 -197 166q0 56 20 123l17 62l-12 4q-26 -58 -51.5 -103t-64 -94.5t-80 -82t-99 -54t-121.5 -21.5q-120 0 -175 61.5t-55 168.5q0 43 9 92zM709 1438q-57 0 -96.5 -40t-39.5 -98q0 -41 24 -70.5t73 -29.5q60 0 97.5 38.5t37.5 96.5q0 44 -24 73.5
t-72 29.5zM500 1286q0 91 63 150t162 59q75 0 115.5 -39t40.5 -102q0 -95 -62 -154t-162 -59q-80 0 -118.5 40t-38.5 105z" />
    <glyph glyph-name="Uhungarumlaut" unicode="&#x170;" horiz-adv-x="1417" 
d="M690 53q-134 0 -194.5 57t-63.5 177q0 63 17 170l153 917h143l9 60h-531l-10 -60h141l-153 -903q-15 -83 -15 -147q1 -95 32 -163.5t90 -108t136 -57.5t179 -18q262 0 389.5 121t167.5 365l151 911h133l11 60h-379l-9 -60h162l-151 -917q-19 -113 -56 -192.5t-91 -125
t-117.5 -66t-143.5 -20.5zM999 1534l242 350l82 -2q37 -2 59.5 -19.5t22.5 -47.5q0 -35 -18.5 -58.5t-59.5 -50.5l-303 -197zM686 1528l219 364l78 4q41 3 66.5 -14t25.5 -51q0 -33 -17 -56t-52 -49l-289 -221z" />
    <glyph glyph-name="uhungarumlaut" unicode="&#x171;" horiz-adv-x="1208" 
d="M111 299q22 121 125 627h-154l8 53h389q-17 -67 -78.5 -371t-70.5 -352q-11 -60 -11 -88q0 -46 21 -70t74 -24q103 0 194 137t148 352q54 194 71 406q47 -1 131 6t127 16q-111 -522 -147 -727q-14 -83 -14 -133q0 -76 61 -76q32 0 60.5 22t64.5 73l43 -31
q-95 -142 -233 -142q-197 0 -197 166q0 56 20 123l17 62l-12 4q-26 -58 -51.5 -103t-64 -94.5t-80 -82t-99 -54t-121.5 -21.5q-120 0 -175 61.5t-55 168.5q0 43 9 92zM764 1145l182 387l86 18q38 8 66 -8.5t28 -54.5q0 -49 -61 -107l-268 -256zM449 1143l178 385l86 18
q40 8 68 -6.5t28 -52.5q0 -29 -15 -52.5t-46 -52.5l-265 -260z" />
    <glyph glyph-name="Uogonek" unicode="&#x172;" horiz-adv-x="1417" 
d="M690 53q80 0 143.5 20.5t117.5 66t91 125t56 192.5l151 917h-162l9 60h379l-11 -60h-133l-151 -911q-32 -191 -112.5 -304t-227.5 -153q-82 -38 -148.5 -127t-66.5 -172q0 -82 67 -82q35 0 61.5 21t57.5 63l37 -26q-86 -152 -242 -152q-85 0 -130.5 38.5t-45.5 106.5
q0 49 21.5 94t61 83t81 67t96.5 60q-12 0 -34 -1.5t-33 -1.5q-102 0 -179 18t-136 57.5t-90 108t-32 163.5q0 64 15 147l153 903h-141l10 60h531l-9 -60h-143l-153 -917q-17 -107 -17 -170q3 -120 63.5 -177t194.5 -57z" />
    <glyph glyph-name="uogonek" unicode="&#x173;" horiz-adv-x="1208" 
d="M1110 150l43 -31q-62 -86 -133 -125q-81 -46 -136 -125.5t-55 -161.5t68 -82q35 0 61.5 21t57.5 63l37 -26q-86 -152 -242 -152q-85 0 -130.5 38.5t-45.5 106.5q0 48 21 93t60.5 83t81.5 67.5t97 60.5q-232 12 -152 286l17 62l-12 4q-26 -58 -51.5 -103t-64 -94.5
t-80 -82t-99 -54t-121.5 -21.5q-74 0 -125 25.5t-74 69.5t-29.5 102.5t7.5 124.5q22 121 125 627h-154l8 53h389q-17 -67 -78.5 -371t-70.5 -352q-9 -52 -10.5 -92.5t21.5 -65t73 -24.5q68 0 133.5 64t116 168.5t88.5 242.5q58 205 75 420q47 -1 131 6t127 16
q-16 -79 -44.5 -211.5t-45 -214.5t-35 -177t-27.5 -159.5t-9 -101.5q0 -72 59 -72q32 0 61.5 22.5t65.5 72.5z" />
    <glyph glyph-name="Wcircumflex" unicode="&#x174;" horiz-adv-x="1992" 
d="M651 297l406 727l-68 350h-133l8 60h578l-8 -60h-179l195 -1048l483 1048h-188l8 60h399l-8 -60h-129l-651 -1388h-107l-178 936l-526 -936h-104l-220 1388h-131l8 60h572l-8 -60h-174zM834 1522l288 282q46 23 82 23q35 0 57 -16.5t44 -53.5l143 -239l-27 -23l-241 164
l-328 -168z" />
    <glyph glyph-name="wcircumflex" unicode="&#x175;" horiz-adv-x="1652" 
d="M934 268q-8 -44 -8 -84q0 -62 32 -89t99 -27q103 0 205.5 98.5t164.5 239t62 264.5q0 135 -92 143l-58 -82q-52 10 -82 48t-30 85q0 59 38 97t111 38q102 0 152.5 -76.5t50.5 -189.5q0 -67 -17 -147t-48.5 -165t-83 -164t-115 -142t-150 -100.5t-182.5 -37.5
q-213 0 -270 156q-54 -64 -138 -110t-190 -46q-113 0 -176.5 58.5t-63.5 177.5q0 31 7 82q17 101 55 289.5t49 246.5q17 91 -35 91q-33 0 -69.5 -32t-85.5 -104l-50 31q59 100 127 141t158 41q85 0 134.5 -42.5t49.5 -127.5q0 -26 -16 -108q-6 -27 -41 -216t-41 -218
q-25 -104 -6.5 -160.5t88.5 -56.5q63 0 115.5 37.5t111.5 107.5q15 91 69.5 350.5t78.5 405.5q49 -2 124.5 3.5t118.5 14.5q-103 -427 -153 -721zM717 1130l246 347q12 9 42.5 18.5t55.5 9.5q69 0 90 -71l96 -310l-33 -18l-184 227l-285 -231z" />
    <glyph glyph-name="Ycircumflex" unicode="&#x176;" horiz-adv-x="1161" 
d="M694 745l422 629h-176l10 60h375l-10 -60h-119l-481 -712l-103 -603h166l-10 -59h-580l11 59h163l101 600l-242 715h-129l8 60h578l-8 -60h-174zM438 1522l289 282q46 23 82 23q35 0 56.5 -16.5t43.5 -53.5l144 -239l-27 -23l-242 164l-327 -168z" />
    <glyph glyph-name="ycircumflex" unicode="&#x177;" horiz-adv-x="1083" 
d="M111 -315l-91 -15q-22 -31 -22 -61q0 -26 19.5 -42t56.5 -16q189 0 436 375q-142 526 -238 836q-18 62 -36 84t-46 22q-32 0 -59 -35t-59 -120l-60 24q23 60 44.5 100t53.5 76.5t76 54t101 17.5q80 0 131 -46t82 -148q92 -302 176 -641q98 150 176 305t78 247
q0 40 -18.5 65.5t-47.5 27.5l-65 -82q-48 15 -77.5 51.5t-29.5 85.5q0 66 42.5 107.5t113.5 41.5q87 0 135.5 -60t48.5 -157q0 -226 -295 -661q-21 -31 -57.5 -86t-59.5 -89.5t-59.5 -85.5t-63 -84.5t-63.5 -76.5t-68 -70.5t-70 -56.5t-75.5 -46t-78.5 -27.5t-85 -10.5
q-113 0 -178 58.5t-65 158.5q0 77 46.5 125.5t119.5 48.5t113 -53t18 -141zM336 1133l246 346q12 9 42.5 18.5t55.5 9.5q69 0 90 -71l96 -310l-32 -18l-185 227l-284 -231z" />
    <glyph glyph-name="Ydieresis" unicode="&#x178;" horiz-adv-x="1161" 
d="M694 745l422 629h-176l10 60h375l-10 -60h-119l-481 -712l-103 -603h166l-10 -59h-580l11 59h163l101 600l-242 715h-129l8 60h578l-8 -60h-174zM604 1792q48 0 77.5 -24t29.5 -68q0 -65 -41 -108.5t-105 -43.5q-56 0 -82 29t-26 72q0 60 43.5 101.5t103.5 41.5z
M1008 1792q48 0 78 -23t30 -67q0 -66 -40.5 -110t-106.5 -44q-107 0 -107 101q0 63 45.5 103t100.5 40z" />
    <glyph glyph-name="Zacute" unicode="&#x179;" horiz-adv-x="1161" 
d="M1196 1434l-10 -60l-916 -1315h277q176 0 288.5 95t186.5 315h51l-102 -469h-1008l8 51l934 1323h-246q-64 0 -106 -4t-88 -16.5t-78 -36t-66 -64t-63 -99.5t-59 -142h-47l92 422h952zM520 1528l309 325l70 -18q70 -16 70 -76q0 -35 -25 -60t-70 -46l-331 -154z" />
    <glyph glyph-name="zacute" unicode="&#x17a;" horiz-adv-x="1044" 
d="M905 387l51 -10q-85 -400 -303 -400q-63 0 -105.5 16t-101.5 54l-186 123q-48 -190 -158 -190q-50 0 -76 28.5t-26 69.5q0 61 59.5 101t145.5 42q125 134 500 516l-273 29q-113 10 -158 10q-51 0 -81 -31t-60 -120l-51 10q51 201 120.5 282.5t178.5 81.5q56 0 101 -17.5
t102 -55.5l184 -117q14 94 60 141t96 47q44 0 71 -25.5t27 -64.5q0 -54 -55.5 -98t-147.5 -51q-77 -80 -270 -278.5t-227 -233.5q278 -17 413 -17q72 0 105 29.5t65 128.5zM465 1128l186 375l90 17q36 8 66.5 -8.5t30.5 -55.5q0 -48 -60 -102l-282 -248z" />
    <glyph glyph-name="Zdotaccent" unicode="&#x17b;" horiz-adv-x="1161" 
d="M1196 1434l-10 -60l-916 -1315h277q176 0 288.5 95t186.5 315h51l-102 -469h-1008l8 51l934 1323h-246q-64 0 -106 -4t-88 -16.5t-78 -36t-66 -64t-63 -99.5t-59 -142h-47l92 422h952zM705 1546q-130 0 -130 119q0 69 46 114.5t124 45.5q129 0 129 -117q0 -72 -46 -117
t-123 -45z" />
    <glyph glyph-name="zdotaccent" unicode="&#x17c;" horiz-adv-x="1044" 
d="M905 387l51 -10q-85 -400 -303 -400q-63 0 -105.5 16t-101.5 54l-186 123q-48 -190 -158 -190q-50 0 -76 28.5t-26 69.5q0 61 59.5 101t145.5 42q125 134 500 516l-273 29q-113 10 -158 10q-51 0 -81 -31t-60 -120l-51 10q51 201 120.5 282.5t178.5 81.5q56 0 101 -17.5
t102 -55.5l184 -117q14 94 60 141t96 47q44 0 71 -25.5t27 -64.5q0 -54 -55.5 -98t-147.5 -51q-77 -80 -270 -278.5t-227 -233.5q278 -17 413 -17q72 0 105 29.5t65 128.5zM596 1169q-129 0 -129 119q0 70 46.5 116t123.5 46q129 0 129 -119q0 -71 -46.5 -116.5
t-123.5 -45.5z" />
    <glyph glyph-name="Zcaron" unicode="&#x17d;" horiz-adv-x="1161" 
d="M1196 1434l-10 -60l-916 -1315h277q176 0 288.5 95t186.5 315h51l-102 -469h-1008l8 51l934 1323h-246q-64 0 -106 -4t-88 -16.5t-78 -36t-66 -64t-63 -99.5t-59 -142h-47l92 422h952zM1075 1821l-295 -285q-45 -18 -80 -18t-53.5 14t-42.5 51l-149 242l28 24l250 -170
l322 170z" />
    <glyph glyph-name="zcaron" unicode="&#x17e;" horiz-adv-x="1044" 
d="M905 387l51 -10q-85 -400 -303 -400q-63 0 -105.5 16t-101.5 54l-186 123q-48 -190 -158 -190q-50 0 -76 28.5t-26 69.5q0 61 59.5 101t145.5 42q125 134 500 516l-273 29q-113 10 -158 10q-51 0 -81 -31t-60 -120l-51 10q51 201 120.5 282.5t178.5 81.5q56 0 101 -17.5
t102 -55.5l184 -117q14 94 60 141t96 47q44 0 71 -25.5t27 -64.5q0 -54 -55.5 -98t-147.5 -51q-77 -80 -270 -278.5t-227 -233.5q278 -17 413 -17q72 0 105 29.5t65 128.5zM506 1147l-133 348l33 21l204 -232l283 236l25 -25l-203 -305q-47 -68 -123 -68q-24 0 -50 8t-36 17
z" />
    <glyph glyph-name="longs" unicode="&#x17f;" horiz-adv-x="679" 
d="M53 -133l219 1239q40 224 161 350.5t321 126.5q114 0 188 -54t74 -147q0 -71 -42.5 -116t-113.5 -45t-102 51t-10 121l73 8q27 63 4 98t-80 35q-51 0 -89.5 -26.5t-63.5 -78.5t-40 -105.5t-28 -129.5l-221 -1233q-41 -232 -150.5 -352.5t-306.5 -120.5q-116 0 -189 54
t-73 145q0 72 44 120t118 48q71 0 104.5 -52.5t6.5 -128.5l-78 -8q-32 -60 -7 -92.5t85 -32.5q40 0 69 14.5t47.5 39.5t32.5 66t24 86t21 107q1 9 2 13z" />
    <glyph glyph-name="florin" unicode="&#x192;" horiz-adv-x="1044" 
d="M842 831l-15 -67h-266l-129 -725q-82 -469 -477 -469q-120 0 -190 57.5t-70 147.5q0 73 40 121.5t115 48.5q76 0 106.5 -54t6.5 -135l-74 -6q-31 -60 -11 -94.5t79 -34.5q41 0 72 14t52.5 38t38.5 65.5t27.5 85t22.5 108.5l145 832h-163l12 67h164l26 156
q38 216 154 342.5t315 126.5q124 0 196.5 -54.5t72.5 -148.5q0 -70 -38.5 -114.5t-111.5 -44.5q-78 0 -109 47t-8 129l70 4q25 66 2 98.5t-80 32.5q-41 0 -71.5 -16.5t-49.5 -40t-34.5 -68.5t-24 -83t-19.5 -103l-45 -263h269z" />
    <glyph glyph-name="Aringacute" unicode="&#x1fa;" horiz-adv-x="1245" 
d="M614 1581q0 91 63.5 150t162.5 59q75 0 115 -39t40 -102q0 -81 -46.5 -137.5t-123.5 -71.5l234 -1381h131l-8 -59h-559l8 59h155l-61 418h-432l-215 -418h168l-8 -59h-373l8 59h127l719 1381q-105 26 -105 141zM629 1139l-307 -602h395zM637 1825l309 325l70 -18
q69 -16 69 -76q0 -62 -94 -106l-332 -154zM823 1733q-57 0 -96 -40t-39 -98q0 -41 23.5 -70.5t72.5 -29.5q61 0 98.5 38.5t37.5 96.5q0 43 -24.5 73t-72.5 30z" />
    <glyph glyph-name="aringacute" unicode="&#x1fb;" horiz-adv-x="1159" 
d="M1079 150l43 -33q-88 -140 -229 -140q-98 0 -144.5 44t-46.5 122q0 41 17 107l-10 2q-53 -121 -145 -198t-226 -77q-149 0 -225 94.5t-76 270.5q0 90 19.5 181.5t60.5 177.5t99 152t142.5 106t182.5 40q178 0 250 -157l34 133q108 -3 224 14q-113 -556 -148 -807
q-4 -20 -4 -53q0 -38 14 -55t45 -17q60 0 123 93zM420 66q89 0 166.5 91t120.5 229t43 280q0 266 -172 266q-76 0 -134.5 -50.5t-93.5 -138t-53 -196.5t-18 -234q0 -60 5.5 -101.5t20 -76.5t43.5 -52t72 -17zM678 1382q-57 0 -96 -39.5t-39 -97.5q0 -41 23.5 -70.5
t72.5 -29.5q60 0 97.5 38.5t37.5 96.5q0 43 -24 72.5t-72 29.5zM469 1231q0 91 63 150t162 59q75 0 115.5 -39.5t40.5 -102.5q0 -95 -61.5 -154t-161.5 -59q-80 0 -119 40.5t-39 105.5zM530 1513l310 326l69 -18q70 -16 70 -76q0 -63 -94 -107l-332 -153z" />
    <glyph glyph-name="AEacute" unicode="&#x1fc;" horiz-adv-x="1957" 
d="M780 1374l11 60h1151l-44 -390h-47q-2 87 -17 146t-39.5 95.5t-69 56t-95 26t-129.5 6.5h-158l-106 -631h92q112 0 171.5 57t107.5 206h43l-103 -607h-45q2 165 -38.5 222t-166.5 57h-71l-99 -619h170q204 0 316 85t182 286h45l-86 -430h-1034l10 59h143l103 617h-424
l-418 -617h174l-12 -59h-379l12 59h117l905 1315h-172zM1094 1374h-62l-434 -633h391zM1272 1528l309 325l70 -18q69 -16 69 -76q0 -62 -94 -106l-332 -154z" />
    <glyph glyph-name="aeacute" unicode="&#x1fd;" horiz-adv-x="1615" 
d="M1473 340q-35 -102 -90 -167t-110.5 -88.5t-117.5 -23.5q-107 0 -156 70t-49 229q0 5 1 35t1 35q92 3 219 25q61 11 108.5 24.5t101.5 38t89.5 56.5t59.5 81.5t24 110.5q0 114 -74.5 173.5t-207.5 59.5q-161 0 -291 -84l20 70q-93 -12 -174 -10l-36 -133
q-72 157 -250 157q-98 0 -182.5 -40t-142.5 -106t-99 -152t-60.5 -177.5t-19.5 -181.5q0 -176 76 -270.5t225 -94.5q131 0 232 84t159 211q18 -143 103 -219t239 -76q171 0 288 88t169 259zM420 66q-78 0 -109.5 60t-31.5 198q0 61 6 130t26 157.5t51 157t87 116t129 47.5
q172 0 172 -266q0 -142 -43 -280t-120.5 -229t-166.5 -91zM1341 791q0 -79 -31.5 -137.5t-88 -92.5t-121.5 -51t-144 -21q24 208 102.5 331.5t172.5 123.5q110 0 110 -153zM774 1122l187 375l90 16q36 8 66 -8t30 -55q0 -48 -60 -102l-282 -248z" />
    <glyph glyph-name="Oslashacute" unicode="&#x1fe;" horiz-adv-x="1392" 
d="M672 1522l309 325l70 -18q69 -16 69 -76q0 -62 -94 -106l-332 -154zM70 532q0 131 30 260.5t93.5 249.5t153 212t218 147t279.5 55q92 0 162 -20l77 151l66 -33l-72 -141q129 -57 196.5 -187t67.5 -323q0 -107 -20 -214.5t-60 -212t-104 -194.5t-145.5 -158.5
t-193 -107.5t-238.5 -39q-111 0 -215 33l-86 -170l-68 33l86 170q-227 127 -227 489zM600 43q83 0 153.5 37t119 97.5t87 144.5t61.5 171t38 183t20.5 175.5t5.5 154.5q0 211 -63 299l-604 -1192q67 -70 182 -70zM326 446q0 -166 43 -260l596 1170q-56 35 -144 35
q-86 0 -158 -35.5t-122 -94t-89 -140t-62.5 -166t-38 -180t-20 -174.5t-5.5 -155z" />
    <glyph glyph-name="oslashacute" unicode="&#x1ff;" horiz-adv-x="1054" 
d="M473 1122l186 375l91 16q36 8 66 -8t30 -55q0 -48 -60 -102l-282 -248zM418 -23q-58 0 -115 13l-76 -156l-57 29l72 143q-207 81 -207 356q0 122 36.5 234.5t104.5 203t177 145t243 54.5q76 0 131 -14l82 166l55 -25l-80 -161q193 -82 193 -347q0 -127 -37.5 -241.5
t-106.5 -204t-176.5 -142.5t-238.5 -53zM266 299q0 -121 31 -182l389 788q-42 45 -115 45q-62 0 -112.5 -35t-82.5 -94.5t-55 -128t-34 -145.5t-16 -136.5t-5 -111.5zM438 31q56 0 102 26.5t76.5 68t54 100.5t36.5 117.5t21 125.5t10.5 116.5t2.5 98.5q0 94 -18 156
l-383 -779q38 -30 98 -30z" />
    <glyph glyph-name="Scommaaccent" unicode="&#x218;" horiz-adv-x="1099" 
d="M500 37q133 0 221 76.5t88 220.5q0 34 -9 64t-20.5 51.5t-37 43.5t-42.5 34.5t-55 30.5t-57.5 26t-63.5 26q-4 2 -5.5 2.5l-4.5 1.5t-5.5 2t-4.5 2q-38 15 -64 26.5t-62.5 31.5t-61.5 40t-52.5 50.5t-43.5 64.5t-27 80.5t-11 100.5q0 190 133 317t338 127q71 0 141 -21
t118 -42t63 -21q20 0 33 15t30 51h37l-59 -424h-47q-19 197 -97.5 291t-216.5 94q-74 0 -136.5 -25.5t-105 -84.5t-42.5 -144q0 -48 14 -87.5t34 -66t54 -51t64 -39.5t73 -33q143 -59 168 -71q141 -70 191 -175q32 -70 32 -161q0 -143 -68 -255t-180.5 -170.5t-248.5 -58.5
q-71 0 -140.5 15t-112.5 32.5t-82 32.5t-56 15q-20 0 -33.5 -18t-36.5 -68h-37l64 467h47q16 -193 108.5 -304.5t274.5 -111.5zM336 -571l-31 45q58 36 104 87.5t46 92.5q0 42 -35 53l-60 -53q-25 12 -44 38t-19 60q0 55 38.5 90t96.5 35q65 0 98 -40.5t33 -96.5
q0 -95 -59 -168t-168 -143z" />
    <glyph glyph-name="scommaaccent" unicode="&#x219;" horiz-adv-x="913" 
d="M348 41q107 0 171.5 47.5t64.5 136.5q0 37 -14 64.5t-45.5 48.5t-57 33t-72.5 30l-56 21t-51.5 22.5t-51.5 28.5t-41 34.5t-36.5 46t-20.5 56.5t-9 72q0 146 123.5 231.5t300.5 85.5q140 0 223.5 -51.5t83.5 -150.5q0 -66 -37 -108t-108 -42q-49 0 -82 24t-33 64
q0 49 31 88h61q8 19 8 39q0 37 -36 58.5t-103 21.5q-105 0 -172 -49t-67 -131q0 -32 14 -58t44 -47t58 -35t74 -32q34 -13 50.5 -20t48.5 -21t49 -25t42 -28.5t38.5 -35.5t28 -41t20.5 -51t6 -59q0 -150 -126.5 -241t-320.5 -91q-165 0 -250.5 63t-85.5 163q0 70 40.5 112.5
t111.5 42.5q49 0 79.5 -28t30.5 -72q0 -47 -26 -82h-66q-8 -16 -8 -39q0 -44 43.5 -70t130.5 -26zM254 -571l-31 45q58 36 104 87.5t46 92.5q0 42 -35 53l-59 -53q-25 12 -44.5 38t-19.5 60q0 55 38.5 90t96.5 35q65 0 98 -40.5t33 -96.5q0 -95 -59 -168t-168 -143z" />
    <glyph glyph-name="uni021A" unicode="&#x21a;" horiz-adv-x="1288" 
d="M1348 1434l-54 -437h-49q-1 86 -8.5 147.5t-26.5 103.5t-42 66.5t-63.5 38t-81.5 17.5t-105 4h-23l-219 -1315h186l-8 -59h-625l11 59h186l221 1315h-24q-98 0 -156.5 -11.5t-114 -51t-97 -114t-85.5 -200.5h-49l94 437h1133zM420 -571l-31 45q58 36 104 87.5t46 92.5
q0 42 -35 53l-60 -53q-25 12 -44 38t-19 60q0 55 38.5 90t96.5 35q65 0 98 -40.5t33 -96.5q0 -95 -59 -168t-168 -143z" />
    <glyph glyph-name="uni021B" unicode="&#x21b;" horiz-adv-x="702" 
d="M680 926h-215l-107 -574q-26 -139 -26 -186q0 -94 88 -94q53 0 94 32t92 103l47 -35q-125 -195 -305 -195q-125 0 -186.5 61.5t-61.5 160.5q0 81 39 270l88 457h-147l8 53h148l38 238l248 63l-49 -301h215zM205 -571l-31 45q58 36 104 87.5t46 92.5q0 42 -35 53l-60 -53
q-25 12 -44 38t-19 60q0 55 38.5 90t96.5 35q65 0 98 -40.5t33 -96.5q0 -95 -59 -168t-168 -143z" />
    <glyph glyph-name="dotlessj" unicode="&#x237;" horiz-adv-x="573" 
d="M-127 -324l-78 -12q-24 -62 -3.5 -93.5t73.5 -31.5q32 0 57 9.5t44 34t31.5 50.5t25 76.5t20.5 93t20 117.5l164 1006h-161l10 53h393l-158 -977q-15 -90 -36.5 -162.5t-58 -140t-85 -112.5t-119 -72t-157.5 -27q-106 0 -178 54t-72 145q0 70 42.5 118t114.5 48
q65 0 100.5 -50.5t10.5 -126.5z" />
    <glyph glyph-name="apostrophe" unicode="&#x2bc;" horiz-adv-x="432" 
d="M125 1014l-31 43q59 38 104.5 89.5t45.5 92.5q0 42 -35 53l-59 -55q-25 12 -44.5 39t-19.5 61q0 55 38.5 89t96.5 34q65 0 98 -39.5t33 -97.5q0 -94 -59.5 -166.5t-167.5 -142.5z" />
    <glyph glyph-name="circumflex" unicode="&#x2c6;" horiz-adv-x="1024" 
d="M442 1130l246 347q12 9 42.5 18.5t55.5 9.5q70 0 91 -71l96 -310l-33 -18l-184 227l-285 -231z" />
    <glyph glyph-name="caron" unicode="&#x2c7;" horiz-adv-x="1024" 
d="M629 1143l-133 348l32 20l205 -231l283 236l24 -25l-202 -305q-47 -68 -123 -68q-24 0 -50 8t-36 17z" />
    <glyph glyph-name="uni02C9" unicode="&#x2c9;" horiz-adv-x="1024" 
d="M446 1210l21 121h557l-20 -121h-558z" />
    <glyph glyph-name="breve" unicode="&#x2d8;" horiz-adv-x="1024" 
d="M485 1430l47 8q15 -90 63.5 -135.5t152.5 -45.5q98 0 158 47t100 134l43 -11q-13 -59 -38 -111.5t-64 -99.5t-98.5 -74.5t-131.5 -27.5q-252 0 -232 316z" />
    <glyph glyph-name="dotaccent" unicode="&#x2d9;" horiz-adv-x="1024" 
d="M727 1167q-129 0 -129 119q0 70 46 116t124 46q129 0 129 -119q0 -71 -46.5 -116.5t-123.5 -45.5z" />
    <glyph glyph-name="ring" unicode="&#x2da;" horiz-adv-x="1024" 
d="M770 1438q-57 0 -96 -40t-39 -98q0 -41 23.5 -70.5t72.5 -29.5q60 0 97.5 38.5t37.5 96.5q0 44 -24 73.5t-72 29.5zM561 1286q0 91 63 150t162 59q75 0 115.5 -39t40.5 -102q0 -95 -61.5 -154t-161.5 -59q-80 0 -119 40t-39 105z" />
    <glyph glyph-name="ogonek" unicode="&#x2db;" horiz-adv-x="1024" 
d="M573 27l39 -4l13 -13q-209 -149 -209 -303q0 -82 67 -82q35 0 61.5 21t57.5 63l37 -26q-86 -152 -242 -152q-85 0 -130.5 38.5t-45.5 106.5q0 35 12 68.5t30.5 61t49 55.5t58 48.5t67 44t67.5 38.5t68 35z" />
    <glyph glyph-name="tilde" unicode="&#x2dc;" horiz-adv-x="1024" 
d="M852 1188q-74 0 -178 47q-75 33 -117 33q-64 0 -115 -88l-36 14q51 114 104 167.5t139 53.5q15 0 28 -1t27 -4.5t22.5 -5.5t24 -8.5t21 -9t23 -10.5t22.5 -10q76 -31 113 -31q38 0 65 18.5t56 69.5l39 -12q-52 -120 -109.5 -171.5t-128.5 -51.5z" />
    <glyph glyph-name="hungarumlaut" unicode="&#x2dd;" horiz-adv-x="1024" 
d="M825 1145l183 387l86 18q38 8 66 -8.5t28 -54.5q0 -49 -62 -107l-268 -256zM510 1143l178 385l86 18q40 8 68 -6.5t28 -52.5q0 -29 -15 -52.5t-46 -52.5l-264 -260z" />
    <glyph glyph-name="uni0394" unicode="&#x394;" horiz-adv-x="1265" 
d="M1098 0h-1161l802 1466h90zM623 1135l-568 -1041h731z" />
    <glyph glyph-name="uni03A9" unicode="&#x3a9;" horiz-adv-x="1644" 
d="M807 0l27 160q214 176 302.5 376t88.5 492q0 365 -273 365q-91 0 -166.5 -36t-127.5 -99t-90.5 -141t-60.5 -168.5t-32 -175t-10 -167.5q0 -137 34.5 -242t98.5 -202l-25 -162h-575l51 465h47q4 -172 68.5 -229.5t247.5 -57.5h120q-157 95 -243 229t-86 293
q0 219 100 392.5t274.5 268.5t391.5 95q127 0 227.5 -40.5t163.5 -112t96 -165.5t33 -204q0 -73 -14 -142t-35.5 -124t-57.5 -109t-68.5 -94t-80 -81t-81.5 -67t-84 -57t-75.5 -45.5t-66.5 -36.5h127q95 0 156 12t109.5 45.5t80.5 87t63 142.5h45l-100 -465h-600z" />
    <glyph glyph-name="uni03BC" unicode="&#x3bc;" horiz-adv-x="1181" 
d="M213 981l244 18l-105 -653q-10 -65 -10 -108q0 -67 27 -102.5t92 -35.5q90 0 159.5 80.5t92.5 218.5l96 582l238 18l-136 -827q-15 -100 60 -100q69 0 116 121l48 -21q-29 -94 -93.5 -144.5t-156.5 -50.5q-109 0 -154 59.5t-35 158.5l-6 2q-45 -93 -124 -156.5
t-183 -63.5q-40 0 -71.5 8t-64 28.5t-56 64t-35.5 108.5l-17 -2q8 -59 50 -259t42 -271q0 -51 -41.5 -79t-95.5 -17l-108 24z" />
    <glyph glyph-name="pi" unicode="&#x3c0;" horiz-adv-x="1200" 
d="M903 799h-80q-34 -121 -61 -262t-27 -215q0 -162 117 -162q48 0 85.5 29.5t70.5 109.5l41 -10q-38 -135 -110.5 -223.5t-176.5 -88.5q-154 0 -154 175q0 45 9 102t29.5 134.5t35.5 129t46 151t42 134.5q-9 1 -155.5 10t-163.5 10q-86 -493 -144 -667
q-32 -96 -79.5 -137.5t-94.5 -41.5q-41 0 -64.5 22t-23.5 62q0 27 12 55t24.5 45t38.5 47.5t36 43.5q89 110 145 241t100 334q-101 7 -102 7q-45 0 -77 -18.5t-64 -70.5l-39 15q59 153 120.5 223t147.5 70q49 0 306.5 -15.5t307.5 -15.5q36 0 63.5 18t55.5 68l39 -12
q-58 -159 -116 -228t-140 -69z" />
    <glyph glyph-name="Wgrave" unicode="&#x1e80;" horiz-adv-x="1992" 
d="M651 297l406 727l-68 350h-133l8 60h578l-8 -60h-179l195 -1048l483 1048h-188l8 60h399l-8 -60h-129l-651 -1388h-107l-178 936l-526 -936h-104l-220 1388h-131l8 60h572l-8 -60h-174zM1090 1858l251 -330l-26 -27l-307 164q-39 21 -56.5 40t-17.5 50q0 35 26.5 58.5
t67.5 31.5z" />
    <glyph glyph-name="wgrave" unicode="&#x1e81;" horiz-adv-x="1652" 
d="M934 268q-8 -44 -8 -84q0 -62 32 -89t99 -27q103 0 205.5 98.5t164.5 239t62 264.5q0 135 -92 143l-58 -82q-52 10 -82 48t-30 85q0 59 38 97t111 38q102 0 152.5 -76.5t50.5 -189.5q0 -67 -17 -147t-48.5 -165t-83 -164t-115 -142t-150 -100.5t-182.5 -37.5
q-213 0 -270 156q-54 -64 -138 -110t-190 -46q-113 0 -176.5 58.5t-63.5 177.5q0 31 7 82q17 101 55 289.5t49 246.5q17 91 -35 91q-33 0 -69.5 -32t-85.5 -104l-50 31q59 100 127 141t158 41q85 0 134.5 -42.5t49.5 -127.5q0 -26 -16 -108q-6 -27 -41 -216t-41 -218
q-25 -104 -6.5 -160.5t88.5 -56.5q63 0 115.5 37.5t111.5 107.5q15 91 69.5 350.5t78.5 405.5q49 -2 124.5 3.5t118.5 14.5q-103 -427 -153 -721zM1012 1501l82 -377l-33 -14l-219 266q-35 49 -35 84q0 46 48 68t91 2z" />
    <glyph glyph-name="Wacute" unicode="&#x1e82;" horiz-adv-x="1992" 
d="M651 297l406 727l-68 350h-133l8 60h578l-8 -60h-179l195 -1048l483 1048h-188l8 60h399l-8 -60h-129l-651 -1388h-107l-178 936l-526 -936h-104l-220 1388h-131l8 60h572l-8 -60h-174zM975 1522l309 325l70 -18q69 -16 69 -76q0 -62 -94 -106l-332 -154z" />
    <glyph glyph-name="wacute" unicode="&#x1e83;" horiz-adv-x="1652" 
d="M934 268q-8 -44 -8 -84q0 -62 32 -89t99 -27q103 0 205.5 98.5t164.5 239t62 264.5q0 135 -92 143l-58 -82q-52 10 -82 48t-30 85q0 59 38 97t111 38q102 0 152.5 -76.5t50.5 -189.5q0 -67 -17 -147t-48.5 -165t-83 -164t-115 -142t-150 -100.5t-182.5 -37.5
q-213 0 -270 156q-54 -64 -138 -110t-190 -46q-113 0 -176.5 58.5t-63.5 177.5q0 31 7 82q17 101 55 289.5t49 246.5q17 91 -35 91q-33 0 -69.5 -32t-85.5 -104l-50 31q59 100 127 141t158 41q85 0 134.5 -42.5t49.5 -127.5q0 -26 -16 -108q-6 -27 -41 -216t-41 -218
q-25 -104 -6.5 -160.5t88.5 -56.5q63 0 115.5 37.5t111.5 107.5q15 91 69.5 350.5t78.5 405.5q49 -2 124.5 3.5t118.5 14.5q-103 -427 -153 -721zM860 1122l187 375l90 16q36 8 66 -8t30 -55q0 -49 -59 -102l-283 -248z" />
    <glyph glyph-name="Wdieresis" unicode="&#x1e84;" horiz-adv-x="1992" 
d="M651 297l406 727l-68 350h-133l8 60h578l-8 -60h-179l195 -1048l483 1048h-188l8 60h399l-8 -60h-129l-651 -1388h-107l-178 936l-526 -936h-104l-220 1388h-131l8 60h572l-8 -60h-174zM995 1792q48 0 77.5 -24t29.5 -68q0 -65 -41 -108.5t-105 -43.5q-56 0 -82 29
t-26 72q0 60 43.5 101.5t103.5 41.5zM1399 1792q48 0 78 -23t30 -67q0 -66 -40.5 -110t-106.5 -44q-107 0 -107 101q0 63 45.5 103t100.5 40z" />
    <glyph glyph-name="wdieresis" unicode="&#x1e85;" horiz-adv-x="1652" 
d="M934 268q-8 -44 -8 -84q0 -62 32 -89t99 -27q103 0 205.5 98.5t164.5 239t62 264.5q0 135 -92 143l-58 -82q-52 10 -82 48t-30 85q0 59 38 97t111 38q102 0 152.5 -76.5t50.5 -189.5q0 -67 -17 -147t-48.5 -165t-83 -164t-115 -142t-150 -100.5t-182.5 -37.5
q-213 0 -270 156q-54 -64 -138 -110t-190 -46q-113 0 -176.5 58.5t-63.5 177.5q0 31 7 82q17 101 55 289.5t49 246.5q17 91 -35 91q-33 0 -69.5 -32t-85.5 -104l-50 31q59 100 127 141t158 41q85 0 134.5 -42.5t49.5 -127.5q0 -26 -16 -108q-6 -27 -41 -216t-41 -218
q-25 -104 -6.5 -160.5t88.5 -56.5q63 0 115.5 37.5t111.5 107.5q15 91 69.5 350.5t78.5 405.5q49 -2 124.5 3.5t118.5 14.5q-103 -427 -153 -721zM838 1407q47 0 76.5 -24t29.5 -68q0 -65 -40.5 -108.5t-104.5 -43.5q-56 0 -82.5 29t-26.5 72q0 60 44 101.5t104 41.5z
M1241 1407q48 0 78.5 -23t30.5 -67q0 -66 -41 -110t-107 -44q-106 0 -106 101q0 63 45 103t100 40z" />
    <glyph glyph-name="Ygrave" unicode="&#x1ef2;" horiz-adv-x="1161" 
d="M694 745l422 629h-176l10 60h375l-10 -60h-119l-481 -712l-103 -603h166l-10 -59h-580l11 59h163l101 600l-242 715h-129l8 60h578l-8 -60h-174zM657 1858l252 -330l-26 -27l-308 164q-39 21 -56 39.5t-17 50.5q0 35 26.5 58.5t67.5 31.5z" />
    <glyph glyph-name="ygrave" unicode="&#x1ef3;" horiz-adv-x="1083" 
d="M111 -315l-91 -15q-22 -31 -22 -61q0 -26 19.5 -42t56.5 -16q189 0 436 375q-142 526 -238 836q-18 62 -36 84t-46 22q-32 0 -59 -35t-59 -120l-60 24q23 60 44.5 100t53.5 76.5t76 54t101 17.5q80 0 131 -46t82 -148q92 -302 176 -641q98 150 176 305t78 247
q0 40 -18.5 65.5t-47.5 27.5l-65 -82q-48 15 -77.5 51.5t-29.5 85.5q0 66 42.5 107.5t113.5 41.5q87 0 135.5 -60t48.5 -157q0 -226 -295 -661q-21 -31 -57.5 -86t-59.5 -89.5t-59.5 -85.5t-63 -84.5t-63.5 -76.5t-68 -70.5t-70 -56.5t-75.5 -46t-78.5 -27.5t-85 -10.5
q-113 0 -178 58.5t-65 158.5q0 77 46.5 125.5t119.5 48.5t113 -53t18 -141zM655 1501l82 -377l-32 -14l-220 266q-34 47 -34 84q0 46 48 68t91 2z" />
    <glyph glyph-name="thinspace" unicode="&#x2009;" horiz-adv-x="102" 
 />
    <glyph glyph-name="endash" unicode="&#x2013;" horiz-adv-x="1024" 
d="M8 537l12 75h969l-12 -75h-969z" />
    <glyph glyph-name="emdash" unicode="&#x2014;" horiz-adv-x="2048" 
d="M6 537l14 75h1993l-12 -75h-1995z" />
    <glyph glyph-name="quoteleft" unicode="&#x2018;" horiz-adv-x="462" 
d="M504 1538l24 -45q-82 -43 -146.5 -105.5t-64.5 -115.5q0 -39 29 -62l76 62q27 -15 48.5 -45.5t21.5 -73.5q0 -62 -45 -101.5t-115 -39.5q-67 0 -105.5 44.5t-38.5 108.5q0 60 25.5 115t73.5 101.5t98 82t119 74.5z" />
    <glyph glyph-name="quoteright" unicode="&#x2019;" horiz-adv-x="454" 
d="M182 934l-22 45q82 43 146.5 105.5t64.5 115.5q0 36 -29 62l-76 -62q-27 15 -48 45.5t-21 73.5q0 62 44 101.5t115 39.5q67 0 104.5 -44.5t37.5 -108.5q0 -60 -25 -115t-72.5 -101t-98.5 -82t-120 -75z" />
    <glyph glyph-name="quotesinglbase" unicode="&#x201a;" horiz-adv-x="493" 
d="M25 -293l-23 45q82 43 146.5 105.5t64.5 115.5q0 36 -29 62l-75 -62q-27 15 -48.5 45.5t-21.5 73.5q0 62 44.5 101.5t115.5 39.5q67 0 104 -44.5t37 -108.5q0 -60 -25 -115t-72 -101t-98 -82t-120 -75z" />
    <glyph glyph-name="quotedblleft" unicode="&#x201c;" horiz-adv-x="829" 
d="M504 1538l24 -45q-82 -43 -146.5 -105.5t-64.5 -115.5q0 -39 29 -62l76 62q27 -15 48.5 -45.5t21.5 -73.5q0 -62 -45 -101.5t-115 -39.5q-67 0 -105.5 44.5t-38.5 108.5q0 60 25.5 115t73.5 101.5t98 82t119 74.5zM870 1538l25 -45q-82 -43 -146.5 -105.5t-64.5 -115.5
q0 -39 29 -62l75 62q27 -15 48.5 -45.5t21.5 -73.5q0 -62 -45 -101.5t-115 -39.5q-67 0 -105 44.5t-38 108.5q0 60 25 115t73 101.5t98.5 82t118.5 74.5z" />
    <glyph glyph-name="quotedblright" unicode="&#x201d;" horiz-adv-x="817" 
d="M182 934l-22 45q82 43 146.5 105.5t64.5 115.5q0 36 -29 62l-76 -62q-27 15 -48 45.5t-21 73.5q0 62 44 101.5t115 39.5q67 0 104.5 -44.5t37.5 -108.5q0 -60 -25 -115t-72.5 -101t-98.5 -82t-120 -75zM545 934l-25 45q83 42 148 105t65 116q0 37 -31 62l-73 -62
q-27 15 -48.5 45.5t-21.5 73.5q0 62 44.5 101.5t115.5 39.5q67 0 104 -44.5t37 -108.5q0 -60 -25 -115t-72 -101t-98 -82t-120 -75z" />
    <glyph glyph-name="quotedblbase" unicode="&#x201e;" horiz-adv-x="854" 
d="M25 -293l-23 45q82 43 146.5 105.5t64.5 115.5q0 36 -29 62l-75 -62q-27 15 -48.5 45.5t-21.5 73.5q0 62 44.5 101.5t115.5 39.5q67 0 104 -44.5t37 -108.5q0 -60 -25 -115t-72 -101t-98 -82t-120 -75zM385 -293l-23 45q82 43 146.5 105.5t64.5 115.5q0 37 -28 62
l-76 -62q-27 15 -48.5 45.5t-21.5 73.5q0 62 44.5 101.5t115.5 39.5q67 0 104 -44.5t37 -108.5q0 -60 -25 -115t-72 -101t-98 -82t-120 -75z" />
    <glyph glyph-name="dagger" unicode="&#x2020;" horiz-adv-x="1042" 
d="M692 721l-2 -12q-35 -47 -50.5 -70t-45.5 -77t-51 -121t-37 -152l-107 -535h-55l88 531q39 231 -41 428l2 12q48 50 101.5 129t74.5 137q-54 -3 -151.5 -42.5t-138.5 -39.5q-43 0 -75 23t-32 65q0 61 37.5 92t89.5 31q46 0 133.5 -45t145.5 -47q0 76 -20.5 157.5
t-20.5 125.5q0 66 39 107.5t110 41.5q46 0 69 -29.5t23 -72.5q0 -37 -13.5 -71t-34 -62.5t-42.5 -56.5t-42 -65t-28 -77q55 4 158 49t150 45q39 0 65.5 -23t26.5 -67q0 -57 -40 -89t-91 -32q-42 0 -130.5 39.5t-144.5 42.5v-8q0 -57 24.5 -134.5t55.5 -127.5z" />
    <glyph glyph-name="daggerdbl" unicode="&#x2021;" horiz-adv-x="1081" 
d="M893 207q0 -56 -39 -86.5t-90 -30.5q-46 0 -130 46t-142 48q-3 -21 -3 -41q0 -45 19.5 -123.5t19.5 -117.5q0 -60 -38.5 -106t-106.5 -46q-49 0 -71.5 29.5t-22.5 73.5q0 45 20.5 87.5t47 72.5t54 76.5t38.5 94.5q-57 -4 -157.5 -49t-146.5 -45q-39 0 -67.5 24t-28.5 68
q0 59 39 89t92 30q42 0 129.5 -39.5t143.5 -42.5q-1 51 -24 99t-64 108l2 12q80 66 145 168q-3 15 -9 31t-11 28t-15 29.5t-15 25.5l-17.5 28t-16.5 26l2 12q127 108 166 207q-53 -3 -150.5 -43.5t-140.5 -40.5t-73.5 23t-30.5 65q0 61 38.5 92t88.5 31q46 0 132 -45
t144 -47q9 58 -1.5 107t-25 93.5t-14.5 80.5q0 64 40.5 107.5t111.5 43.5q46 0 68 -29.5t22 -72.5q0 -37 -13.5 -71t-34 -62.5t-42.5 -56.5t-42 -65t-28 -77q57 4 159 49t148 45q40 0 66 -23t26 -71q0 -57 -39 -87t-90 -30q-42 0 -130 40.5t-144 43.5q5 -94 88 -207l-2 -12
q-80 -72 -143 -170q23 -79 82 -164l-2 -12q-131 -121 -164 -209q52 3 152 42.5t143 39.5t70.5 -23t27.5 -71z" />
    <glyph glyph-name="bullet" unicode="&#x2022;" horiz-adv-x="808" 
d="M449 887q99 0 157 -51.5t58 -153.5q0 -131 -86 -220t-216 -89q-77 0 -127 30.5t-69 75t-19 101.5q0 133 86 220t216 87z" />
    <glyph glyph-name="ellipsis" unicode="&#x2026;" horiz-adv-x="1574" 
d="M211 289q62 0 98.5 -31t36.5 -90q0 -84 -53.5 -136t-132.5 -52q-69 0 -100 37.5t-31 91.5q0 81 53.5 130.5t128.5 49.5zM741 289q63 0 99.5 -31t36.5 -90q0 -84 -53 -136t-132 -52q-69 0 -101 37.5t-32 91.5q0 80 54 130t128 50zM1276 289q63 0 99 -31t36 -90
q0 -84 -53 -136t-131 -52q-69 0 -101 37.5t-32 91.5q0 80 54 130t128 50z" />
    <glyph glyph-name="perthousand" unicode="&#x2030;" horiz-adv-x="2129" 
d="M1348 221q0 176 104 285.5t277 109.5q117 0 187.5 -60.5t70.5 -184.5q0 -94 -33 -171t-87.5 -124.5t-120 -73t-134.5 -25.5q-131 0 -197.5 66t-66.5 178zM1718 573q-60 0 -103 -42.5t-63.5 -110t-29.5 -129t-9 -121.5q0 -150 107 -150q92 0 145.5 115.5t53.5 290.5
q0 75 -24.5 111t-76.5 36zM633 221q0 176 103.5 285.5t275.5 109.5q117 0 187.5 -60.5t70.5 -184.5q0 -94 -33 -171.5t-87 -124.5t-119.5 -72.5t-133.5 -25.5q-131 0 -197.5 66t-66.5 178zM1001 573q-59 0 -101.5 -42.5t-63 -110t-29 -129t-8.5 -121.5q0 -150 104 -150
q94 0 147.5 115.5t53.5 290.5q0 76 -24.5 111.5t-78.5 35.5zM156 1061q0 175 103.5 285t275.5 110q117 0 187.5 -61.5t70.5 -184.5q0 -95 -33 -172.5t-87 -125t-119.5 -72.5t-133.5 -25q-131 0 -197.5 66.5t-66.5 179.5zM524 1411q-59 0 -101.5 -42t-63 -109t-29 -128.5
t-8.5 -121.5q0 -150 104 -150q94 0 147.5 115.5t53.5 290.5q0 75 -24.5 110t-78.5 35zM88 0l1145 1434h84l-1141 -1434h-88z" />
    <glyph glyph-name="guilsinglleft" unicode="&#x2039;" horiz-adv-x="643" 
d="M113 541l409 276l27 -29l-281 -329l166 -332l-31 -23l-282 258q-53 50 -53 95q0 43 45 84z" />
    <glyph glyph-name="guilsinglright" unicode="&#x203a;" horiz-adv-x="645" 
d="M496 379l-410 -275l-27 29l281 334l-166 326l31 22l282 -256q52 -49 52 -94q0 -39 -43 -86z" />
    <glyph glyph-name="fraction" unicode="&#x2044;" horiz-adv-x="403" 
d="M-424 -23l1135 1479h86l-1133 -1479h-88z" />
    <glyph glyph-name="zerosuperior" unicode="&#x2070;" horiz-adv-x="768" 
d="M125 1114q0 77 15 154t48.5 152t81.5 132.5t121 93t160 35.5q129 0 203.5 -75.5t74.5 -237.5q0 -113 -28.5 -215.5t-81.5 -182.5t-135.5 -127.5t-182.5 -47.5q-138 0 -207 86t-69 233zM543 1624q-53 0 -94.5 -42.5t-66 -107t-41 -148.5t-22.5 -158.5t-6 -145.5
q0 -49 7 -83.5t30.5 -59.5t63.5 -25q63 0 110.5 62t71 159t34.5 191t11 182q0 42 -2.5 67.5t-11.5 53.5t-30 41.5t-54 13.5z" />
    <glyph glyph-name="foursuperior" unicode="&#x2074;" horiz-adv-x="737" 
d="M621 860h120l-10 -53h-452l8 53h137l29 156h-357l13 67q199 186 291 314.5t92 195.5q0 37 -15 64l37 31q162 0 162 -109q0 -45 -22.5 -84t-89 -100.5t-199.5 -163.5l-205 -156h303l33 195l206 43l-40 -238h110l-10 -59h-113z" />
    <glyph glyph-name="fivesuperior" unicode="&#x2075;" horiz-adv-x="681" 
d="M287 850q100 0 154.5 78.5t54.5 199.5q0 75 -25.5 110.5t-79.5 35.5q-74 0 -158 -49l-34 16l114 424l27 8q117 -45 252 -45q73 0 112 21.5t54 70.5l26 -4q-10 -120 -84 -181.5t-204 -61.5q-34 0 -85 8.5t-79 19.5l-70 -213q101 62 230 62q106 0 161.5 -53t55.5 -146
q0 -160 -120.5 -259t-297.5 -99q-98 0 -151.5 46t-53.5 111q0 57 32.5 95t94.5 38q43 0 63.5 -19.5t20.5 -51.5t-16 -64h-52q-20 -26 -20 -49q0 -22 21 -35.5t57 -13.5z" />
    <glyph glyph-name="sixsuperior" unicode="&#x2076;" horiz-adv-x="727" 
d="M618 1626q-94 0 -164 -99t-106 -278q34 44 89 73.5t122 29.5q89 0 145 -52.5t56 -156.5q0 -108 -50.5 -189t-133 -121t-183.5 -40q-119 0 -185.5 70t-66.5 220q0 79 16.5 159.5t53.5 160t90 141t134.5 99.5t178.5 38q87 0 135 -40.5t48 -110.5q0 -46 -29.5 -79.5
t-75.5 -33.5q-40 0 -63 20t-23 54q0 27 15 57h45q12 21 12 39q0 39 -60 39zM494 1282q-59 0 -101.5 -47t-61 -113t-18.5 -141q0 -129 90 -129q50 0 86 32t53 82.5t24 97t7 91.5q0 66 -18.5 96.5t-60.5 30.5z" />
    <glyph glyph-name="sevensuperior" unicode="&#x2077;" horiz-adv-x="659" 
d="M674 1225h-172q-90 -163 -90 -271q0 -74 32 -125l-28 -34q-90 -9 -140.5 28t-50.5 95q0 63 34 119t142 188h-153l14 51h172q24 27 66 77.5t77.5 91t67.5 73.5h-287q-72 0 -96.5 -18t-52.5 -89h-41l70 272l22 7q38 -23 131 -23h412l8 -25q-49 -44 -141.5 -162.5
t-143.5 -203.5h164z" />
    <glyph glyph-name="eightsuperior" unicode="&#x2078;" horiz-adv-x="720" 
d="M205 1440q0 108 90.5 174.5t243.5 66.5q121 0 190.5 -48.5t69.5 -141.5q0 -89 -77 -153.5t-194 -73.5l-2 -4q116 -11 170 -62t54 -131q0 -128 -103 -201t-260 -73q-132 0 -207.5 56.5t-75.5 158.5q0 101 80.5 173t221.5 79l2 4q-94 6 -148.5 54t-54.5 122zM395 850
q46 0 79 23t49.5 62t24 79.5t7.5 85.5q0 129 -94 129q-77 0 -120.5 -71t-43.5 -179q0 -61 21 -95t77 -34zM524 1626q-39 0 -67 -21.5t-41.5 -57t-19 -70.5t-5.5 -74q0 -117 80 -117q63 0 97 57.5t34 169.5q0 113 -78 113z" />
    <glyph glyph-name="ninesuperior" unicode="&#x2079;" horiz-adv-x="729" 
d="M307 850q96 0 163 93t99 274q-76 -93 -204 -93q-90 0 -148.5 56t-58.5 163q0 159 101 248.5t251 89.5q264 0 264 -313q0 -70 -15 -144.5t-51 -152.5t-88 -139t-134 -100t-181 -39q-92 0 -140 44t-48 109q0 60 34.5 92.5t84.5 32.5q39 0 62.5 -22t23.5 -56q0 -25 -17 -59
l-45 2q-20 -23 -20 -45q0 -41 67 -41zM428 1192q59 0 100 48.5t57.5 113.5t16.5 137q0 133 -90 133q-48 0 -83 -29.5t-52 -78t-24 -94.5t-7 -93q0 -68 17.5 -102.5t64.5 -34.5z" />
    <glyph glyph-name="Euro" unicode="&#x20ac;" horiz-adv-x="1263" 
d="M934 1399q-157 0 -264.5 -137t-165.5 -383h438l-16 -68h-437q-12 -73 -20 -162h399l-16 -67h-387q-5 -545 289 -545q78 0 126 32.5t48 92.5q0 15 -8 47h-66q-25 85 11.5 142t117.5 57q62 0 95.5 -39.5t33.5 -102.5q0 -77 -37.5 -136t-97 -90.5t-122 -47t-124.5 -15.5
q-263 0 -391 154.5t-139 450.5h-144l15 67h131q8 98 22 162h-131l17 68h129q34 124 93 228t142 182.5t193 122.5t237 44q157 0 243.5 -72t86.5 -176q0 -76 -40 -124t-116 -48q-52 0 -83 27t-31 72q0 47 30 94h66q14 32 14 63q0 49 -38 78t-103 29z" />
    <glyph glyph-name="afii61352" unicode="&#x2116;" horiz-adv-x="2148" 
d="M1364 1092l-197 -1106h-125l-469 1233l-157 -889q-62 -350 -316 -350q-85 0 -141.5 38t-56.5 115q0 94 49.5 144.5t114.5 50.5q51 0 80.5 -25.5t29.5 -71.5q0 -36 -22 -88h-84q-19 -37 -19 -61q0 -43 72 -43q49 0 86.5 21.5t63.5 64t43 95t30 124.5l168 952l-37 78h-123
l11 60h421l381 -1047l127 719q10 55 22.5 100t37 93.5t56.5 81t81.5 54t110.5 21.5q87 0 147.5 -42.5t60.5 -129.5q0 -83 -50 -129.5t-115 -46.5q-51 0 -81 24.5t-30 69.5q0 38 22 90h84q19 34 19 60q0 45 -72 45q-96 0 -146.5 -78t-76.5 -227zM1393 573q0 113 43 208
t134 156.5t216 61.5q120 0 192 -59.5t72 -185.5q0 -184 -112 -303t-283 -119q-130 0 -196 63t-66 178zM1772 952q-50 0 -88 -40t-60 -106t-34 -137.5t-15 -148.5q-1 -78 22 -112.5t74 -34.5q52 0 90 40.5t59 109.5t32 139.5t14 150.5q1 73 -22 106t-72 33zM1380 180l13 66
h528l-12 -66h-529z" />
    <glyph glyph-name="trademark" unicode="&#x2122;" horiz-adv-x="1912" 
d="M1573 1327h287v-41h-82v-678h82v-39h-330v39h80v674l-226 -713h-75l-271 703v-664h78v-39h-203v39h68v678h-68v41h289l197 -534zM838 1327l10 -237h-31q-26 119 -73 161.5t-132 42.5h-12v-682h105v-43h-377v43h106v682h-12q-82 0 -130.5 -43t-74.5 -161h-33l13 237h641z
" />
    <glyph glyph-name="Omega" unicode="&#x2126;" horiz-adv-x="1644" 
d="M807 0l27 160q214 176 302.5 376t88.5 492q0 365 -273 365q-91 0 -166.5 -36t-127.5 -99t-90.5 -141t-60.5 -168.5t-32 -175t-10 -167.5q0 -137 34.5 -242t98.5 -202l-25 -162h-575l51 465h47q4 -172 68.5 -229.5t247.5 -57.5h120q-157 95 -243 229t-86 293
q0 219 100 392.5t274.5 268.5t391.5 95q127 0 227.5 -40.5t163.5 -112t96 -165.5t33 -204q0 -73 -14 -142t-35.5 -124t-57.5 -109t-68.5 -94t-80 -81t-81.5 -67t-84 -57t-75.5 -45.5t-66.5 -36.5h127q95 0 156 12t109.5 45.5t80.5 87t63 142.5h45l-100 -465h-600z" />
    <glyph glyph-name="onethird" unicode="&#x2153;" horiz-adv-x="1843" 
d="M256 639l111 664q-42 -7 -97 -2.5t-88 12.5l11 45q95 -7 178 21.5t127 80.5h96l-139 -821h125l-11 -53h-465l11 53h141zM293 -23l1134 1479h86l-1132 -1479h-88zM1454 862q123 0 181.5 -43.5t58.5 -120.5q0 -45 -22.5 -80.5t-67 -63.5t-94 -48t-121.5 -41q0 -1 1 -3t1 -3
q40 4 61 4q63 0 111.5 -15.5t83 -58.5t34.5 -110q0 -59 -24 -109.5t-64 -86t-93 -61t-111.5 -37.5t-118.5 -12q-108 0 -164.5 46t-56.5 118q0 54 34 89.5t91 35.5q44 0 65 -22t21 -56q0 -24 -15 -61h-55q-14 -20 -14 -41q0 -24 21 -37.5t60 -13.5q96 0 156 59.5t60 175.5
q0 73 -30.5 108.5t-84.5 35.5q-49 0 -119 -25l-10 59q134 41 201 95.5t67 150.5q0 117 -117 117q-48 0 -74 -24.5t-3 -63.5h40q5 -30 5 -33q0 -45 -29 -72.5t-82 -27.5q-42 0 -65 25.5t-23 64.5q0 88 85.5 137t219.5 49z" />
    <glyph glyph-name="twothirds" unicode="&#x2154;" horiz-adv-x="1843" 
d="M481 1460q135 0 197.5 -55.5t62.5 -142.5q0 -39 -11 -74.5t-39 -72.5t-55.5 -66t-82 -71t-95 -71.5t-116.5 -81.5l-127 -88h221q80 0 125 15t64 39.5t39 76.5h36l-51 -282h-561l21 119l174 161q135 126 191 221t56 189q0 63 -30.5 96t-87.5 33q-51 0 -79 -30.5t-11 -69.5
h47q4 -14 4 -39q0 -45 -28 -72t-77 -27q-44 0 -67 27.5t-23 69.5q0 88 88 142t215 54zM344 -23l1135 1479h86l-1133 -1479h-88zM1503 862q123 0 181.5 -43.5t58.5 -120.5q0 -45 -22.5 -80.5t-67 -63.5t-94 -48t-121.5 -41q0 -1 1 -3t1 -3q40 4 61 4q46 0 85 -9.5t72.5 -29.5
t53 -57t19.5 -88q0 -97 -63 -168.5t-154.5 -104.5t-194.5 -33q-108 0 -164.5 46t-56.5 118q0 54 34 89.5t91 35.5q44 0 65 -22t21 -56q0 -24 -15 -61h-55q-14 -20 -14 -41q0 -24 21.5 -37.5t60.5 -13.5q96 0 155.5 59.5t59.5 175.5q0 73 -30.5 108.5t-84.5 35.5
q-49 0 -119 -25l-10 59q134 41 201 95.5t67 150.5q0 117 -116 117q-48 0 -74.5 -24.5t-3.5 -63.5h41q4 -24 4 -33q0 -45 -29 -72.5t-82 -27.5q-42 0 -65 25.5t-23 64.5q0 88 85.5 137t219.5 49z" />
    <glyph glyph-name="oneeighth" unicode="&#x215b;" horiz-adv-x="1843" 
d="M285 639l110 664q-42 -7 -96.5 -2.5t-87.5 12.5l10 45q95 -7 178 21.5t127 80.5h97l-140 -821h125l-10 -53h-465l10 53h142zM291 -23l1134 1479h86l-1132 -1479h-88zM1118 621q0 108 90.5 174.5t243.5 66.5q121 0 190.5 -48.5t69.5 -141.5q0 -89 -76.5 -154t-193.5 -74
l-2 -4q223 -22 223 -192q0 -128 -103 -201.5t-260 -73.5q-132 0 -207 56.5t-75 158.5q0 101 80 173t221 79l2 4q-94 6 -148.5 54.5t-54.5 122.5zM1309 31q46 0 79 23t49.5 62t23.5 79.5t7 85.5q0 129 -94 129q-77 0 -120.5 -71t-43.5 -179q0 -61 21.5 -95t77.5 -34z
M1438 807q-39 0 -67 -21.5t-41.5 -57t-19 -70.5t-5.5 -74q0 -117 79 -117q63 0 97.5 57.5t34.5 169.5q0 113 -78 113z" />
    <glyph glyph-name="threeeighths" unicode="&#x215c;" horiz-adv-x="1843" 
d="M526 1460q123 0 181.5 -43.5t58.5 -120.5q0 -45 -22.5 -80.5t-67 -63.5t-94 -48t-121.5 -41q0 -1 1 -3t1 -3q40 4 61 4q46 0 85 -9.5t72.5 -29.5t53 -57t19.5 -88q0 -97 -63 -168.5t-154.5 -104.5t-194.5 -33q-108 0 -164.5 46t-56.5 118q0 54 34 89.5t91 35.5
q44 0 65 -22t21 -56q0 -24 -15 -61h-55q-14 -20 -14 -41q0 -24 21.5 -37.5t60.5 -13.5q96 0 155.5 59.5t59.5 175.5q0 73 -30.5 108.5t-84.5 35.5q-49 0 -119 -25l-10 59q134 41 201 95.5t67 150.5q0 117 -116 117q-48 0 -74.5 -24.5t-3.5 -63.5h41q4 -24 4 -33
q0 -45 -29 -72.5t-82 -27.5q-42 0 -65 25.5t-23 64.5q0 88 85.5 137t219.5 49zM319 -23l1135 1479h86l-1132 -1479h-89zM1149 621q0 108 90.5 174.5t243.5 66.5q121 0 190.5 -48.5t69.5 -141.5q0 -89 -76.5 -154t-193.5 -74l-3 -4q224 -22 224 -192q0 -128 -103 -201.5
t-260 -73.5q-132 0 -207 56.5t-75 158.5q0 101 80 173t221 79l2 4q-94 6 -148.5 54.5t-54.5 122.5zM1339 31q46 0 79 23t49.5 62t24 79.5t7.5 85.5q0 129 -94 129q-77 0 -120.5 -71t-43.5 -179q0 -61 21 -95t77 -34zM1468 807q-39 0 -67 -21.5t-41.5 -57t-19 -70.5t-5.5 -74
q0 -117 80 -117q63 0 97 57.5t34 169.5q0 113 -78 113z" />
    <glyph glyph-name="fiveeighths" unicode="&#x215d;" horiz-adv-x="1843" 
d="M274 629q100 0 154.5 78.5t54.5 199.5q0 75 -25 110.5t-79 35.5q-74 0 -158 -49l-35 16l115 424l27 8q117 -45 252 -45q72 0 111 21.5t54 70.5l27 -4q-10 -121 -84.5 -182.5t-204.5 -61.5q-34 0 -85 8.5t-79 20.5l-69 -213q99 61 229 61q107 0 162 -52.5t55 -145.5
q0 -160 -120.5 -259.5t-296.5 -99.5q-98 0 -151.5 46.5t-53.5 111.5q0 57 32.5 95t94.5 38q43 0 63.5 -19.5t20.5 -51.5q0 -30 -17 -64h-51q-20 -26 -20 -49q0 -22 20.5 -35.5t56.5 -13.5zM276 -23l1135 1479h86l-1132 -1479h-89zM1126 621q0 108 90.5 174.5t243.5 66.5
q121 0 190.5 -48.5t69.5 -141.5q0 -89 -76.5 -154t-193.5 -74l-2 -4q223 -22 223 -192q0 -128 -103 -201.5t-259 -73.5q-132 0 -207.5 56.5t-75.5 158.5q0 101 80 173t221 79l2 4q-94 6 -148.5 54.5t-54.5 122.5zM1317 31q46 0 79 23t49.5 62t24 79.5t7.5 85.5
q0 129 -95 129q-77 0 -120 -70.5t-43 -179.5q0 -61 21 -95t77 -34zM1446 807q-39 0 -67 -21.5t-41.5 -57t-19 -70.5t-5.5 -74q0 -117 80 -117q63 0 97 57.5t34 169.5q0 113 -78 113z" />
    <glyph glyph-name="seveneighths" unicode="&#x215e;" horiz-adv-x="1843" 
d="M715 1004h-172q-90 -163 -90 -271q0 -74 32 -125l-28 -35q-90 -9 -140.5 28t-50.5 95q0 63 34 119.5t142 188.5h-153l14 51h172q23 26 66 77t78 91t67 73h-287q-72 0 -96.5 -18t-52.5 -88h-41l70 272l22 6q36 -22 131 -22h412l8 -25q-49 -44 -141.5 -162.5t-143.5 -203.5
h164zM246 -23l1134 1479h86l-1132 -1479h-88zM1137 621q0 108 90.5 174.5t242.5 66.5q122 0 191.5 -48.5t69.5 -141.5q0 -89 -77 -154t-194 -74l-2 -4q223 -22 223 -192q0 -128 -103 -201.5t-259 -73.5q-132 0 -207.5 56.5t-75.5 158.5q0 101 80 173t221 79l2 4
q-94 6 -148 54.5t-54 122.5zM1327 31q46 0 79 23t49.5 62t24 79.5t7.5 85.5q0 129 -94 129q-77 0 -120.5 -71t-43.5 -179q0 -61 21 -95t77 -34zM1456 807q-39 0 -67 -21.5t-41.5 -57t-19 -70.5t-5.5 -74q0 -117 80 -117q63 0 97 57.5t34 169.5q0 113 -78 113z" />
    <glyph glyph-name="partialdiff" unicode="&#x2202;" horiz-adv-x="1165" 
d="M573 752q-61 0 -107.5 -32t-73 -80t-43 -114t-22 -122.5t-5.5 -116.5q0 -126 32.5 -185t114.5 -59q66 0 118.5 42.5t84 112.5t47.5 152t16 168q0 111 -41.5 172.5t-120.5 61.5zM586 1374q202 0 321 -145t119 -432q0 -95 -13 -188t-39.5 -186.5t-72 -172.5t-107 -141
t-148.5 -97t-191 -35q-181 0 -276 99.5t-95 277.5q0 98 29.5 185.5t83.5 153.5t135.5 104.5t179.5 38.5q105 0 173.5 -50t96.5 -133q25 147 25 242q0 75 -5.5 133t-21.5 114.5t-42.5 93t-70.5 59t-104 22.5q-72 0 -112 -38t-21 -108l55 -4q6 -74 -22.5 -120t-93.5 -46
q-58 0 -90.5 35t-32.5 94q0 81 51 138t126 81.5t163 24.5z" />
    <glyph glyph-name="Delta" unicode="&#x2206;" horiz-adv-x="1265" 
d="M1098 0h-1161l802 1466h90zM623 1135l-568 -1041h731z" />
    <glyph glyph-name="product" unicode="&#x220f;" horiz-adv-x="1513" 
d="M207 1434h1364l-12 -60h-154l-281 -1624h154l-12 -59h-557l12 59h141l281 1624h-533l-280 -1624h141l-12 -59h-555l12 59h152l280 1624h-153z" />
    <glyph glyph-name="summation" unicode="&#x2211;" horiz-adv-x="1189" 
d="M946 -309h-1079l-12 37l680 768l-402 909l25 29h1028l-53 -385h-50q-2 102 -16 163t-51.5 98.5t-94.5 50.5t-151 13h-332l318 -737l-656 -737h428q114 0 188.5 16t129 58t89.5 102.5t71 161.5h51z" />
    <glyph glyph-name="minus" unicode="&#x2212;" 
d="M1022 610h-930l12 74h930z" />
    <glyph glyph-name="uni2215" unicode="&#x2215;" horiz-adv-x="403" 
d="M-322 -20l971 1476h86l-968 -1476h-89z" />
    <glyph glyph-name="uni2219" unicode="&#x2219;" horiz-adv-x="555" 
d="M141 653q0 71 46.5 116.5t119.5 45.5q69 0 109.5 -35.5t40.5 -105.5q0 -76 -44.5 -122t-121.5 -46q-78 0 -114 42.5t-36 104.5z" />
    <glyph glyph-name="radical" unicode="&#x221a;" horiz-adv-x="1120" 
d="M1223 1524l-609 -1524h-143l-227 766l-158 -68l-16 68l358 162l195 -721l528 1331z" />
    <glyph glyph-name="infinity" unicode="&#x221e;" horiz-adv-x="1337" 
d="M1217 504q0 -124 -73 -193t-173 -69q-86 0 -166.5 41.5t-173.5 132.5q-139 -174 -295 -174q-106 0 -170 67.5t-64 177.5q0 65 24.5 118t64.5 84.5t87.5 48t96.5 16.5q70 0 142 -36.5t167 -129.5q133 153 297 153q104 0 170 -61.5t66 -175.5zM350 305q124 0 242 154
q-104 97 -154.5 132.5t-103.5 35.5q-66 0 -112 -42t-46 -112q0 -74 49 -121t125 -47zM1135 508q0 70 -42 120t-120 50q-62 0 -129.5 -35t-122.5 -100q95 -102 145 -138t117 -36t109.5 34.5t42.5 104.5z" />
    <glyph glyph-name="integral" unicode="&#x222b;" horiz-adv-x="921" 
d="M215 -377q83 0 132.5 73.5t49.5 215.5q0 51 -3.5 104.5t-12 124.5t-13.5 107.5t-19.5 131t-18.5 118.5q-45 308 -45 506q0 148 43 245q48 115 142 185.5t232 70.5q107 0 178.5 -56.5t71.5 -148.5q0 -71 -35.5 -115t-103.5 -44q-79 0 -107 50t-8 118l66 6q12 36 12 57
q0 42 -27 62t-67 20q-91 -2 -138.5 -63t-47.5 -203q0 -95 33.5 -319.5t39.5 -278.5q2 -15 10.5 -86t12 -106.5t9.5 -96.5t8.5 -112t2.5 -97q0 -142 -32 -237q-43 -126 -140.5 -206.5t-238.5 -80.5q-108 0 -178 56.5t-70 148.5q0 71 37 116t106 45q54 0 86.5 -31t32.5 -81
q0 -31 -8 -55l-66 -9q-31 -51 -8.5 -93t82.5 -42z" />
    <glyph glyph-name="approxequal" unicode="&#x2248;" 
d="M770 240q-78 0 -248 54t-237 54q-54 0 -96 -26t-91 -86l-51 32q58 74 117.5 114t132.5 40q76 0 244 -55.5t237 -55.5q54 0 98 24.5t89 86.5l53 -33q-102 -149 -248 -149zM831 588q-78 0 -248 54t-237 54q-54 0 -95.5 -26t-90.5 -86l-51 32q58 75 117 114.5t132 39.5
q76 0 244.5 -55.5t237.5 -55.5q54 0 97.5 24.5t88.5 86.5l53 -33q-102 -149 -248 -149z" />
    <glyph glyph-name="notequal" unicode="&#x2260;" 
d="M993 383h-567l-268 -262l-52 51l211 211h-254l15 74h317l250 245h-524l12 74h586l215 211l57 -51l-162 -160h234l-12 -74h-297l-252 -245h506z" />
    <glyph glyph-name="lessequal" unicode="&#x2264;" 
d="M940 0h-930l13 74h929zM969 176l-856 395l10 58l993 389l-14 -84l-873 -338l754 -344z" />
    <glyph glyph-name="greaterequal" unicode="&#x2265;" 
d="M973 0h-930l12 74h930zM1071 571l-995 -395l14 86l873 344l-754 338l14 74l858 -389z" />
    <glyph glyph-name="triangle" unicode="&#x25b3;" horiz-adv-x="870" 
d="M307 416v473l379 -234z" />
    <glyph glyph-name="lozenge" unicode="&#x25ca;" 
d="M977 635l-531 -660l-299 660l531 659zM899 639l-235 532l-439 -538l240 -541z" />
    </font>
</defs>
</svg>
